<?xml version="1.0" standalone="no"?>
<!DOCTYPE svg PUBLIC "-//W3C//DTD SVG 1.1//EN" "http://www.w3.org/Graphics/SVG/1.1/DTD/svg11.dtd" >
<svg xmlns="http://www.w3.org/2000/svg" xmlns:xlink="http://www.w3.org/1999/xlink" version="1.1">
<metadata>
Created by FontForge 20201107 at Wed Nov  7 06:08:55 2018
 By 
Copyright 2017 The Barlow Project Authors (https://github.com/jpt/barlow)
</metadata>
<defs>
<font id="BarlowCondensed-ThinItalic" horiz-adv-x="398" >
  <font-face 
    font-family="Barlow Condensed Thin"
    font-weight="250"
    font-style="italic"
    font-stretch="condensed"
    units-per-em="1000"
    panose-1="0 0 3 6 0 0 0 0 0 0"
    ascent="800"
    descent="-200"
    x-height="501"
    cap-height="700"
    bbox="-511 -214 958 1075"
    underline-thickness="50"
    underline-position="-100"
    slope="-7"
    unicode-range="U+000D-FB02"
  />
<missing-glyph horiz-adv-x="295" 
d="M-18 1q1 -1 2 -1h288q4 0 4 4l85 692q0 2 -1 3t-2 1h-288q-4 0 -4 -4l-85 -692q0 -2 1 -3zM140.5 226q-2.5 3 -1.5 7l6 49q3 29 16 47.5t37 40.5q27 27 41.5 49.5t19.5 59.5q1 7 1 19q0 35 -15.5 56t-41.5 21q-32 0 -55 -26t-28 -69l-3 -25q-2 -10 -11 -10h-1
q-10 0 -8 10l3 25q6 52 35 84t70 32q35 0 55.5 -25.5t20.5 -68.5q0 -8 -2 -24q-5 -44 -21.5 -70t-45.5 -55q-21 -20 -31 -34.5t-13 -36.5l-7 -49q0 -4 -3 -7t-7 -3h-3q-5 0 -7.5 3zM115 99.5q-7 7.5 -7 19.5q0 14 10 24t23 10q12 0 19 -7.5t7 -18.5q0 -15 -9.5 -25
t-23.5 -10q-12 0 -19 7.5z" />
    <glyph glyph-name="fi" unicode="fi" horiz-adv-x="452" 
d="M195 650q-20 -32 -29 -102l-5 -43q0 -4 3 -4h86q10 0 8 -10l-1 -6q0 -4 -3 -7t-7 -3h-86q-4 0 -4 -4l-57 -461q-2 -10 -11 -10h-9q-5 0 -7.5 3t-1.5 7l57 461q0 4 -4 4h-43q-5 0 -7.5 3t-1.5 7l1 6q2 10 11 10h43q2 0 3.5 1t1.5 3l5 44q10 81 39 120.5t88 39.5h14
q9 0 9 -10l-1 -7q-2 -10 -11 -10h-14q-46 0 -66 -32zM383.5 623.5q-10.5 10.5 -10.5 26.5q0 20 13.5 34t33.5 14q16 0 26 -10t10 -26q0 -21 -13.5 -35t-32.5 -14q-16 0 -26.5 10.5zM321 10l59 481q2 10 11 10h10q10 0 8 -10l-59 -481q0 -4 -3 -7t-8 -3h-9q-9 0 -9 10z" />
    <glyph glyph-name="fl" unicode="fl" horiz-adv-x="417" 
d="M195 650q-20 -32 -29 -102l-5 -43q0 -4 3 -4h86q10 0 8 -10l-1 -6q0 -4 -3 -7t-7 -3h-86q-4 0 -4 -4l-57 -461q-2 -10 -11 -10h-9q-5 0 -7.5 3t-1.5 7l57 461q0 4 -4 4h-43q-5 0 -7.5 3t-1.5 7l1 6q2 10 11 10h43q2 0 3.5 1t1.5 3l5 44q10 81 39 120.5t88 39.5h14
q9 0 9 -10l-1 -7q-2 -10 -11 -10h-14q-46 0 -66 -32zM304 10l83 680q2 10 11 10h10q10 0 8 -10l-83 -680q-2 -10 -11 -10h-10q-10 0 -8 10z" />
    <glyph glyph-name="I_J.liga" unicode="IJ" horiz-adv-x="597" 
d="M68.5 3q-2.5 3 -1.5 7l84 680q0 4 3 7t8 3h9q5 0 7.5 -3t1.5 -7l-84 -680q0 -4 -3 -7t-8 -3h-9q-5 0 -7.5 3zM257 28q-34 36 -34 96q0 8 2 26l12 92q0 4 3 7t7 3h10q9 0 9 -10l-12 -93q-1 -7 -1 -21q0 -49 27 -78.5t73 -29.5q51 0 86.5 35.5t42.5 93.5l67 541q0 4 3 7
t7 3h10q9 0 9 -10l-67 -540q-8 -71 -52.5 -114.5t-109.5 -43.5q-58 0 -92 36z" />
    <glyph glyph-name="f_f_i.liga" unicode="ffi" horiz-adv-x="700" 
d="M161 505q0 -4 3 -4h91q4 0 6.5 -3t1.5 -7l-1 -6q0 -4 -3 -7t-8 -3h-90q-4 0 -4 -4l-57 -461q-2 -10 -11 -10h-9q-5 0 -7.5 3t-1.5 7l57 461q0 4 -4 4h-43q-5 0 -7.5 3t-1.5 7l1 6q2 10 11 10h43q2 0 3.5 1t1.5 3l5 45q10 81 39 120.5t88 39.5h14q9 0 9 -10l-1 -6
q-2 -10 -11 -10h-14q-46 -1 -66 -33t-29 -102zM430 670.5q28 39.5 88 39.5h14q5 0 7.5 -3t1.5 -7l-1 -6q-2 -10 -11 -10h-13q-46 -1 -66.5 -33.5t-29.5 -101.5l-5 -44q0 -2 1 -3t2 -1h86q10 0 8 -10v-6q-1 -4 -4 -7t-7 -3h-86q-4 0 -4 -4l-57 -461q0 -4 -3 -7t-8 -3h-9
q-5 0 -7.5 3t-1.5 7l57 461q0 4 -4 4h-48q-9 0 -9 10l1 6q2 10 11 10h49q4 0 4 4l6 45q10 81 38 120.5zM694.5 688q9.5 -10 9.5 -26q0 -21 -13 -35t-33 -14q-16 0 -26 10t-10 27q0 20 13.5 34t33.5 14q16 0 25.5 -10zM570 10l59 481q0 4 3 7t8 3h9q5 0 7.5 -3t1.5 -7
l-59 -481q-2 -10 -11 -10h-10q-10 0 -8 10z" />
    <glyph glyph-name="f_f_l.liga" unicode="ffl" horiz-adv-x="671" 
d="M161 505q0 -4 3 -4h91q4 0 6.5 -3t1.5 -7l-1 -6q0 -4 -3 -7t-8 -3h-90q-4 0 -4 -4l-57 -461q-2 -10 -11 -10h-9q-5 0 -7.5 3t-1.5 7l57 461q0 4 -4 4h-43q-5 0 -7.5 3t-1.5 7l1 6q2 10 11 10h43q2 0 3.5 1t1.5 3l5 45q10 81 39 120.5t88 39.5h14q9 0 9 -10l-1 -6
q-2 -10 -11 -10h-14q-46 -1 -66 -33t-29 -102zM430.5 670.5q28.5 39.5 87.5 39.5h14q5 0 7.5 -3t1.5 -7l-1 -6q-2 -10 -11 -10h-13q-46 -1 -66 -33.5t-29 -101.5l-5 -44q0 -2 1 -3t2 -1h85q10 0 8 -10v-6q-1 -4 -4 -7t-7 -3h-85q-4 0 -4 -4l-57 -461q0 -4 -3 -7t-8 -3h-9
q-5 0 -7.5 3t-1.5 7l57 461q0 4 -4 4h-48q-9 0 -9 10l1 6q2 10 11 10h49q4 0 4 4l5 45q10 81 38.5 120.5zM645 697q3 3 7 3h10q9 0 9 -10l-84 -680q-2 -10 -11 -10h-10q-4 0 -6.5 3t-1.5 7l84 680q0 4 3 7z" />
    <glyph glyph-name="g_j.liga" unicode="gj" horiz-adv-x="569" 
d="M563.5 688q9.5 -10 9.5 -26q0 -21 -13 -35t-33 -14q-16 0 -26 10t-10 27q0 20 13.5 34t33.5 14q16 0 25.5 -10zM329.5 448.5q1.5 0.5 2.5 3.5l5 39q0 4 3 7t8 3h10q5 0 7.5 -3t1.5 -7l-60 -489q-25 -202 -194 -202q-7 0 -9 2.5t-1 7.5l1 7q0 4 3 7t8 3q73 0 112 45
t50 131l6 47q0 3 -1.5 3.5t-3.5 -1.5q-19 -28 -47.5 -43.5t-61.5 -15.5q-53 0 -83.5 32.5t-30.5 86.5q0 7 2 25l27 227q8 64 49 104.5t99 40.5q33 0 58 -15.5t37 -43.5q1 -2 2.5 -1.5zM498 491q0 4 3 7t8 3h9q5 0 7.5 -3t1.5 -7l-69 -560q-8 -64 -38.5 -101t-82.5 -40
q-10 0 -8 10v7q1 4 3.5 7t5.5 3q37 3 61 33t30 81zM254.5 53.5q32.5 32.5 38.5 84.5l28 226q1 7 1 21q0 43 -24 69.5t-64 26.5q-47 0 -80.5 -32.5t-39.5 -84.5l-28 -226q-1 -7 -1 -20q0 -44 25 -70.5t67 -26.5q45 0 77.5 32.5z" />
    <glyph glyph-name="i_j.liga" unicode="ij" horiz-adv-x="376" 
d="M127.5 623.5q-10.5 10.5 -10.5 26.5q0 20 13.5 34t33.5 14q16 0 26 -10t10 -26q0 -21 -13.5 -35t-32.5 -14q-16 0 -26.5 10.5zM308.5 623q-9.5 10 -9.5 27q0 20 13.5 34t32.5 14q16 0 26 -10t10 -26q0 -21 -13.5 -35t-33.5 -14q-16 0 -25.5 10zM65 10l59 481q2 10 11 10
h10q10 0 8 -10l-59 -481q0 -4 -3 -7t-8 -3h-9q-9 0 -9 10zM133 -201l1 8q2 10 11 10q37 4 60.5 33.5t29.5 80.5l69 560q0 4 3 7t8 3h9q5 0 7.5 -3t1.5 -7l-69 -560q-8 -64 -38.5 -101t-83.5 -41q-9 0 -9 10z" />
    <glyph glyph-name="hyphen_hyphen.liga" unicode="&#x2d;&#x2d;" horiz-adv-x="574" 
d="M55 307l1 8q0 4 3 7t8 3h483q4 0 6.5 -3t1.5 -7l-1 -8q-2 -10 -11 -10h-483q-10 0 -8 10z" />
    <glyph glyph-name=".notdef" horiz-adv-x="295" 
d="M-18 1q1 -1 2 -1h288q4 0 4 4l85 692q0 2 -1 3t-2 1h-288q-4 0 -4 -4l-85 -692q0 -2 1 -3zM140.5 226q-2.5 3 -1.5 7l6 49q3 29 16 47.5t37 40.5q27 27 41.5 49.5t19.5 59.5q1 7 1 19q0 35 -15.5 56t-41.5 21q-32 0 -55 -26t-28 -69l-3 -25q-2 -10 -11 -10h-1
q-10 0 -8 10l3 25q6 52 35 84t70 32q35 0 55.5 -25.5t20.5 -68.5q0 -8 -2 -24q-5 -44 -21.5 -70t-45.5 -55q-21 -20 -31 -34.5t-13 -36.5l-7 -49q0 -4 -3 -7t-7 -3h-3q-5 0 -7.5 3zM115 99.5q-7 7.5 -7 19.5q0 14 10 24t23 10q12 0 19 -7.5t7 -18.5q0 -15 -9.5 -25
t-23.5 -10q-12 0 -19 7.5z" />
    <glyph glyph-name=".null" horiz-adv-x="0" 
 />
    <glyph glyph-name="nonmarkingreturn" unicode="&#xd;" horiz-adv-x="194" 
 />
    <glyph glyph-name="NULL" horiz-adv-x="0" 
 />
    <glyph glyph-name="NULL" horiz-adv-x="0" 
 />
    <glyph glyph-name="space" unicode=" " horiz-adv-x="194" 
 />
    <glyph glyph-name="exclam" unicode="!" horiz-adv-x="228" 
d="M111 231l55 459q2 10 11 10h10q10 0 8 -10l-58 -459q-1 -10 -11 -10h-7q-9 0 -8 10zM69 15q-10 10 -10 26q0 21 13.5 35t33.5 14q16 0 26 -10.5t10 -26.5q0 -20 -13.5 -34t-32.5 -14q-17 0 -27 10z" />
    <glyph glyph-name="quotedbl" unicode="&#x22;" horiz-adv-x="165" 
d="M73 508l18 174q0 4 3 7t7 3h12q9 0 9 -10l-25 -174q-1 -10 -11 -10h-4q-10 0 -9 10zM151 508l18 174q2 10 11 10h13q4 0 6.5 -3t1.5 -7l-25 -174q-1 -10 -11 -10h-6q-9 0 -8 10z" />
    <glyph glyph-name="numbersign" unicode="#" horiz-adv-x="556" 
d="M515 444h-60q-5 0 -5 -4l-51 -194q0 -4 2 -4h59q5 0 7.5 -3t1.5 -7l-1 -8q-2 -10 -11 -10h-63q-5 0 -5 -4l-52 -191q-2 -8 -12 -8h-8q-4 0 -6.5 3t-1.5 8l49 188q1 1 0 2.5t-2 1.5h-176q-5 0 -6 -4l-50 -190q-3 -9 -12 -9h-9q-4 0 -6.5 3t-0.5 8l49 188q0 4 -2 4h-60
q-5 0 -7.5 3t-1.5 7l1 8q2 10 11 10h64q5 0 5 4l51 194q1 1 0 2.5t-2 1.5h-63q-9 0 -9 10l1 8q2 10 11 10h67q5 0 6 4l51 192q2 8 12 8h9q4 0 6 -3.5t1 -7.5l-49 -189q-1 -1 0 -2.5t2 -1.5h176q5 0 5 4l52 192q1 8 11 8h10q4 0 6.5 -3t0.5 -8l-50 -189q0 -4 2 -4h57
q10 0 8 -10l-1 -8q-2 -10 -11 -10zM369 246l51 194q0 4 -3 4h-175q-5 0 -6 -4l-51 -194q0 -4 3 -4h175q5 0 6 4z" />
    <glyph glyph-name="dollar" unicode="$" horiz-adv-x="388" 
d="M293.5 50.5q-38.5 -46.5 -93.5 -55.5q-4 -1 -4 -5l-10 -77q-2 -10 -11 -10h-6q-4 0 -6.5 3t-1.5 7l9 75q0 4 -3 4q-56 2 -88.5 40.5t-32.5 102.5q0 10 2 30l3 19q0 4 3 7t8 3h8q5 0 7.5 -3t1.5 -7l-2 -18q-2 -20 -2 -28q0 -55 27 -87t73 -32q51 0 89.5 39t46.5 102
q1 8 1 22q0 34 -13 60t-32.5 45.5t-61.5 55.5q-40 35 -62 58t-36 52t-14 66q0 58 21 100.5t57 65t79 23.5q4 0 4 4l10 79q2 10 11 10h6q10 0 8 -10l-10 -81q0 -3 3 -5q47 -9 73.5 -46t26.5 -94q0 -9 -2 -31l-3 -25q-2 -10 -11 -10h-10q-10 0 -8 10l3 24q2 20 2 28
q0 55 -27.5 87.5t-74.5 32.5q-49 0 -84.5 -35t-43.5 -99q-1 -8 -1 -23q0 -43 22.5 -74t79.5 -79q47 -40 70 -64t36 -50.5t13 -61.5q0 -8 -2 -28q-9 -70 -47.5 -116.5z" />
    <glyph glyph-name="percent" unicode="%" horiz-adv-x="767" 
d="M167.5 476.5q-31.5 33.5 -31.5 83.5q0 40 20 74.5t53 55t71 20.5q48 0 79 -33.5t31 -82.5q0 -40 -20 -74.5t-53 -55.5t-70 -21q-48 0 -79.5 33.5zM172.5 3.5q-2.5 3.5 1.5 8.5l440 681q3 7 12 7h6q6 0 8 -3.5t-2 -8.5l-439 -681q-4 -7 -13 -7h-6q-5 0 -7.5 3.5zM307 485
q27 17 43 45.5t16 60.5q0 40 -25 67t-64 27q-30 0 -57 -17t-43.5 -45t-16.5 -60q0 -41 25.5 -68t64.5 -27q30 0 57 17zM455.5 23q-31.5 33 -31.5 82q0 41 20 76t53 55.5t71 20.5q48 0 79 -33.5t31 -82.5q0 -40 -20 -74.5t-53 -55.5t-70 -21q-48 0 -79.5 33zM595 32
q27 17 43 45.5t16 60.5q0 40 -25 67t-64 27q-31 0 -58 -17t-43 -45t-16 -61q0 -41 25.5 -67.5t64.5 -26.5q30 0 57 17z" />
    <glyph glyph-name="ampersand" unicode="&#x26;" horiz-adv-x="492" 
d="M420 7q0 -7 -10 -7h-9q-7 0 -11 7l-43 84q-1 2 -3 1.5t-3 -1.5q-44 -54 -82.5 -76.5t-84.5 -22.5q-61 0 -96 33.5t-35 94.5q0 8 2 28q9 70 47 120t104 107q4 2 2 5q-35 67 -47 100.5t-12 60.5q0 50 18 88t49 58.5t69 20.5q47 0 75 -30.5t28 -81.5q0 -48 -19 -87
t-46.5 -67.5t-74.5 -70.5q-4 -2 -2 -6l57 -112l54 -105q1 -1 3 -1t3 1q10 13 32 45l28 40q4 9 14 3l6 -5q6 -6 1 -13q-47 -69 -69 -97q-1 -2 -1 -6l54 -103zM197.5 642.5q-29.5 -37.5 -29.5 -98.5q0 -24 10.5 -54t40.5 -91q1 -4 6 -1q42 37 66.5 63.5t41 59t16.5 71.5
q0 41 -20.5 64.5t-55.5 23.5q-46 0 -75.5 -37.5zM252.5 41.5q33.5 21.5 77.5 75.5q2 3 0 6l-17 33q-13 28 -24 47q-12 22 -21.5 40.5t-17.5 33.5q-19 39 -36 69q0 4 -5 1q-59 -52 -93 -97t-41 -104q-2 -16 -2 -24q0 -48 27 -75t76 -27q43 0 76.5 21.5z" />
    <glyph glyph-name="quotesingle" unicode="'" horiz-adv-x="86" 
d="M74 515l17 172q2 10 11 10h13q10 0 8 -10l-25 -172q-1 -10 -11 -10h-5q-9 0 -8 10z" />
    <glyph glyph-name="parenleft" unicode="(" horiz-adv-x="164" 
d="M35 -105q-14 47 -22 114t-8 142q0 89 10 170q16 125 51.5 244t78.5 194q3 7 11 7h8q5 0 7 -3.5t-1 -7.5q-39 -77 -72.5 -195t-48.5 -237q-10 -86 -10 -178q0 -151 26 -246l1 -3q0 -8 -10 -8h-11q-7 0 -10 7z" />
    <glyph glyph-name="parenright" unicode=")" horiz-adv-x="164" 
d="M170 759q14 -47 22 -114t8 -142q0 -89 -10 -170q-15 -123 -50.5 -242.5t-78.5 -195.5q-4 -7 -12 -7h-7q-5 0 -7.5 3.5t0.5 7.5q40 76 73 194t48 238q11 94 11 177q0 149 -27 247v3q0 3 2.5 5.5t6.5 2.5h11q7 0 10 -7z" />
    <glyph glyph-name="asterisk" unicode="*" horiz-adv-x="349" 
d="M193.5 396q-2.5 3 -1.5 7l17 139q1 2 -0.5 3t-3.5 0l-120 -71l-5 -2q-4 0 -8 6l-1 4q-1 2 -1 5q0 5 5 9l121 71q2 1 2 3t-2 3l-102 71q-7 5 -2 14l3 4q2 4 6 5.5t8 -1.5l102 -71q2 -1 3.5 0t1.5 3l17 139q2 10 11 10h6q10 0 8 -10l-17 -139q0 -2 1.5 -3t3.5 0l119 71l5 2
q6 0 8 -6l2 -4q1 -2 1 -5q0 -4 -6 -9l-120 -71q-2 -1 -2 -3t1 -3l103 -71q6 -5 1 -14l-2 -4q-7 -9 -15 -4l-101 71q-2 1 -3.5 0t-2.5 -3l-17 -139q0 -4 -3 -7t-8 -3h-5q-5 0 -7.5 3z" />
    <glyph glyph-name="plus" unicode="+" horiz-adv-x="430" 
d="M415 326v-6q-2 -10 -11 -10h-154q-1 0 -2.5 -1t-1.5 -3l-19 -158q-2 -10 -11 -10h-6q-10 0 -8 10l19 158q0 2 -1 3t-2 1h-154q-10 0 -8 10l1 6q0 4 3 7t7 3h154q4 0 4 4l19 158q1 4 4 7t7 3h6q9 0 9 -10l-20 -158q0 -4 4 -4h153q10 0 8 -10z" />
    <glyph glyph-name="comma" unicode="," horiz-adv-x="153" 
d="M15 -57l61 201q3 9 12 9h7q5 0 7.5 -3t0.5 -8l-64 -201q-1 -9 -11 -9h-5q-10 0 -8 11z" />
    <glyph glyph-name="hyphen" unicode="-" horiz-adv-x="294" 
d="M55 316l1 8q2 10 11 10h203q10 0 8 -10l-1 -8q0 -4 -3 -7t-8 -3h-202q-9 0 -9 10z" />
    <glyph glyph-name="period" unicode="." horiz-adv-x="165" 
d="M37 15q-10 10 -10 27q0 20 13.5 34t33.5 14q18 0 28.5 -12t8.5 -30q-3 -19 -16 -31t-31 -12q-17 0 -27 10z" />
    <glyph glyph-name="slash" unicode="/" horiz-adv-x="278" 
d="M10.5 3.5q-1.5 3.5 0.5 7.5l236 680q1 4 4.5 6.5t7.5 2.5h9q5 0 7 -3t0 -8l-236 -680q-4 -9 -12 -9h-10q-5 0 -6.5 3.5z" />
    <glyph glyph-name="zero" unicode="0" horiz-adv-x="426" 
d="M96 28.5q-35 37.5 -35 100.5q0 8 2 28l47 386q10 75 56.5 120.5t113.5 45.5q61 0 96.5 -37.5t35.5 -101.5q0 -9 -2 -27l-47 -386q-10 -75 -57 -120.5t-114 -45.5q-61 0 -96 37.5zM287.5 56q37.5 37 45.5 98l48 392q1 8 1 23q0 51 -28 81.5t-77 30.5q-54 0 -92 -37
t-45 -98l-48 -392q-1 -8 -1 -23q0 -51 28 -81.5t76 -30.5q55 0 92.5 37z" />
    <glyph glyph-name="one" unicode="1" horiz-adv-x="232" 
d="M206 700h13q10 0 8 -10l-83 -680q-2 -10 -11 -10h-10q-10 0 -8 10l79 646q0 6 -4 3l-106 -50q-2 -1 -6 -1t-6 6l-3 7v2q0 7 7 12l117 62q5 3 13 3z" />
    <glyph glyph-name="two" unicode="2" horiz-adv-x="369" 
d="M70 28h240q10 0 8 -10l-1 -8q0 -4 -3 -7t-7 -3h-270q-9 0 -9 10l2 11q0 5 4 13l68 102q90 134 134 201q84 124 93 205q2 20 2 29q0 50 -24 79.5t-66 29.5q-46 0 -78.5 -38t-39.5 -100l-4 -34q-2 -10 -11 -10h-11q-10 0 -8 10l4 35q10 74 51.5 119.5t100.5 45.5
q54 0 85 -36.5t31 -98.5q0 -9 -2 -31q-13 -94 -96 -220l-194 -289q-2 -5 1 -5z" />
    <glyph glyph-name="three" unicode="3" horiz-adv-x="380" 
d="M328 274q0 -26 -5 -68q-7 -61 -24 -105q-44 -109 -140 -109q-50 0 -79 29.5t-34 85.5q-2 20 -2 33q0 25 3 53q2 10 11 10h10q4 0 6.5 -3t1.5 -7q-2 -16 -2 -44q0 -22 1 -32q9 -97 88 -97q73 0 108 86q16 45 23 101q4 31 4 64q0 31 -5 59q-17 74 -83 74q-8 0 -18 -2h-4
q-5 0 -8 4l-4 4q-2 4 -2 6t2 8l164 243q1 2 0.5 3.5t-2.5 1.5h-221q-4 0 -6.5 3t-1.5 7l1 8q2 10 11 10h251q9 0 9 -10l-2 -11q0 -5 -4 -13l-157 -234q-2 -5 2 -5q39 0 64 -21.5t36 -62.5q8 -32 8 -69z" />
    <glyph glyph-name="four" unicode="4" horiz-adv-x="364" 
d="M343.5 225q2.5 -3 1.5 -7l-1 -8q-2 -10 -11 -10h-28q-4 0 -4 -4l-23 -186q-2 -10 -11 -10h-10q-10 0 -8 10l22 186q1 1 0 2.5t-3 1.5h-227q-10 0 -8 10l1 10q0 4 1 7t2 5l211 460q1 4 5 6t8 2h11q10 0 7 -11l-210 -456q-1 -2 0 -3.5t3 -1.5h199q2 0 3.5 1t1.5 3l22 180
q2 10 11 10h10q4 0 6.5 -3t1.5 -7l-22 -180q0 -4 3 -4h28q5 0 7.5 -3z" />
    <glyph glyph-name="five" unicode="5" horiz-adv-x="380" 
d="M348 277q0 -26 -5 -66q-6 -52 -20 -95q-41 -124 -145 -124q-53 0 -82.5 32.5t-32.5 96.5l1 30q0 10 10 10h10q9 0 9 -10q0 -5 -0.5 -12t0.5 -16q7 -103 89 -103q76 0 111 96q15 40 21 95q4 29 4 61q0 25 -3 46q-15 83 -86 83q-84 0 -115 -87q-3 -9 -12 -9h-10q-9 0 -9 10
l46 375q2 10 11 10h232q9 0 9 -10l-1 -8q-1 -4 -4 -7t-7 -3h-209q-4 0 -4 -4l-37 -295q-1 -3 1 -3.5t3 2.5q40 57 113 57q45 0 72.5 -26t35.5 -76q4 -30 4 -50z" />
    <glyph glyph-name="six" unicode="6" horiz-adv-x="381" 
d="M348 277q0 -34 -4 -66q-6 -50 -17 -83q-19 -67 -56.5 -101.5t-91.5 -34.5q-56 0 -84.5 38.5t-28.5 114.5q0 26 5 66l40 330q9 76 52 121.5t105 45.5q48 0 78 -37t30 -99q0 -9 -2 -31l-1 -5q0 -4 -3 -7t-8 -3h-9q-5 0 -7.5 3t-1.5 7l1 7q2 18 2 27q0 50 -23 80t-59 30
q-48 0 -83 -38t-42 -99l-22 -179q0 -3 2 -3.5t3 2.5q20 33 49 50t63 17q96 0 111 -113q2 -12 2 -40zM315 211q4 28 4 57q0 25 -3 44q-10 90 -86 90q-77 0 -110 -95q-14 -37 -20 -96q-5 -40 -5 -66q0 -125 88 -125q85 0 116 112q10 32 16 79z" />
    <glyph glyph-name="seven" unicode="7" horiz-adv-x="331" 
d="M93 11l249 657q1 1 0 2.5t-3 1.5h-218q-4 0 -4 -4l-5 -42q-2 -10 -11 -10h-7q-10 0 -8 10l7 64q1 4 4 7t7 3h264q9 0 9 -10l-2 -12q0 -3 -1 -6l-2 -6l-249 -657q-1 -4 -4 -6.5t-7 -2.5h-12q-12 0 -7 11z" />
    <glyph glyph-name="eight" unicode="8" horiz-adv-x="400" 
d="M288 373q30 -18 45 -57q11 -35 11 -76q0 -23 -3 -49q-7 -53 -25 -97q-21 -49 -56.5 -75.5t-81.5 -26.5q-44 0 -72.5 26.5t-37.5 74.5q-4 20 -4 49q0 23 3 50q9 71 33 114q23 45 63 67q5 4 1 5q-30 16 -45 50q-12 29 -12 70q0 25 2 38q9 68 36 107q20 31 51.5 48t69.5 17
q78 0 105 -62q14 -28 14 -73q0 -12 -2 -38q-8 -65 -35 -104q-24 -35 -59 -53q-4 -1 -1 -5zM227 390q32 0 57 15t42 42q22 35 29 89q2 22 2 31q0 39 -13 64q-22 50 -81 50q-60 0 -95 -54q-33 -52 -33 -122q0 -36 11 -64q23 -51 81 -51zM312 191q3 24 3 44q0 38 -9 63
q-18 64 -82 64q-65 0 -100 -69q-21 -40 -29 -101q-3 -24 -3 -44q0 -22 5 -45q7 -40 28.5 -61.5t56.5 -21.5t63.5 22.5t45.5 64.5q15 41 21 84z" />
    <glyph glyph-name="nine" unicode="9" horiz-adv-x="373" 
d="M350 489l-40 -330q-10 -76 -53 -121.5t-106 -45.5q-48 0 -77 36.5t-29 97.5q0 9 2 33v5q2 10 11 10h10q10 0 8 -10v-7q-2 -20 -2 -29q0 -49 22.5 -78.5t58.5 -29.5q49 0 83 37.5t42 99.5l22 179q1 3 -1 3.5t-3 -2.5q-20 -33 -49.5 -50t-63.5 -17q-96 0 -111 113
q-2 12 -2 38q0 37 5 68q4 40 16 83q38 136 147 136q114 0 114 -154q0 -34 -4 -65zM299 393q14 33 22 96q4 29 4 61q0 130 -88 130q-83 0 -117 -112q-10 -38 -14 -79q-4 -29 -4 -61q0 -16 2 -40q11 -90 86 -90q76 0 109 95z" />
    <glyph glyph-name="colon" unicode=":" horiz-adv-x="168" 
d="M81 357q-10 10 -10 27q0 20 13.5 34t33.5 14q18 0 28.5 -12t8.5 -30q-3 -19 -16 -31t-31 -12q-17 0 -27 10zM39 16q-10 10 -10 27q0 20 13.5 34t33.5 14q18 0 28.5 -12t8.5 -30q-3 -19 -16 -31t-31 -12q-17 0 -27 10z" />
    <glyph glyph-name="semicolon" unicode=";" horiz-adv-x="165" 
d="M86.5 376.5q-8.5 10.5 -8.5 26.5q0 20 12.5 35t28.5 15q13 0 22 -10.5t9 -26.5q0 -20 -13 -35t-29 -15q-13 0 -21.5 10.5zM23 -58.5q-2 3.5 -1 7.5l46 190q1 9 10 9h10q4 0 6.5 -3t0.5 -8l-49 -190q-3 -9 -11 -9h-5q-5 0 -7 3.5z" />
    <glyph glyph-name="less" unicode="&#x3c;" horiz-adv-x="430" 
d="M380.5 69q-3.5 -2 -8.5 0l-318 180q-7 3 -5 12l1 15q2 9 9 12l362 180q2 1 5 1t5 -2t1 -6l-1 -11q-2 -9 -9 -12l-340 -167q-2 -1 -2.5 -3t1.5 -3l300 -166q7 -3 5 -12l-1 -11q-1 -5 -4.5 -7z" />
    <glyph glyph-name="equal" unicode="=" horiz-adv-x="430" 
d="M71 444v6q2 10 11 10h340q10 0 8 -10l-1 -6q0 -4 -3 -7t-7 -3h-340q-10 0 -8 10zM45 226v6q2 10 11 10h340q10 0 8 -10l-1 -6q0 -4 -3 -7t-7 -3h-340q-10 0 -8 10z" />
    <glyph glyph-name="greater" unicode="&#x3e;" horiz-adv-x="430" 
d="M32 68q-8 0 -6 8l1 11q2 10 8 12l341 166q2 1 2.5 3t-1.5 3l-300 167q-7 3 -5 12l1 11q1 5 4.5 7t8.5 0l318 -180q7 -3 5 -12l-2 -15q0 -9 -8 -12l-362 -180q-2 -1 -5 -1z" />
    <glyph glyph-name="question" unicode="?" horiz-adv-x="320" 
d="M136 197l9 74q5 39 22 64.5t51 58.5q37 37 57.5 68.5t27.5 83.5q2 20 2 29q0 49 -22 77.5t-59 28.5q-44 0 -75.5 -37t-38.5 -97l-5 -38q-2 -10 -11 -10h-9q-5 0 -7.5 3t-1.5 7l5 38q9 73 49.5 117.5t97.5 44.5q49 0 77.5 -35.5t28.5 -96.5q0 -11 -2 -33
q-8 -63 -31.5 -100t-63.5 -76q-30 -30 -44 -49.5t-17 -48.5l-9 -73q-2 -10 -11 -10h-12q-10 0 -8 10zM102 15q-10 10 -10 26q0 21 13.5 35t33.5 14q16 0 26 -10.5t10 -26.5q0 -20 -13.5 -34t-32.5 -14q-17 0 -27 10z" />
    <glyph glyph-name="at" unicode="@" horiz-adv-x="741" 
d="M640.5 532q64.5 -61 64.5 -167q0 -48 -13 -99q-22 -91 -71 -142.5t-113 -51.5q-32 0 -53 14t-29 39q-2 5 -5 0q-16 -26 -41 -40.5t-52 -14.5q-36 0 -56 20.5t-20 55.5q0 12 3 27l39 158q11 45 42.5 73.5t73.5 28.5q21 0 37.5 -9.5t23.5 -27.5q1 -2 2.5 -1.5t2.5 2.5l5 22
q3 9 11 9h7q5 0 7 -3.5t1 -7.5l-55 -220q-4 -15 -4 -31q0 -31 18 -50t50 -19q49 0 88.5 43.5t59.5 123.5q13 48 13 94q0 97 -59 153.5t-161 56.5q-79 0 -152.5 -40.5t-128 -113.5t-77.5 -167q-12 -51 -12 -95q0 -101 57.5 -160t154.5 -59q52 0 98.5 14t75.5 35q8 6 13 -2
l3 -3q2 -4 2 -6q0 -6 -5 -8q-33 -24 -84.5 -40t-109.5 -16q-107 0 -169.5 64.5t-62.5 173.5q0 49 13 101q25 102 84.5 181t140 122.5t167.5 43.5q111 0 175.5 -61zM386.5 116.5q23.5 21.5 34.5 57.5l5 17v4l15 60l5 18l15 63q1 6 1 16q0 26 -14 41.5t-38 15.5
q-31 0 -56 -22.5t-34 -57.5l-11 -42l-9 -36l-19 -77q-2 -8 -2 -22q0 -26 14.5 -41.5t40.5 -15.5q29 0 52.5 21.5z" />
    <glyph glyph-name="A" unicode="A" horiz-adv-x="356" 
d="M297 9l-12 139q0 4 -4 4h-207q-2 0 -3.5 -1t-1.5 -3l-47 -139q-1 -9 -11 -9h-10q-5 0 -7 3t0 8l231 680q3 9 12 9h14q9 0 9 -9l66 -680v-2q0 -4 -3 -6.5t-7 -2.5h-9q-10 0 -10 9zM81 180.5q1 -1.5 3 -1.5h193q2 0 3.5 1.5t0.5 2.5l-42 461q0 3 -1 3t-3 -3l-154 -461
q-1 -1 0 -2.5z" />
    <glyph glyph-name="B" unicode="B" horiz-adv-x="423" 
d="M319 359q35 -17 53 -52t18 -85q0 -11 -2 -35q-11 -88 -60 -137.5t-125 -49.5h-127q-5 0 -7.5 3t-1.5 7l84 680q0 4 3 7t8 3h125q68 0 105 -37.5t37 -106.5q0 -10 -2 -34q-7 -58 -35 -98.5t-73 -59.5q-5 -2 0 -5zM178.5 671q-1.5 -1 -1.5 -3l-35 -288q-1 -1 0 -2.5t3 -1.5
h102q62 0 102 38.5t49 106.5q2 20 2 29q0 58 -30.5 90t-86.5 32h-102q-1 0 -2.5 -1zM308.5 71q40.5 42 50.5 117q2 22 2 32q0 62 -30.5 95.5t-85.5 33.5h-103q-3 0 -5 -4l-38 -312q0 -4 4 -4h101q64 0 104.5 42z" />
    <glyph glyph-name="C" unicode="C" horiz-adv-x="422" 
d="M98 28q-35 36 -35 96q0 9 2 27l49 399q9 72 55 115t112 43q61 0 96.5 -35.5t35.5 -95.5q0 -9 -2 -27l-3 -20q0 -4 -3 -7t-7 -3l-11 -1q-9 0 -9 10l3 23q1 8 1 22q0 49 -28 77.5t-77 28.5q-53 0 -90 -35t-44 -93l-49 -403q-1 -7 -1 -21q0 -49 27.5 -78.5t75.5 -29.5
q54 0 91 35.5t45 93.5l2 22q2 9 11 9l11 -1q4 0 6.5 -3t1.5 -7l-2 -18q-9 -72 -55 -115.5t-114 -43.5q-60 0 -95 36z" />
    <glyph glyph-name="D" unicode="D" horiz-adv-x="445" 
d="M68.5 3q-2.5 3 -1.5 7l84 680q0 4 3 7t8 3h132q60 0 93 -38t33 -106q0 -24 -2 -37l-42 -338q-10 -84 -55 -132.5t-112 -48.5h-133q-5 0 -7.5 3zM102 28h111q53 0 89 41t44 112l42 337q2 22 2 33q0 57 -25.5 89t-72.5 32h-111q-1 0 -2.5 -1t-1.5 -3l-78 -636q0 -4 3 -4z
" />
    <glyph glyph-name="E" unicode="E" horiz-adv-x="411" 
d="M418 672h-237q-1 0 -2.5 -1t-1.5 -3l-37 -300q0 -4 4 -4h155q10 0 8 -10l-1 -7q0 -4 -3 -7t-7 -3h-156q-4 0 -4 -4l-37 -301q0 -4 3 -4h237q9 0 9 -10l-1 -8q-1 -4 -4 -7t-7 -3h-260q-5 0 -7.5 3t-1.5 7l84 680q0 4 3 7t8 3h260q4 0 6.5 -3t1.5 -7l-1 -8q-2 -10 -11 -10z
" />
    <glyph glyph-name="F" unicode="F" horiz-adv-x="382" 
d="M416 672h-235q-1 0 -2.5 -1t-1.5 -3l-37 -300q0 -4 4 -4h154q10 0 8 -10l-1 -7q0 -4 -3 -7t-7 -3h-155q-4 0 -4 -4l-40 -323q0 -4 -3 -7t-8 -3h-9q-5 0 -7.5 3t-1.5 7l84 680q0 4 3 7t8 3h258q4 0 6.5 -3t1.5 -7l-1 -8q-2 -10 -11 -10z" />
    <glyph glyph-name="G" unicode="G" horiz-adv-x="428" 
d="M98 27.5q-35 35.5 -35 94.5q0 16 1 24l51 408q8 70 54 112t112 42q60 0 95.5 -35t35.5 -94q0 -8 -2 -26l-5 -45q-2 -10 -11 -10h-10q-10 0 -8 10l5 47q1 7 1 21q0 48 -28 76t-77 28q-53 0 -89.5 -34.5t-43.5 -90.5l-51 -410q-1 -7 -1 -20q0 -48 28 -76.5t76 -28.5
q54 0 91 34.5t44 90.5l20 159q0 4 -4 4h-100q-4 0 -6.5 3t-1.5 7l1 7q0 4 3 7t8 3h123q10 0 8 -10l-22 -179q-8 -70 -54 -112t-113 -42q-60 0 -95 35.5z" />
    <glyph glyph-name="H" unicode="H" horiz-adv-x="453" 
d="M415 700h9q5 0 7.5 -3t1.5 -7l-84 -680q0 -4 -3 -7t-7 -3h-10q-9 0 -9 10l40 323q0 4 -3 4h-217q-4 0 -4 -4l-40 -323q0 -4 -3 -7t-8 -3h-9q-5 0 -7.5 3t-1.5 7l84 680q0 4 3 7t8 3h9q5 0 7.5 -3t1.5 -7l-40 -322q0 -4 4 -4h216q4 0 4 4l40 322q2 10 11 10z" />
    <glyph glyph-name="I" unicode="I" horiz-adv-x="200" 
d="M68.5 3q-2.5 3 -1.5 7l84 680q0 4 3 7t8 3h9q5 0 7.5 -3t1.5 -7l-84 -680q0 -4 -3 -7t-8 -3h-9q-5 0 -7.5 3z" />
    <glyph glyph-name="J" unicode="J" 
d="M57 28q-34 36 -34 96q0 8 2 26l12 92q0 4 3 7t7 3h10q9 0 9 -10l-12 -93q-1 -7 -1 -21q0 -49 27 -78.5t73 -29.5q51 0 86.5 35.5t42.5 93.5l67 541q0 4 3 7t7 3h10q9 0 9 -10l-67 -540q-8 -71 -52.5 -114.5t-109.5 -43.5q-58 0 -92 36z" />
    <glyph glyph-name="K" unicode="K" horiz-adv-x="417" 
d="M68.5 3q-2.5 3 -1.5 7l84 680q0 4 3 7t8 3h9q5 0 7.5 -3t1.5 -7l-45 -365q-1 -3 1 -3.5t4 2.5l268 369q7 7 13 7h13q6 0 7.5 -3.5t-2.5 -8.5l-187 -260q-3 -3 -1 -6l123 -410l1 -3q0 -9 -10 -9h-14q-7 0 -10 8l-114 384q-1 4 -5 0l-93 -120q-1 -1 -1 -5l-32 -257
q0 -4 -3 -7t-8 -3h-9q-5 0 -7.5 3z" />
    <glyph glyph-name="L" unicode="L" horiz-adv-x="367" 
d="M68.5 3q-2.5 3 -1.5 7l84 680q0 4 3 7t8 3h9q5 0 7.5 -3t1.5 -7l-81 -658q0 -4 3 -4h232q9 0 9 -10l-1 -8q-2 -10 -11 -10h-255q-5 0 -7.5 3z" />
    <glyph glyph-name="M" unicode="M" horiz-adv-x="490" 
d="M451 700h10q5 0 7.5 -3t1.5 -7l-84 -680q0 -4 -3 -7t-8 -3h-9q-5 0 -7.5 3t-1.5 7l75 606q0 3 -2 3t-3 -2l-148 -280q-4 -8 -12 -8h-1q-8 0 -9 8l-81 279q-1 2 -3 2t-2 -3l-75 -605q0 -4 -3 -7t-8 -3h-9q-5 0 -7.5 3t-1.5 7l84 680q0 4 3 7t8 3h10q9 0 10 -8l88 -306
q1 -2 3 -2t3 2l163 306q4 8 12 8z" />
    <glyph glyph-name="N" unicode="N" horiz-adv-x="467" 
d="M422 697q3 3 7 3h10q9 0 9 -10l-84 -680q-2 -10 -11 -10h-13q-9 0 -10 8l-154 610q-1 3 -3 2.5t-2 -3.5l-75 -607q0 -4 -3 -7t-8 -3h-9q-5 0 -7.5 3t-1.5 7l84 680q0 4 3 7t8 3h12q9 0 10 -8l155 -612q0 -3 2 -2.5t3 3.5l74 609q1 4 4 7z" />
    <glyph glyph-name="O" unicode="O" horiz-adv-x="433" 
d="M99.5 29q-35.5 37 -35.5 99q0 17 1 25l49 393q8 72 55.5 117t113.5 45q61 0 97 -37t36 -99q0 -8 -2 -26l-48 -393q-9 -72 -56.5 -116.5t-114.5 -44.5q-60 0 -95.5 37zM290.5 56.5q38.5 36.5 46.5 94.5l48 397q1 7 1 22q0 50 -29 80t-78 30q-53 0 -91 -37t-45 -95
l-49 -397q-1 -7 -1 -20q0 -50 28.5 -80.5t76.5 -30.5q54 0 92.5 36.5z" />
    <glyph glyph-name="P" unicode="P" horiz-adv-x="416" 
d="M390 661.5q33 -40.5 33 -108.5q0 -11 -2 -35q-11 -82 -56 -132t-109 -50h-116q-4 0 -4 -4l-40 -322q0 -4 -3 -7t-8 -3h-9q-5 0 -7.5 3t-1.5 7l84 682q2 10 11 10h138q57 0 90 -40.5zM346 405.5q37 42.5 45 112.5q2 22 2 33q0 57 -26 90t-72 33h-113q-3 0 -5 -4l-37 -303
q0 -4 4 -4h113q52 0 89 42.5z" />
    <glyph glyph-name="Q" unicode="Q" horiz-adv-x="420" 
d="M370 671q34 -37 34 -99q0 -8 -2 -26l-48 -392q-8 -66 -48 -110t-97 -51q-3 0 -5 -4l-12 -104q-1 -4 -4 -7t-7 -3h-11q-9 0 -9 10l13 104q0 4 -3 4q-50 6 -78.5 42.5t-28.5 93.5q0 16 1 25l49 392q8 72 54 117t110 45q58 0 92 -37zM373 548q1 7 1 21q0 51 -26.5 81
t-72.5 30q-51 0 -88 -36.5t-44 -95.5l-49 -396q-1 -7 -1 -21q0 -50 27.5 -80.5t73.5 -30.5q50 0 86.5 37t43.5 95z" />
    <glyph glyph-name="R" unicode="R" horiz-adv-x="414" 
d="M331 8l-75 327q-1 3 -4 3h-112q-1 0 -2.5 -1t-1.5 -3l-40 -324q0 -4 -3 -7t-8 -3h-9q-5 0 -7.5 3t-1.5 7l84 680q0 4 3 7t8 3h137q58 0 91 -40t33 -108q0 -10 -2 -34q-9 -70 -45 -117.5t-89 -59.5q-4 -2 -3 -5l75 -325v-2q0 -9 -9 -9h-9q-9 0 -10 8zM178.5 671
q-1.5 -1 -1.5 -3l-37 -299q0 -4 4 -4h113q52 0 89 42t45 111q2 22 2 32q0 56 -26.5 89t-71.5 33h-114q-1 0 -2.5 -1z" />
    <glyph glyph-name="S" unicode="S" horiz-adv-x="388" 
d="M80.5 30.5q-34.5 38.5 -34.5 103.5q0 9 2 31l3 19q0 4 3 7t8 3h8q5 0 7.5 -3t1.5 -7l-2 -18q-2 -20 -2 -28q0 -55 27 -87t73 -32q51 0 89.5 39t46.5 102q1 8 1 22q0 34 -13 60t-32.5 45.5t-61.5 55.5q-40 35 -62 58t-36 52t-14 66q0 58 22 101t59 65.5t81 22.5
q59 0 93 -38.5t34 -103.5q0 -10 -2 -32l-3 -25q-2 -10 -11 -10h-10q-10 0 -8 10l3 24q2 20 2 28q0 55 -27.5 87.5t-74.5 32.5q-49 0 -84.5 -35t-43.5 -99q-1 -8 -1 -23q0 -43 22.5 -74t79.5 -79q47 -40 70 -64t36 -50.5t13 -61.5q0 -8 -2 -28q-10 -79 -57 -127t-111 -48
q-58 0 -92.5 38.5z" />
    <glyph glyph-name="T" unicode="T" horiz-adv-x="384" 
d="M412 690l-1 -8q-2 -10 -11 -10h-130q-3 0 -5 -4l-80 -658q-1 -4 -4 -7t-7 -3h-10q-9 0 -9 10l81 658q0 4 -3 4h-122q-5 0 -7.5 3t-1.5 7l1 8q2 10 11 10h289q9 0 9 -10z" />
    <glyph glyph-name="U" unicode="U" horiz-adv-x="460" 
d="M114 32.5q-35 40.5 -35 109.5q0 23 2 35l63 513q2 10 11 10h10q4 0 6.5 -3t1.5 -7l-63 -517q-2 -22 -2 -31q0 -56 28 -89t76 -33q56 0 95 42t47 111l63 517q1 4 4 7t7 3h10q9 0 9 -10l-63 -513q-11 -83 -59 -134t-116 -51q-60 0 -95 40.5z" />
    <glyph glyph-name="V" unicode="V" 
d="M164 9l-57 680q0 11 10 11h11q9 0 9 -9l50 -625q0 -3 1 -3t2 3l203 625q3 9 12 9h10q10 0 7 -11l-224 -680q-3 -9 -12 -9h-12q-10 0 -10 9z" />
    <glyph glyph-name="W" unicode="W" horiz-adv-x="567" 
d="M140 9l-42 680q0 11 10 11h11q9 0 9 -9l35 -619q1 -2 2 -2t2 2l169 619q3 9 11 9h12q8 0 8 -9l20 -619q1 -2 2 -2t2 2l178 619q3 9 12 9h11q10 0 8 -11l-203 -680q-3 -9 -12 -9h-12q-8 0 -8 9l-19 616q0 2 -1 2t-2 -2l-171 -616q-3 -9 -11 -9h-12q-9 0 -9 9z" />
    <glyph glyph-name="X" unicode="X" horiz-adv-x="397" 
d="M26 3.5q-2 3.5 1 8.5l179 335q2 3 0 6l-96 335l-1 3q0 9 10 9h12q8 0 9 -8l84 -308q0 -2 2.5 -2t3.5 2l159 308q3 8 11 8h12q5 0 7 -3.5t-1 -8.5l-180 -336q-1 -2 -1 -6l98 -334l1 -3q0 -9 -10 -9h-12q-8 0 -9 8l-84 307q-1 2 -2.5 2t-3.5 -2l-159 -307q-3 -8 -11 -8h-12
q-5 0 -7 3.5z" />
    <glyph glyph-name="Y" unicode="Y" horiz-adv-x="383" 
d="M159 10l40 322v5l-90 351l-1 3q0 9 10 9h11q8 0 9 -8l77 -322q1 -3 3 -3t3 3l155 322q4 8 12 8h10q5 0 7 -3.5t0 -8.5l-175 -351q-2 -1 -2 -5l-40 -322q0 -4 -3 -7t-7 -3h-10q-9 0 -9 10z" />
    <glyph glyph-name="Z" unicode="Z" horiz-adv-x="373" 
d="M22 10l1 12l3 12l330 633q2 2 1 3.5t-3 1.5h-241q-5 0 -7.5 3t-1.5 7l1 8q2 10 11 10h269q10 0 8 -10l-1 -12q-2 -9 -4 -12l-330 -633q-1 -2 0 -3.5t3 -1.5h241q9 0 9 -10l-1 -8q-2 -10 -11 -10h-269q-10 0 -8 10z" />
    <glyph glyph-name="bracketleft" unicode="[" horiz-adv-x="269" 
d="M-6.5 -103q-2.5 3 -1.5 7l104 845q2 10 11 10h121q10 0 8 -10v-8q-1 -4 -4 -7t-7 -3h-98q-2 0 -3.5 -1t-1.5 -3l-98 -801q0 -4 3 -4h99q9 0 9 -10l-1 -8q-2 -10 -11 -10h-122q-5 0 -7.5 3z" />
    <glyph glyph-name="backslash" unicode="\" horiz-adv-x="278" 
d="M230 9q0 -9 -9 -9h-10q-4 0 -6.5 2.5t-2.5 6.5l-68 680q0 11 9 11h10q9 0 9 -9l68 -680v-2z" />
    <glyph glyph-name="bracketright" unicode="]" horiz-adv-x="269" 
d="M204 -106h-122q-10 0 -8 10l1 8q0 4 3 7t7 3h99q2 0 3.5 1t1.5 3l98 801q0 4 -3 4h-98q-9 0 -9 10l1 8q2 10 11 10h121q5 0 7.5 -3t1.5 -7l-104 -845q-2 -10 -11 -10z" />
    <glyph glyph-name="asciicircum" unicode="^" horiz-adv-x="370" 
d="M60 324l172 368q4 8 13 8h13q9 0 10 -8l82 -368v-2q0 -9 -9 -9h-8q-9 0 -10 8l-74 342q0 2 -2 2t-4 -2l-156 -342q-5 -8 -13 -8h-7q-12 0 -7 11z" />
    <glyph glyph-name="underscore" unicode="_" horiz-adv-x="340" 
d="M9.5 3q-2.5 3 -1.5 7l1 8q2 10 11 10h268q4 0 6.5 -3t1.5 -7l-1 -8q-2 -10 -11 -10h-268q-4 0 -6.5 3z" />
    <glyph glyph-name="grave" unicode="`" horiz-adv-x="153" 
d="M173 576q0 -7 -8 -7h-6q-6 0 -11 7l-50 112q-1 2 -1 5q0 7 9 7h9q7 0 11 -7l46 -112q1 -2 1 -5z" />
    <glyph glyph-name="a" unicode="a" horiz-adv-x="397" 
d="M340 498q3 3 8 3h9q5 0 7.5 -3t1.5 -7l-59 -481q-2 -10 -11 -10h-10q-10 0 -8 10l4 39q1 3 -0.5 3.5t-3.5 -1.5q-20 -28 -48 -43.5t-61 -15.5q-53 0 -83.5 33t-30.5 87q0 7 2 25l27 227q8 64 49 104.5t99 40.5q33 0 58 -16t37 -44q1 -3 2.5 -2.5t2.5 3.5l5 41q0 4 3 7z
M254.5 52.5q32.5 32.5 38.5 84.5l28 227q1 7 1 21q0 43 -24 69.5t-64 26.5q-47 0 -80.5 -32.5t-39.5 -84.5l-28 -227q-1 -7 -1 -20q0 -44 25 -70.5t67 -26.5q45 0 77.5 32.5z" />
    <glyph glyph-name="b" unicode="b" horiz-adv-x="397" 
d="M334 475.5q31 -33.5 31 -88.5q0 -15 -1 -23l-28 -227q-8 -64 -49 -104.5t-100 -40.5q-33 0 -57 15t-38 42q-1 2 -2.5 2t-2.5 -3l-4 -38q-2 -10 -11 -10h-10q-10 0 -8 10l83 680q2 10 11 10h10q10 0 8 -10l-29 -238q-1 -3 0.5 -3.5t3.5 2.5q21 28 49 43t61 15
q52 0 83 -33.5zM336 382q0 44 -25.5 71.5t-68.5 27.5q-44 0 -76.5 -32.5t-39.5 -84.5l-28 -227q-1 -6 -1 -18q0 -44 24.5 -71.5t64.5 -27.5q47 0 80.5 32.5t40.5 84.5l28 227q1 6 1 18z" />
    <glyph glyph-name="c" unicode="c" horiz-adv-x="372" 
d="M87 25.5q-32 33.5 -32 87.5q0 8 2 24l27 227q8 63 50.5 104t101.5 41q54 0 87 -33t33 -80l-1 -13l-1 -3q-2 -10 -11 -10h-9q-5 0 -7.5 3t-1.5 7v3q1 4 1 12q0 35 -26 60.5t-67 25.5q-47 0 -80 -32.5t-39 -84.5l-28 -227q-1 -7 -1 -20q0 -44 24.5 -70.5t66.5 -26.5
q45 0 78.5 29.5t38.5 68.5v3q2 10 11 10h10q10 0 8 -10v-3q-4 -33 -24.5 -62t-53.5 -46.5t-71 -17.5q-54 0 -86 33.5z" />
    <glyph glyph-name="d" unicode="d" horiz-adv-x="397" 
d="M372 700h10q10 0 8 -10l-83 -680q-2 -10 -11 -10h-10q-10 0 -8 10l4 37q1 3 -0.5 3t-3.5 -2q-20 -27 -48 -41.5t-60 -14.5q-53 0 -84 33t-31 87q0 7 2 25l27 227q8 64 49.5 104.5t99.5 40.5q33 0 57 -14.5t37 -41.5q2 -2 3.5 -2t1.5 3l29 236q2 10 11 10zM254.5 52.5
q32.5 32.5 38.5 84.5l28 227q1 7 1 21q0 43 -24 69.5t-64 26.5q-47 0 -80.5 -32.5t-39.5 -84.5l-28 -227q-1 -7 -1 -20q0 -44 25 -70.5t67 -26.5q45 0 77.5 32.5z" />
    <glyph glyph-name="e" unicode="e" horiz-adv-x="379" 
d="M328 244h-225q-3 0 -5 -4l-12 -103q-1 -7 -1 -20q0 -44 24.5 -70.5t66.5 -26.5q38 0 68 23t43 61q5 9 12 9h10q5 0 7 -3.5t0 -8.5q-15 -49 -53.5 -79t-89.5 -30q-54 0 -86 33.5t-32 87.5q0 8 2 24l27 227q8 63 50.5 104t101.5 41q54 0 85.5 -34t31.5 -89q0 -14 -1 -22
l-13 -110q-2 -10 -11 -10zM153 448.5q-33 -32.5 -39 -84.5l-11 -90q-1 -1 0 -2.5t3 -1.5h202q4 0 4 4l11 90q1 7 1 20q0 44 -24.5 70.5t-66.5 26.5q-47 0 -80 -32.5z" />
    <glyph glyph-name="f" unicode="f" horiz-adv-x="257" 
d="M195 650q-20 -32 -29 -102l-5 -43q0 -4 3 -4h86q10 0 8 -10l-1 -6q0 -4 -3 -7t-7 -3h-86q-4 0 -4 -4l-57 -461q-2 -10 -11 -10h-9q-5 0 -7.5 3t-1.5 7l57 461q0 4 -4 4h-43q-5 0 -7.5 3t-1.5 7l1 6q2 10 11 10h43q2 0 3.5 1t1.5 3l5 44q10 81 39 120.5t88 39.5h14
q9 0 9 -10l-1 -7q-2 -10 -11 -10h-14q-46 0 -66 -32z" />
    <glyph glyph-name="g" unicode="g" horiz-adv-x="385" 
d="M340 498q3 3 8 3h10q5 0 7.5 -3t1.5 -7l-60 -489q-25 -202 -194 -202q-7 0 -9 2.5t-1 7.5l1 7q0 4 3 7t8 3q73 0 112 45t50 131l6 47q0 3 -1.5 3.5t-3.5 -1.5q-19 -28 -47.5 -43.5t-61.5 -15.5q-53 0 -83.5 32.5t-30.5 86.5q0 7 2 25l27 227q8 64 49 104.5t99 40.5
q33 0 58 -15.5t37 -43.5q1 -2 2.5 -1.5t2.5 3.5l5 39q0 4 3 7zM254.5 53.5q32.5 32.5 38.5 84.5l28 226q1 7 1 21q0 43 -24 69.5t-64 26.5q-47 0 -80.5 -32.5t-39.5 -84.5l-28 -226q-1 -7 -1 -20q0 -44 25 -70.5t67 -26.5q45 0 77.5 32.5z" />
    <glyph glyph-name="h" unicode="h" 
d="M332 477.5q27 -30.5 27 -87.5q0 -9 -2 -33l-42 -347q-1 -4 -4 -7t-7 -3h-10q-9 0 -9 10l43 343q2 18 2 27q0 48 -22 74t-64 26q-48 0 -80.5 -36t-39.5 -99l-41 -335q-2 -10 -11 -10h-10q-10 0 -8 10l83 680q2 10 11 10h10q10 0 8 -10l-30 -247q-1 -3 1 -3t3 3
q20 32 49.5 48.5t64.5 16.5q51 0 78 -30.5z" />
    <glyph glyph-name="i" unicode="i" horiz-adv-x="195" 
d="M127.5 623.5q-10.5 10.5 -10.5 26.5q0 20 13.5 34t33.5 14q16 0 26 -10t10 -26q0 -21 -13.5 -35t-32.5 -14q-16 0 -26.5 10.5zM65 10l59 481q2 10 11 10h10q10 0 8 -10l-59 -481q0 -4 -3 -7t-8 -3h-9q-9 0 -9 10z" />
    <glyph glyph-name="j" unicode="j" horiz-adv-x="184" 
d="M116.5 623q-9.5 10 -9.5 27q0 20 13.5 34t32.5 14q16 0 26 -10t10 -26q0 -21 -13.5 -35t-33.5 -14q-16 0 -25.5 10zM-58 -201l1 8q2 10 11 10q37 4 60.5 33.5t29.5 80.5l69 560q0 4 3 7t8 3h9q5 0 7.5 -3t1.5 -7l-69 -560q-8 -64 -38.5 -101t-83.5 -41q-9 0 -9 10z" />
    <glyph glyph-name="k" unicode="k" horiz-adv-x="368" 
d="M54 10l83 680q2 10 11 10h10q10 0 8 -10l-54 -442q0 -2 1.5 -2.5t3.5 1.5l209 248q4 6 13 6h12q5 0 6.5 -4t-2.5 -8l-107 -126q-2 -3 -1 -5l69 -347v-2q0 -9 -9 -9h-11q-8 0 -11 8l-60 322q-1 6 -6 1l-111 -132l-3 -5l-22 -184q-2 -10 -11 -10h-10q-10 0 -8 10z" />
    <glyph glyph-name="l" unicode="l" horiz-adv-x="160" 
d="M48 10l83 680q2 10 11 10h10q10 0 8 -10l-83 -680q-2 -10 -11 -10h-10q-10 0 -8 10z" />
    <glyph glyph-name="m" unicode="m" horiz-adv-x="613" 
d="M545.5 474.5q26.5 -33.5 26.5 -91.5q0 -23 -2 -36l-41 -337q-2 -10 -11 -10h-9q-10 0 -8 10l41 334q2 20 2 29q0 50 -22 78.5t-60 28.5q-45 0 -76.5 -36.5t-38.5 -98.5l-41 -335q-2 -10 -11 -10h-10q-10 0 -8 10l41 334q2 20 2 29q0 50 -21.5 78.5t-58.5 28.5
q-45 0 -77 -36.5t-39 -98.5l-41 -335q-2 -10 -11 -10h-10q-10 0 -8 10l59 481q0 4 3 7t8 3h9q5 0 7.5 -3t1.5 -7l-6 -45q0 -3 2 -3.5t3 2.5q20 30 48.5 46.5t61.5 16.5q37 0 62 -22t33 -63q0 -6 5 1q19 41 51.5 62.5t71.5 21.5q45 0 71.5 -33.5z" />
    <glyph glyph-name="n" unicode="n" 
d="M332 477.5q27 -30.5 27 -87.5q0 -9 -2 -33l-42 -347q-1 -4 -4 -7t-7 -3h-10q-9 0 -9 10l43 343q2 18 2 27q0 48 -22 74t-64 26q-48 0 -80.5 -36t-39.5 -99l-41 -335q-2 -10 -11 -10h-10q-10 0 -8 10l59 481q0 4 3 7t8 3h9q5 0 7.5 -3t1.5 -7l-6 -48q-1 -3 1 -3t3 3
q20 32 49.5 48.5t64.5 16.5q51 0 78 -30.5z" />
    <glyph glyph-name="o" unicode="o" horiz-adv-x="386" 
d="M87 25.5q-32 33.5 -32 87.5q0 8 2 24l27 227q8 63 50.5 104t101.5 41q54 0 85.5 -34t31.5 -89q0 -14 -1 -22l-28 -227q-8 -64 -50 -104.5t-101 -40.5q-54 0 -86 33.5zM256 52.5q33 32.5 39 84.5l28 227q1 7 1 20q0 44 -24.5 70.5t-66.5 26.5q-47 0 -80 -32.5t-39 -84.5
l-28 -227q-1 -7 -1 -20q0 -44 24.5 -70.5t66.5 -26.5q47 0 80 32.5z" />
    <glyph glyph-name="p" unicode="p" horiz-adv-x="404" 
d="M340.5 475.5q30.5 -33.5 30.5 -88.5q0 -15 -1 -23l-28 -227q-8 -64 -49 -104.5t-99 -40.5q-33 0 -57.5 15t-37.5 42q-1 2 -2.5 2t-2.5 -3l-29 -237q-2 -10 -11 -10h-10q-4 0 -6.5 3t-1.5 7l83 680q1 4 4 7t7 3h10q9 0 9 -10l-5 -38q-1 -3 0.5 -3.5t3.5 2.5q20 27 48 42
t61 15q53 0 83.5 -33.5zM343 382q0 44 -25.5 71.5t-68.5 27.5q-45 0 -77.5 -32.5t-38.5 -84.5l-28 -227q-1 -7 -1 -19q0 -45 24 -71.5t65 -26.5q47 0 80.5 32.5t40.5 84.5l28 227q1 6 1 18z" />
    <glyph glyph-name="q" unicode="q" horiz-adv-x="404" 
d="M340 498q3 3 8 3h9q5 0 7.5 -3t1.5 -7l-84 -680q0 -4 -3 -7t-8 -3h-9q-9 0 -9 10l29 236q1 3 -0.5 3t-3.5 -2q-20 -27 -48 -41.5t-60 -14.5q-53 0 -84 33t-31 87q0 7 2 25l27 227q8 64 49.5 104.5t99.5 40.5q33 0 57 -14.5t37 -41.5q2 -2 3.5 -2t1.5 3l5 37q0 4 3 7z
M254.5 52.5q32.5 32.5 38.5 84.5l28 227q1 7 1 21q0 43 -24 69.5t-64 26.5q-47 0 -80.5 -32.5t-39.5 -84.5l-28 -227q-1 -7 -1 -20q0 -44 25 -70.5t67 -26.5q45 0 77.5 32.5z" />
    <glyph glyph-name="r" unicode="r" horiz-adv-x="265" 
d="M287 495q7 -5 2 -13l-5 -12q-5 -10 -14 -5q-14 7 -33 7q-43 -1 -75.5 -43.5t-40.5 -106.5l-38 -312q-2 -10 -11 -10h-10q-10 0 -8 10l59 481q0 4 3 7t8 3h9q5 0 7.5 -3t1.5 -7l-8 -65q-1 -3 1 -3t4 4q18 37 46 57.5t61 20.5q24 0 41 -10z" />
    <glyph glyph-name="s" unicode="s" horiz-adv-x="342" 
d="M75.5 25q-31.5 29 -31.5 76q0 11 1 16l1 5q2 10 11 10h9q4 0 6.5 -3t1.5 -7v-4q-1 -5 -1 -14q0 -36 24.5 -59t66.5 -23q48 0 79 33t31 85q0 27 -12.5 45t-30.5 29t-51 26t-53.5 28t-34.5 35t-14 55q0 12 1 19q7 58 46 93t96 35q52 0 81.5 -30t29.5 -78q0 -12 -1 -19
l-1 -3q0 -4 -3 -7t-8 -3h-7q-5 0 -7.5 3t-1.5 7v3q1 5 1 14q0 38 -23.5 62t-63.5 24q-43 0 -73 -28t-36 -73q-1 -5 -1 -14q0 -36 22 -56t66 -40q36 -16 57 -29.5t36 -36.5t15 -57q0 -65 -40.5 -106.5t-102.5 -41.5q-53 0 -84.5 29z" />
    <glyph glyph-name="t" unicode="t" horiz-adv-x="245" 
d="M249 478q-3 -3 -7 -3h-83q-4 0 -4 -4l-43 -345q-2 -22 -2 -30q0 -38 16 -53t49 -15h11q10 0 8 -10l-1 -8q0 -4 -3 -7t-8 -3h-14q-43 0 -65.5 19.5t-22.5 70.5q0 8 2 34l43 347q0 4 -4 4h-39q-5 0 -7.5 3t-1.5 7l1 6q2 10 11 10h40q4 0 4 4l14 112q0 4 3 7t8 3h10
q9 0 9 -10l-14 -112q0 -4 3 -4h83q10 0 8 -10v-6q-1 -4 -4 -7z" />
    <glyph glyph-name="u" unicode="u" 
d="M341 498q3 3 8 3h9q5 0 7.5 -3t1.5 -7l-59 -481q-2 -10 -11 -10h-10q-10 0 -8 10l5 40q0 3 -2 3.5t-3 -2.5q-39 -58 -109 -58q-51 0 -79.5 28t-28.5 84q0 21 2 33l43 353q2 10 11 10h9q5 0 7.5 -3t1.5 -7l-43 -346q-2 -20 -2 -29q0 -47 22 -71t64 -24q47 0 79.5 36
t40.5 99l41 335q0 4 3 7z" />
    <glyph glyph-name="v" unicode="v" horiz-adv-x="335" 
d="M136 2.5q-3 2.5 -3 6.5l-63 481v2q0 9 10 9h13q9 0 9 -9l51 -437q1 -3 2 -3t2 3l159 437q2 9 11 9h13q11 0 6 -11l-178 -481q-3 -9 -12 -9h-13q-4 0 -7 2.5z" />
    <glyph glyph-name="w" unicode="w" horiz-adv-x="504" 
d="M111 9l-42 481q0 11 10 11h10q9 0 9 -9l32 -441q1 -3 2 -3t2 3l142 441q2 9 12 9h10q10 0 10 -9l34 -441q0 -3 1.5 -3t2.5 3l142 441q3 9 12 9h10q4 0 6.5 -3t0.5 -8l-162 -481q-3 -9 -12 -9h-11q-10 0 -10 9l-35 429q-1 3 -2 3t-2 -3l-138 -429q-3 -9 -12 -9h-13
q-9 0 -9 9z" />
    <glyph glyph-name="x" unicode="x" horiz-adv-x="328" 
d="M6.5 3.5q-2.5 3.5 0.5 8.5l152 235q3 3 1 6l-94 236l-1 4q0 8 9 8h13q8 0 11 -7l79 -214q1 -2 3 -2t3 2l131 214q3 7 12 7h12q5 0 6.5 -3.5t-1.5 -8.5l-150 -236q-1 -2 -1 -6l93 -235l1 -3q0 -9 -10 -9h-11q-10 0 -11 7l-78 214q-1 2 -3 2t-3 -2l-132 -214q-4 -7 -13 -7
h-11q-5 0 -7.5 3.5z" />
    <glyph glyph-name="y" unicode="y" horiz-adv-x="325" 
d="M-2 -197q-2 3 -1 7l1 7q2 10 11 10h1q28 1 44.5 14t31.5 46t42 110q1 2 0.5 3.5t-0.5 2.5l-65 487v2q0 9 10 9h11q9 0 9 -9l54 -445q1 -3 2 -3t2 3l163 445q2 9 11 9h11q12 0 7 -11l-206 -549q-24 -63 -41.5 -92t-37 -39t-52.5 -10h-4q-2 0 -4 3z" />
    <glyph glyph-name="z" unicode="z" horiz-adv-x="343" 
d="M23 10l1 11q0 3 4 13l279 434q2 5 -2 5h-213q-10 0 -8 10l1 8q0 4 3 7t7 3h243q10 0 8 -10l-1 -11q0 -3 -4 -13l-280 -434q-2 -5 2 -5h215q10 0 8 -10l-1 -8q0 -4 -3 -7t-7 -3h-244q-10 0 -8 10z" />
    <glyph glyph-name="braceleft" unicode="{" horiz-adv-x="224" 
d="M72.5 -88q-17.5 18 -17.5 58q0 8 2 32l28 223q2 22 2 30q0 52 -36 61q-8 2 -7 10l1 9q1 9 10 10q24 6 37.5 27t18.5 63l26 216q7 58 30 83t67 25h31q10 0 8 -10l-1 -8q0 -4 -3 -7t-8 -3h-28q-30 0 -46 -19t-21 -62l-26 -212q-5 -44 -18 -69t-36 -36q-6 -2 -1 -5
q16 -10 23.5 -27.5t7.5 -45.5q0 -9 -2 -33l-27 -219q-2 -20 -2 -27q0 -28 11.5 -41t37.5 -13h28q9 0 9 -10l-1 -8q-1 -4 -4 -7t-7 -3h-31q-38 0 -55.5 18z" />
    <glyph glyph-name="bar" unicode="|" horiz-adv-x="115" 
d="M15 -70l100 820q2 10 11 10h10q10 0 8 -10l-100 -820q-2 -10 -11 -10h-10q-10 0 -8 10z" />
    <glyph glyph-name="braceright" unicode="}" horiz-adv-x="224" 
d="M1 -106q-5 0 -7.5 3t-1.5 7l1 8q2 10 11 10h29q30 0 45.5 19t20.5 62l27 219q5 43 18.5 68.5t36.5 37.5q5 3 1 5q-16 9 -23.5 26t-7.5 45q0 21 2 34l26 212q2 18 2 26q0 29 -12 42t-37 13h-29q-4 0 -6.5 3t-1.5 7l1 8q2 10 11 10h31q38 0 55 -18t17 -58q0 -8 -2 -32
l-27 -216q-2 -20 -2 -28q0 -28 8.5 -42.5t27.5 -19.5q8 -1 8 -10l-2 -9q0 -8 -10 -10q-24 -6 -37 -27.5t-18 -63.5l-28 -223q-7 -58 -29.5 -83t-66.5 -25h-31z" />
    <glyph glyph-name="asciitilde" unicode="~" horiz-adv-x="431" 
d="M267 259q-20 9 -47 28q-18 11 -33 17t-34 6q-49 0 -78 -42q-3 -4 -7 -5t-7 1l-4 2q-8 5 -2 14q18 28 44 43.5t57 15.5q24 0 41.5 -7t35.5 -20q27 -18 44 -26t44 -8q20 0 35 10t33 31q7 7 12 3l4 -2l2 -1q7 -7 1 -14q-20 -26 -42 -40.5t-49 -14.5q-30 0 -50 9z" />
    <glyph glyph-name="uni00A0" unicode="&#xa0;" horiz-adv-x="194" 
 />
    <glyph glyph-name="exclamdown" unicode="&#xa1;" horiz-adv-x="228" 
d="M208 698.5q10 -9.5 10 -25.5q0 -21 -13.5 -35.5t-32.5 -14.5q-17 0 -27 10t-10 26q0 21 13.5 35t33.5 14q16 0 26 -9.5zM152 491h7q10 0 9 -10l-55 -458q0 -4 -3 -7t-8 -3h-9q-9 0 -9 10l58 458q0 10 10 10z" />
    <glyph glyph-name="cent" unicode="&#xa2;" horiz-adv-x="372" 
d="M354 460h-9q-5 0 -7.5 3t-1.5 7v3q1 4 1 12q0 35 -26 60.5t-67 25.5q-47 0 -80 -32.5t-39 -84.5l-28 -227q-1 -7 -1 -20q0 -44 24.5 -70.5t66.5 -26.5q45 0 78.5 29.5t38.5 68.5v3q2 10 11 10h10q10 0 8 -10v-3q-5 -47 -42.5 -83t-90.5 -42q-4 0 -4 -4l-8 -69q0 -4 -3 -7
t-7 -3h-9q-9 0 -9 10l10 69q0 4 -3 4q-46 5 -73.5 37.5t-27.5 82.5q0 8 2 24l28 227q7 58 44 98t90 46q4 0 4 4l7 69q1 4 4 7t7 3h9q9 0 9 -10l-10 -69q0 -4 3 -4q47 -5 75.5 -37t28.5 -74q0 -9 -1 -14l-1 -6q-2 -7 -11 -7z" />
    <glyph glyph-name="sterling" unicode="&#xa3;" horiz-adv-x="480" 
d="M133 27h282q4 0 6.5 -3t1.5 -7l-1 -7q-2 -10 -11 -10h-312q-9 0 -9 10l2 9q0 7 7 12q21 15 37.5 52t21.5 83l19 151q0 4 -4 4h-58q-10 0 -8 10v6q2 10 11 10h58q2 0 3.5 1t1.5 3l21 173q11 86 56 135t112 49q96 0 113 -118q0 -4 -2.5 -7.5t-6.5 -4.5l-8 -2h-3q-8 0 -8 8
q-7 50 -28.5 73.5t-61.5 23.5q-54 0 -90.5 -41t-45.5 -115l-21 -174q0 -4 3 -4h146q10 0 8 -10v-6q-2 -10 -11 -10h-146q-4 0 -4 -4l-18 -148q-6 -44 -20 -80t-34 -57q-3 -5 1 -5z" />
    <glyph glyph-name="currency" unicode="&#xa4;" horiz-adv-x="464" 
d="M372 183q-4 -3 -1 -6l54 -64q2 -2 2 -5q0 -5 -5 -9l-6 -5q-7 -6 -13 1l-54 62q-3 3 -6 1q-26 -20 -57 -31t-63 -11q-63 0 -105 39q-2 1 -6 -1l-66 -59q-9 -8 -14 -1l-5 5q-7 7 0 14l67 60q3 3 1 6q-32 43 -32 97q0 79 58 142q4 4 1 6l-55 64q-2 2 -2 5q0 5 4 9l7 5
q7 7 13 0l55 -63q4 -2 5 -1q26 20 57 31.5t62 11.5q33 0 62.5 -12t51.5 -33q3 -3 6 0l72 66q7 7 14 0l5 -5q3 -3 3 -6q0 -4 -4 -8l-74 -67q-2 -1 -2.5 -2.5t0.5 -3.5q26 -40 26 -93q0 -78 -56 -139zM129.5 183q38.5 -40 96.5 -40q45 0 85 24t64.5 65t24.5 87q0 59 -38.5 99
t-96.5 40q-44 0 -84.5 -24t-65 -64.5t-24.5 -87.5q0 -59 38.5 -99z" />
    <glyph glyph-name="yen" unicode="&#xa5;" horiz-adv-x="503" 
d="M427 320h-140q-3 0 -5 -4l-10 -83q0 -2 1 -3t2 -1h141q9 0 9 -10l-1 -4q-2 -10 -11 -10h-140q-2 0 -3.5 -1t-1.5 -3l-23 -191q-2 -10 -11 -10h-10q-10 0 -8 10l23 191q0 4 -3 4h-134q-9 0 -9 10l1 4q2 10 11 10h134q4 0 4 4l10 83q0 4 -3 4h-134q-9 0 -9 10l1 3
q2 10 11 10h130q2 0 3 1.5t0 3.5l-87 340l-1 4q0 8 9 8h12q7 0 10 -8l76 -322q1 -3 3 -3t3 3l155 322q4 8 12 8h11q5 0 7 -3.5t-1 -8.5l-170 -340q-1 -2 -0.5 -3.5t2.5 -1.5h137q9 0 9 -10l-1 -3q-2 -10 -11 -10z" />
    <glyph glyph-name="brokenbar" unicode="&#xa6;" horiz-adv-x="115" 
d="M72 395l43 355q2 10 11 10h10q10 0 8 -10l-43 -355q-2 -10 -11 -10h-10q-10 0 -8 10zM15 -70l42 345q2 10 11 10h10q4 0 6.5 -3t1.5 -7l-42 -345q-2 -10 -11 -10h-10q-10 0 -8 10z" />
    <glyph glyph-name="section" unicode="&#xa7;" horiz-adv-x="348" 
d="M53.5 -174.5q-27.5 33.5 -27.5 90.5q0 9 2 29l2 12q0 4 3 7t8 3h9q9 0 9 -10l-2 -11q-1 -8 -1 -23q0 -47 20.5 -75t54.5 -28q29 0 54 19.5t39 53t14 72.5q0 49 -25.5 73t-65.5 39q-35 15 -54.5 30.5t-28.5 48.5q-8 25 -8 56q0 17 2 33q7 51 33 95q31 51 74 63q2 0 2 1
t-1 2q-30 14 -48 46.5t-18 77.5q0 49 18 90t50 64.5t71 23.5q47 0 74.5 -34.5t27.5 -91.5q0 -9 -2 -27l-2 -11q0 -4 -3 -7t-8 -3h-10q-9 0 -9 10l2 10q2 18 2 26q0 45 -20.5 72.5t-54.5 27.5q-41 0 -70 -35.5t-36 -90.5q-1 -8 -1 -23q0 -44 22.5 -70.5t68.5 -45.5
q4 -2 21 -9.5t32 -21.5t24 -34q15 -28 15 -69q0 -20 -2 -32q-8 -58 -31 -97q-30 -52 -76 -62q-4 -1 0 -4q28 -15 46.5 -46t18.5 -74q0 -47 -18.5 -87t-50.5 -63.5t-71 -23.5q-47 0 -74.5 33.5zM256 169q12 21 19.5 49t7.5 54q0 38 -15 66q-10 19 -29 31t-42 12
q-28 0 -50.5 -17t-36.5 -43q-17 -36 -22 -76q-1 -8 -1 -29q0 -28 5 -48q19 -56 75 -56q58 0 89 57z" />
    <glyph glyph-name="dieresis" unicode="&#xa8;" horiz-adv-x="261" 
d="M223 623q-10 10 -10 27q0 20 13.5 34t33.5 14q18 0 28.5 -12t8.5 -30q-3 -19 -16 -31t-31 -12q-17 0 -27 10zM97 623q-10 10 -10 27q0 20 13.5 34t33.5 14q18 0 28.5 -12t8.5 -30q-3 -19 -16 -31t-31 -12q-17 0 -27 10z" />
    <glyph glyph-name="copyright" unicode="&#xa9;" horiz-adv-x="834" 
d="M235.5 32.5q-70.5 40.5 -110 111.5t-39.5 157q0 24 3 46q12 100 68.5 182.5t142.5 130.5t184 48q90 0 161 -40.5t110 -112t39 -160.5q0 -24 -3 -48q-12 -97 -68 -178.5t-142 -129t-185 -47.5q-90 0 -160.5 40.5zM570 61.5q80 44.5 132.5 120t63.5 165.5q3 23 3 45
q0 82 -36.5 148.5t-102 104.5t-149.5 38q-91 0 -171.5 -44.5t-133 -121.5t-63.5 -170q-3 -21 -3 -41q0 -81 37 -147t103 -104t149 -38q91 0 171 44.5zM370.5 198.5q-18.5 16.5 -18.5 45.5l1 10l23 185q4 32 27 51.5t57 19.5q32 0 50.5 -16t18.5 -43q0 -8 -1 -12l-1 -8
q0 -4 -3 -7t-8 -3h-5q-4 0 -6.5 3t-1.5 7l1 10q3 20 -10 33t-37 13q-23 0 -38.5 -12.5t-18.5 -33.5l-23 -189q-2 -21 10.5 -33.5t35.5 -12.5t39.5 12.5t18.5 33.5l1 10q2 10 11 10h5q10 0 8 -10v-8q-5 -33 -28 -52.5t-58 -19.5q-31 0 -49.5 16.5z" />
    <glyph glyph-name="ordfeminine" unicode="&#xaa;" horiz-adv-x="258" 
d="M233 560q4 0 4 4l4 34q1 6 1 18q0 32 -14 50t-41 18q-23 0 -42 -14.5t-26 -37.5q-1 -4 -4 -7t-7 -2l-8 1q-9 2 -8 11q9 33 37 53t62 20q38 0 58 -23.5t20 -63.5q0 -14 -1 -22l-27 -218q-2 -10 -11 -10h-7q-10 0 -8 10l2 21q1 3 -0.5 3.5t-3.5 -2.5q-15 -18 -35.5 -27.5
t-43.5 -9.5q-31 0 -51.5 16t-20.5 56q0 12 1 19q6 53 37.5 78t78.5 25h54zM196 410q25 20 29 58l8 65q0 4 -3 4h-53q-36 0 -59 -20t-28 -59q-1 -5 -1 -15q0 -27 14 -40t37 -13q31 0 56 20zM53 315h185q4 0 6.5 -3t1.5 -7l-1 -5q0 -4 -3 -7t-8 -3h-184q-10 0 -8 10v5
q2 10 11 10z" />
    <glyph glyph-name="guillemotleft" unicode="&#xab;" horiz-adv-x="465" 
d="M231 114q0 -3 -2.5 -5t-6.5 -2h-7q-10 0 -12 6l-100 161q-1 1 -1 5q0 5 3 9l139 161q5 6 14 6h6q6 0 7.5 -3.5t-2.5 -8.5l-137 -159q-2 -4 -1 -6l98 -159q2 -4 2 -5zM369 114q0 -7 -10 -7h-7q-10 0 -12 6l-99 161q-1 1 -1 5q0 5 3 9l138 161q5 6 13 6h8q6 0 7.5 -3.5
t-2.5 -8.5l-138 -159q-3 -3 -1 -6l99 -159q2 -4 2 -5z" />
    <glyph glyph-name="logicalnot" unicode="&#xac;" horiz-adv-x="430" 
d="M415 324l-1 -6q0 -6 -2 -10h-1l-14 -113q0 -4 -3 -7t-8 -3h-7q-5 0 -7.5 3t-1.5 7l14 109q0 4 -4 4h-316q-10 0 -8 10v6q2 10 11 10h340q10 0 8 -10z" />
    <glyph glyph-name="uni00AD" unicode="&#xad;" horiz-adv-x="294" 
d="M55 316l1 8q2 10 11 10h203q10 0 8 -10l-1 -8q0 -4 -3 -7t-8 -3h-202q-9 0 -9 10z" />
    <glyph glyph-name="registered" unicode="&#xae;" horiz-adv-x="426" 
d="M366.5 694q37.5 -22 59 -60t21.5 -85q0 -57 -30 -106.5t-79 -79t-103 -29.5q-47 0 -85 22t-59 60t-21 85q0 57 29.5 106.5t78.5 79t104 29.5q47 0 84.5 -22zM328.5 384q42.5 26 68 69.5t25.5 93.5q0 62 -40.5 103.5t-102.5 41.5q-48 0 -90.5 -26t-68 -69.5t-25.5 -93.5
q0 -62 40.5 -103.5t102.5 -41.5q48 0 90.5 26zM311.5 536q-9.5 -14 -24.5 -20q-3 -1 -2 -5l19 -63l1 -4q0 -8 -9 -8h-4q-7 0 -10 8l-21 66q0 3 -3 3h-21q-2 0 -3.5 -1t-1.5 -3l-7 -63q-1 -4 -4 -7t-7 -3h-2q-5 0 -7.5 3t-1.5 7l19 155q2 10 11 10h46q19 0 30.5 -11.5
t11.5 -30.5t-9.5 -33zM242 588l-7 -54q0 -4 4 -4h28q13 0 22.5 10t9.5 26q0 12 -6.5 19t-18.5 7h-28q-4 0 -4 -4z" />
    <glyph glyph-name="macron" unicode="&#xaf;" horiz-adv-x="565" 
d="M244.5 606q-2.5 3 -1.5 7l1 6q2 10 11 10h168q4 0 6.5 -3t1.5 -7l-1 -6q0 -4 -3 -7t-8 -3h-167q-5 0 -7.5 3z" />
    <glyph glyph-name="degree" unicode="&#xb0;" horiz-adv-x="347" 
d="M122.5 537.5q-36.5 37.5 -36.5 95.5q0 47 23 87.5t61.5 64t82.5 23.5q57 0 93.5 -37.5t36.5 -95.5q0 -47 -23 -87.5t-61.5 -64t-82.5 -23.5q-57 0 -93.5 37.5zM287 545.5q32 19.5 51 53t19 72.5q0 48 -30.5 79.5t-76.5 31.5q-36 0 -68 -19.5t-51 -53t-19 -72.5
q0 -48 30.5 -79.5t76.5 -31.5q36 0 68 19.5z" />
    <glyph glyph-name="plusminus" unicode="&#xb1;" horiz-adv-x="430" 
d="M416 331v-6q-2 -10 -11 -10h-154q-1 0 -2.5 -1t-1.5 -3l-19 -158q-2 -10 -11 -10h-6q-10 0 -8 10l19 158q0 2 -1 3t-2 1h-154q-10 0 -8 10l1 6q0 4 3 7t7 3h154q4 0 4 4l19 158q1 4 4 7t7 3h6q9 0 9 -10l-20 -158q0 -4 4 -4h153q10 0 8 -10zM23 48v6q2 10 11 10h340
q10 0 8 -10l-1 -6q0 -4 -3 -7t-7 -3h-340q-10 0 -8 10z" />
    <glyph glyph-name="uni00B2" unicode="&#xb2;" horiz-adv-x="225" 
d="M64.5 460q-2.5 3 -1.5 7l1 7q0 6 5 13l73 104l49 71q53 80 53 134q0 29 -13.5 45t-37.5 16q-25 0 -42.5 -21t-21.5 -55l-2 -18q-1 -4 -4 -7t-7 -3h-8q-9 0 -9 10l3 18q5 46 31.5 73.5t64.5 27.5q34 0 53.5 -22t19.5 -60q0 -65 -56 -149q-34 -51 -112 -165q-1 -2 0 -3.5
t3 -1.5h130q5 0 7.5 -3t1.5 -7l-1 -4q0 -4 -3 -7t-7 -3h-162q-5 0 -7.5 3z" />
    <glyph glyph-name="uni00B3" unicode="&#xb3;" horiz-adv-x="245" 
d="M251 582q-4 -41 -19 -72q-27 -58 -86 -58q-34 0 -54 23t-22 60v10q0 10 2 26q0 10 10 10h8q9 0 9 -8q0 -7 -1 -15t-1 -15q1 -31 14.5 -48.5t37.5 -17.5q19 0 34 11t25 31q14 27 18 65q3 20 3 36q0 36 -14 55.5t-39 19.5q-6 0 -9 -1h-4q-6 0 -9 4l-2 2q-2 4 -2 6q0 4 3 8
l95 134q1 2 0.5 3.5t-2.5 1.5h-128q-9 0 -9 10l1 4q2 10 11 10h154q10 0 8 -10v-7q-2 -10 -5 -13l-89 -125q-2 -5 1 -5q31 -1 47 -27t16 -70q0 -24 -2 -38z" />
    <glyph glyph-name="acute" unicode="&#xb4;" horiz-adv-x="153" 
d="M82.5 572.5q-1.5 3.5 2.5 8.5l74 112q4 7 12 7h9q6 0 7.5 -3.5t-2.5 -8.5l-77 -112q-5 -7 -12 -7h-6q-6 0 -7.5 3.5z" />
    <glyph glyph-name="uni00B5" unicode="&#xb5;" horiz-adv-x="405" 
d="M348 498q3 3 7 3h10q9 0 9 -10l-59 -481q-1 -4 -4 -7t-7 -3h-10q-9 0 -9 10l5 41q1 3 -1 3.5t-3 -2.5q-39 -59 -109 -59q-60 0 -87 36q-5 3 -5 -2l-27 -217q-2 -10 -11 -10h-9q-5 0 -7.5 3t-1.5 7l84 681q0 4 3 7t8 3h9q5 0 7.5 -3t1.5 -7l-43 -346q-2 -20 -2 -28
q0 -47 22.5 -71.5t63.5 -24.5q48 0 80.5 36t39.5 99l41 335q1 4 4 7z" />
    <glyph glyph-name="paragraph" unicode="&#xb6;" horiz-adv-x="431" 
d="M402 700q9 0 9 -10l-108 -880q-1 -4 -4 -7t-7 -3h-6q-9 0 -9 10l106 859q0 4 -4 4h-94q-4 0 -4 -4l-105 -859q-1 -4 -4 -7t-7 -3h-8q-9 0 -9 10l54 436q0 4 -3 4q-58 2 -90.5 52t-32.5 128q0 23 3 45q8 62 33 113.5t63.5 81.5t84.5 30h142z" />
    <glyph glyph-name="periodcentered" unicode="&#xb7;" horiz-adv-x="174" 
d="M69 238q-10 10 -10 27q0 20 13.5 34t33.5 14q18 0 28.5 -12t8.5 -30q-3 -19 -16 -31t-31 -12q-17 0 -27 10z" />
    <glyph glyph-name="cedilla" unicode="&#xb8;" horiz-adv-x="99" 
d="M-37 -168v1l2 4q3 8 12 5q4 -1 13 -1q17 0 30.5 10.5t19.5 32.5q3 12 3 24q0 39 -30 80q-4 4 -3 8t6 4h6q7 0 10 -3l3 -4q34 -37 34 -81q0 -20 -6 -36q-8 -31 -28 -45t-45 -14q-11 0 -22 3q-9 2 -5 12z" />
    <glyph glyph-name="uni00B9" unicode="&#xb9;" horiz-adv-x="134" 
d="M166 877h10q5 0 7.5 -3t1.5 -7l-49 -400q-2 -10 -11 -10h-8q-10 0 -8 10l46 375q0 2 -1.5 3.5t-3.5 0.5l-33 -11l-4 -1q-3 0 -5 2t-1 6l1 3q0 7 8 12l37 17q6 3 13 3z" />
    <glyph glyph-name="ordmasculine" unicode="&#xba;" horiz-adv-x="263" 
d="M98 388.5q-22 22.5 -22 59.5q0 10 1 15l18 148q5 43 34 70t70 27q38 0 60 -22.5t22 -59.5q0 -10 -1 -15l-18 -148q-5 -43 -34 -70t-71 -27q-37 0 -59 22.5zM210 410.5q21 20.5 25 53.5l18 146q1 4 1 13q0 27 -16 44t-41 17q-29 0 -50 -21t-26 -53l-17 -146q-1 -5 -1 -13
q0 -28 15.5 -44.5t41.5 -16.5q29 0 50 20.5zM48 300v5q2 10 11 10h184q5 0 7.5 -3t1.5 -7l-1 -5q-2 -10 -11 -10h-184q-10 0 -8 10z" />
    <glyph glyph-name="guillemotright" unicode="&#xbb;" horiz-adv-x="465" 
d="M86.5 110.5q-1.5 3.5 2.5 8.5l138 159q2 4 1 6l-99 159q-2 4 -2 5q0 3 2.5 5t6.5 2h7q10 0 12 -6l100 -161q1 -1 1 -5t-3 -9l-139 -161q-5 -6 -14 -6h-6q-6 0 -7.5 3.5zM223.5 110.5q-1.5 3.5 2.5 8.5l138 159q2 4 1 6l-99 159q-2 4 -2 5q0 3 2.5 5t6.5 2h7q10 0 12 -6
l100 -161q1 -1 1 -5t-3 -9l-139 -161q-5 -6 -14 -6h-6q-6 0 -7.5 3.5z" />
    <glyph glyph-name="onequarter" unicode="&#xbc;" horiz-adv-x="612" 
d="M144 700h10q5 0 7.5 -3t1.5 -7l-49 -400q-2 -10 -11 -10h-8q-10 0 -8 10l46 375q0 2 -1.5 3.5t-3.5 0.5l-33 -11l-4 -1q-3 0 -5 2t-1 6l1 3q0 7 8 12l37 17q6 3 13 3zM53 12l514 681q5 7 12 7h6q6 0 7 -3.5t-3 -8.5l-513 -681q-5 -7 -12 -7h-6q-12 0 -5 12zM595 133
l-1 -5q-2 -10 -11 -10h-12q-2 0 -3.5 -1t-1.5 -3l-13 -104q0 -4 -3 -7t-8 -3h-5q-5 0 -7.5 3t-1.5 7l13 104q0 2 -1 3t-2 1h-124q-4 0 -6.5 3t-1.5 7l1 6q0 4 1 7t2 5l121 266q5 8 13 8h8q12 0 7 -11l-119 -261q-1 -2 0 -3.5t3 -1.5h98q4 0 4 4l12 96q0 4 3 7t8 3h6
q4 0 6.5 -3t1.5 -7l-12 -96q0 -4 4 -4h12q9 0 9 -10z" />
    <glyph glyph-name="onehalf" unicode="&#xbd;" horiz-adv-x="630" 
d="M144 700h10q5 0 7.5 -3t1.5 -7l-49 -400q-2 -10 -11 -10h-8q-10 0 -8 10l46 375q0 2 -1.5 3.5t-3.5 0.5l-33 -11l-4 -1q-3 0 -5 2t-1 6l1 3q0 7 8 12l37 17q6 3 13 3zM53 12l514 681q5 7 12 7h6q6 0 7 -3.5t-3 -8.5l-513 -681q-5 -7 -12 -7h-6q-12 0 -5 12zM412.5 3
q-2.5 3 -1.5 7l1 7q0 6 5 13l73 104l49 71q53 80 53 134q0 29 -13.5 45t-37.5 16q-25 0 -42.5 -21t-21.5 -55l-2 -18q-1 -4 -4 -7t-7 -3h-8q-9 0 -9 10l3 18q5 46 31.5 73.5t64.5 27.5q34 0 53.5 -22t19.5 -60q0 -65 -56 -149q-34 -51 -112 -165q-1 -2 0 -3.5t3 -1.5h130
q5 0 7.5 -3t1.5 -7l-1 -4q0 -4 -3 -7t-7 -3h-162q-5 0 -7.5 3z" />
    <glyph glyph-name="threequarters" unicode="&#xbe;" horiz-adv-x="675" 
d="M229 402q-4 -41 -19 -72q-27 -58 -86 -58q-34 0 -54 23t-22 60v10q0 10 2 26q0 10 10 10h8q9 0 9 -8q0 -7 -1 -15t-1 -15q1 -31 14.5 -48.5t37.5 -17.5q19 0 34 11t25 31q14 27 18 65q3 20 3 36q0 36 -14 55.5t-39 19.5q-6 0 -9 -1h-4q-6 0 -9 4l-2 2q-2 4 -2 6q0 4 3 8
l95 134q1 2 0.5 3.5t-2.5 1.5h-128q-9 0 -9 10l1 4q2 10 11 10h154q10 0 8 -10v-7q-2 -10 -5 -13l-89 -125q-2 -5 1 -5q31 -1 47 -27t16 -70q0 -24 -2 -38zM116 12l514 681q5 7 12 7h6q6 0 7 -3.5t-3 -8.5l-513 -681q-5 -7 -12 -7h-6q-12 0 -5 12zM658 133l-1 -5
q-2 -10 -11 -10h-12q-2 0 -3.5 -1t-1.5 -3l-13 -104q0 -4 -3 -7t-8 -3h-5q-5 0 -7.5 3t-1.5 7l13 104q0 2 -1 3t-2 1h-124q-4 0 -6.5 3t-1.5 7l1 6q0 4 1 7t2 5l121 266q5 8 13 8h8q12 0 7 -11l-119 -261q-1 -2 0 -3.5t3 -1.5h98q4 0 4 4l12 96q0 4 3 7t8 3h6q4 0 6.5 -3
t1.5 -7l-12 -96q0 -4 4 -4h12q9 0 9 -10z" />
    <glyph glyph-name="questiondown" unicode="&#xbf;" horiz-adv-x="320" 
d="M240.5 484.5q10.5 -10.5 10.5 -26.5q0 -20 -14 -34t-33 -14q-17 0 -27 10t-10 27q0 20 13.5 34t33.5 14q16 0 26.5 -10.5zM205.5 310q2.5 -3 1.5 -7l-9 -74q-5 -39 -22 -64.5t-51 -58.5q-38 -37 -58.5 -68.5t-26.5 -83.5q-2 -20 -2 -29q0 -49 21.5 -77.5t58.5 -28.5
q44 0 75.5 37t39.5 97l5 38q0 4 3 7t7 3h10q9 0 9 -10l-5 -38q-9 -73 -49.5 -117.5t-97.5 -44.5q-50 0 -78 35t-28 96q0 10 2 34q8 63 31.5 100t63.5 76q30 30 44 49.5t17 48.5l9 73q2 10 11 10h11q5 0 7.5 -3z" />
    <glyph glyph-name="Agrave" unicode="&#xc0;" horiz-adv-x="356" 
d="M297 9l-12 139q0 4 -4 4h-207q-2 0 -3.5 -1t-1.5 -3l-47 -139q-1 -9 -11 -9h-10q-5 0 -7 3t0 8l231 680q3 9 12 9h14q9 0 9 -9l66 -680v-2q0 -4 -3 -6.5t-7 -2.5h-9q-10 0 -10 9zM81 180.5q1 -1.5 3 -1.5h193q2 0 3.5 1.5t0.5 2.5l-42 461q0 3 -1 3t-3 -3l-154 -461
q-1 -1 0 -2.5zM263 775q0 -7 -8 -7h-6q-6 0 -11 7l-50 112q-1 2 -1 5q0 7 9 7h9q7 0 11 -7l46 -112q1 -2 1 -5z" />
    <glyph glyph-name="Aacute" unicode="&#xc1;" horiz-adv-x="356" 
d="M297 9l-12 139q0 4 -4 4h-207q-2 0 -3.5 -1t-1.5 -3l-47 -139q-1 -9 -11 -9h-10q-5 0 -7 3t0 8l231 680q3 9 12 9h14q9 0 9 -9l66 -680v-2q0 -4 -3 -6.5t-7 -2.5h-9q-10 0 -10 9zM81 180.5q1 -1.5 3 -1.5h193q2 0 3.5 1.5t0.5 2.5l-42 461q0 3 -1 3t-3 -3l-154 -461
q-1 -1 0 -2.5zM223.5 771.5q-1.5 3.5 2.5 8.5l74 112q4 7 12 7h9q6 0 7.5 -3.5t-2.5 -8.5l-77 -112q-5 -7 -12 -7h-6q-6 0 -7.5 3.5z" />
    <glyph glyph-name="Acircumflex" unicode="&#xc2;" horiz-adv-x="356" 
d="M297 9l-12 139q0 4 -4 4h-207q-2 0 -3.5 -1t-1.5 -3l-47 -139q-1 -9 -11 -9h-10q-5 0 -7 3t0 8l231 680q3 9 12 9h14q9 0 9 -9l66 -680v-2q0 -4 -3 -6.5t-7 -2.5h-9q-10 0 -10 9zM81 180.5q1 -1.5 3 -1.5h193q2 0 3.5 1.5t0.5 2.5l-42 461q0 3 -1 3t-3 -3l-154 -461
q-1 -1 0 -2.5zM171 792l76 100q5 7 12 7h18q6 0 11 -6l52 -101l1 -4q0 -8 -9 -8h-14q-7 0 -10 7l-40 81q-1 2 -3 2t-3 -2l-59 -81q-7 -7 -13 -7h-14q-12 0 -5 12z" />
    <glyph glyph-name="Atilde" unicode="&#xc3;" horiz-adv-x="356" 
d="M297 9l-12 139q0 4 -4 4h-207q-2 0 -3.5 -1t-1.5 -3l-47 -139q-1 -9 -11 -9h-10q-5 0 -7 3t0 8l231 680q3 9 12 9h14q9 0 9 -9l66 -680v-2q0 -4 -3 -6.5t-7 -2.5h-9q-10 0 -10 9zM81 180.5q1 -1.5 3 -1.5h193q2 0 3.5 1.5t0.5 2.5l-42 461q0 3 -1 3t-3 -3l-154 -461
q-1 -1 0 -2.5zM290 826.5q-11 6.5 -23 17.5q-2 2 -10 9t-15.5 10t-16.5 3q-15 0 -26.5 -5.5t-24.5 -22.5q-6 -9 -14 -3l-2 2q-4 3 -4 6q0 4 3 8q31 41 70 41q15 0 26 -6t25 -17q16 -12 24 -17t19 -5q14 0 25 6.5t24 24.5q3 4 7 5t7 -1l3 -2q4 -2 4 -7t-6 -13
q-16 -21 -34.5 -30.5t-34.5 -9.5q-15 0 -26 6.5z" />
    <glyph glyph-name="Adieresis" unicode="&#xc4;" horiz-adv-x="356" 
d="M297 9l-12 139q0 4 -4 4h-207q-2 0 -3.5 -1t-1.5 -3l-47 -139q-1 -9 -11 -9h-10q-5 0 -7 3t0 8l231 680q3 9 12 9h14q9 0 9 -9l66 -680v-2q0 -4 -3 -6.5t-7 -2.5h-9q-10 0 -10 9zM81 180.5q1 -1.5 3 -1.5h193q2 0 3.5 1.5t0.5 2.5l-42 461q0 3 -1 3t-3 -3l-154 -461
q-1 -1 0 -2.5zM295 822q-10 10 -10 27q0 20 13.5 34t33.5 14q18 0 28.5 -12t8.5 -30q-3 -19 -16 -31t-31 -12q-17 0 -27 10zM169 822q-10 10 -10 27q0 20 13.5 34t33.5 14q18 0 28.5 -12t8.5 -30q-3 -19 -16 -31t-31 -12q-17 0 -27 10z" />
    <glyph glyph-name="Aring" unicode="&#xc5;" horiz-adv-x="356" 
d="M297 9l-12 139q0 4 -4 4h-207q-2 0 -3.5 -1t-1.5 -3l-47 -139q-1 -9 -11 -9h-10q-5 0 -7 3t0 8l231 680q3 9 12 9h14q9 0 9 -9l66 -680v-2q0 -4 -3 -6.5t-7 -2.5h-9q-10 0 -10 9zM81 180.5q1 -1.5 3 -1.5h193q2 0 3.5 1.5t0.5 2.5l-42 461q0 3 -1 3t-3 -3l-154 -461
q-1 -1 0 -2.5zM196.5 811.5q-23.5 24.5 -23.5 61.5q0 30 15 55.5t39.5 41t51.5 15.5q36 0 59 -24.5t23 -60.5q0 -30 -15 -56t-39 -41.5t-52 -15.5q-35 0 -58.5 24.5zM313 836.5q24 24.5 24 59.5q0 28 -17.5 46t-43.5 18q-31 0 -55.5 -24.5t-24.5 -59.5q0 -28 18 -46t44 -18
q31 0 55 24.5z" />
    <glyph glyph-name="AE" unicode="&#xc6;" horiz-adv-x="646" 
d="M653 672h-237q-4 0 -4 -4l-37 -300q0 -4 3 -4h157q4 0 6.5 -3t1.5 -7l-1 -7q-2 -10 -11 -10h-156q-4 0 -4 -4l-37 -301q-1 -1 0 -2.5t3 -1.5h237q10 0 8 -10l-1 -8q0 -4 -3 -7t-8 -3h-261q-4 0 -6.5 3t-1.5 7l17 138q0 2 -1 3t-2 1h-208q-2 0 -4 -3l-79 -141
q-3 -8 -11 -8h-10q-5 0 -7 3.5t1 8.5l380 680q4 8 12 8h267q5 0 7.5 -3t1.5 -7l-1 -8q-2 -10 -11 -10zM121 180.5q1 -1.5 3 -1.5h194q4 0 4 4l57 456q1 3 -1 3t-4 -2l-252 -456q-2 -2 -1 -3.5z" />
    <glyph glyph-name="Ccedilla" unicode="&#xc7;" horiz-adv-x="422" 
d="M405 523q-3 -3 -7 -3l-11 -1q-9 0 -9 10l3 23q1 8 1 22q0 49 -28 77.5t-77 28.5q-53 0 -90 -35t-44 -93l-49 -403q-1 -7 -1 -21q0 -49 27.5 -78.5t75.5 -29.5q54 0 91 35.5t45 93.5l2 22q2 9 11 9l11 -1q4 0 6.5 -3t1.5 -7l-2 -18q-8 -67 -48.5 -109t-100.5 -48
q-6 -2 -2 -5q31 -37 31 -80q0 -18 -5 -36q-9 -30 -29.5 -44t-46.5 -14q-14 0 -21 2q-8 2 -5 12l2 4q2 10 12 7q4 -1 14 -1q22 0 37 16.5t15 51.5q0 43 -33 83l-4 2q-53 4 -84 40t-31 93q0 8 2 26l49 399q9 72 55 115t112 43q61 0 96.5 -35.5t35.5 -95.5q0 -9 -2 -27l-3 -20
q0 -4 -3 -7z" />
    <glyph glyph-name="Egrave" unicode="&#xc8;" horiz-adv-x="411" 
d="M418 672h-237q-1 0 -2.5 -1t-1.5 -3l-37 -300q0 -4 4 -4h155q10 0 8 -10l-1 -7q0 -4 -3 -7t-7 -3h-156q-4 0 -4 -4l-37 -301q0 -4 3 -4h237q9 0 9 -10l-1 -8q-1 -4 -4 -7t-7 -3h-260q-5 0 -7.5 3t-1.5 7l84 680q0 4 3 7t8 3h260q4 0 6.5 -3t1.5 -7l-1 -8q-2 -10 -11 -10z
M310 775q0 -7 -8 -7h-6q-6 0 -11 7l-50 112q-1 2 -1 5q0 7 9 7h9q7 0 11 -7l46 -112q1 -2 1 -5z" />
    <glyph glyph-name="Eacute" unicode="&#xc9;" horiz-adv-x="411" 
d="M418 672h-237q-1 0 -2.5 -1t-1.5 -3l-37 -300q0 -4 4 -4h155q10 0 8 -10l-1 -7q0 -4 -3 -7t-7 -3h-156q-4 0 -4 -4l-37 -301q0 -4 3 -4h237q9 0 9 -10l-1 -8q-1 -4 -4 -7t-7 -3h-260q-5 0 -7.5 3t-1.5 7l84 680q0 4 3 7t8 3h260q4 0 6.5 -3t1.5 -7l-1 -8q-2 -10 -11 -10z
M270.5 771.5q-1.5 3.5 2.5 8.5l74 112q4 7 12 7h9q6 0 7.5 -3.5t-2.5 -8.5l-77 -112q-5 -7 -12 -7h-6q-6 0 -7.5 3.5z" />
    <glyph glyph-name="Ecircumflex" unicode="&#xca;" horiz-adv-x="411" 
d="M418 672h-237q-1 0 -2.5 -1t-1.5 -3l-37 -300q0 -4 4 -4h155q10 0 8 -10l-1 -7q0 -4 -3 -7t-7 -3h-156q-4 0 -4 -4l-37 -301q0 -4 3 -4h237q9 0 9 -10l-1 -8q-1 -4 -4 -7t-7 -3h-260q-5 0 -7.5 3t-1.5 7l84 680q0 4 3 7t8 3h260q4 0 6.5 -3t1.5 -7l-1 -8q-2 -10 -11 -10z
M218 792l76 100q5 7 12 7h18q6 0 11 -6l52 -101l1 -4q0 -8 -9 -8h-14q-7 0 -10 7l-40 81q-1 2 -3 2t-3 -2l-59 -81q-7 -7 -13 -7h-14q-12 0 -5 12z" />
    <glyph glyph-name="Edieresis" unicode="&#xcb;" horiz-adv-x="411" 
d="M418 672h-237q-1 0 -2.5 -1t-1.5 -3l-37 -300q0 -4 4 -4h155q10 0 8 -10l-1 -7q0 -4 -3 -7t-7 -3h-156q-4 0 -4 -4l-37 -301q0 -4 3 -4h237q9 0 9 -10l-1 -8q-1 -4 -4 -7t-7 -3h-260q-5 0 -7.5 3t-1.5 7l84 680q0 4 3 7t8 3h260q4 0 6.5 -3t1.5 -7l-1 -8q-2 -10 -11 -10z
M342 822q-10 10 -10 27q0 20 13.5 34t33.5 14q18 0 28.5 -12t8.5 -30q-3 -19 -16 -31t-31 -12q-17 0 -27 10zM216 822q-10 10 -10 27q0 20 13.5 34t33.5 14q18 0 28.5 -12t8.5 -30q-3 -19 -16 -31t-31 -12q-17 0 -27 10z" />
    <glyph glyph-name="Igrave" unicode="&#xcc;" horiz-adv-x="200" 
d="M68.5 3q-2.5 3 -1.5 7l84 680q0 4 3 7t8 3h9q5 0 7.5 -3t1.5 -7l-84 -680q0 -4 -3 -7t-8 -3h-9q-5 0 -7.5 3zM185 775q0 -7 -8 -7h-6q-6 0 -11 7l-50 112q-1 2 -1 5q0 7 9 7h9q7 0 11 -7l46 -112q1 -2 1 -5z" />
    <glyph glyph-name="Iacute" unicode="&#xcd;" horiz-adv-x="200" 
d="M68.5 3q-2.5 3 -1.5 7l84 680q0 4 3 7t8 3h9q5 0 7.5 -3t1.5 -7l-84 -680q0 -4 -3 -7t-8 -3h-9q-5 0 -7.5 3zM145.5 771.5q-1.5 3.5 2.5 8.5l74 112q4 7 12 7h9q6 0 7.5 -3.5t-2.5 -8.5l-77 -112q-5 -7 -12 -7h-6q-6 0 -7.5 3.5z" />
    <glyph glyph-name="Icircumflex" unicode="&#xce;" horiz-adv-x="200" 
d="M68.5 3q-2.5 3 -1.5 7l84 680q0 4 3 7t8 3h9q5 0 7.5 -3t1.5 -7l-84 -680q0 -4 -3 -7t-8 -3h-9q-5 0 -7.5 3zM93 792l76 100q5 7 12 7h18q6 0 11 -6l52 -101l1 -4q0 -8 -9 -8h-14q-7 0 -10 7l-40 81q-1 2 -3 2t-3 -2l-59 -81q-7 -7 -13 -7h-14q-12 0 -5 12z" />
    <glyph glyph-name="Idieresis" unicode="&#xcf;" horiz-adv-x="200" 
d="M68.5 3q-2.5 3 -1.5 7l84 680q0 4 3 7t8 3h9q5 0 7.5 -3t1.5 -7l-84 -680q0 -4 -3 -7t-8 -3h-9q-5 0 -7.5 3zM217 822q-10 10 -10 27q0 20 13.5 34t33.5 14q18 0 28.5 -12t8.5 -30q-3 -19 -16 -31t-31 -12q-17 0 -27 10zM91 822q-10 10 -10 27q0 20 13.5 34t33.5 14
q18 0 28.5 -12t8.5 -30q-3 -19 -16 -31t-31 -12q-17 0 -27 10z" />
    <glyph glyph-name="Eth" unicode="&#xd0;" horiz-adv-x="494" 
d="M435.5 662q32.5 -38 32.5 -106q0 -24 -2 -37l-41 -338q-10 -84 -55 -132.5t-112 -48.5h-134q-10 0 -8 10l41 339q1 1 0 2.5t-3 1.5h-35q-10 0 -8 10v5q2 10 11 10h35q4 0 4 4l38 308q2 10 11 10h134q59 0 91.5 -38zM436 518q2 12 2 35q0 56 -25.5 87.5t-71.5 31.5h-111
q-4 0 -4 -4l-36 -286q0 -4 4 -4h93q10 0 8 -10v-5q-2 -10 -11 -10h-93q-3 0 -5 -4l-39 -317q0 -4 4 -4h110q53 0 89 41t45 112z" />
    <glyph glyph-name="Ntilde" unicode="&#xd1;" horiz-adv-x="467" 
d="M422 697q3 3 7 3h10q9 0 9 -10l-84 -680q-2 -10 -11 -10h-13q-9 0 -10 8l-154 610q-1 3 -3 2.5t-2 -3.5l-75 -607q0 -4 -3 -7t-8 -3h-9q-5 0 -7.5 3t-1.5 7l84 680q0 4 3 7t8 3h12q9 0 10 -8l155 -612q0 -3 2 -2.5t3 3.5l74 609q1 4 4 7zM348 836.5q-11 6.5 -23 17.5
q-2 2 -10 9t-15.5 10t-16.5 3q-15 0 -26.5 -5.5t-24.5 -22.5q-6 -9 -14 -3l-2 2q-4 3 -4 6q0 4 3 8q31 41 70 41q15 0 26 -6t25 -17q16 -12 24 -17t19 -5q14 0 25 6.5t24 24.5q3 4 7 5t7 -1l3 -2q4 -2 4 -7t-6 -13q-16 -21 -34.5 -30.5t-34.5 -9.5q-15 0 -26 6.5z" />
    <glyph glyph-name="Ograve" unicode="&#xd2;" horiz-adv-x="433" 
d="M99.5 29q-35.5 37 -35.5 99q0 17 1 25l49 393q8 72 55.5 117t113.5 45q61 0 97 -37t36 -99q0 -8 -2 -26l-48 -393q-9 -72 -56.5 -116.5t-114.5 -44.5q-60 0 -95.5 37zM290.5 56.5q38.5 36.5 46.5 94.5l48 397q1 7 1 22q0 50 -29 80t-78 30q-53 0 -91 -37t-45 -95
l-49 -397q-1 -7 -1 -20q0 -50 28.5 -80.5t76.5 -30.5q54 0 92.5 36.5zM300 774q0 -7 -8 -7h-6q-6 0 -11 7l-50 112q-1 2 -1 5q0 7 9 7h9q7 0 11 -7l46 -112q1 -2 1 -5z" />
    <glyph glyph-name="Oacute" unicode="&#xd3;" horiz-adv-x="433" 
d="M99.5 29q-35.5 37 -35.5 99q0 17 1 25l49 393q8 72 55.5 117t113.5 45q61 0 97 -37t36 -99q0 -8 -2 -26l-48 -393q-9 -72 -56.5 -116.5t-114.5 -44.5q-60 0 -95.5 37zM290.5 56.5q38.5 36.5 46.5 94.5l48 397q1 7 1 22q0 50 -29 80t-78 30q-53 0 -91 -37t-45 -95
l-49 -397q-1 -7 -1 -20q0 -50 28.5 -80.5t76.5 -30.5q54 0 92.5 36.5zM261.5 770.5q-1.5 3.5 2.5 8.5l74 112q4 7 12 7h9q6 0 7.5 -3.5t-2.5 -8.5l-77 -112q-5 -7 -12 -7h-6q-6 0 -7.5 3.5z" />
    <glyph glyph-name="Ocircumflex" unicode="&#xd4;" horiz-adv-x="433" 
d="M99.5 29q-35.5 37 -35.5 99q0 17 1 25l49 393q8 72 55.5 117t113.5 45q61 0 97 -37t36 -99q0 -8 -2 -26l-48 -393q-9 -72 -56.5 -116.5t-114.5 -44.5q-60 0 -95.5 37zM290.5 56.5q38.5 36.5 46.5 94.5l48 397q1 7 1 22q0 50 -29 80t-78 30q-53 0 -91 -37t-45 -95
l-49 -397q-1 -7 -1 -20q0 -50 28.5 -80.5t76.5 -30.5q54 0 92.5 36.5zM208 791l76 100q5 7 12 7h18q6 0 11 -6l52 -101l1 -4q0 -8 -9 -8h-14q-7 0 -10 7l-40 81q-1 2 -3 2t-3 -2l-59 -81q-7 -7 -13 -7h-14q-12 0 -5 12z" />
    <glyph glyph-name="Otilde" unicode="&#xd5;" horiz-adv-x="433" 
d="M99.5 29q-35.5 37 -35.5 99q0 17 1 25l49 393q8 72 55.5 117t113.5 45q61 0 97 -37t36 -99q0 -8 -2 -26l-48 -393q-9 -72 -56.5 -116.5t-114.5 -44.5q-60 0 -95.5 37zM290.5 56.5q38.5 36.5 46.5 94.5l48 397q1 7 1 22q0 50 -29 80t-78 30q-53 0 -91 -37t-45 -95
l-49 -397q-1 -7 -1 -20q0 -50 28.5 -80.5t76.5 -30.5q54 0 92.5 36.5zM328 825.5q-11 6.5 -23 17.5q-2 2 -10 9t-15.5 10t-16.5 3q-15 0 -26.5 -5.5t-24.5 -22.5q-6 -9 -14 -3l-2 2q-4 3 -4 6q0 4 3 8q31 41 70 41q15 0 26 -6t25 -17q16 -12 24 -17t19 -5q14 0 25 6.5
t24 24.5q3 4 7 5t7 -1l3 -2q4 -2 4 -7t-6 -13q-16 -21 -34.5 -30.5t-34.5 -9.5q-15 0 -26 6.5z" />
    <glyph glyph-name="Odieresis" unicode="&#xd6;" horiz-adv-x="433" 
d="M99.5 29q-35.5 37 -35.5 99q0 17 1 25l49 393q8 72 55.5 117t113.5 45q61 0 97 -37t36 -99q0 -8 -2 -26l-48 -393q-9 -72 -56.5 -116.5t-114.5 -44.5q-60 0 -95.5 37zM290.5 56.5q38.5 36.5 46.5 94.5l48 397q1 7 1 22q0 50 -29 80t-78 30q-53 0 -91 -37t-45 -95
l-49 -397q-1 -7 -1 -20q0 -50 28.5 -80.5t76.5 -30.5q54 0 92.5 36.5zM332 821q-10 10 -10 27q0 20 13.5 34t33.5 14q18 0 28.5 -12t8.5 -30q-3 -19 -16 -31t-31 -12q-17 0 -27 10zM206 821q-10 10 -10 27q0 20 13.5 34t33.5 14q18 0 28.5 -12t8.5 -30q-3 -19 -16 -31
t-31 -12q-17 0 -27 10z" />
    <glyph glyph-name="multiply" unicode="&#xd7;" horiz-adv-x="343" 
d="M337 434q0 -4 -4 -8l-122 -111q-3 -3 0 -6l94 -112q2 -4 2 -5q0 -5 -4 -9l-5 -4q-3 -3 -7 -3t-6 3l-94 112q-3 3 -6 0l-122 -112q-8 -6 -14 0l-3 4q-3 3 -3 6q0 4 4 8l122 112q3 3 1 6l-94 111q-3 3 -3 6q0 2 4 8l5 4q3 4 7 4t6 -3l95 -112q3 -3 6 0l122 112q3 3 7 3
t6 -4l3 -4q3 -3 3 -6z" />
    <glyph glyph-name="Oslash" unicode="&#xd8;" horiz-adv-x="443" 
d="M435 706l-32 -63q-1 -3 0 -6q14 -28 14 -65q0 -8 -2 -26l-48 -393q-9 -72 -57 -116.5t-115 -44.5q-63 0 -98 40q-4 3 -6 -2l-24 -48q-5 -10 -14 -5l-5 3q-7 5 -3 13l32 63q2 3 0 6q-13 27 -13 66q0 16 1 25l49 393q8 72 55.5 117t113.5 45q62 0 100 -41q2 -2 6 2l24 48
q5 10 13 5l6 -3q6 -5 3 -13zM93 129q0 -18 2 -26q1 -3 3 -2.5t3 2.5l268 528q3 3 0 5q-30 44 -90 44q-53 0 -91 -37t-45 -95l-49 -397q-1 -8 -1 -22zM388 569q0 15 -3 28q-1 2 -2.5 2t-2.5 -2l-269 -528q-1 -2 -0.5 -3.5t0.5 -2.5q14 -20 36.5 -31.5t50.5 -11.5
q55 0 93.5 36.5t46.5 94.5l48 397q2 14 2 21z" />
    <glyph glyph-name="Ugrave" unicode="&#xd9;" horiz-adv-x="460" 
d="M114 32.5q-35 40.5 -35 109.5q0 23 2 35l63 513q2 10 11 10h10q4 0 6.5 -3t1.5 -7l-63 -517q-2 -22 -2 -31q0 -56 28 -89t76 -33q56 0 95 42t47 111l63 517q1 4 4 7t7 3h10q9 0 9 -10l-63 -513q-11 -83 -59 -134t-116 -51q-60 0 -95 40.5zM314 775q0 -7 -8 -7h-6
q-6 0 -11 7l-50 112q-1 2 -1 5q0 7 9 7h9q7 0 11 -7l46 -112q1 -2 1 -5z" />
    <glyph glyph-name="Uacute" unicode="&#xda;" horiz-adv-x="460" 
d="M114 32.5q-35 40.5 -35 109.5q0 23 2 35l63 513q2 10 11 10h10q4 0 6.5 -3t1.5 -7l-63 -517q-2 -22 -2 -31q0 -56 28 -89t76 -33q56 0 95 42t47 111l63 517q1 4 4 7t7 3h10q9 0 9 -10l-63 -513q-11 -83 -59 -134t-116 -51q-60 0 -95 40.5zM275.5 771.5q-1.5 3.5 2.5 8.5
l74 112q4 7 12 7h9q6 0 7.5 -3.5t-2.5 -8.5l-77 -112q-5 -7 -12 -7h-6q-6 0 -7.5 3.5z" />
    <glyph glyph-name="Ucircumflex" unicode="&#xdb;" horiz-adv-x="460" 
d="M114 32.5q-35 40.5 -35 109.5q0 23 2 35l63 513q2 10 11 10h10q4 0 6.5 -3t1.5 -7l-63 -517q-2 -22 -2 -31q0 -56 28 -89t76 -33q56 0 95 42t47 111l63 517q1 4 4 7t7 3h10q9 0 9 -10l-63 -513q-11 -83 -59 -134t-116 -51q-60 0 -95 40.5zM222 792l76 100q5 7 12 7h18
q6 0 11 -6l52 -101l1 -4q0 -8 -9 -8h-14q-7 0 -10 7l-40 81q-1 2 -3 2t-3 -2l-59 -81q-7 -7 -13 -7h-14q-12 0 -5 12z" />
    <glyph glyph-name="Udieresis" unicode="&#xdc;" horiz-adv-x="460" 
d="M114 32.5q-35 40.5 -35 109.5q0 23 2 35l63 513q2 10 11 10h10q4 0 6.5 -3t1.5 -7l-63 -517q-2 -22 -2 -31q0 -56 28 -89t76 -33q56 0 95 42t47 111l63 517q1 4 4 7t7 3h10q9 0 9 -10l-63 -513q-11 -83 -59 -134t-116 -51q-60 0 -95 40.5zM346 822q-10 10 -10 27
q0 20 13.5 34t33.5 14q18 0 28.5 -12t8.5 -30q-3 -19 -16 -31t-31 -12q-17 0 -27 10zM220 822q-10 10 -10 27q0 20 13.5 34t33.5 14q18 0 28.5 -12t8.5 -30q-3 -19 -16 -31t-31 -12q-17 0 -27 10z" />
    <glyph glyph-name="Yacute" unicode="&#xdd;" horiz-adv-x="383" 
d="M159 10l40 322v5l-90 351l-1 3q0 9 10 9h11q8 0 9 -8l77 -322q1 -3 3 -3t3 3l155 322q4 8 12 8h10q5 0 7 -3.5t0 -8.5l-175 -351q-2 -1 -2 -5l-40 -322q0 -4 -3 -7t-7 -3h-10q-9 0 -9 10zM237.5 771.5q-1.5 3.5 2.5 8.5l74 112q4 7 12 7h9q6 0 7.5 -3.5t-2.5 -8.5
l-77 -112q-5 -7 -12 -7h-6q-6 0 -7.5 3.5z" />
    <glyph glyph-name="Thorn" unicode="&#xde;" horiz-adv-x="416" 
d="M369 495q33 -40 33 -108q0 -23 -2 -36q-10 -82 -55.5 -132t-109.5 -50h-115q-3 0 -5 -4l-19 -155q0 -4 -3 -7t-8 -3h-9q-5 0 -7.5 3t-1.5 7l84 680q0 4 3 7t8 3h9q5 0 7.5 -3t1.5 -7l-19 -151q0 -4 4 -4h114q57 0 90 -40zM325.5 238.5q37.5 42.5 45.5 112.5q2 22 2 31
q0 57 -26.5 91t-71.5 34h-114q-4 0 -4 -4l-37 -303q-1 -1 0 -2.5t3 -1.5h113q52 0 89.5 42.5z" />
    <glyph glyph-name="germandbls" unicode="&#xdf;" horiz-adv-x="400" 
d="M54 10l63 515q10 86 50.5 135t99.5 49q56 0 86.5 -39t30.5 -109q0 -10 -2 -34q-6 -60 -29.5 -101.5t-58.5 -57.5q-5 -2 0 -5q26 -15 40 -48.5t14 -81.5q0 -21 -3 -45q-11 -87 -56 -137.5t-114 -50.5h-42q-9 0 -9 10l1 7q2 10 11 10l43 1q57 1 92.5 42.5t44.5 118.5
q3 24 3 45q0 56 -21.5 87t-61.5 33h-42q-9 0 -9 10l1 7q2 10 11 10h44q46 0 75.5 38t36.5 108q2 22 2 33q0 58 -24 89.5t-67 31.5q-46 0 -77.5 -40.5t-40.5 -113.5l-63 -517q-2 -10 -11 -10h-10q-10 0 -8 10z" />
    <glyph glyph-name="agrave" unicode="&#xe0;" horiz-adv-x="380" 
d="M340 498q3 3 8 3h9q5 0 7.5 -3t1.5 -7l-59 -481q-2 -10 -11 -10h-10q-10 0 -8 10l4 39q1 3 -0.5 3.5t-3.5 -1.5q-20 -28 -48 -43.5t-61 -15.5q-53 0 -83.5 33t-30.5 87q0 7 2 25l27 227q8 64 49 104.5t99 40.5q33 0 58 -16t37 -44q1 -3 2.5 -2.5t2.5 3.5l5 41q0 4 3 7z
M254.5 52.5q32.5 32.5 38.5 84.5l28 227q1 7 1 21q0 43 -24 69.5t-64 26.5q-47 0 -80.5 -32.5t-39.5 -84.5l-28 -227q-1 -7 -1 -20q0 -44 25 -70.5t67 -26.5q45 0 77.5 32.5zM250 576q0 -7 -8 -7h-6q-6 0 -11 7l-50 112q-1 2 -1 5q0 7 9 7h9q7 0 11 -7l46 -112q1 -2 1 -5z
" />
    <glyph glyph-name="aacute" unicode="&#xe1;" horiz-adv-x="380" 
d="M340 498q3 3 8 3h9q5 0 7.5 -3t1.5 -7l-59 -481q-2 -10 -11 -10h-10q-10 0 -8 10l4 39q1 3 -0.5 3.5t-3.5 -1.5q-20 -28 -48 -43.5t-61 -15.5q-53 0 -83.5 33t-30.5 87q0 7 2 25l27 227q8 64 49 104.5t99 40.5q33 0 58 -16t37 -44q1 -3 2.5 -2.5t2.5 3.5l5 41q0 4 3 7z
M254.5 52.5q32.5 32.5 38.5 84.5l28 227q1 7 1 21q0 43 -24 69.5t-64 26.5q-47 0 -80.5 -32.5t-39.5 -84.5l-28 -227q-1 -7 -1 -20q0 -44 25 -70.5t67 -26.5q45 0 77.5 32.5zM211.5 572.5q-1.5 3.5 2.5 8.5l74 112q4 7 12 7h9q6 0 7.5 -3.5t-2.5 -8.5l-77 -112q-5 -7 -12 -7
h-6q-6 0 -7.5 3.5z" />
    <glyph glyph-name="acircumflex" unicode="&#xe2;" horiz-adv-x="380" 
d="M340 498q3 3 8 3h9q5 0 7.5 -3t1.5 -7l-59 -481q-2 -10 -11 -10h-10q-10 0 -8 10l4 39q1 3 -0.5 3.5t-3.5 -1.5q-20 -28 -48 -43.5t-61 -15.5q-53 0 -83.5 33t-30.5 87q0 7 2 25l27 227q8 64 49 104.5t99 40.5q33 0 58 -16t37 -44q1 -3 2.5 -2.5t2.5 3.5l5 41q0 4 3 7z
M254.5 52.5q32.5 32.5 38.5 84.5l28 227q1 7 1 21q0 43 -24 69.5t-64 26.5q-47 0 -80.5 -32.5t-39.5 -84.5l-28 -227q-1 -7 -1 -20q0 -44 25 -70.5t67 -26.5q45 0 77.5 32.5zM158 593l76 100q5 7 12 7h18q6 0 11 -6l52 -101l1 -4q0 -8 -9 -8h-14q-7 0 -10 7l-40 81
q-1 2 -3 2t-3 -2l-59 -81q-7 -7 -13 -7h-14q-12 0 -5 12z" />
    <glyph glyph-name="atilde" unicode="&#xe3;" horiz-adv-x="380" 
d="M340 498q3 3 8 3h9q5 0 7.5 -3t1.5 -7l-59 -481q-2 -10 -11 -10h-10q-10 0 -8 10l4 39q1 3 -0.5 3.5t-3.5 -1.5q-20 -28 -48 -43.5t-61 -15.5q-53 0 -83.5 33t-30.5 87q0 7 2 25l27 227q8 64 49 104.5t99 40.5q33 0 58 -16t37 -44q1 -3 2.5 -2.5t2.5 3.5l5 41q0 4 3 7z
M254.5 52.5q32.5 32.5 38.5 84.5l28 227q1 7 1 21q0 43 -24 69.5t-64 26.5q-47 0 -80.5 -32.5t-39.5 -84.5l-28 -227q-1 -7 -1 -20q0 -44 25 -70.5t67 -26.5q45 0 77.5 32.5zM278 627.5q-11 6.5 -23 17.5q-2 2 -10 9t-15.5 10t-16.5 3q-15 0 -26.5 -5.5t-24.5 -22.5
q-6 -9 -14 -3l-2 2q-4 3 -4 6q0 4 3 8q31 41 70 41q15 0 26 -6t25 -17q16 -12 24 -17t19 -5q14 0 25 6.5t24 24.5q3 4 7 5t7 -1l3 -2q4 -2 4 -7t-6 -13q-16 -21 -34.5 -30.5t-34.5 -9.5q-15 0 -26 6.5z" />
    <glyph glyph-name="adieresis" unicode="&#xe4;" horiz-adv-x="380" 
d="M340 498q3 3 8 3h9q5 0 7.5 -3t1.5 -7l-59 -481q-2 -10 -11 -10h-10q-10 0 -8 10l4 39q1 3 -0.5 3.5t-3.5 -1.5q-20 -28 -48 -43.5t-61 -15.5q-53 0 -83.5 33t-30.5 87q0 7 2 25l27 227q8 64 49 104.5t99 40.5q33 0 58 -16t37 -44q1 -3 2.5 -2.5t2.5 3.5l5 41q0 4 3 7z
M254.5 52.5q32.5 32.5 38.5 84.5l28 227q1 7 1 21q0 43 -24 69.5t-64 26.5q-47 0 -80.5 -32.5t-39.5 -84.5l-28 -227q-1 -7 -1 -20q0 -44 25 -70.5t67 -26.5q45 0 77.5 32.5zM283 623q-10 10 -10 27q0 20 13.5 34t33.5 14q18 0 28.5 -12t8.5 -30q-3 -19 -16 -31t-31 -12
q-17 0 -27 10zM157 623q-10 10 -10 27q0 20 13.5 34t33.5 14q18 0 28.5 -12t8.5 -30q-3 -19 -16 -31t-31 -12q-17 0 -27 10z" />
    <glyph glyph-name="aring" unicode="&#xe5;" horiz-adv-x="380" 
d="M340 498q3 3 8 3h9q5 0 7.5 -3t1.5 -7l-59 -481q-2 -10 -11 -10h-10q-10 0 -8 10l4 39q1 3 -0.5 3.5t-3.5 -1.5q-20 -28 -48 -43.5t-61 -15.5q-53 0 -83.5 33t-30.5 87q0 7 2 25l27 227q8 64 49 104.5t99 40.5q33 0 58 -16t37 -44q1 -3 2.5 -2.5t2.5 3.5l5 41q0 4 3 7z
M254.5 52.5q32.5 32.5 38.5 84.5l28 227q1 7 1 21q0 43 -24 69.5t-64 26.5q-47 0 -80.5 -32.5t-39.5 -84.5l-28 -227q-1 -7 -1 -20q0 -44 25 -70.5t67 -26.5q45 0 77.5 32.5zM184.5 612.5q-23.5 24.5 -23.5 61.5q0 30 15 55.5t39.5 41t51.5 15.5q36 0 59 -24.5t23 -60.5
q0 -30 -15 -56t-39 -41.5t-52 -15.5q-35 0 -58.5 24.5zM301 637.5q24 24.5 24 59.5q0 28 -17.5 46t-43.5 18q-31 0 -55.5 -24.5t-24.5 -59.5q0 -28 18 -46t44 -18q31 0 55 24.5z" />
    <glyph glyph-name="ae" unicode="&#xe6;" horiz-adv-x="614" 
d="M72.5 15.5q-29.5 23.5 -29.5 81.5q0 8 2 30q17 149 170 149h88q4 0 4 4l8 65q2 22 2 31q0 49 -22.5 77t-64.5 28q-39 0 -71.5 -24.5t-40.5 -63.5q-3 -10 -12 -9l-10 1q-9 2 -8 11q12 51 53.5 82t92.5 31q41 0 67 -20.5t37 -57.5q1 -2 2 -2t2 2q21 37 54 57.5t74 20.5
q54 0 86 -34t32 -89q0 -14 -1 -22l-13 -104q-2 -10 -11 -10h-226q-4 0 -4 -4l-14 -109q-1 -6 -1 -18q0 -44 25 -71.5t67 -27.5q38 0 68 23t44 60q5 9 12 9h9q5 0 7.5 -3t0.5 -8q-16 -49 -55 -79t-89 -30q-44 0 -73.5 23.5t-37.5 62.5q-1 3 -2 3t-2 -3q-20 -42 -59 -64
t-86 -22q-45 0 -74.5 23.5zM340 276h203q3 0 5 4l10 84q1 6 1 18q0 45 -25.5 72t-67.5 27q-46 0 -79 -32.5t-40 -84.5l-10 -84q0 -4 3 -4zM244 51q39 32 46 92l13 102q0 4 -4 4h-85q-58 0 -95 -29t-45 -92q-2 -16 -2 -23q0 -44 23 -65t61 -21q49 0 88 32z" />
    <glyph glyph-name="ccedilla" unicode="&#xe7;" horiz-adv-x="372" 
d="M343 370h-9q-5 0 -7.5 3t-1.5 7v3q1 4 1 12q0 35 -26 60.5t-67 25.5q-47 0 -80 -32.5t-39 -84.5l-28 -227q-1 -7 -1 -20q0 -44 24.5 -70.5t66.5 -26.5q45 0 78.5 29.5t38.5 68.5v3q2 10 11 10h10q10 0 8 -10v-3q-5 -46 -42 -82t-89 -42q-5 -2 -2 -5q31 -35 31 -79
q0 -17 -5 -37q-8 -30 -28.5 -44t-46.5 -14q-14 0 -21 2q-8 1 -5 12l1 4q3 10 13 7q5 -1 14 -1q39 0 50 42q3 12 3 24q0 41 -34 86q-2 2 -5 2q-46 4 -73.5 37t-27.5 83q0 8 2 24l27 227q8 63 50.5 104t101.5 41q54 0 87 -33t33 -80l-1 -13l-1 -6q-2 -7 -11 -7z" />
    <glyph glyph-name="egrave" unicode="&#xe8;" horiz-adv-x="379" 
d="M328 244h-225q-3 0 -5 -4l-12 -103q-1 -7 -1 -20q0 -44 24.5 -70.5t66.5 -26.5q38 0 68 23t43 61q5 9 12 9h10q5 0 7 -3.5t0 -8.5q-15 -49 -53.5 -79t-89.5 -30q-54 0 -86 33.5t-32 87.5q0 8 2 24l27 227q8 63 50.5 104t101.5 41q54 0 85.5 -34t31.5 -89q0 -14 -1 -22
l-13 -110q-2 -10 -11 -10zM153 448.5q-33 -32.5 -39 -84.5l-11 -90q-1 -1 0 -2.5t3 -1.5h202q4 0 4 4l11 90q1 7 1 20q0 44 -24.5 70.5t-66.5 26.5q-47 0 -80 -32.5zM250 576q0 -7 -8 -7h-6q-6 0 -11 7l-50 112q-1 2 -1 5q0 7 9 7h9q7 0 11 -7l46 -112q1 -2 1 -5z" />
    <glyph glyph-name="eacute" unicode="&#xe9;" horiz-adv-x="379" 
d="M328 244h-225q-3 0 -5 -4l-12 -103q-1 -7 -1 -20q0 -44 24.5 -70.5t66.5 -26.5q38 0 68 23t43 61q5 9 12 9h10q5 0 7 -3.5t0 -8.5q-15 -49 -53.5 -79t-89.5 -30q-54 0 -86 33.5t-32 87.5q0 8 2 24l27 227q8 63 50.5 104t101.5 41q54 0 85.5 -34t31.5 -89q0 -14 -1 -22
l-13 -110q-2 -10 -11 -10zM153 448.5q-33 -32.5 -39 -84.5l-11 -90q-1 -1 0 -2.5t3 -1.5h202q4 0 4 4l11 90q1 7 1 20q0 44 -24.5 70.5t-66.5 26.5q-47 0 -80 -32.5zM211.5 572.5q-1.5 3.5 2.5 8.5l74 112q4 7 12 7h9q6 0 7.5 -3.5t-2.5 -8.5l-77 -112q-5 -7 -12 -7h-6
q-6 0 -7.5 3.5z" />
    <glyph glyph-name="ecircumflex" unicode="&#xea;" horiz-adv-x="379" 
d="M328 244h-225q-3 0 -5 -4l-12 -103q-1 -7 -1 -20q0 -44 24.5 -70.5t66.5 -26.5q38 0 68 23t43 61q5 9 12 9h10q5 0 7 -3.5t0 -8.5q-15 -49 -53.5 -79t-89.5 -30q-54 0 -86 33.5t-32 87.5q0 8 2 24l27 227q8 63 50.5 104t101.5 41q54 0 85.5 -34t31.5 -89q0 -14 -1 -22
l-13 -110q-2 -10 -11 -10zM153 448.5q-33 -32.5 -39 -84.5l-11 -90q-1 -1 0 -2.5t3 -1.5h202q4 0 4 4l11 90q1 7 1 20q0 44 -24.5 70.5t-66.5 26.5q-47 0 -80 -32.5zM158 593l76 100q5 7 12 7h18q6 0 11 -6l52 -101l1 -4q0 -8 -9 -8h-14q-7 0 -10 7l-40 81q-1 2 -3 2t-3 -2
l-59 -81q-7 -7 -13 -7h-14q-12 0 -5 12z" />
    <glyph glyph-name="edieresis" unicode="&#xeb;" horiz-adv-x="379" 
d="M328 244h-225q-3 0 -5 -4l-12 -103q-1 -7 -1 -20q0 -44 24.5 -70.5t66.5 -26.5q38 0 68 23t43 61q5 9 12 9h10q5 0 7 -3.5t0 -8.5q-15 -49 -53.5 -79t-89.5 -30q-54 0 -86 33.5t-32 87.5q0 8 2 24l27 227q8 63 50.5 104t101.5 41q54 0 85.5 -34t31.5 -89q0 -14 -1 -22
l-13 -110q-2 -10 -11 -10zM153 448.5q-33 -32.5 -39 -84.5l-11 -90q-1 -1 0 -2.5t3 -1.5h202q4 0 4 4l11 90q1 7 1 20q0 44 -24.5 70.5t-66.5 26.5q-47 0 -80 -32.5zM282 623q-10 10 -10 27q0 20 13.5 34t33.5 14q18 0 28.5 -12t8.5 -30q-3 -19 -16 -31t-31 -12
q-17 0 -27 10zM156 623q-10 10 -10 27q0 20 13.5 34t33.5 14q18 0 28.5 -12t8.5 -30q-3 -19 -16 -31t-31 -12q-17 0 -27 10z" />
    <glyph glyph-name="igrave" unicode="&#xec;" horiz-adv-x="152" 
d="M44.5 3q-2.5 3 -1.5 7l59 481q2 10 11 10h10q4 0 6.5 -3t1.5 -7l-59 -481q-2 -10 -11 -10h-10q-4 0 -6.5 3zM136 576q0 -7 -8 -7h-6q-6 0 -11 7l-50 112q-1 2 -1 5q0 7 9 7h9q7 0 11 -7l46 -112q1 -2 1 -5z" />
    <glyph glyph-name="iacute" unicode="&#xed;" horiz-adv-x="152" 
d="M44.5 3q-2.5 3 -1.5 7l59 481q2 10 11 10h10q4 0 6.5 -3t1.5 -7l-59 -481q-2 -10 -11 -10h-10q-4 0 -6.5 3zM97.5 572.5q-1.5 3.5 2.5 8.5l74 112q4 7 12 7h9q6 0 7.5 -3.5t-2.5 -8.5l-77 -112q-5 -7 -12 -7h-6q-6 0 -7.5 3.5z" />
    <glyph glyph-name="icircumflex" unicode="&#xee;" horiz-adv-x="152" 
d="M44.5 3q-2.5 3 -1.5 7l59 481q2 10 11 10h10q4 0 6.5 -3t1.5 -7l-59 -481q-2 -10 -11 -10h-10q-4 0 -6.5 3zM44 593l76 100q5 7 12 7h18q6 0 11 -6l52 -101l1 -4q0 -8 -9 -8h-14q-7 0 -10 7l-40 81q-1 2 -3 2t-3 -2l-59 -81q-7 -7 -13 -7h-14q-12 0 -5 12z" />
    <glyph glyph-name="idieresis" unicode="&#xef;" horiz-adv-x="152" 
d="M44.5 3q-2.5 3 -1.5 7l59 481q2 10 11 10h10q4 0 6.5 -3t1.5 -7l-59 -481q-2 -10 -11 -10h-10q-4 0 -6.5 3zM169 623q-10 10 -10 27q0 20 13.5 34t33.5 14q18 0 28.5 -12t8.5 -30q-3 -19 -16 -31t-31 -12q-17 0 -27 10zM43 623q-10 10 -10 27q0 20 13.5 34t33.5 14
q18 0 28.5 -12t8.5 -30q-3 -19 -16 -31t-31 -12q-17 0 -27 10z" />
    <glyph glyph-name="eth" unicode="&#xf0;" horiz-adv-x="409" 
d="M323 602q33 -71 33 -171q0 -19 -4 -69q-3 -26 -6 -47.5t-5 -40.5l-3 -24l-14 -113q-8 -64 -50 -104.5t-101 -40.5q-54 0 -86 33.5t-32 87.5q0 8 2 24l27 225q8 63 50 104t100 41q59 0 91 -42q1 -2 2.5 -1.5t1.5 2.5q0 67 -30 130q-2 3 -4 2l-71 -24l-4 -1q-5 0 -7 6
q-1 1 -1 3l-1 1v2q0 7 9 11l62 21q4 2 3 5q-21 36 -49 66q-3 3 -3 7q0 5 7 5h9q6 0 9 -3q3 -1 3 -4q30 -28 49 -64q2 -4 5 -2l81 27l4 1q5 0 7 -8l1 -3q0 -9 -8 -12l-74 -25q-3 -1 -3 -5zM324 381q0 44 -25 71t-67 27q-46 0 -79 -32.5t-40 -84.5l-27 -225q-1 -7 -1 -20
q0 -44 24.5 -70.5t66.5 -26.5q47 0 80 32.5t39 84.5l28 225q1 6 1 19z" />
    <glyph glyph-name="ntilde" unicode="&#xf1;" 
d="M212 661.5q-10 -5.5 -21 -21.5q-6 -10 -13 -3l-2 2q-5 5 0 12q27 42 60 42q12 0 20 -5.5t22 -17.5q12 -12 19 -17t16 -5q11 0 20.5 6.5t20.5 23.5q7 11 14 5l1 -1q6 -6 2 -13q-14 -25 -31.5 -36.5t-31.5 -11.5q-11 0 -19.5 6t-20.5 18q-3 3 -9 9.5t-12 9.5t-13 3
q-12 0 -22 -5.5zM332 477.5q27 -30.5 27 -87.5q0 -9 -2 -33l-42 -347q-1 -4 -4 -7t-7 -3h-10q-9 0 -9 10l43 343q2 18 2 27q0 48 -22 74t-64 26q-48 0 -80.5 -36t-39.5 -99l-41 -335q-2 -10 -11 -10h-10q-10 0 -8 10l59 481q0 4 3 7t8 3h9q5 0 7.5 -3t1.5 -7l-6 -48
q-1 -3 1 -3t3 3q20 32 49.5 48.5t64.5 16.5q51 0 78 -30.5z" />
    <glyph glyph-name="ograve" unicode="&#xf2;" horiz-adv-x="386" 
d="M87 25.5q-32 33.5 -32 87.5q0 8 2 24l27 227q8 63 50.5 104t101.5 41q54 0 85.5 -34t31.5 -89q0 -14 -1 -22l-28 -227q-8 -64 -50 -104.5t-101 -40.5q-54 0 -86 33.5zM256 52.5q33 32.5 39 84.5l28 227q1 7 1 20q0 44 -24.5 70.5t-66.5 26.5q-47 0 -80 -32.5t-39 -84.5
l-28 -227q-1 -7 -1 -20q0 -44 24.5 -70.5t66.5 -26.5q47 0 80 32.5zM253 576q0 -7 -8 -7h-6q-6 0 -11 7l-50 112q-1 2 -1 5q0 7 9 7h9q7 0 11 -7l46 -112q1 -2 1 -5z" />
    <glyph glyph-name="oacute" unicode="&#xf3;" horiz-adv-x="386" 
d="M87 25.5q-32 33.5 -32 87.5q0 8 2 24l27 227q8 63 50.5 104t101.5 41q54 0 85.5 -34t31.5 -89q0 -14 -1 -22l-28 -227q-8 -64 -50 -104.5t-101 -40.5q-54 0 -86 33.5zM256 52.5q33 32.5 39 84.5l28 227q1 7 1 20q0 44 -24.5 70.5t-66.5 26.5q-47 0 -80 -32.5t-39 -84.5
l-28 -227q-1 -7 -1 -20q0 -44 24.5 -70.5t66.5 -26.5q47 0 80 32.5zM214.5 572.5q-1.5 3.5 2.5 8.5l74 112q4 7 12 7h9q6 0 7.5 -3.5t-2.5 -8.5l-77 -112q-5 -7 -12 -7h-6q-6 0 -7.5 3.5z" />
    <glyph glyph-name="ocircumflex" unicode="&#xf4;" horiz-adv-x="386" 
d="M87 25.5q-32 33.5 -32 87.5q0 8 2 24l27 227q8 63 50.5 104t101.5 41q54 0 85.5 -34t31.5 -89q0 -14 -1 -22l-28 -227q-8 -64 -50 -104.5t-101 -40.5q-54 0 -86 33.5zM256 52.5q33 32.5 39 84.5l28 227q1 7 1 20q0 44 -24.5 70.5t-66.5 26.5q-47 0 -80 -32.5t-39 -84.5
l-28 -227q-1 -7 -1 -20q0 -44 24.5 -70.5t66.5 -26.5q47 0 80 32.5zM161 593l76 100q5 7 12 7h18q6 0 11 -6l52 -101l1 -4q0 -8 -9 -8h-14q-7 0 -10 7l-40 81q-1 2 -3 2t-3 -2l-59 -81q-7 -7 -13 -7h-14q-12 0 -5 12z" />
    <glyph glyph-name="otilde" unicode="&#xf5;" horiz-adv-x="386" 
d="M87 25.5q-32 33.5 -32 87.5q0 8 2 24l27 227q8 63 50.5 104t101.5 41q54 0 85.5 -34t31.5 -89q0 -14 -1 -22l-28 -227q-8 -64 -50 -104.5t-101 -40.5q-54 0 -86 33.5zM256 52.5q33 32.5 39 84.5l28 227q1 7 1 20q0 44 -24.5 70.5t-66.5 26.5q-47 0 -80 -32.5t-39 -84.5
l-28 -227q-1 -7 -1 -20q0 -44 24.5 -70.5t66.5 -26.5q47 0 80 32.5zM281 627.5q-11 6.5 -23 17.5q-2 2 -10 9t-15.5 10t-16.5 3q-15 0 -26.5 -5.5t-24.5 -22.5q-6 -9 -14 -3l-2 2q-4 3 -4 6q0 4 3 8q31 41 70 41q15 0 26 -6t25 -17q16 -12 24 -17t19 -5q14 0 25 6.5t24 24.5
q3 4 7 5t7 -1l3 -2q4 -2 4 -7t-6 -13q-16 -21 -34.5 -30.5t-34.5 -9.5q-15 0 -26 6.5z" />
    <glyph glyph-name="odieresis" unicode="&#xf6;" horiz-adv-x="386" 
d="M87 25.5q-32 33.5 -32 87.5q0 8 2 24l27 227q8 63 50.5 104t101.5 41q54 0 85.5 -34t31.5 -89q0 -14 -1 -22l-28 -227q-8 -64 -50 -104.5t-101 -40.5q-54 0 -86 33.5zM256 52.5q33 32.5 39 84.5l28 227q1 7 1 20q0 44 -24.5 70.5t-66.5 26.5q-47 0 -80 -32.5t-39 -84.5
l-28 -227q-1 -7 -1 -20q0 -44 24.5 -70.5t66.5 -26.5q47 0 80 32.5zM285 623q-10 10 -10 27q0 20 13.5 34t33.5 14q18 0 28.5 -12t8.5 -30q-3 -19 -16 -31t-31 -12q-17 0 -27 10zM159 623q-10 10 -10 27q0 20 13.5 34t33.5 14q18 0 28.5 -12t8.5 -30q-3 -19 -16 -31t-31 -12
q-17 0 -27 10z" />
    <glyph glyph-name="divide" unicode="&#xf7;" horiz-adv-x="430" 
d="M222 444.5q-10 10.5 -10 26.5q0 19 14 33.5t33 14.5q15 0 26 -10.5t11 -26.5q0 -19 -14.5 -33.5t-33.5 -14.5q-16 0 -26 10.5zM58.5 324q-2.5 3 -1.5 7l1 5q0 4 3 7t8 3h339q9 0 9 -10l-1 -5q-2 -10 -11 -10h-339q-5 0 -7.5 3zM187 159.5q-10 10.5 -10 26.5q0 19 14 33.5
t33 14.5q15 0 26 -10.5t11 -26.5q0 -19 -14.5 -33.5t-33.5 -14.5q-16 0 -26 10.5z" />
    <glyph glyph-name="oslash" unicode="&#xf8;" horiz-adv-x="389" 
d="M332 464q22 -31 22 -77q0 -15 -1 -23l-28 -227q-8 -64 -50 -104.5t-102 -40.5q-39 0 -68 19q-4 1 -6 -2l-24 -49q-5 -10 -14 -6l-6 4q-8 6 -4 13l29 57q2 3 0 5q-25 33 -25 79q0 7 2 25l27 227q8 63 50.5 104t101.5 41q44 0 71 -21q4 -1 6 2l29 57q3 10 13 5l6 -4
q8 -5 3 -13l-33 -66q-1 -3 1 -5zM84 117q0 -25 12 -49q0 -2 2 -1.5t3 2.5l194 385q2 3 -1 5q-24 22 -61 22q-47 0 -80 -32.5t-39 -84.5l-28 -227q-2 -14 -2 -20zM325 383q0 25 -8 46q-1 2 -2.5 2t-2.5 -3l-195 -384q-1 -4 1 -5q24 -19 58 -19q47 0 80.5 32.5t39.5 84.5
l28 227q1 7 1 19z" />
    <glyph glyph-name="ugrave" unicode="&#xf9;" 
d="M341 498q3 3 8 3h9q5 0 7.5 -3t1.5 -7l-59 -481q-2 -10 -11 -10h-10q-10 0 -8 10l5 40q0 3 -2 3.5t-3 -2.5q-39 -58 -109 -58q-51 0 -79.5 28t-28.5 84q0 21 2 33l43 353q2 10 11 10h9q5 0 7.5 -3t1.5 -7l-43 -346q-2 -20 -2 -29q0 -47 22 -71t64 -24q47 0 79.5 36
t40.5 99l41 335q0 4 3 7zM256 576q0 -7 -8 -7h-6q-6 0 -11 7l-50 112q-1 2 -1 5q0 7 9 7h9q7 0 11 -7l46 -112q1 -2 1 -5z" />
    <glyph glyph-name="uacute" unicode="&#xfa;" 
d="M341 498q3 3 8 3h9q5 0 7.5 -3t1.5 -7l-59 -481q-2 -10 -11 -10h-10q-10 0 -8 10l5 40q0 3 -2 3.5t-3 -2.5q-39 -58 -109 -58q-51 0 -79.5 28t-28.5 84q0 21 2 33l43 353q2 10 11 10h9q5 0 7.5 -3t1.5 -7l-43 -346q-2 -20 -2 -29q0 -47 22 -71t64 -24q47 0 79.5 36
t40.5 99l41 335q0 4 3 7zM216.5 572.5q-1.5 3.5 2.5 8.5l74 112q4 7 12 7h9q6 0 7.5 -3.5t-2.5 -8.5l-77 -112q-5 -7 -12 -7h-6q-6 0 -7.5 3.5z" />
    <glyph glyph-name="ucircumflex" unicode="&#xfb;" 
d="M341 498q3 3 8 3h9q5 0 7.5 -3t1.5 -7l-59 -481q-2 -10 -11 -10h-10q-10 0 -8 10l5 40q0 3 -2 3.5t-3 -2.5q-39 -58 -109 -58q-51 0 -79.5 28t-28.5 84q0 21 2 33l43 353q2 10 11 10h9q5 0 7.5 -3t1.5 -7l-43 -346q-2 -20 -2 -29q0 -47 22 -71t64 -24q47 0 79.5 36
t40.5 99l41 335q0 4 3 7zM164 593l76 100q5 7 12 7h18q6 0 11 -6l52 -101l1 -4q0 -8 -9 -8h-14q-7 0 -10 7l-40 81q-1 2 -3 2t-3 -2l-59 -81q-7 -7 -13 -7h-14q-12 0 -5 12z" />
    <glyph glyph-name="udieresis" unicode="&#xfc;" 
d="M341 498q3 3 8 3h9q5 0 7.5 -3t1.5 -7l-59 -481q-2 -10 -11 -10h-10q-10 0 -8 10l5 40q0 3 -2 3.5t-3 -2.5q-39 -58 -109 -58q-51 0 -79.5 28t-28.5 84q0 21 2 33l43 353q2 10 11 10h9q5 0 7.5 -3t1.5 -7l-43 -346q-2 -20 -2 -29q0 -47 22 -71t64 -24q47 0 79.5 36
t40.5 99l41 335q0 4 3 7zM288 623q-10 10 -10 27q0 20 13.5 34t33.5 14q18 0 28.5 -12t8.5 -30q-3 -19 -16 -31t-31 -12q-17 0 -27 10zM162 623q-10 10 -10 27q0 20 13.5 34t33.5 14q18 0 28.5 -12t8.5 -30q-3 -19 -16 -31t-31 -12q-17 0 -27 10z" />
    <glyph glyph-name="yacute" unicode="&#xfd;" horiz-adv-x="325" 
d="M-2 -197q-2 3 -1 7l1 7q2 10 11 10h1q28 1 44.5 14t31.5 46t42 110q1 2 0.5 3.5t-0.5 2.5l-65 487v2q0 9 10 9h11q9 0 9 -9l54 -445q1 -3 2 -3t2 3l163 445q2 9 11 9h11q12 0 7 -11l-206 -549q-24 -63 -41.5 -92t-37 -39t-52.5 -10h-4q-2 0 -4 3zM184.5 572.5
q-1.5 3.5 2.5 8.5l74 112q4 7 12 7h9q6 0 7.5 -3.5t-2.5 -8.5l-77 -112q-5 -7 -12 -7h-6q-6 0 -7.5 3.5z" />
    <glyph glyph-name="thorn" unicode="&#xfe;" horiz-adv-x="391" 
d="M328 475.5q30 -33.5 30 -88.5q0 -15 -1 -23l-28 -227q-8 -64 -48.5 -104.5t-99.5 -40.5q-33 0 -57.5 15.5t-36.5 43.5q-2 2 -3.5 1.5t-1.5 -3.5l-30 -239q0 -4 -3 -7t-8 -3h-9q-5 0 -7.5 3t-1.5 7l108 880q2 10 11 10h10q10 0 8 -10l-29 -238q0 -6 4 -2q20 28 48.5 43.5
t61.5 15.5q53 0 83 -33.5zM329 382q0 45 -25.5 72t-67.5 27q-45 0 -77 -32.5t-39 -84.5l-28 -227q-1 -6 -1 -19q0 -44 24 -71t64 -27q47 0 81 32.5t40 84.5l28 227q1 6 1 18z" />
    <glyph glyph-name="ydieresis" unicode="&#xff;" horiz-adv-x="325" 
d="M-2 -197q-2 3 -1 7l1 7q2 10 11 10h1q28 1 44.5 14t31.5 46t42 110q1 2 0.5 3.5t-0.5 2.5l-65 487v2q0 9 10 9h11q9 0 9 -9l54 -445q1 -3 2 -3t2 3l163 445q2 9 11 9h11q12 0 7 -11l-206 -549q-24 -63 -41.5 -92t-37 -39t-52.5 -10h-4q-2 0 -4 3zM256 623q-10 10 -10 27
q0 20 13.5 34t33.5 14q18 0 28.5 -12t8.5 -30q-3 -19 -16 -31t-31 -12q-17 0 -27 10zM130 623q-10 10 -10 27q0 20 13.5 34t33.5 14q18 0 28.5 -12t8.5 -30q-3 -19 -16 -31t-31 -12q-17 0 -27 10z" />
    <glyph glyph-name="Amacron" unicode="&#x100;" horiz-adv-x="356" 
d="M297 9l-12 139q0 4 -4 4h-207q-2 0 -3.5 -1t-1.5 -3l-47 -139q-1 -9 -11 -9h-10q-5 0 -7 3t0 8l231 680q3 9 12 9h14q9 0 9 -9l66 -680v-2q0 -4 -3 -6.5t-7 -2.5h-9q-10 0 -10 9zM81 180.5q1 -1.5 3 -1.5h193q2 0 3.5 1.5t0.5 2.5l-42 461q0 3 -1 3t-3 -3l-154 -461
q-1 -1 0 -2.5zM165.5 805q-2.5 3 -1.5 7l1 6q2 10 11 10h168q4 0 6.5 -3t1.5 -7l-1 -6q0 -4 -3 -7t-8 -3h-167q-5 0 -7.5 3z" />
    <glyph glyph-name="amacron" unicode="&#x101;" horiz-adv-x="380" 
d="M340 498q3 3 8 3h9q5 0 7.5 -3t1.5 -7l-59 -481q-2 -10 -11 -10h-10q-10 0 -8 10l4 39q1 3 -0.5 3.5t-3.5 -1.5q-20 -28 -48 -43.5t-61 -15.5q-53 0 -83.5 33t-30.5 87q0 7 2 25l27 227q8 64 49 104.5t99 40.5q33 0 58 -16t37 -44q1 -3 2.5 -2.5t2.5 3.5l5 41q0 4 3 7z
M254.5 52.5q32.5 32.5 38.5 84.5l28 227q1 7 1 21q0 43 -24 69.5t-64 26.5q-47 0 -80.5 -32.5t-39.5 -84.5l-28 -227q-1 -7 -1 -20q0 -44 25 -70.5t67 -26.5q45 0 77.5 32.5zM153.5 606q-2.5 3 -1.5 7l1 6q2 10 11 10h168q4 0 6.5 -3t1.5 -7l-1 -6q0 -4 -3 -7t-8 -3h-167
q-5 0 -7.5 3z" />
    <glyph glyph-name="Abreve" unicode="&#x102;" horiz-adv-x="356" 
d="M297 9l-12 139q0 4 -4 4h-207q-2 0 -3.5 -1t-1.5 -3l-47 -139q-1 -9 -11 -9h-10q-5 0 -7 3t0 8l231 680q3 9 12 9h14q9 0 9 -9l66 -680v-2q0 -4 -3 -6.5t-7 -2.5h-9q-10 0 -10 9zM81 180.5q1 -1.5 3 -1.5h193q2 0 3.5 1.5t0.5 2.5l-42 461q0 3 -1 3t-3 -3l-154 -461
q-1 -1 0 -2.5zM193 787.5q-23 25.5 -22 62.5v2q0 4 3 6t7 2h5q9 0 9 -12q0 -27 17 -44.5t43 -17.5t47.5 18t28.5 46q3 10 12 10h4q5 0 7 -3t1 -7q-8 -38 -37.5 -63t-65.5 -25t-59 25.5z" />
    <glyph glyph-name="abreve" unicode="&#x103;" horiz-adv-x="380" 
d="M340 498q3 3 8 3h9q5 0 7.5 -3t1.5 -7l-59 -481q-2 -10 -11 -10h-10q-10 0 -8 10l4 39q1 3 -0.5 3.5t-3.5 -1.5q-20 -28 -48 -43.5t-61 -15.5q-53 0 -83.5 33t-30.5 87q0 7 2 25l27 227q8 64 49 104.5t99 40.5q33 0 58 -16t37 -44q1 -3 2.5 -2.5t2.5 3.5l5 41q0 4 3 7z
M254.5 52.5q32.5 32.5 38.5 84.5l28 227q1 7 1 21q0 43 -24 69.5t-64 26.5q-47 0 -80.5 -32.5t-39.5 -84.5l-28 -227q-1 -7 -1 -20q0 -44 25 -70.5t67 -26.5q45 0 77.5 32.5zM181 588.5q-23 25.5 -22 62.5v2q0 4 3 6t7 2h5q9 0 9 -12q0 -27 17 -44.5t43 -17.5t47.5 18
t28.5 46q3 10 12 10h4q5 0 7 -3t1 -7q-8 -38 -37.5 -63t-65.5 -25t-59 25.5z" />
    <glyph glyph-name="Aogonek" unicode="&#x104;" horiz-adv-x="356" 
d="M297 9l-12 139q0 4 -4 4h-207q-2 0 -3.5 -1t-1.5 -3l-47 -139q-1 -9 -11 -9h-10q-5 0 -7 3t0 8l231 680q3 9 12 9h14q9 0 9 -9l66 -680v-2q0 -4 -3 -6.5t-7 -2.5h-9q-10 0 -10 9zM81 180.5q1 -1.5 3 -1.5h193q2 0 3.5 1.5t0.5 2.5l-42 461q0 3 -1 3t-3 -3l-154 -461
q-1 -1 0 -2.5zM317 -180q-10 -3 -22 -3q-26 0 -43 15t-17 48q0 66 58 113q4 3 4 4q5 3 11 3h3q6 0 7 -4t-4 -8q-23 -23 -37.5 -49.5t-14.5 -52.5q0 -23 11 -34t29 -11q8 0 13 1l4 1q5 0 6 -6l1 -4v-1q0 -11 -9 -12z" />
    <glyph glyph-name="aogonek" unicode="&#x105;" horiz-adv-x="419" 
d="M311 -157q5 0 6 -6l1 -4v-3q-2 -9 -9 -10q-10 -3 -22 -3q-26 0 -43 15t-17 48q0 66 63 118q2 1 1 4v8l5 41q1 3 -1 3.5t-3 -2.5q-20 -28 -48.5 -44t-62.5 -16q-52 0 -82.5 33.5t-30.5 88.5q0 15 1 23l28 227q8 64 49 104.5t99 40.5q34 0 58.5 -16t36.5 -44q1 -3 3 -2.5
t2 3.5l5 41q2 10 11 10h10q10 0 8 -10l-59 -484q-1 -6 -7 -12q-60 -56 -60 -111q1 -43 41 -43q8 0 13 1zM267.5 52.5q32.5 32.5 39.5 84.5l28 227q1 6 1 18q0 44 -24.5 71.5t-64.5 27.5q-47 0 -80.5 -32.5t-40.5 -84.5l-28 -227q-1 -6 -1 -18q0 -44 25.5 -71.5t68.5 -27.5
q44 0 76.5 32.5z" />
    <glyph glyph-name="Cacute" unicode="&#x106;" horiz-adv-x="422" 
d="M98 28q-35 36 -35 96q0 9 2 27l49 399q9 72 55 115t112 43q61 0 96.5 -35.5t35.5 -95.5q0 -9 -2 -27l-3 -20q0 -4 -3 -7t-7 -3l-11 -1q-9 0 -9 10l3 23q1 8 1 22q0 49 -28 77.5t-77 28.5q-53 0 -90 -35t-44 -93l-49 -403q-1 -7 -1 -21q0 -49 27.5 -78.5t75.5 -29.5
q54 0 91 35.5t45 93.5l2 22q2 9 11 9l11 -1q4 0 6.5 -3t1.5 -7l-2 -18q-9 -72 -55 -115.5t-114 -43.5q-60 0 -95 36zM259.5 771.5q-1.5 3.5 2.5 8.5l74 112q4 7 12 7h9q6 0 7.5 -3.5t-2.5 -8.5l-77 -112q-5 -7 -12 -7h-6q-6 0 -7.5 3.5z" />
    <glyph glyph-name="cacute" unicode="&#x107;" horiz-adv-x="372" 
d="M87 25.5q-32 33.5 -32 87.5q0 8 2 24l27 227q8 63 50.5 104t101.5 41q54 0 87 -33t33 -80l-1 -13l-1 -3q-2 -10 -11 -10h-9q-5 0 -7.5 3t-1.5 7v3q1 4 1 12q0 35 -26 60.5t-67 25.5q-47 0 -80 -32.5t-39 -84.5l-28 -227q-1 -7 -1 -20q0 -44 24.5 -70.5t66.5 -26.5
q45 0 78.5 29.5t38.5 68.5v3q2 10 11 10h10q10 0 8 -10v-3q-4 -33 -24.5 -62t-53.5 -46.5t-71 -17.5q-54 0 -86 33.5zM214.5 572.5q-1.5 3.5 2.5 8.5l74 112q4 7 12 7h9q6 0 7.5 -3.5t-2.5 -8.5l-77 -112q-5 -7 -12 -7h-6q-6 0 -7.5 3.5z" />
    <glyph glyph-name="Ccircumflex" unicode="&#x108;" horiz-adv-x="422" 
d="M98 28q-35 36 -35 96q0 9 2 27l49 399q9 72 55 115t112 43q61 0 96.5 -35.5t35.5 -95.5q0 -9 -2 -27l-3 -20q0 -4 -3 -7t-7 -3l-11 -1q-9 0 -9 10l3 23q1 8 1 22q0 49 -28 77.5t-77 28.5q-53 0 -90 -35t-44 -93l-49 -403q-1 -7 -1 -21q0 -49 27.5 -78.5t75.5 -29.5
q54 0 91 35.5t45 93.5l2 22q2 9 11 9l11 -1q4 0 6.5 -3t1.5 -7l-2 -18q-9 -72 -55 -115.5t-114 -43.5q-60 0 -95 36zM206 792l76 100q5 7 12 7h18q6 0 11 -6l52 -101l1 -4q0 -8 -9 -8h-14q-7 0 -10 7l-40 81q-1 2 -3 2t-3 -2l-59 -81q-7 -7 -13 -7h-14q-12 0 -5 12z" />
    <glyph glyph-name="ccircumflex" unicode="&#x109;" horiz-adv-x="372" 
d="M87 25.5q-32 33.5 -32 87.5q0 8 2 24l27 227q8 63 50.5 104t101.5 41q54 0 87 -33t33 -80l-1 -13l-1 -3q-2 -10 -11 -10h-9q-5 0 -7.5 3t-1.5 7v3q1 4 1 12q0 35 -26 60.5t-67 25.5q-47 0 -80 -32.5t-39 -84.5l-28 -227q-1 -7 -1 -20q0 -44 24.5 -70.5t66.5 -26.5
q45 0 78.5 29.5t38.5 68.5v3q2 10 11 10h10q10 0 8 -10v-3q-4 -33 -24.5 -62t-53.5 -46.5t-71 -17.5q-54 0 -86 33.5zM161 593l76 100q5 7 12 7h18q6 0 11 -6l52 -101l1 -4q0 -8 -9 -8h-14q-7 0 -10 7l-40 81q-1 2 -3 2t-3 -2l-59 -81q-7 -7 -13 -7h-14q-12 0 -5 12z" />
    <glyph glyph-name="Cdotaccent" unicode="&#x10a;" horiz-adv-x="422" 
d="M98 28q-35 36 -35 96q0 9 2 27l49 399q9 72 55 115t112 43q61 0 96.5 -35.5t35.5 -95.5q0 -9 -2 -27l-3 -20q0 -4 -3 -7t-7 -3l-11 -1q-9 0 -9 10l3 23q1 8 1 22q0 49 -28 77.5t-77 28.5q-53 0 -90 -35t-44 -93l-49 -403q-1 -7 -1 -21q0 -49 27.5 -78.5t75.5 -29.5
q54 0 91 35.5t45 93.5l2 22q2 9 11 9l11 -1q4 0 6.5 -3t1.5 -7l-2 -18q-9 -72 -55 -115.5t-114 -43.5q-60 0 -95 36zM267 822q-10 10 -10 27q0 20 13.5 34t33.5 14q18 0 28.5 -12t8.5 -30q-3 -19 -16 -31t-31 -12q-17 0 -27 10z" />
    <glyph glyph-name="cdotaccent" unicode="&#x10b;" horiz-adv-x="372" 
d="M87 25.5q-32 33.5 -32 87.5q0 8 2 24l27 227q8 63 50.5 104t101.5 41q54 0 87 -33t33 -80l-1 -13l-1 -3q-2 -10 -11 -10h-9q-5 0 -7.5 3t-1.5 7v3q1 4 1 12q0 35 -26 60.5t-67 25.5q-47 0 -80 -32.5t-39 -84.5l-28 -227q-1 -7 -1 -20q0 -44 24.5 -70.5t66.5 -26.5
q45 0 78.5 29.5t38.5 68.5v3q2 10 11 10h10q10 0 8 -10v-3q-4 -33 -24.5 -62t-53.5 -46.5t-71 -17.5q-54 0 -86 33.5zM222 623q-10 10 -10 27q0 20 13.5 34t33.5 14q18 0 28.5 -12t8.5 -30q-3 -19 -16 -31t-31 -12q-17 0 -27 10z" />
    <glyph glyph-name="Ccaron" unicode="&#x10c;" horiz-adv-x="422" 
d="M98 28q-35 36 -35 96q0 9 2 27l49 399q9 72 55 115t112 43q61 0 96.5 -35.5t35.5 -95.5q0 -9 -2 -27l-3 -20q0 -4 -3 -7t-7 -3l-11 -1q-9 0 -9 10l3 23q1 8 1 22q0 49 -28 77.5t-77 28.5q-53 0 -90 -35t-44 -93l-49 -403q-1 -7 -1 -21q0 -49 27.5 -78.5t75.5 -29.5
q54 0 91 35.5t45 93.5l2 22q2 9 11 9l11 -1q4 0 6.5 -3t1.5 -7l-2 -18q-9 -72 -55 -115.5t-114 -43.5q-60 0 -95 36zM218 892q0 7 8 7h15q6 0 11 -7l39 -82q1 -1 3 -1t3 1l59 82q7 7 13 7h13q6 0 7.5 -3.5t-1.5 -8.5l-78 -101q-4 -6 -12 -6h-17q-7 0 -11 7l-51 100
q-1 2 -1 5z" />
    <glyph glyph-name="ccaron" unicode="&#x10d;" horiz-adv-x="372" 
d="M87 25.5q-32 33.5 -32 87.5q0 8 2 24l27 227q8 63 50.5 104t101.5 41q54 0 87 -33t33 -80l-1 -13l-1 -3q-2 -10 -11 -10h-9q-5 0 -7.5 3t-1.5 7v3q1 4 1 12q0 35 -26 60.5t-67 25.5q-47 0 -80 -32.5t-39 -84.5l-28 -227q-1 -7 -1 -20q0 -44 24.5 -70.5t66.5 -26.5
q45 0 78.5 29.5t38.5 68.5v3q2 10 11 10h10q10 0 8 -10v-3q-4 -33 -24.5 -62t-53.5 -46.5t-71 -17.5q-54 0 -86 33.5zM173 693q0 7 8 7h15q6 0 11 -7l39 -82q1 -1 3 -1t3 1l59 82q7 7 13 7h13q6 0 7.5 -3.5t-1.5 -8.5l-78 -101q-4 -6 -12 -6h-17q-7 0 -11 7l-51 100
q-1 2 -1 5z" />
    <glyph glyph-name="Dcaron" unicode="&#x10e;" horiz-adv-x="445" 
d="M68.5 3q-2.5 3 -1.5 7l84 680q0 4 3 7t8 3h132q60 0 93 -38t33 -106q0 -24 -2 -37l-42 -338q-10 -84 -55 -132.5t-112 -48.5h-133q-5 0 -7.5 3zM102 28h111q53 0 89 41t44 112l42 337q2 22 2 33q0 57 -25.5 89t-72.5 32h-111q-1 0 -2.5 -1t-1.5 -3l-78 -636q0 -4 3 -4z
M226 889q0 7 8 7h15q6 0 11 -7l39 -82q1 -1 3 -1t3 1l59 82q7 7 13 7h13q6 0 7.5 -3.5t-1.5 -8.5l-78 -101q-4 -6 -12 -6h-17q-7 0 -11 7l-51 100q-1 2 -1 5z" />
    <glyph glyph-name="dcaron" unicode="&#x10f;" horiz-adv-x="397" 
d="M372 700h10q10 0 8 -10l-83 -680q-2 -10 -11 -10h-10q-10 0 -8 10l4 37q1 3 -0.5 3t-3.5 -2q-20 -27 -48 -41.5t-60 -14.5q-53 0 -84 33t-31 87q0 7 2 25l27 227q8 64 49.5 104.5t99.5 40.5q33 0 57 -14.5t37 -41.5q2 -2 3.5 -2t1.5 3l29 236q2 10 11 10zM254.5 52.5
q32.5 32.5 38.5 84.5l28 227q1 7 1 21q0 43 -24 69.5t-64 26.5q-47 0 -80.5 -32.5t-39.5 -84.5l-28 -227q-1 -7 -1 -20q0 -44 25 -70.5t67 -26.5q45 0 77.5 32.5zM446.5 572.5q-1.5 3.5 2.5 8.5l74 112q4 7 12 7h9q6 0 7.5 -3.5t-2.5 -8.5l-77 -112q-5 -7 -12 -7h-6
q-6 0 -7.5 3.5z" />
    <glyph glyph-name="Dcroat" unicode="&#x110;" horiz-adv-x="494" 
d="M435.5 662q32.5 -38 32.5 -106q0 -24 -2 -37l-41 -338q-10 -84 -55 -132.5t-112 -48.5h-134q-10 0 -8 10l41 339q1 1 0 2.5t-3 1.5h-35q-10 0 -8 10v5q2 10 11 10h35q4 0 4 4l38 308q2 10 11 10h134q59 0 91.5 -38zM436 518q2 12 2 35q0 56 -25.5 87.5t-71.5 31.5h-111
q-4 0 -4 -4l-36 -286q0 -4 4 -4h93q10 0 8 -10v-5q-2 -10 -11 -10h-93q-3 0 -5 -4l-39 -317q0 -4 4 -4h110q53 0 89 41t45 112z" />
    <glyph glyph-name="dcroat" unicode="&#x111;" horiz-adv-x="397" 
d="M428 590v-5q-2 -10 -11 -10h-37q-4 0 -4 -4l-69 -561q-2 -10 -11 -10h-10q-10 0 -8 10l4 37q1 3 -0.5 3t-3.5 -2q-20 -27 -48 -41.5t-60 -14.5q-53 0 -84 33t-31 87q0 7 2 25l27 227q8 64 49.5 104.5t99.5 40.5q33 0 57 -14.5t37 -41.5q2 -2 3.5 -2t1.5 3l15 117
q0 4 -4 4h-154q-9 0 -9 10l1 5q2 10 11 10h154q3 0 5 4l10 86q2 10 11 10h10q10 0 8 -10l-10 -86q-1 -1 0 -2.5t3 -1.5h37q10 0 8 -10zM254.5 52.5q32.5 32.5 38.5 84.5l28 227q1 7 1 21q0 43 -24 69.5t-64 26.5q-47 0 -80.5 -32.5t-39.5 -84.5l-28 -227q-1 -7 -1 -20
q0 -44 25 -70.5t67 -26.5q45 0 77.5 32.5z" />
    <glyph glyph-name="Emacron" unicode="&#x112;" horiz-adv-x="411" 
d="M418 672h-237q-1 0 -2.5 -1t-1.5 -3l-37 -300q0 -4 4 -4h155q10 0 8 -10l-1 -7q0 -4 -3 -7t-7 -3h-156q-4 0 -4 -4l-37 -301q0 -4 3 -4h237q9 0 9 -10l-1 -8q-1 -4 -4 -7t-7 -3h-260q-5 0 -7.5 3t-1.5 7l84 680q0 4 3 7t8 3h260q4 0 6.5 -3t1.5 -7l-1 -8q-2 -10 -11 -10z
M212.5 805q-2.5 3 -1.5 7l1 6q2 10 11 10h168q4 0 6.5 -3t1.5 -7l-1 -6q0 -4 -3 -7t-8 -3h-167q-5 0 -7.5 3z" />
    <glyph glyph-name="emacron" unicode="&#x113;" horiz-adv-x="379" 
d="M328 244h-225q-3 0 -5 -4l-12 -103q-1 -7 -1 -20q0 -44 24.5 -70.5t66.5 -26.5q38 0 68 23t43 61q5 9 12 9h10q5 0 7 -3.5t0 -8.5q-15 -49 -53.5 -79t-89.5 -30q-54 0 -86 33.5t-32 87.5q0 8 2 24l27 227q8 63 50.5 104t101.5 41q54 0 85.5 -34t31.5 -89q0 -14 -1 -22
l-13 -110q-2 -10 -11 -10zM153 448.5q-33 -32.5 -39 -84.5l-11 -90q-1 -1 0 -2.5t3 -1.5h202q4 0 4 4l11 90q1 7 1 20q0 44 -24.5 70.5t-66.5 26.5q-47 0 -80 -32.5zM157.5 640q-2.5 3 -1.5 7l1 6q2 10 11 10h168q4 0 6.5 -3t1.5 -7l-1 -6q0 -4 -3 -7t-8 -3h-167
q-5 0 -7.5 3z" />
    <glyph glyph-name="Edotaccent" unicode="&#x116;" horiz-adv-x="411" 
d="M418 672h-237q-1 0 -2.5 -1t-1.5 -3l-37 -300q0 -4 4 -4h155q10 0 8 -10l-1 -7q0 -4 -3 -7t-7 -3h-156q-4 0 -4 -4l-37 -301q0 -4 3 -4h237q9 0 9 -10l-1 -8q-1 -4 -4 -7t-7 -3h-260q-5 0 -7.5 3t-1.5 7l84 680q0 4 3 7t8 3h260q4 0 6.5 -3t1.5 -7l-1 -8q-2 -10 -11 -10z
M279 822q-10 10 -10 27q0 20 13.5 34t33.5 14q18 0 28.5 -12t8.5 -30q-3 -19 -16 -31t-31 -12q-17 0 -27 10z" />
    <glyph glyph-name="edotaccent" unicode="&#x117;" horiz-adv-x="379" 
d="M328 244h-225q-3 0 -5 -4l-12 -103q-1 -7 -1 -20q0 -44 24.5 -70.5t66.5 -26.5q38 0 68 23t43 61q5 9 12 9h10q5 0 7 -3.5t0 -8.5q-15 -49 -53.5 -79t-89.5 -30q-54 0 -86 33.5t-32 87.5q0 8 2 24l27 227q8 63 50.5 104t101.5 41q54 0 85.5 -34t31.5 -89q0 -14 -1 -22
l-13 -110q-2 -10 -11 -10zM153 448.5q-33 -32.5 -39 -84.5l-11 -90q-1 -1 0 -2.5t3 -1.5h202q4 0 4 4l11 90q1 7 1 20q0 44 -24.5 70.5t-66.5 26.5q-47 0 -80 -32.5zM219 623q-10 10 -10 27q0 20 13.5 34t33.5 14q18 0 28.5 -12t8.5 -30q-3 -19 -16 -31t-31 -12
q-17 0 -27 10z" />
    <glyph glyph-name="Eogonek" unicode="&#x118;" horiz-adv-x="411" 
d="M418 672h-237q-1 0 -2.5 -1t-1.5 -3l-37 -300q0 -4 4 -4h155q10 0 8 -10l-1 -7q0 -4 -3 -7t-7 -3h-156q-4 0 -4 -4l-37 -301q0 -4 3 -4h237q9 0 9 -10l-1 -8q-1 -4 -4 -7t-7 -3h-117q-3 0 -5 -2q-58 -56 -58 -107q0 -23 10.5 -34t27.5 -11q5 0 15 2h3q7 0 8 -8l1 -3v-2
q0 -9 -9 -10q-11 -3 -22 -3q-25 0 -41.5 14t-17.5 45q-4 63 53 114q3 5 -2 5h-106q-5 0 -7.5 3t-1.5 7l84 680q0 4 3 7t8 3h260q4 0 6.5 -3t1.5 -7l-1 -8q-2 -10 -11 -10z" />
    <glyph glyph-name="eogonek" unicode="&#x119;" horiz-adv-x="379" 
d="M328 244h-225q-3 0 -5 -4l-12 -103q-1 -7 -1 -20q0 -44 24.5 -70.5t66.5 -26.5q38 0 68 23t43 61q5 9 12 9h10q5 0 7 -3.5t0 -8.5q-14 -48 -52 -78t-87 -31q-3 0 -5 -2q-49 -53 -49 -101q1 -22 11.5 -32.5t27.5 -10.5q5 0 15 2h3q7 0 7 -6l2 -4l-1 -3q0 -8 -8 -10
q-11 -3 -22 -3q-26 0 -43 15.5t-17 48.5q0 60 47 104q4 4 -1 5q-41 9 -64.5 40.5t-23.5 78.5q0 15 1 23l27 227q8 63 50.5 104t101.5 41q54 0 85.5 -34t31.5 -89q0 -14 -1 -22l-13 -110q-2 -10 -11 -10zM153 448.5q-33 -32.5 -39 -84.5l-11 -90q-1 -1 0 -2.5t3 -1.5h202
q4 0 4 4l11 90q1 7 1 20q0 44 -24.5 70.5t-66.5 26.5q-47 0 -80 -32.5z" />
    <glyph glyph-name="Ecaron" unicode="&#x11a;" horiz-adv-x="411" 
d="M418 672h-237q-1 0 -2.5 -1t-1.5 -3l-37 -300q0 -4 4 -4h155q10 0 8 -10l-1 -7q0 -4 -3 -7t-7 -3h-156q-4 0 -4 -4l-37 -301q0 -4 3 -4h237q9 0 9 -10l-1 -8q-1 -4 -4 -7t-7 -3h-260q-5 0 -7.5 3t-1.5 7l84 680q0 4 3 7t8 3h260q4 0 6.5 -3t1.5 -7l-1 -8q-2 -10 -11 -10z
M230 892q0 7 8 7h15q6 0 11 -7l39 -82q1 -1 3 -1t3 1l59 82q7 7 13 7h13q6 0 7.5 -3.5t-1.5 -8.5l-78 -101q-4 -6 -12 -6h-17q-7 0 -11 7l-51 100q-1 2 -1 5z" />
    <glyph glyph-name="ecaron" unicode="&#x11b;" horiz-adv-x="379" 
d="M328 244h-225q-3 0 -5 -4l-12 -103q-1 -7 -1 -20q0 -44 24.5 -70.5t66.5 -26.5q38 0 68 23t43 61q5 9 12 9h10q5 0 7 -3.5t0 -8.5q-15 -49 -53.5 -79t-89.5 -30q-54 0 -86 33.5t-32 87.5q0 8 2 24l27 227q8 63 50.5 104t101.5 41q54 0 85.5 -34t31.5 -89q0 -14 -1 -22
l-13 -110q-2 -10 -11 -10zM153 448.5q-33 -32.5 -39 -84.5l-11 -90q-1 -1 0 -2.5t3 -1.5h202q4 0 4 4l11 90q1 7 1 20q0 44 -24.5 70.5t-66.5 26.5q-47 0 -80 -32.5zM170 690q0 7 8 7h15q6 0 11 -7l39 -82q1 -1 3 -1t3 1l59 82q7 7 13 7h13q6 0 7.5 -3.5t-1.5 -8.5l-78 -101
q-4 -6 -12 -6h-17q-7 0 -11 7l-51 100q-1 2 -1 5z" />
    <glyph glyph-name="Gcircumflex" unicode="&#x11c;" horiz-adv-x="428" 
d="M98 27.5q-35 35.5 -35 94.5q0 16 1 24l51 408q8 70 54 112t112 42q60 0 95.5 -35t35.5 -94q0 -8 -2 -26l-5 -45q-2 -10 -11 -10h-10q-10 0 -8 10l5 47q1 7 1 21q0 48 -28 76t-77 28q-53 0 -89.5 -34.5t-43.5 -90.5l-51 -410q-1 -7 -1 -20q0 -48 28 -76.5t76 -28.5
q54 0 91 34.5t44 90.5l20 159q0 4 -4 4h-100q-4 0 -6.5 3t-1.5 7l1 7q0 4 3 7t8 3h123q10 0 8 -10l-22 -179q-8 -70 -54 -112t-113 -42q-60 0 -95 35.5zM206 792l76 100q5 7 12 7h18q6 0 11 -6l52 -101l1 -4q0 -8 -9 -8h-14q-7 0 -10 7l-40 81q-1 2 -3 2t-3 -2l-59 -81
q-7 -7 -13 -7h-14q-12 0 -5 12z" />
    <glyph glyph-name="gcircumflex" unicode="&#x11d;" horiz-adv-x="385" 
d="M340 498q3 3 8 3h10q5 0 7.5 -3t1.5 -7l-60 -489q-25 -202 -194 -202q-7 0 -9 2.5t-1 7.5l1 7q0 4 3 7t8 3q73 0 112 45t50 131l6 47q0 3 -1.5 3.5t-3.5 -1.5q-19 -28 -47.5 -43.5t-61.5 -15.5q-53 0 -83.5 32.5t-30.5 86.5q0 7 2 25l27 227q8 64 49 104.5t99 40.5
q33 0 58 -15.5t37 -43.5q1 -2 2.5 -1.5t2.5 3.5l5 39q0 4 3 7zM254.5 53.5q32.5 32.5 38.5 84.5l28 226q1 7 1 21q0 43 -24 69.5t-64 26.5q-47 0 -80.5 -32.5t-39.5 -84.5l-28 -226q-1 -7 -1 -20q0 -44 25 -70.5t67 -26.5q45 0 77.5 32.5zM161 593l76 100q5 7 12 7h18
q6 0 11 -6l52 -101l1 -4q0 -8 -9 -8h-14q-7 0 -10 7l-40 81q-1 2 -3 2t-3 -2l-59 -81q-7 -7 -13 -7h-14q-12 0 -5 12z" />
    <glyph glyph-name="Gbreve" unicode="&#x11e;" horiz-adv-x="428" 
d="M98 27.5q-35 35.5 -35 94.5q0 16 1 24l51 408q8 70 54 112t112 42q60 0 95.5 -35t35.5 -94q0 -8 -2 -26l-5 -45q-2 -10 -11 -10h-10q-10 0 -8 10l5 47q1 7 1 21q0 48 -28 76t-77 28q-53 0 -89.5 -34.5t-43.5 -90.5l-51 -410q-1 -7 -1 -20q0 -48 28 -76.5t76 -28.5
q54 0 91 34.5t44 90.5l20 159q0 4 -4 4h-100q-4 0 -6.5 3t-1.5 7l1 7q0 4 3 7t8 3h123q10 0 8 -10l-22 -179q-8 -70 -54 -112t-113 -42q-60 0 -95 35.5zM229 787.5q-23 25.5 -22 62.5v2q0 4 3 6t7 2h5q9 0 9 -12q0 -27 17 -44.5t43 -17.5t47.5 18t28.5 46q3 10 12 10h4
q5 0 7 -3t1 -7q-8 -38 -37.5 -63t-65.5 -25t-59 25.5z" />
    <glyph glyph-name="gbreve" unicode="&#x11f;" horiz-adv-x="385" 
d="M340 498q3 3 8 3h10q5 0 7.5 -3t1.5 -7l-60 -489q-25 -202 -194 -202q-7 0 -9 2.5t-1 7.5l1 7q0 4 3 7t8 3q73 0 112 45t50 131l6 47q0 3 -1.5 3.5t-3.5 -1.5q-19 -28 -47.5 -43.5t-61.5 -15.5q-53 0 -83.5 32.5t-30.5 86.5q0 7 2 25l27 227q8 64 49 104.5t99 40.5
q33 0 58 -15.5t37 -43.5q1 -2 2.5 -1.5t2.5 3.5l5 39q0 4 3 7zM254.5 53.5q32.5 32.5 38.5 84.5l28 226q1 7 1 21q0 43 -24 69.5t-64 26.5q-47 0 -80.5 -32.5t-39.5 -84.5l-28 -226q-1 -7 -1 -20q0 -44 25 -70.5t67 -26.5q45 0 77.5 32.5zM184 588.5q-23 25.5 -22 62.5v2
q0 4 3 6t7 2h5q9 0 9 -12q0 -27 17 -44.5t43 -17.5t47.5 18t28.5 46q3 10 12 10h4q5 0 7 -3t1 -7q-8 -38 -37.5 -63t-65.5 -25t-59 25.5z" />
    <glyph glyph-name="Gdotaccent" unicode="&#x120;" horiz-adv-x="428" 
d="M98 27.5q-35 35.5 -35 94.5q0 16 1 24l51 408q8 70 54 112t112 42q60 0 95.5 -35t35.5 -94q0 -8 -2 -26l-5 -45q-2 -10 -11 -10h-10q-10 0 -8 10l5 47q1 7 1 21q0 48 -28 76t-77 28q-53 0 -89.5 -34.5t-43.5 -90.5l-51 -410q-1 -7 -1 -20q0 -48 28 -76.5t76 -28.5
q54 0 91 34.5t44 90.5l20 159q0 4 -4 4h-100q-4 0 -6.5 3t-1.5 7l1 7q0 4 3 7t8 3h123q10 0 8 -10l-22 -179q-8 -70 -54 -112t-113 -42q-60 0 -95 35.5zM267 822q-10 10 -10 27q0 20 13.5 34t33.5 14q18 0 28.5 -12t8.5 -30q-3 -19 -16 -31t-31 -12q-17 0 -27 10z" />
    <glyph glyph-name="gdotaccent" unicode="&#x121;" horiz-adv-x="385" 
d="M340 498q3 3 8 3h10q5 0 7.5 -3t1.5 -7l-60 -489q-25 -202 -194 -202q-7 0 -9 2.5t-1 7.5l1 7q0 4 3 7t8 3q73 0 112 45t50 131l6 47q0 3 -1.5 3.5t-3.5 -1.5q-19 -28 -47.5 -43.5t-61.5 -15.5q-53 0 -83.5 32.5t-30.5 86.5q0 7 2 25l27 227q8 64 49 104.5t99 40.5
q33 0 58 -15.5t37 -43.5q1 -2 2.5 -1.5t2.5 3.5l5 39q0 4 3 7zM254.5 53.5q32.5 32.5 38.5 84.5l28 226q1 7 1 21q0 43 -24 69.5t-64 26.5q-47 0 -80.5 -32.5t-39.5 -84.5l-28 -226q-1 -7 -1 -20q0 -44 25 -70.5t67 -26.5q45 0 77.5 32.5zM222 623q-10 10 -10 27
q0 20 13.5 34t33.5 14q18 0 28.5 -12t8.5 -30q-3 -19 -16 -31t-31 -12q-17 0 -27 10z" />
    <glyph glyph-name="uni0122" unicode="&#x122;" horiz-adv-x="428" 
d="M98 27.5q-35 35.5 -35 94.5q0 16 1 24l51 408q8 70 54 112t112 42q60 0 95.5 -35t35.5 -94q0 -8 -2 -26l-5 -45q-2 -10 -11 -10h-10q-10 0 -8 10l5 47q1 7 1 21q0 48 -28 76t-77 28q-53 0 -89.5 -34.5t-43.5 -90.5l-51 -410q-1 -7 -1 -20q0 -48 28 -76.5t76 -28.5
q54 0 91 34.5t44 90.5l20 159q0 4 -4 4h-100q-4 0 -6.5 3t-1.5 7l1 7q0 4 3 7t8 3h123q10 0 8 -10l-22 -179q-8 -70 -54 -112t-113 -42q-60 0 -95 35.5zM144.5 -204.5q-1.5 3.5 2.5 8.5l74 112q4 7 12 7h9q6 0 7.5 -3.5t-2.5 -8.5l-77 -112q-5 -7 -12 -7h-6q-6 0 -7.5 3.5z
" />
    <glyph glyph-name="uni0123" unicode="&#x123;" horiz-adv-x="385" 
d="M282.5 696.5q1.5 -3.5 -2.5 -8.5l-73 -111q-7 -7 -13 -7h-9q-5 0 -7 3.5t2 8.5l77 111q5 7 12 7h6q6 0 7.5 -3.5zM340 498q3 3 8 3h10q5 0 7.5 -3t1.5 -7l-60 -489q-25 -202 -194 -202q-7 0 -9 2.5t-1 7.5l1 7q0 4 3 7t8 3q73 0 112 45t50 131l6 47q0 3 -1.5 3.5
t-3.5 -1.5q-19 -28 -47.5 -43.5t-61.5 -15.5q-53 0 -83.5 32.5t-30.5 86.5q0 7 2 25l27 227q8 64 49 104.5t99 40.5q33 0 58 -15.5t37 -43.5q1 -2 2.5 -1.5t2.5 3.5l5 39q0 4 3 7zM254.5 53.5q32.5 32.5 38.5 84.5l28 226q1 7 1 21q0 43 -24 69.5t-64 26.5
q-47 0 -80.5 -32.5t-39.5 -84.5l-28 -226q-1 -7 -1 -20q0 -44 25 -70.5t67 -26.5q45 0 77.5 32.5z" />
    <glyph glyph-name="Hcircumflex" unicode="&#x124;" horiz-adv-x="453" 
d="M415 700h9q5 0 7.5 -3t1.5 -7l-84 -680q0 -4 -3 -7t-7 -3h-10q-9 0 -9 10l40 323q0 4 -3 4h-217q-4 0 -4 -4l-40 -323q0 -4 -3 -7t-8 -3h-9q-5 0 -7.5 3t-1.5 7l84 680q0 4 3 7t8 3h9q5 0 7.5 -3t1.5 -7l-40 -322q0 -4 4 -4h216q4 0 4 4l40 322q2 10 11 10zM217 793
l76 100q5 7 12 7h18q6 0 11 -6l52 -101l1 -4q0 -8 -9 -8h-14q-7 0 -10 7l-40 81q-1 2 -3 2t-3 -2l-59 -81q-7 -7 -13 -7h-14q-12 0 -5 12z" />
    <glyph glyph-name="hcircumflex" unicode="&#x125;" 
d="M332 477.5q27 -30.5 27 -87.5q0 -9 -2 -33l-42 -347q-1 -4 -4 -7t-7 -3h-10q-9 0 -9 10l43 343q2 18 2 27q0 48 -22 74t-64 26q-48 0 -80.5 -36t-39.5 -99l-41 -335q-2 -10 -11 -10h-10q-10 0 -8 10l83 680q2 10 11 10h10q10 0 8 -10l-30 -247q-1 -3 1 -3t3 3
q20 32 49.5 48.5t64.5 16.5q51 0 78 -30.5zM190 762l76 100q5 7 12 7h18q6 0 11 -6l52 -101l1 -4q0 -8 -9 -8h-14q-7 0 -10 7l-40 81q-1 2 -3 2t-3 -2l-59 -81q-7 -7 -13 -7h-14q-12 0 -5 12z" />
    <glyph glyph-name="Hbar" unicode="&#x126;" horiz-adv-x="453" 
d="M457.5 531q2.5 -3 1.5 -7l-1 -6q0 -4 -3 -7t-8 -3h-33q-1 0 -2.5 -1t-1.5 -3l-61 -494q0 -4 -3 -7t-7 -3h-10q-9 0 -9 10l40 323q0 4 -3 4h-217q-4 0 -4 -4l-40 -323q0 -4 -3 -7t-8 -3h-9q-5 0 -7.5 3t-1.5 7l61 494q0 4 -4 4h-33q-4 0 -6.5 3t-1.5 7l1 6q0 4 3 7t8 3h33
q4 0 4 4l19 152q0 4 3 7t8 3h9q5 0 7.5 -3t1.5 -7l-19 -152q0 -4 4 -4h216q4 0 4 4l19 152q2 10 11 10h9q5 0 7.5 -3t1.5 -7l-19 -152q0 -4 4 -4h33q4 0 6.5 -3zM364 368l17 136q0 4 -3 4h-217q-4 0 -4 -4l-17 -136q0 -4 4 -4h216q4 0 4 4z" />
    <glyph glyph-name="hbar" unicode="&#x127;" 
d="M332 477.5q27 -30.5 27 -87.5q0 -9 -2 -33l-42 -347q-1 -4 -4 -7t-7 -3h-10q-9 0 -9 10l43 343q2 18 2 27q0 48 -22 74t-64 26q-48 0 -80.5 -36t-39.5 -99l-41 -335q-2 -10 -11 -10h-10q-10 0 -8 10l66 542q0 4 -3 4h-43q-10 0 -8 10v6q2 10 11 10h43q4 0 4 4l13 104
q2 10 11 10h10q10 0 8 -10l-13 -104q0 -4 4 -4h148q9 0 9 -10l-1 -6q-2 -10 -11 -10h-148q-3 0 -5 -4l-13 -109q-1 -3 1 -3t3 3q20 32 49.5 48.5t64.5 16.5q51 0 78 -30.5z" />
    <glyph glyph-name="Itilde" unicode="&#x128;" horiz-adv-x="200" 
d="M68.5 3q-2.5 3 -1.5 7l84 680q0 4 3 7t8 3h9q5 0 7.5 -3t1.5 -7l-84 -680q0 -4 -3 -7t-8 -3h-9q-5 0 -7.5 3zM212 826.5q-11 6.5 -23 17.5q-2 2 -10 9t-15.5 10t-16.5 3q-15 0 -26.5 -5.5t-24.5 -22.5q-6 -9 -14 -3l-2 2q-4 3 -4 6q0 4 3 8q31 41 70 41q15 0 26 -6
t25 -17q16 -12 24 -17t19 -5q14 0 25 6.5t24 24.5q3 4 7 5t7 -1l3 -2q4 -2 4 -7t-6 -13q-16 -21 -34.5 -30.5t-34.5 -9.5q-15 0 -26 6.5z" />
    <glyph glyph-name="itilde" unicode="&#x129;" horiz-adv-x="152" 
d="M44.5 3q-2.5 3 -1.5 7l59 481q2 10 11 10h10q4 0 6.5 -3t1.5 -7l-59 -481q-2 -10 -11 -10h-10q-4 0 -6.5 3zM164 627.5q-11 6.5 -23 17.5q-2 2 -10 9t-15.5 10t-16.5 3q-15 0 -26.5 -5.5t-24.5 -22.5q-6 -9 -14 -3l-2 2q-4 3 -4 6q0 4 3 8q31 41 70 41q15 0 26 -6t25 -17
q16 -12 24 -17t19 -5q14 0 25 6.5t24 24.5q3 4 7 5t7 -1l3 -2q4 -2 4 -7t-6 -13q-16 -21 -34.5 -30.5t-34.5 -9.5q-15 0 -26 6.5z" />
    <glyph glyph-name="Imacron" unicode="&#x12a;" horiz-adv-x="200" 
d="M68.5 3q-2.5 3 -1.5 7l84 680q0 4 3 7t8 3h9q5 0 7.5 -3t1.5 -7l-84 -680q0 -4 -3 -7t-8 -3h-9q-5 0 -7.5 3zM87.5 805q-2.5 3 -1.5 7l1 6q2 10 11 10h168q4 0 6.5 -3t1.5 -7l-1 -6q0 -4 -3 -7t-8 -3h-167q-5 0 -7.5 3z" />
    <glyph glyph-name="imacron" unicode="&#x12b;" horiz-adv-x="152" 
d="M44.5 3q-2.5 3 -1.5 7l59 481q2 10 11 10h10q4 0 6.5 -3t1.5 -7l-59 -481q-2 -10 -11 -10h-10q-4 0 -6.5 3zM39.5 606q-2.5 3 -1.5 7l1 6q2 10 11 10h168q4 0 6.5 -3t1.5 -7l-1 -6q0 -4 -3 -7t-8 -3h-167q-5 0 -7.5 3z" />
    <glyph glyph-name="ibreve" unicode="&#x12d;" horiz-adv-x="152" 
d="M44.5 3q-2.5 3 -1.5 7l59 481q2 10 11 10h10q4 0 6.5 -3t1.5 -7l-59 -481q-2 -10 -11 -10h-10q-4 0 -6.5 3zM69.5 613.5q-23.5 25.5 -21.5 63.5q0 10 10 10h5q9 0 9 -10q-1 -28 16.5 -46.5t43.5 -18.5t47.5 18.5t28.5 46.5q3 10 12 10h5q10 0 8 -10q-8 -38 -38 -63.5
t-66 -25.5t-59.5 25.5z" />
    <glyph glyph-name="Iogonek" unicode="&#x12e;" horiz-adv-x="163" 
d="M50.5 3q-2.5 3 -1.5 7l84 680q0 4 3 7t8 3h9q5 0 7.5 -3t1.5 -7l-84 -680q0 -4 -3 -7t-8 -3h-9q-5 0 -7.5 3zM68 -180q-10 -3 -22 -3q-26 0 -43 15t-17 48q0 29 13.5 58.5t43.5 54.5q4 3 4 4q4 3 11 3h3q5 0 6.5 -4t-3.5 -8q-51 -51 -51 -102q0 -45 39 -45q9 0 14 1l4 1
q4 0 6 -6l1 -4v-1q0 -11 -9 -12z" />
    <glyph glyph-name="iogonek" unicode="&#x12f;" horiz-adv-x="217" 
d="M88.5 3q-2.5 3 -1.5 7l59 481q2 10 11 10h10q4 0 6.5 -3t1.5 -7l-59 -481q-2 -10 -11 -10h-10q-4 0 -6.5 3zM149 623q-10 10 -10 27q0 20 13.5 34t33.5 14q18 0 28.5 -12t8.5 -30q-3 -19 -16 -31t-31 -12q-17 0 -27 10zM106 -180q-10 -3 -22 -3q-26 0 -43 15t-17 48
q0 29 13.5 58.5t43.5 54.5q4 3 4 4q4 3 11 3h3q5 0 6.5 -4t-3.5 -8q-51 -51 -51 -102q0 -45 39 -45q9 0 14 1l4 1q4 0 6 -6l1 -4v-1q0 -11 -9 -12z" />
    <glyph glyph-name="Idotaccent" unicode="&#x130;" horiz-adv-x="200" 
d="M68.5 3q-2.5 3 -1.5 7l84 680q0 4 3 7t8 3h9q5 0 7.5 -3t1.5 -7l-84 -680q0 -4 -3 -7t-8 -3h-9q-5 0 -7.5 3zM154 822q-10 10 -10 27q0 20 13.5 34t33.5 14q18 0 28.5 -12t8.5 -30q-3 -19 -16 -31t-31 -12q-17 0 -27 10z" />
    <glyph glyph-name="dotlessi" unicode="&#x131;" horiz-adv-x="152" 
d="M44.5 3q-2.5 3 -1.5 7l59 481q2 10 11 10h10q4 0 6.5 -3t1.5 -7l-59 -481q-2 -10 -11 -10h-10q-4 0 -6.5 3z" />
    <glyph glyph-name="ij" unicode="&#x133;" horiz-adv-x="384" 
d="M127.5 623.5q-10.5 10.5 -10.5 26.5q0 20 13.5 34t33.5 14q16 0 26 -10t10 -26q0 -21 -13.5 -35t-32.5 -14q-16 0 -26.5 10.5zM65 10l59 481q2 10 11 10h10q10 0 8 -10l-59 -481q0 -4 -3 -7t-8 -3h-9q-9 0 -9 10zM315.5 623q-9.5 10 -9.5 27q0 20 13.5 34t32.5 14
q16 0 26 -10t10 -26q0 -21 -13.5 -35t-33.5 -14q-16 0 -25.5 10zM141 -201l1 8q2 10 11 10q37 4 60.5 33.5t29.5 80.5l69 560q0 4 3 7t8 3h9q5 0 7.5 -3t1.5 -7l-69 -560q-8 -64 -38.5 -101t-83.5 -41q-9 0 -9 10z" />
    <glyph glyph-name="Jcircumflex" unicode="&#x134;" 
d="M57 28q-34 36 -34 96q0 8 2 26l12 92q0 4 3 7t7 3h10q9 0 9 -10l-12 -93q-1 -7 -1 -21q0 -49 27 -78.5t73 -29.5q51 0 86.5 35.5t42.5 93.5l67 541q0 4 3 7t7 3h10q9 0 9 -10l-67 -540q-8 -71 -52.5 -114.5t-109.5 -43.5q-58 0 -92 36zM291 793l76 100q5 7 12 7h18
q6 0 11 -6l52 -101l1 -4q0 -8 -9 -8h-14q-7 0 -10 7l-40 81q-1 2 -3 2t-3 -2l-59 -81q-7 -7 -13 -7h-14q-12 0 -5 12z" />
    <glyph glyph-name="jcircumflex" unicode="&#x135;" horiz-adv-x="181" 
d="M-58 -201l1 8q2 10 11 10q37 4 60.5 33.5t29.5 80.5l69 560q0 4 3 7t8 3h9q5 0 7.5 -3t1.5 -7l-69 -560q-8 -64 -38.5 -101t-83.5 -41q-9 0 -9 10zM55 593l76 100q5 7 12 7h18q6 0 11 -6l52 -101l1 -4q0 -8 -9 -8h-14q-7 0 -10 7l-40 81q-1 2 -3 2t-3 -2l-59 -81
q-7 -7 -13 -7h-14q-12 0 -5 12z" />
    <glyph glyph-name="uni0136" unicode="&#x136;" horiz-adv-x="417" 
d="M68.5 3q-2.5 3 -1.5 7l84 680q0 4 3 7t8 3h9q5 0 7.5 -3t1.5 -7l-45 -365q-1 -3 1 -3.5t4 2.5l268 369q7 7 13 7h13q6 0 7.5 -3.5t-2.5 -8.5l-187 -260q-3 -3 -1 -6l123 -410l1 -3q0 -9 -10 -9h-14q-7 0 -10 8l-114 384q-1 4 -5 0l-93 -120q-1 -1 -1 -5l-32 -257
q0 -4 -3 -7t-8 -3h-9q-5 0 -7.5 3zM164.5 -196.5q-1.5 3.5 2.5 8.5l74 112q4 7 12 7h9q6 0 7.5 -3.5t-2.5 -8.5l-77 -112q-5 -7 -12 -7h-6q-6 0 -7.5 3.5z" />
    <glyph glyph-name="uni0137" unicode="&#x137;" horiz-adv-x="368" 
d="M54 10l83 680q2 10 11 10h10q10 0 8 -10l-54 -442q0 -2 1.5 -2.5t3.5 1.5l209 248q4 6 13 6h12q5 0 6.5 -4t-2.5 -8l-107 -126q-2 -3 -1 -5l69 -347v-2q0 -9 -9 -9h-11q-8 0 -11 8l-60 322q-1 6 -6 1l-111 -132l-3 -5l-22 -184q-2 -10 -11 -10h-10q-10 0 -8 10z
M131.5 -196.5q-1.5 3.5 2.5 8.5l74 112q4 7 12 7h9q6 0 7.5 -3.5t-2.5 -8.5l-77 -112q-5 -7 -12 -7h-6q-6 0 -7.5 3.5z" />
    <glyph glyph-name="Lacute" unicode="&#x139;" horiz-adv-x="367" 
d="M68.5 3q-2.5 3 -1.5 7l84 680q0 4 3 7t8 3h9q5 0 7.5 -3t1.5 -7l-81 -658q0 -4 3 -4h232q9 0 9 -10l-1 -8q-2 -10 -11 -10h-255q-5 0 -7.5 3zM144.5 771.5q-1.5 3.5 2.5 8.5l74 112q4 7 12 7h9q6 0 7.5 -3.5t-2.5 -8.5l-77 -112q-5 -7 -12 -7h-6q-6 0 -7.5 3.5z" />
    <glyph glyph-name="lacute" unicode="&#x13a;" horiz-adv-x="160" 
d="M48 10l83 680q2 10 11 10h10q10 0 8 -10l-83 -680q-2 -10 -11 -10h-10q-10 0 -8 10zM126.5 771.5q-1.5 3.5 2.5 8.5l74 112q4 7 12 7h9q6 0 7.5 -3.5t-2.5 -8.5l-77 -112q-5 -7 -12 -7h-6q-6 0 -7.5 3.5z" />
    <glyph glyph-name="uni013B" unicode="&#x13b;" horiz-adv-x="367" 
d="M68.5 3q-2.5 3 -1.5 7l84 680q0 4 3 7t8 3h9q5 0 7.5 -3t1.5 -7l-81 -658q0 -4 3 -4h232q9 0 9 -10l-1 -8q-2 -10 -11 -10h-255q-5 0 -7.5 3zM123.5 -196.5q-1.5 3.5 2.5 8.5l74 112q4 7 12 7h9q6 0 7.5 -3.5t-2.5 -8.5l-77 -112q-5 -7 -12 -7h-6q-6 0 -7.5 3.5z" />
    <glyph glyph-name="uni013C" unicode="&#x13c;" horiz-adv-x="160" 
d="M48 10l83 680q2 10 11 10h10q10 0 8 -10l-83 -680q-2 -10 -11 -10h-10q-10 0 -8 10zM-44.5 -196.5q-1.5 3.5 2.5 8.5l74 112q4 7 12 7h9q6 0 7.5 -3.5t-2.5 -8.5l-77 -112q-5 -7 -12 -7h-6q-6 0 -7.5 3.5z" />
    <glyph glyph-name="Lcaron" unicode="&#x13d;" horiz-adv-x="367" 
d="M68.5 3q-2.5 3 -1.5 7l84 680q0 4 3 7t8 3h9q5 0 7.5 -3t1.5 -7l-81 -658q0 -4 3 -4h232q9 0 9 -10l-1 -8q-2 -10 -11 -10h-255q-5 0 -7.5 3zM227.5 572.5q-1.5 3.5 2.5 8.5l74 112q4 7 12 7h9q6 0 7.5 -3.5t-2.5 -8.5l-77 -112q-5 -7 -12 -7h-6q-6 0 -7.5 3.5z" />
    <glyph glyph-name="lcaron" unicode="&#x13e;" horiz-adv-x="278" 
d="M48 10l83 680q2 10 11 10h10q10 0 8 -10l-83 -680q-2 -10 -11 -10h-10q-10 0 -8 10zM194.5 572.5q-1.5 3.5 2.5 8.5l74 112q4 7 12 7h9q6 0 7.5 -3.5t-2.5 -8.5l-77 -112q-5 -7 -12 -7h-6q-6 0 -7.5 3.5z" />
    <glyph glyph-name="ldot" unicode="&#x140;" horiz-adv-x="214" 
d="M75 10l83 680q2 10 11 10h10q10 0 8 -10l-83 -680q-2 -10 -11 -10h-10q-10 0 -8 10zM161 821q-10 10 -10 27q0 20 13.5 34t33.5 14q18 0 28.5 -12t8.5 -30q-3 -19 -16 -31t-31 -12q-17 0 -27 10z" />
    <glyph glyph-name="Lslash" unicode="&#x141;" horiz-adv-x="371" 
d="M106 28h232q9 0 9 -10l-1 -8q-1 -4 -4 -7t-7 -3h-255q-5 0 -7.5 3t-1.5 7l32 264q1 2 -0.5 3.5t-3.5 -0.5l-84 -54q-2 -2 -6 -2t-7 5l-4 6q-1 2 -1 5q0 4 5 9l103 65l4 5l46 374q0 4 3 7t7 3h10q9 0 9 -10l-43 -351q-1 -2 0.5 -3.5t3.5 0.5l193 122q4 3 7.5 2.5t5.5 -4.5
l3 -7q1 -2 1 -5q0 -5 -5 -9l-211 -133l-4 -5l-32 -265q0 -4 3 -4z" />
    <glyph glyph-name="lslash" unicode="&#x142;" horiz-adv-x="229" 
d="M233 384q0 -5 -6 -9l-78 -46q-3 -1 -3 -5l-39 -314q-2 -10 -11 -10h-10q-4 0 -6.5 3t-1.5 7l36 292q0 2 -1.5 3t-3.5 0l-53 -31q-4 -2 -6 -2q-4 0 -6 5l-3 6l-2 5q0 5 6 9l70 41q2 1 4 5l42 347q2 10 11 10h10q10 0 8 -10l-39 -325q-1 -2 0.5 -3t3.5 0l62 36q4 2 6 2
q4 0 6 -5l3 -6q1 -2 1 -5z" />
    <glyph glyph-name="Nacute" unicode="&#x143;" horiz-adv-x="467" 
d="M422 697q3 3 7 3h10q9 0 9 -10l-84 -680q-2 -10 -11 -10h-13q-9 0 -10 8l-154 610q-1 3 -3 2.5t-2 -3.5l-75 -607q0 -4 -3 -7t-8 -3h-9q-5 0 -7.5 3t-1.5 7l84 680q0 4 3 7t8 3h12q9 0 10 -8l155 -612q0 -3 2 -2.5t3 3.5l74 609q1 4 4 7zM280.5 781.5q-1.5 3.5 2.5 8.5
l74 112q4 7 12 7h9q6 0 7.5 -3.5t-2.5 -8.5l-77 -112q-5 -7 -12 -7h-6q-6 0 -7.5 3.5z" />
    <glyph glyph-name="nacute" unicode="&#x144;" 
d="M332 477.5q27 -30.5 27 -87.5q0 -9 -2 -33l-42 -347q-1 -4 -4 -7t-7 -3h-10q-9 0 -9 10l43 343q2 18 2 27q0 48 -22 74t-64 26q-48 0 -80.5 -36t-39.5 -99l-41 -335q-2 -10 -11 -10h-10q-10 0 -8 10l59 481q0 4 3 7t8 3h9q5 0 7.5 -3t1.5 -7l-6 -48q-1 -3 1 -3t3 3
q20 32 49.5 48.5t64.5 16.5q51 0 78 -30.5zM225.5 572.5q-1.5 3.5 2.5 8.5l74 112q4 7 12 7h9q6 0 7.5 -3.5t-2.5 -8.5l-77 -112q-5 -7 -12 -7h-6q-6 0 -7.5 3.5z" />
    <glyph glyph-name="uni0145" unicode="&#x145;" horiz-adv-x="467" 
d="M422 697q3 3 7 3h10q9 0 9 -10l-84 -680q-2 -10 -11 -10h-13q-9 0 -10 8l-154 610q-1 3 -3 2.5t-2 -3.5l-75 -607q0 -4 -3 -7t-8 -3h-9q-5 0 -7.5 3t-1.5 7l84 680q0 4 3 7t8 3h12q9 0 10 -8l155 -612q0 -3 2 -2.5t3 3.5l74 609q1 4 4 7zM164.5 -196.5q-1.5 3.5 2.5 8.5
l74 112q4 7 12 7h9q6 0 7.5 -3.5t-2.5 -8.5l-77 -112q-5 -7 -12 -7h-6q-6 0 -7.5 3.5z" />
    <glyph glyph-name="uni0146" unicode="&#x146;" 
d="M332 477.5q27 -30.5 27 -87.5q0 -9 -2 -33l-42 -347q-1 -4 -4 -7t-7 -3h-10q-9 0 -9 10l43 343q2 18 2 27q0 48 -22 74t-64 26q-48 0 -80.5 -36t-39.5 -99l-41 -335q-2 -10 -11 -10h-10q-10 0 -8 10l59 481q0 4 3 7t8 3h9q5 0 7.5 -3t1.5 -7l-6 -48q-1 -3 1 -3t3 3
q20 32 49.5 48.5t64.5 16.5q51 0 78 -30.5zM139.5 -196.5q-1.5 3.5 2.5 8.5l74 112q4 7 12 7h9q6 0 7.5 -3.5t-2.5 -8.5l-77 -112q-5 -7 -12 -7h-6q-6 0 -7.5 3.5z" />
    <glyph glyph-name="Ncaron" unicode="&#x147;" horiz-adv-x="467" 
d="M422 697q3 3 7 3h10q9 0 9 -10l-84 -680q-2 -10 -11 -10h-13q-9 0 -10 8l-154 610q-1 3 -3 2.5t-2 -3.5l-75 -607q0 -4 -3 -7t-8 -3h-9q-5 0 -7.5 3t-1.5 7l84 680q0 4 3 7t8 3h12q9 0 10 -8l155 -612q0 -3 2 -2.5t3 3.5l74 609q1 4 4 7zM240 902q0 7 8 7h15q6 0 11 -7
l39 -82q1 -1 3 -1t3 1l59 82q7 7 13 7h13q6 0 7.5 -3.5t-1.5 -8.5l-78 -101q-4 -6 -12 -6h-17q-7 0 -11 7l-51 100q-1 2 -1 5z" />
    <glyph glyph-name="ncaron" unicode="&#x148;" 
d="M332 477.5q27 -30.5 27 -87.5q0 -9 -2 -33l-42 -347q-1 -4 -4 -7t-7 -3h-10q-9 0 -9 10l43 343q2 18 2 27q0 48 -22 74t-64 26q-48 0 -80.5 -36t-39.5 -99l-41 -335q-2 -10 -11 -10h-10q-10 0 -8 10l59 481q0 4 3 7t8 3h9q5 0 7.5 -3t1.5 -7l-6 -48q-1 -3 1 -3t3 3
q20 32 49.5 48.5t64.5 16.5q51 0 78 -30.5zM185 693q0 7 8 7h15q6 0 11 -7l39 -82q1 -1 3 -1t3 1l59 82q7 7 13 7h13q6 0 7.5 -3.5t-1.5 -8.5l-78 -101q-4 -6 -12 -6h-17q-7 0 -11 7l-51 100q-1 2 -1 5z" />
    <glyph glyph-name="Eng" unicode="&#x14a;" horiz-adv-x="467" 
d="M448 690l-84 -683l-1 -7l-1 -2q-6 -48 -14 -74.5t-28.5 -42.5t-59.5 -18q-5 0 -7.5 3t-1.5 7l1 8q2 10 11 10q29 2 42.5 14.5t17.5 31.5t9 60l1 3h-1l-156 618q-1 3 -3 2.5t-2 -3.5l-75 -607q0 -4 -3 -7t-8 -3h-9q-5 0 -7.5 3t-1.5 7l84 680q0 4 3 7t8 3h12q9 0 10 -8
l154 -610q0 -3 2 -2.5t3 3.5l58 471v4q2 2 2 5l15 127q1 4 4 7t7 3h10q9 0 9 -10z" />
    <glyph glyph-name="eng" unicode="&#x14b;" 
d="M332 477.5q27 -30.5 27 -87.5q0 -9 -2 -33l-46 -378q-15 -127 -112 -132q-4 0 -6.5 3t-1.5 7l1 7q2 10 11 10q65 7 79 105l46 374q2 18 2 27q0 48 -22 74t-64 26q-48 0 -80.5 -36t-39.5 -99l-41 -335q-2 -10 -11 -10h-10q-10 0 -8 10l59 481q0 4 3 7t8 3h9q5 0 7.5 -3
t1.5 -7l-6 -48q-1 -3 1 -3t3 3q20 32 49.5 48.5t64.5 16.5q51 0 78 -30.5z" />
    <glyph glyph-name="Omacron" unicode="&#x14c;" horiz-adv-x="433" 
d="M99.5 29q-35.5 37 -35.5 99q0 17 1 25l49 393q8 72 55.5 117t113.5 45q61 0 97 -37t36 -99q0 -8 -2 -26l-48 -393q-9 -72 -56.5 -116.5t-114.5 -44.5q-60 0 -95.5 37zM290.5 56.5q38.5 36.5 46.5 94.5l48 397q1 7 1 22q0 50 -29 80t-78 30q-53 0 -91 -37t-45 -95
l-49 -397q-1 -7 -1 -20q0 -50 28.5 -80.5t76.5 -30.5q54 0 92.5 36.5zM203.5 804q-2.5 3 -1.5 7l1 6q2 10 11 10h168q4 0 6.5 -3t1.5 -7l-1 -6q0 -4 -3 -7t-8 -3h-167q-5 0 -7.5 3z" />
    <glyph glyph-name="omacron" unicode="&#x14d;" horiz-adv-x="386" 
d="M87 25.5q-32 33.5 -32 87.5q0 8 2 24l27 227q8 63 50.5 104t101.5 41q54 0 85.5 -34t31.5 -89q0 -14 -1 -22l-28 -227q-8 -64 -50 -104.5t-101 -40.5q-54 0 -86 33.5zM256 52.5q33 32.5 39 84.5l28 227q1 7 1 20q0 44 -24.5 70.5t-66.5 26.5q-47 0 -80 -32.5t-39 -84.5
l-28 -227q-1 -7 -1 -20q0 -44 24.5 -70.5t66.5 -26.5q47 0 80 32.5zM156.5 606q-2.5 3 -1.5 7l1 6q2 10 11 10h168q4 0 6.5 -3t1.5 -7l-1 -6q0 -4 -3 -7t-8 -3h-167q-5 0 -7.5 3z" />
    <glyph glyph-name="obreve" unicode="&#x14f;" horiz-adv-x="386" 
d="M87 25.5q-32 33.5 -32 87.5q0 8 2 24l27 227q8 63 50.5 104t101.5 41q54 0 85.5 -34t31.5 -89q0 -14 -1 -22l-28 -227q-8 -64 -50 -104.5t-101 -40.5q-54 0 -86 33.5zM256 52.5q33 32.5 39 84.5l28 227q1 7 1 20q0 44 -24.5 70.5t-66.5 26.5q-47 0 -80 -32.5t-39 -84.5
l-28 -227q-1 -7 -1 -20q0 -44 24.5 -70.5t66.5 -26.5q47 0 80 32.5zM186.5 613.5q-23.5 25.5 -21.5 63.5q0 10 10 10h5q9 0 9 -10q-1 -28 16.5 -46.5t43.5 -18.5t47.5 18.5t28.5 46.5q3 10 12 10h5q10 0 8 -10q-8 -38 -38 -63.5t-66 -25.5t-59.5 25.5z" />
    <glyph glyph-name="Ohungarumlaut" unicode="&#x150;" horiz-adv-x="433" 
d="M99.5 29q-35.5 37 -35.5 99q0 17 1 25l49 393q8 72 55.5 117t113.5 45q61 0 97 -37t36 -99q0 -8 -2 -26l-48 -393q-9 -72 -56.5 -116.5t-114.5 -44.5q-60 0 -95.5 37zM290.5 56.5q38.5 36.5 46.5 94.5l48 397q1 7 1 22q0 50 -29 80t-78 30q-53 0 -91 -37t-45 -95
l-49 -397q-1 -7 -1 -20q0 -50 28.5 -80.5t76.5 -30.5q54 0 92.5 36.5zM227.5 770.5q-1.5 3.5 2.5 8.5l73 112q3 7 12 7h9q6 0 7.5 -3.5t-2.5 -8.5l-75 -112q-7 -7 -13 -7h-6q-6 0 -7.5 3.5zM330.5 770.5q-1.5 3.5 2.5 8.5l73 112q3 7 12 7h8q6 0 7.5 -3.5t-2.5 -8.5
l-75 -112q-5 -7 -12 -7h-6q-6 0 -7.5 3.5z" />
    <glyph glyph-name="ohungarumlaut" unicode="&#x151;" horiz-adv-x="386" 
d="M87 25.5q-32 33.5 -32 87.5q0 8 2 24l27 227q8 63 50.5 104t101.5 41q54 0 85.5 -34t31.5 -89q0 -14 -1 -22l-28 -227q-8 -64 -50 -104.5t-101 -40.5q-54 0 -86 33.5zM256 52.5q33 32.5 39 84.5l28 227q1 7 1 20q0 44 -24.5 70.5t-66.5 26.5q-47 0 -80 -32.5t-39 -84.5
l-28 -227q-1 -7 -1 -20q0 -44 24.5 -70.5t66.5 -26.5q47 0 80 32.5zM180.5 572.5q-1.5 3.5 2.5 8.5l73 112q3 7 12 7h9q6 0 7.5 -3.5t-2.5 -8.5l-75 -112q-7 -7 -13 -7h-6q-6 0 -7.5 3.5zM283.5 572.5q-1.5 3.5 2.5 8.5l73 112q3 7 12 7h8q6 0 7.5 -3.5t-2.5 -8.5l-75 -112
q-5 -7 -12 -7h-6q-6 0 -7.5 3.5z" />
    <glyph glyph-name="OE" unicode="&#x152;" horiz-adv-x="664" 
d="M678 675q-3 -3 -8 -3h-236q-3 0 -5 -4l-37 -300q0 -4 4 -4h156q10 0 8 -10v-7q-2 -10 -11 -10h-156q-2 0 -3.5 -1t-1.5 -3l-37 -301q0 -4 4 -4h236q9 0 9 -10l-1 -8q-2 -10 -11 -10h-260q-9 0 -9 10l6 43q0 3 -1.5 3.5t-3.5 -1.5q-23 -30 -55.5 -46.5t-71.5 -16.5
q-58 0 -93.5 37t-35.5 99q0 17 1 25l49 393q8 72 55 117t112 45q39 0 67.5 -16.5t44.5 -46.5q1 -2 2.5 -1.5t2.5 3.5l5 43q2 10 11 10h260q10 0 8 -10l-1 -8q0 -4 -3 -7zM290.5 56.5q38.5 36.5 46.5 94.5l48 397q1 7 1 22q0 50 -29 80t-78 30q-53 0 -91 -37t-45 -95
l-49 -397q-1 -7 -1 -20q0 -50 28.5 -80.5t76.5 -30.5q54 0 92.5 36.5z" />
    <glyph glyph-name="oe" unicode="&#x153;" horiz-adv-x="620" 
d="M576 249q-3 -3 -7 -3h-226q-2 0 -3.5 -1t-1.5 -3l-5 -42l-5 -44l-3 -19q-1 -6 -1 -18q0 -44 25 -71.5t67 -27.5q38 0 68 22.5t44 60.5q3 9 11 9h10q11 0 8 -11q-17 -49 -56 -79t-89 -30q-40 0 -67.5 20.5t-39.5 56.5q-2 5 -5 0q-21 -36 -54 -56.5t-73 -20.5
q-54 0 -86 33.5t-32 87.5q0 8 2 24l27 227q8 63 50.5 104t101.5 41q41 0 69 -20.5t39 -56.5q3 -5 5 0q21 36 54 56.5t73 20.5q54 0 86 -34t32 -89q0 -14 -1 -22l-14 -108q0 -4 -3 -7zM324 384q0 44 -24.5 70.5t-66.5 26.5q-47 0 -80 -32.5t-39 -84.5l-28 -227q-1 -7 -1 -20
q0 -44 24.5 -70.5t66.5 -26.5q47 0 80 32.5t39 84.5l28 227q1 7 1 20zM393 448.5q-33 -32.5 -40 -84.5l-2 -19q0 -4 -6 -44l-3 -27q0 -2 1 -3t2 -1h203q3 0 5 4l11 90q1 6 1 18q0 45 -25.5 72t-67.5 27q-46 0 -79 -32.5z" />
    <glyph glyph-name="Racute" unicode="&#x154;" horiz-adv-x="414" 
d="M331 8l-75 327q-1 3 -4 3h-112q-1 0 -2.5 -1t-1.5 -3l-40 -324q0 -4 -3 -7t-8 -3h-9q-5 0 -7.5 3t-1.5 7l84 680q0 4 3 7t8 3h137q58 0 91 -40t33 -108q0 -10 -2 -34q-9 -70 -45 -117.5t-89 -59.5q-4 -2 -3 -5l75 -325v-2q0 -9 -9 -9h-9q-9 0 -10 8zM178.5 671
q-1.5 -1 -1.5 -3l-37 -299q0 -4 4 -4h113q52 0 89 42t45 111q2 22 2 32q0 56 -26.5 89t-71.5 33h-114q-1 0 -2.5 -1zM259.5 771.5q-1.5 3.5 2.5 8.5l74 112q4 7 12 7h9q6 0 7.5 -3.5t-2.5 -8.5l-77 -112q-5 -7 -12 -7h-6q-6 0 -7.5 3.5z" />
    <glyph glyph-name="racute" unicode="&#x155;" horiz-adv-x="265" 
d="M287 495q7 -5 2 -13l-5 -12q-5 -10 -14 -5q-14 7 -33 7q-43 -1 -75.5 -43.5t-40.5 -106.5l-38 -312q-2 -10 -11 -10h-10q-10 0 -8 10l59 481q0 4 3 7t8 3h9q5 0 7.5 -3t1.5 -7l-8 -65q-1 -3 1 -3t4 4q18 37 46 57.5t61 20.5q24 0 41 -10zM185.5 572.5q-1.5 3.5 2.5 8.5
l74 112q4 7 12 7h9q6 0 7.5 -3.5t-2.5 -8.5l-77 -112q-5 -7 -12 -7h-6q-6 0 -7.5 3.5z" />
    <glyph glyph-name="uni0156" unicode="&#x156;" horiz-adv-x="414" 
d="M331 8l-75 327q-1 3 -4 3h-112q-1 0 -2.5 -1t-1.5 -3l-40 -324q0 -4 -3 -7t-8 -3h-9q-5 0 -7.5 3t-1.5 7l84 680q0 4 3 7t8 3h137q58 0 91 -40t33 -108q0 -10 -2 -34q-9 -70 -45 -117.5t-89 -59.5q-4 -2 -3 -5l75 -325v-2q0 -9 -9 -9h-9q-9 0 -10 8zM178.5 671
q-1.5 -1 -1.5 -3l-37 -299q0 -4 4 -4h113q52 0 89 42t45 111q2 22 2 32q0 56 -26.5 89t-71.5 33h-114q-1 0 -2.5 -1zM157.5 -196.5q-1.5 3.5 2.5 8.5l74 112q4 7 12 7h9q6 0 7.5 -3.5t-2.5 -8.5l-77 -112q-5 -7 -12 -7h-6q-6 0 -7.5 3.5z" />
    <glyph glyph-name="uni0157" unicode="&#x157;" horiz-adv-x="265" 
d="M287 495q7 -5 2 -13l-5 -12q-5 -10 -14 -5q-14 7 -33 7q-43 -1 -75.5 -43.5t-40.5 -106.5l-38 -312q-2 -10 -11 -10h-10q-10 0 -8 10l59 481q0 4 3 7t8 3h9q5 0 7.5 -3t1.5 -7l-8 -65q-1 -3 1 -3t4 4q18 37 46 57.5t61 20.5q24 0 41 -10zM-37.5 -196.5q-1.5 3.5 2.5 8.5
l74 112q4 7 12 7h9q6 0 7.5 -3.5t-2.5 -8.5l-77 -112q-5 -7 -12 -7h-6q-6 0 -7.5 3.5z" />
    <glyph glyph-name="Rcaron" unicode="&#x158;" horiz-adv-x="414" 
d="M331 8l-75 327q-1 3 -4 3h-112q-1 0 -2.5 -1t-1.5 -3l-40 -324q0 -4 -3 -7t-8 -3h-9q-5 0 -7.5 3t-1.5 7l84 680q0 4 3 7t8 3h137q58 0 91 -40t33 -108q0 -10 -2 -34q-9 -70 -45 -117.5t-89 -59.5q-4 -2 -3 -5l75 -325v-2q0 -9 -9 -9h-9q-9 0 -10 8zM178.5 671
q-1.5 -1 -1.5 -3l-37 -299q0 -4 4 -4h113q52 0 89 42t45 111q2 22 2 32q0 56 -26.5 89t-71.5 33h-114q-1 0 -2.5 -1zM219 892q0 7 8 7h15q6 0 11 -7l39 -82q1 -1 3 -1t3 1l59 82q7 7 13 7h13q6 0 7.5 -3.5t-1.5 -8.5l-78 -101q-4 -6 -12 -6h-17q-7 0 -11 7l-51 100
q-1 2 -1 5z" />
    <glyph glyph-name="rcaron" unicode="&#x159;" horiz-adv-x="265" 
d="M287 495q7 -5 2 -13l-5 -12q-5 -10 -14 -5q-14 7 -33 7q-43 -1 -75.5 -43.5t-40.5 -106.5l-38 -312q-2 -10 -11 -10h-10q-10 0 -8 10l59 481q0 4 3 7t8 3h9q5 0 7.5 -3t1.5 -7l-8 -65q-1 -3 1 -3t4 4q18 37 46 57.5t61 20.5q24 0 41 -10zM144 693q0 7 8 7h15q6 0 11 -7
l39 -82q1 -1 3 -1t3 1l59 82q7 7 13 7h13q6 0 7.5 -3.5t-1.5 -8.5l-78 -101q-4 -6 -12 -6h-17q-7 0 -11 7l-51 100q-1 2 -1 5z" />
    <glyph glyph-name="Sacute" unicode="&#x15a;" horiz-adv-x="388" 
d="M80.5 30.5q-34.5 38.5 -34.5 103.5q0 9 2 31l3 19q0 4 3 7t8 3h8q5 0 7.5 -3t1.5 -7l-2 -18q-2 -20 -2 -28q0 -55 27 -87t73 -32q51 0 89.5 39t46.5 102q1 8 1 22q0 34 -13 60t-32.5 45.5t-61.5 55.5q-40 35 -62 58t-36 52t-14 66q0 58 22 101t59 65.5t81 22.5
q59 0 93 -38.5t34 -103.5q0 -10 -2 -32l-3 -25q-2 -10 -11 -10h-10q-10 0 -8 10l3 24q2 20 2 28q0 55 -27.5 87.5t-74.5 32.5q-49 0 -84.5 -35t-43.5 -99q-1 -8 -1 -23q0 -43 22.5 -74t79.5 -79q47 -40 70 -64t36 -50.5t13 -61.5q0 -8 -2 -28q-10 -79 -57 -127t-111 -48
q-58 0 -92.5 38.5zM233.5 771.5q-1.5 3.5 2.5 8.5l74 112q4 7 12 7h9q6 0 7.5 -3.5t-2.5 -8.5l-77 -112q-5 -7 -12 -7h-6q-6 0 -7.5 3.5z" />
    <glyph glyph-name="sacute" unicode="&#x15b;" horiz-adv-x="342" 
d="M75.5 25q-31.5 29 -31.5 76q0 11 1 16l1 5q2 10 11 10h9q4 0 6.5 -3t1.5 -7v-4q-1 -5 -1 -14q0 -36 24.5 -59t66.5 -23q48 0 79 33t31 85q0 27 -12.5 45t-30.5 29t-51 26t-53.5 28t-34.5 35t-14 55q0 12 1 19q7 58 46 93t96 35q52 0 81.5 -30t29.5 -78q0 -12 -1 -19
l-1 -3q0 -4 -3 -7t-8 -3h-7q-5 0 -7.5 3t-1.5 7v3q1 5 1 14q0 38 -23.5 62t-63.5 24q-43 0 -73 -28t-36 -73q-1 -5 -1 -14q0 -36 22 -56t66 -40q36 -16 57 -29.5t36 -36.5t15 -57q0 -65 -40.5 -106.5t-102.5 -41.5q-53 0 -84.5 29zM198.5 572.5q-1.5 3.5 2.5 8.5l74 112
q4 7 12 7h9q6 0 7.5 -3.5t-2.5 -8.5l-77 -112q-5 -7 -12 -7h-6q-6 0 -7.5 3.5z" />
    <glyph glyph-name="Scircumflex" unicode="&#x15c;" horiz-adv-x="388" 
d="M80.5 30.5q-34.5 38.5 -34.5 103.5q0 9 2 31l3 19q0 4 3 7t8 3h8q5 0 7.5 -3t1.5 -7l-2 -18q-2 -20 -2 -28q0 -55 27 -87t73 -32q51 0 89.5 39t46.5 102q1 8 1 22q0 34 -13 60t-32.5 45.5t-61.5 55.5q-40 35 -62 58t-36 52t-14 66q0 58 22 101t59 65.5t81 22.5
q59 0 93 -38.5t34 -103.5q0 -10 -2 -32l-3 -25q-2 -10 -11 -10h-10q-10 0 -8 10l3 24q2 20 2 28q0 55 -27.5 87.5t-74.5 32.5q-49 0 -84.5 -35t-43.5 -99q-1 -8 -1 -23q0 -43 22.5 -74t79.5 -79q47 -40 70 -64t36 -50.5t13 -61.5q0 -8 -2 -28q-10 -79 -57 -127t-111 -48
q-58 0 -92.5 38.5zM180 792l76 100q5 7 12 7h18q6 0 11 -6l52 -101l1 -4q0 -8 -9 -8h-14q-7 0 -10 7l-40 81q-1 2 -3 2t-3 -2l-59 -81q-7 -7 -13 -7h-14q-12 0 -5 12z" />
    <glyph glyph-name="scircumflex" unicode="&#x15d;" horiz-adv-x="342" 
d="M75.5 25q-31.5 29 -31.5 76q0 11 1 16l1 5q2 10 11 10h9q4 0 6.5 -3t1.5 -7v-4q-1 -5 -1 -14q0 -36 24.5 -59t66.5 -23q48 0 79 33t31 85q0 27 -12.5 45t-30.5 29t-51 26t-53.5 28t-34.5 35t-14 55q0 12 1 19q7 58 46 93t96 35q52 0 81.5 -30t29.5 -78q0 -12 -1 -19
l-1 -3q0 -4 -3 -7t-8 -3h-7q-5 0 -7.5 3t-1.5 7v3q1 5 1 14q0 38 -23.5 62t-63.5 24q-43 0 -73 -28t-36 -73q-1 -5 -1 -14q0 -36 22 -56t66 -40q36 -16 57 -29.5t36 -36.5t15 -57q0 -65 -40.5 -106.5t-102.5 -41.5q-53 0 -84.5 29zM146 593l76 100q5 7 12 7h18q6 0 11 -6
l52 -101l1 -4q0 -8 -9 -8h-14q-7 0 -10 7l-40 81q-1 2 -3 2t-3 -2l-59 -81q-7 -7 -13 -7h-14q-12 0 -5 12z" />
    <glyph glyph-name="Scedilla" unicode="&#x15e;" horiz-adv-x="388" 
d="M291 47.5q-41 -46.5 -99 -53.5q-5 -2 -2 -5q31 -37 31 -80q0 -18 -5 -36q-8 -30 -28.5 -44t-46.5 -14q-14 0 -21 2q-10 1 -6 12l1 4q4 10 13 7q5 -1 14 -1q39 0 50 42q3 12 3 24q0 41 -34 86q-2 2 -5 2q-51 5 -80.5 43t-29.5 98q0 9 2 31l3 19q0 4 3 7t8 3h8q5 0 7.5 -3
t1.5 -7l-2 -18q-2 -20 -2 -28q0 -55 27 -87t73 -32q51 0 89.5 39t46.5 102q1 8 1 22q0 34 -13 60t-32.5 45.5t-61.5 55.5q-40 35 -62 58t-36 52t-14 66q0 58 22 101t59 65.5t81 22.5q59 0 93 -38.5t34 -103.5q0 -10 -2 -32l-3 -25q-2 -10 -11 -10h-10q-10 0 -8 10l3 24
q2 20 2 28q0 55 -27.5 87.5t-74.5 32.5q-49 0 -84.5 -35t-43.5 -99q-1 -8 -1 -23q0 -43 22.5 -74t79.5 -79q47 -40 70 -64t36 -50.5t13 -61.5q0 -8 -2 -28q-9 -73 -50 -119.5z" />
    <glyph glyph-name="scedilla" unicode="&#x15f;" horiz-adv-x="342" 
d="M268.5 44q-34.5 -40 -89.5 -46q-5 -2 -2 -5q32 -36 32 -80q0 -16 -5 -36q-9 -31 -29 -45t-45 -14q-11 0 -22 3q-8 1 -5 12l1 4q3 10 13 7q4 -1 13 -1q39 0 50 42q3 12 3 24q0 41 -34 86q-2 2 -5 2q-47 4 -73.5 33t-26.5 72q0 10 1 15l1 5q2 10 11 10h9q4 0 6.5 -3t1.5 -7
v-4q-1 -5 -1 -14q0 -36 24.5 -59t66.5 -23q48 0 79 33t31 85q0 27 -12.5 45t-30.5 29t-51 26t-53.5 28t-34.5 35t-14 55q0 12 1 19q7 58 46 93t96 35q52 0 81.5 -30t29.5 -78q0 -12 -1 -19l-1 -3q0 -4 -3 -7t-8 -3h-7q-5 0 -7.5 3t-1.5 7v3q1 5 1 14q0 38 -23.5 62t-63.5 24
q-43 0 -73 -28t-36 -73q-1 -5 -1 -14q0 -36 22 -56t66 -40q36 -16 57 -29.5t36 -36.5t15 -57q0 -60 -34.5 -100z" />
    <glyph glyph-name="Scaron" unicode="&#x160;" horiz-adv-x="388" 
d="M80.5 30.5q-34.5 38.5 -34.5 103.5q0 9 2 31l3 19q0 4 3 7t8 3h8q5 0 7.5 -3t1.5 -7l-2 -18q-2 -20 -2 -28q0 -55 27 -87t73 -32q51 0 89.5 39t46.5 102q1 8 1 22q0 34 -13 60t-32.5 45.5t-61.5 55.5q-40 35 -62 58t-36 52t-14 66q0 58 22 101t59 65.5t81 22.5
q59 0 93 -38.5t34 -103.5q0 -10 -2 -32l-3 -25q-2 -10 -11 -10h-10q-10 0 -8 10l3 24q2 20 2 28q0 55 -27.5 87.5t-74.5 32.5q-49 0 -84.5 -35t-43.5 -99q-1 -8 -1 -23q0 -43 22.5 -74t79.5 -79q47 -40 70 -64t36 -50.5t13 -61.5q0 -8 -2 -28q-10 -79 -57 -127t-111 -48
q-58 0 -92.5 38.5zM192 892q0 7 8 7h15q6 0 11 -7l39 -82q1 -1 3 -1t3 1l59 82q7 7 13 7h13q6 0 7.5 -3.5t-1.5 -8.5l-78 -101q-4 -6 -12 -6h-17q-7 0 -11 7l-51 100q-1 2 -1 5z" />
    <glyph glyph-name="scaron" unicode="&#x161;" horiz-adv-x="342" 
d="M75.5 25q-31.5 29 -31.5 76q0 11 1 16l1 5q2 10 11 10h9q4 0 6.5 -3t1.5 -7v-4q-1 -5 -1 -14q0 -36 24.5 -59t66.5 -23q48 0 79 33t31 85q0 27 -12.5 45t-30.5 29t-51 26t-53.5 28t-34.5 35t-14 55q0 12 1 19q7 58 46 93t96 35q52 0 81.5 -30t29.5 -78q0 -12 -1 -19
l-1 -3q0 -4 -3 -7t-8 -3h-7q-5 0 -7.5 3t-1.5 7v3q1 5 1 14q0 38 -23.5 62t-63.5 24q-43 0 -73 -28t-36 -73q-1 -5 -1 -14q0 -36 22 -56t66 -40q36 -16 57 -29.5t36 -36.5t15 -57q0 -65 -40.5 -106.5t-102.5 -41.5q-53 0 -84.5 29zM158 693q0 7 8 7h15q6 0 11 -7l39 -82
q1 -1 3 -1t3 1l59 82q7 7 13 7h13q6 0 7.5 -3.5t-1.5 -8.5l-78 -101q-4 -6 -12 -6h-17q-7 0 -11 7l-51 100q-1 2 -1 5z" />
    <glyph glyph-name="uni0162" unicode="&#x162;" horiz-adv-x="384" 
d="M412 690l-1 -8q-2 -10 -11 -10h-130q-3 0 -5 -4l-80 -658q-1 -4 -4 -7t-7 -3h-10q-9 0 -9 10l81 658q0 4 -3 4h-122q-5 0 -7.5 3t-1.5 7l1 8q2 10 11 10h289q9 0 9 -10zM117 -168v1l2 4q3 8 12 5q4 -1 13 -1q17 0 30.5 10.5t19.5 32.5q3 12 3 24q0 39 -30 80q-4 4 -3 8
t6 4h6q7 0 10 -3l3 -4q34 -37 34 -81q0 -20 -6 -36q-8 -31 -28 -45t-45 -14q-11 0 -22 3q-9 2 -5 12z" />
    <glyph glyph-name="uni0163" unicode="&#x163;" horiz-adv-x="245" 
d="M249 478q-3 -3 -7 -3h-83q-4 0 -4 -4l-43 -345q-2 -22 -2 -30q0 -38 16 -53t49 -15h11q10 0 8 -10l-1 -8q0 -4 -3 -7t-8 -3h-14h-8q-6 0 -3 -4q21 -31 21 -66q0 -20 -6 -36q-8 -31 -28 -45t-45 -14q-11 0 -22 3q-10 1 -5 12v1l2 4q3 8 12 5q4 -1 13 -1q22 0 37.5 16
t15.5 51q0 39 -30 80l-4 3q-38 17 -38 80q0 9 2 35l43 347q0 4 -4 4h-39q-5 0 -7.5 3t-1.5 7l1 6q2 10 11 10h40q4 0 4 4l14 112q0 4 3 7t8 3h10q9 0 9 -10l-14 -112q0 -4 3 -4h83q10 0 8 -10v-6q-1 -4 -4 -7z" />
    <glyph glyph-name="Tcaron" unicode="&#x164;" horiz-adv-x="384" 
d="M412 690l-1 -8q-2 -10 -11 -10h-130q-3 0 -5 -4l-80 -658q-1 -4 -4 -7t-7 -3h-10q-9 0 -9 10l81 658q0 4 -3 4h-122q-5 0 -7.5 3t-1.5 7l1 8q2 10 11 10h289q9 0 9 -10zM194 889q0 7 8 7h15q6 0 11 -7l39 -82q1 -1 3 -1t3 1l59 82q7 7 13 7h13q6 0 7.5 -3.5t-1.5 -8.5
l-78 -101q-4 -6 -12 -6h-17q-7 0 -11 7l-51 100q-1 2 -1 5z" />
    <glyph glyph-name="tcaron" unicode="&#x165;" horiz-adv-x="245" 
d="M249 478q-3 -3 -7 -3h-83q-4 0 -4 -4l-43 -345q-2 -22 -2 -30q0 -38 16 -53t49 -15h11q10 0 8 -10l-1 -8q0 -4 -3 -7t-8 -3h-14q-43 0 -65.5 19.5t-22.5 70.5q0 8 2 34l43 347q0 4 -4 4h-39q-5 0 -7.5 3t-1.5 7l1 6q2 10 11 10h40q4 0 4 4l14 112q0 4 3 7t8 3h10
q9 0 9 -10l-14 -112q0 -4 3 -4h83q10 0 8 -10v-6q-1 -4 -4 -7zM188.5 572.5q-1.5 3.5 2.5 8.5l74 112q4 7 12 7h9q6 0 7.5 -3.5t-2.5 -8.5l-77 -112q-5 -7 -12 -7h-6q-6 0 -7.5 3.5z" />
    <glyph glyph-name="Tbar" unicode="&#x166;" horiz-adv-x="384" 
d="M400 672h-130q-3 0 -5 -4l-29 -241q0 -4 3 -4h90q5 0 7.5 -3t1.5 -7l-1 -5q-2 -10 -11 -10h-90q-4 0 -4 -4l-47 -384q-1 -4 -4 -7t-7 -3h-10q-9 0 -9 10l48 384q0 4 -4 4h-101q-4 0 -6.5 3t-1.5 7v5q1 4 4 7t7 3h101q3 0 5 4l29 241q0 4 -3 4h-122q-5 0 -7.5 3t-1.5 7
l1 8q2 10 11 10h289q9 0 9 -10l-1 -8q-2 -10 -11 -10z" />
    <glyph glyph-name="tbar" unicode="&#x167;" horiz-adv-x="245" 
d="M249 478q-3 -3 -7 -3h-83q-4 0 -4 -4l-15 -121q0 -4 3 -4h83q10 0 8 -10v-6q-1 -4 -4 -7t-7 -3h-83q-4 0 -4 -4l-24 -190q-2 -22 -2 -30q0 -38 16 -53t49 -15h11q10 0 8 -10l-1 -8q0 -4 -3 -7t-8 -3h-14q-43 0 -65.5 19.5t-22.5 70.5q0 8 2 34l24 192q0 4 -4 4h-37
q-5 0 -7.5 3t-1.5 7l1 6q2 10 11 10h38q1 0 2.5 1t1.5 3l15 121q0 4 -4 4h-39q-5 0 -7.5 3t-1.5 7l1 6q2 10 11 10h40q4 0 4 4l14 112q0 4 3 7t8 3h10q9 0 9 -10l-14 -112q0 -4 3 -4h83q10 0 8 -10v-6q-1 -4 -4 -7z" />
    <glyph glyph-name="Utilde" unicode="&#x168;" horiz-adv-x="460" 
d="M114 32.5q-35 40.5 -35 109.5q0 23 2 35l63 513q2 10 11 10h10q4 0 6.5 -3t1.5 -7l-63 -517q-2 -22 -2 -31q0 -56 28 -89t76 -33q56 0 95 42t47 111l63 517q1 4 4 7t7 3h10q9 0 9 -10l-63 -513q-11 -83 -59 -134t-116 -51q-60 0 -95 40.5zM342 826.5q-11 6.5 -23 17.5
q-2 2 -10 9t-15.5 10t-16.5 3q-15 0 -26.5 -5.5t-24.5 -22.5q-6 -9 -14 -3l-2 2q-4 3 -4 6q0 4 3 8q31 41 70 41q15 0 26 -6t25 -17q16 -12 24 -17t19 -5q14 0 25 6.5t24 24.5q3 4 7 5t7 -1l3 -2q4 -2 4 -7t-6 -13q-16 -21 -34.5 -30.5t-34.5 -9.5q-15 0 -26 6.5z" />
    <glyph glyph-name="utilde" unicode="&#x169;" 
d="M341 498q3 3 8 3h9q5 0 7.5 -3t1.5 -7l-59 -481q-2 -10 -11 -10h-10q-10 0 -8 10l5 40q0 3 -2 3.5t-3 -2.5q-39 -58 -109 -58q-51 0 -79.5 28t-28.5 84q0 21 2 33l43 353q2 10 11 10h9q5 0 7.5 -3t1.5 -7l-43 -346q-2 -20 -2 -29q0 -47 22 -71t64 -24q47 0 79.5 36
t40.5 99l41 335q0 4 3 7zM283 627.5q-11 6.5 -23 17.5q-2 2 -10 9t-15.5 10t-16.5 3q-15 0 -26.5 -5.5t-24.5 -22.5q-6 -9 -14 -3l-2 2q-4 3 -4 6q0 4 3 8q31 41 70 41q15 0 26 -6t25 -17q16 -12 24 -17t19 -5q14 0 25 6.5t24 24.5q3 4 7 5t7 -1l3 -2q4 -2 4 -7t-6 -13
q-16 -21 -34.5 -30.5t-34.5 -9.5q-15 0 -26 6.5z" />
    <glyph glyph-name="Umacron" unicode="&#x16a;" horiz-adv-x="460" 
d="M114 32.5q-35 40.5 -35 109.5q0 23 2 35l63 513q2 10 11 10h10q4 0 6.5 -3t1.5 -7l-63 -517q-2 -22 -2 -31q0 -56 28 -89t76 -33q56 0 95 42t47 111l63 517q1 4 4 7t7 3h10q9 0 9 -10l-63 -513q-11 -83 -59 -134t-116 -51q-60 0 -95 40.5zM217.5 805q-2.5 3 -1.5 7l1 6
q2 10 11 10h168q4 0 6.5 -3t1.5 -7l-1 -6q0 -4 -3 -7t-8 -3h-167q-5 0 -7.5 3z" />
    <glyph glyph-name="umacron" unicode="&#x16b;" 
d="M341 498q3 3 8 3h9q5 0 7.5 -3t1.5 -7l-59 -481q-2 -10 -11 -10h-10q-10 0 -8 10l5 40q0 3 -2 3.5t-3 -2.5q-39 -58 -109 -58q-51 0 -79.5 28t-28.5 84q0 21 2 33l43 353q2 10 11 10h9q5 0 7.5 -3t1.5 -7l-43 -346q-2 -20 -2 -29q0 -47 22 -71t64 -24q47 0 79.5 36
t40.5 99l41 335q0 4 3 7zM159.5 606q-2.5 3 -1.5 7l1 6q2 10 11 10h168q4 0 6.5 -3t1.5 -7l-1 -6q0 -4 -3 -7t-8 -3h-167q-5 0 -7.5 3z" />
    <glyph glyph-name="Ubreve" unicode="&#x16c;" horiz-adv-x="460" 
d="M114 32.5q-35 40.5 -35 109.5q0 23 2 35l63 513q2 10 11 10h10q4 0 6.5 -3t1.5 -7l-63 -517q-2 -22 -2 -31q0 -56 28 -89t76 -33q56 0 95 42t47 111l63 517q1 4 4 7t7 3h10q9 0 9 -10l-63 -513q-11 -83 -59 -134t-116 -51q-60 0 -95 40.5zM246.5 812.5
q-23.5 25.5 -21.5 63.5q0 10 10 10h5q9 0 9 -10q-1 -28 16.5 -46.5t43.5 -18.5t47.5 18.5t28.5 46.5q3 10 12 10h5q10 0 8 -10q-8 -38 -38 -63.5t-66 -25.5t-59.5 25.5z" />
    <glyph glyph-name="ubreve" unicode="&#x16d;" 
d="M341 498q3 3 8 3h9q5 0 7.5 -3t1.5 -7l-59 -481q-2 -10 -11 -10h-10q-10 0 -8 10l5 40q0 3 -2 3.5t-3 -2.5q-39 -58 -109 -58q-51 0 -79.5 28t-28.5 84q0 21 2 33l43 353q2 10 11 10h9q5 0 7.5 -3t1.5 -7l-43 -346q-2 -20 -2 -29q0 -47 22 -71t64 -24q47 0 79.5 36
t40.5 99l41 335q0 4 3 7zM188.5 613.5q-23.5 25.5 -21.5 63.5q0 10 10 10h5q9 0 9 -10q-1 -28 16.5 -46.5t43.5 -18.5t47.5 18.5t28.5 46.5q3 10 12 10h5q10 0 8 -10q-8 -38 -38 -63.5t-66 -25.5t-59.5 25.5z" />
    <glyph glyph-name="Uring" unicode="&#x16e;" horiz-adv-x="460" 
d="M114 32.5q-35 40.5 -35 109.5q0 23 2 35l63 513q2 10 11 10h10q4 0 6.5 -3t1.5 -7l-63 -517q-2 -22 -2 -31q0 -56 28 -89t76 -33q56 0 95 42t47 111l63 517q1 4 4 7t7 3h10q9 0 9 -10l-63 -513q-11 -83 -59 -134t-116 -51q-60 0 -95 40.5zM248.5 811.5
q-23.5 24.5 -23.5 61.5q0 30 15 55.5t39.5 41t51.5 15.5q36 0 59 -24.5t23 -60.5q0 -30 -15 -56t-39 -41.5t-52 -15.5q-35 0 -58.5 24.5zM365 836.5q24 24.5 24 59.5q0 28 -17.5 46t-43.5 18q-31 0 -55.5 -24.5t-24.5 -59.5q0 -28 18 -46t44 -18q31 0 55 24.5z" />
    <glyph glyph-name="uring" unicode="&#x16f;" 
d="M341 498q3 3 8 3h9q5 0 7.5 -3t1.5 -7l-59 -481q-2 -10 -11 -10h-10q-10 0 -8 10l5 40q0 3 -2 3.5t-3 -2.5q-39 -58 -109 -58q-51 0 -79.5 28t-28.5 84q0 21 2 33l43 353q2 10 11 10h9q5 0 7.5 -3t1.5 -7l-43 -346q-2 -20 -2 -29q0 -47 22 -71t64 -24q47 0 79.5 36
t40.5 99l41 335q0 4 3 7zM189.5 612.5q-23.5 24.5 -23.5 61.5q0 30 15 55.5t39.5 41t51.5 15.5q36 0 59 -24.5t23 -60.5q0 -30 -15 -56t-39 -41.5t-52 -15.5q-35 0 -58.5 24.5zM306 637.5q24 24.5 24 59.5q0 28 -17.5 46t-43.5 18q-31 0 -55.5 -24.5t-24.5 -59.5
q0 -28 18 -46t44 -18q31 0 55 24.5z" />
    <glyph glyph-name="Uhungarumlaut" unicode="&#x170;" horiz-adv-x="460" 
d="M114 32.5q-35 40.5 -35 109.5q0 23 2 35l63 513q2 10 11 10h10q4 0 6.5 -3t1.5 -7l-63 -517q-2 -22 -2 -31q0 -56 28 -89t76 -33q56 0 95 42t47 111l63 517q1 4 4 7t7 3h10q9 0 9 -10l-63 -513q-11 -83 -59 -134t-116 -51q-60 0 -95 40.5zM241.5 771.5q-1.5 3.5 2.5 8.5
l73 112q3 7 12 7h9q6 0 7.5 -3.5t-2.5 -8.5l-75 -112q-7 -7 -13 -7h-6q-6 0 -7.5 3.5zM344.5 771.5q-1.5 3.5 2.5 8.5l73 112q3 7 12 7h8q6 0 7.5 -3.5t-2.5 -8.5l-75 -112q-5 -7 -12 -7h-6q-6 0 -7.5 3.5z" />
    <glyph glyph-name="uhungarumlaut" unicode="&#x171;" 
d="M341 498q3 3 8 3h9q5 0 7.5 -3t1.5 -7l-59 -481q-2 -10 -11 -10h-10q-10 0 -8 10l5 40q0 3 -2 3.5t-3 -2.5q-39 -58 -109 -58q-51 0 -79.5 28t-28.5 84q0 21 2 33l43 353q2 10 11 10h9q5 0 7.5 -3t1.5 -7l-43 -346q-2 -20 -2 -29q0 -47 22 -71t64 -24q47 0 79.5 36
t40.5 99l41 335q0 4 3 7zM183.5 572.5q-1.5 3.5 2.5 8.5l73 112q3 7 12 7h9q6 0 7.5 -3.5t-2.5 -8.5l-75 -112q-7 -7 -13 -7h-6q-6 0 -7.5 3.5zM286.5 572.5q-1.5 3.5 2.5 8.5l73 112q3 7 12 7h8q6 0 7.5 -3.5t-2.5 -8.5l-75 -112q-5 -7 -12 -7h-6q-6 0 -7.5 3.5z" />
    <glyph glyph-name="Uogonek" unicode="&#x172;" horiz-adv-x="460" 
d="M421 697q3 3 7 3h10q9 0 9 -10l-63 -513q-10 -80 -55 -130t-110 -55q-3 0 -5 -2q-22 -22 -35.5 -48.5t-13.5 -52.5q0 -22 10.5 -32.5t27.5 -10.5q5 0 15 2h3q7 0 7 -6q3 -3 1 -4v-3q0 -9 -9 -10q-10 -3 -22 -3q-26 0 -42.5 15t-16.5 49q0 58 46 103q3 3 -1 5
q-50 8 -77.5 47.5t-27.5 101.5q0 10 2 34l63 513q2 10 11 10h10q4 0 6.5 -3t1.5 -7l-63 -517q-2 -22 -2 -31q0 -56 28 -89t76 -33q56 0 95 42t47 111l63 517q1 4 4 7z" />
    <glyph glyph-name="uogonek" unicode="&#x173;" 
d="M300 -157q5 0 7 -8v-3q0 -11 -9 -12q-11 -3 -22 -3q-26 0 -42.5 16t-16.5 50q0 65 61 115q1 1 1 4q-2 3 0 8l5 40q0 3 -2 3.5t-3 -2.5q-39 -58 -109 -58q-51 0 -79.5 28t-28.5 84q0 21 2 33l43 353q2 10 11 10h9q5 0 7.5 -3t1.5 -7l-43 -346q-2 -20 -2 -29q0 -47 22 -71
t64 -24q47 0 79.5 36t40.5 99l41 335q0 4 3 7t8 3h9q5 0 7.5 -3t1.5 -7l-60 -484q0 -4 -6 -12q-59 -55 -59 -109q0 -45 39 -45q9 0 14 1z" />
    <glyph glyph-name="Wcircumflex" unicode="&#x174;" horiz-adv-x="566" 
d="M140 9l-42 680q0 11 10 11h11q9 0 9 -9l35 -619q1 -2 2 -2t2 2l169 619q3 9 11 9h12q8 0 8 -9l20 -619q1 -2 2 -2t2 2l178 619q3 9 12 9h11q10 0 8 -11l-203 -680q-3 -9 -12 -9h-12q-8 0 -8 9l-19 616q0 2 -1 2t-2 -2l-171 -616q-3 -9 -11 -9h-12q-9 0 -9 9zM279 792
l76 100q5 7 12 7h18q6 0 11 -6l52 -101l1 -4q0 -8 -9 -8h-14q-7 0 -10 7l-40 81q-1 2 -3 2t-3 -2l-59 -81q-7 -7 -13 -7h-14q-12 0 -5 12z" />
    <glyph glyph-name="wcircumflex" unicode="&#x175;" horiz-adv-x="504" 
d="M111 9l-42 481q0 11 10 11h10q9 0 9 -9l32 -441q1 -3 2 -3t2 3l142 441q2 9 12 9h10q10 0 10 -9l34 -441q0 -3 1.5 -3t2.5 3l142 441q3 9 12 9h10q4 0 6.5 -3t0.5 -8l-162 -481q-3 -9 -12 -9h-11q-10 0 -10 9l-35 429q-1 3 -2 3t-2 -3l-138 -429q-3 -9 -12 -9h-13
q-9 0 -9 9zM219 593l76 100q5 7 12 7h18q6 0 11 -6l52 -101l1 -4q0 -8 -9 -8h-14q-7 0 -10 7l-40 81q-1 2 -3 2t-3 -2l-59 -81q-7 -7 -13 -7h-14q-12 0 -5 12z" />
    <glyph glyph-name="Ycircumflex" unicode="&#x176;" horiz-adv-x="383" 
d="M159 10l40 322v5l-90 351l-1 3q0 9 10 9h11q8 0 9 -8l77 -322q1 -3 3 -3t3 3l155 322q4 8 12 8h10q5 0 7 -3.5t0 -8.5l-175 -351q-2 -1 -2 -5l-40 -322q0 -4 -3 -7t-7 -3h-10q-9 0 -9 10zM185 792l76 100q5 7 12 7h18q6 0 11 -6l52 -101l1 -4q0 -8 -9 -8h-14q-7 0 -10 7
l-40 81q-1 2 -3 2t-3 -2l-59 -81q-7 -7 -13 -7h-14q-12 0 -5 12z" />
    <glyph glyph-name="ycircumflex" unicode="&#x177;" horiz-adv-x="325" 
d="M-2 -197q-2 3 -1 7l1 7q2 10 11 10h1q28 1 44.5 14t31.5 46t42 110q1 2 0.5 3.5t-0.5 2.5l-65 487v2q0 9 10 9h11q9 0 9 -9l54 -445q1 -3 2 -3t2 3l163 445q2 9 11 9h11q12 0 7 -11l-206 -549q-24 -63 -41.5 -92t-37 -39t-52.5 -10h-4q-2 0 -4 3zM131 593l76 100
q5 7 12 7h18q6 0 11 -6l52 -101l1 -4q0 -8 -9 -8h-14q-7 0 -10 7l-40 81q-1 2 -3 2t-3 -2l-59 -81q-7 -7 -13 -7h-14q-12 0 -5 12z" />
    <glyph glyph-name="Ydieresis" unicode="&#x178;" horiz-adv-x="383" 
d="M159 10l40 322v5l-90 351l-1 3q0 9 10 9h11q8 0 9 -8l77 -322q1 -3 3 -3t3 3l155 322q4 8 12 8h10q5 0 7 -3.5t0 -8.5l-175 -351q-2 -1 -2 -5l-40 -322q0 -4 -3 -7t-7 -3h-10q-9 0 -9 10zM309 822q-10 10 -10 27q0 20 13.5 34t33.5 14q18 0 28.5 -12t8.5 -30
q-3 -19 -16 -31t-31 -12q-17 0 -27 10zM183 822q-10 10 -10 27q0 20 13.5 34t33.5 14q18 0 28.5 -12t8.5 -30q-3 -19 -16 -31t-31 -12q-17 0 -27 10z" />
    <glyph glyph-name="Zacute" unicode="&#x179;" horiz-adv-x="373" 
d="M22 10l1 12l3 12l330 633q2 2 1 3.5t-3 1.5h-241q-5 0 -7.5 3t-1.5 7l1 8q2 10 11 10h269q10 0 8 -10l-1 -12q-2 -9 -4 -12l-330 -633q-1 -2 0 -3.5t3 -1.5h241q9 0 9 -10l-1 -8q-2 -10 -11 -10h-269q-10 0 -8 10zM232.5 771.5q-1.5 3.5 2.5 8.5l74 112q4 7 12 7h9
q6 0 7.5 -3.5t-2.5 -8.5l-77 -112q-5 -7 -12 -7h-6q-6 0 -7.5 3.5z" />
    <glyph glyph-name="zacute" unicode="&#x17a;" horiz-adv-x="343" 
d="M23 10l1 11q0 3 4 13l279 434q2 5 -2 5h-213q-10 0 -8 10l1 8q0 4 3 7t7 3h243q10 0 8 -10l-1 -11q0 -3 -4 -13l-280 -434q-2 -5 2 -5h215q10 0 8 -10l-1 -8q0 -4 -3 -7t-7 -3h-244q-10 0 -8 10zM197.5 572.5q-1.5 3.5 2.5 8.5l74 112q4 7 12 7h9q6 0 7.5 -3.5t-2.5 -8.5
l-77 -112q-5 -7 -12 -7h-6q-6 0 -7.5 3.5z" />
    <glyph glyph-name="Zdotaccent" unicode="&#x17b;" horiz-adv-x="373" 
d="M22 10l1 12l3 12l330 633q2 2 1 3.5t-3 1.5h-241q-5 0 -7.5 3t-1.5 7l1 8q2 10 11 10h269q10 0 8 -10l-1 -12q-2 -9 -4 -12l-330 -633q-1 -2 0 -3.5t3 -1.5h241q9 0 9 -10l-1 -8q-2 -10 -11 -10h-269q-10 0 -8 10zM240 822q-10 10 -10 27q0 20 13.5 34t33.5 14
q18 0 28.5 -12t8.5 -30q-3 -19 -16 -31t-31 -12q-17 0 -27 10z" />
    <glyph glyph-name="zdotaccent" unicode="&#x17c;" horiz-adv-x="343" 
d="M23 10l1 11q0 3 4 13l279 434q2 5 -2 5h-213q-10 0 -8 10l1 8q0 4 3 7t7 3h243q10 0 8 -10l-1 -11q0 -3 -4 -13l-280 -434q-2 -5 2 -5h215q10 0 8 -10l-1 -8q0 -4 -3 -7t-7 -3h-244q-10 0 -8 10zM205 623q-10 10 -10 27q0 20 13.5 34t33.5 14q18 0 28.5 -12t8.5 -30
q-3 -19 -16 -31t-31 -12q-17 0 -27 10z" />
    <glyph glyph-name="Zcaron" unicode="&#x17d;" horiz-adv-x="373" 
d="M22 10l1 12l3 12l330 633q2 2 1 3.5t-3 1.5h-241q-5 0 -7.5 3t-1.5 7l1 8q2 10 11 10h269q10 0 8 -10l-1 -12q-2 -9 -4 -12l-330 -633q-1 -2 0 -3.5t3 -1.5h241q9 0 9 -10l-1 -8q-2 -10 -11 -10h-269q-10 0 -8 10zM191 892q0 7 8 7h15q6 0 11 -7l39 -82q1 -1 3 -1t3 1
l59 82q7 7 13 7h13q6 0 7.5 -3.5t-1.5 -8.5l-78 -101q-4 -6 -12 -6h-17q-7 0 -11 7l-51 100q-1 2 -1 5z" />
    <glyph glyph-name="zcaron" unicode="&#x17e;" horiz-adv-x="343" 
d="M23 10l1 11q0 3 4 13l279 434q2 5 -2 5h-213q-10 0 -8 10l1 8q0 4 3 7t7 3h243q10 0 8 -10l-1 -11q0 -3 -4 -13l-280 -434q-2 -5 2 -5h215q10 0 8 -10l-1 -8q0 -4 -3 -7t-7 -3h-244q-10 0 -8 10zM157 693q0 7 8 7h15q6 0 11 -7l39 -82q1 -1 3 -1t3 1l59 82q7 7 13 7h13
q6 0 7.5 -3.5t-1.5 -8.5l-78 -101q-4 -6 -12 -6h-17q-7 0 -11 7l-51 100q-1 2 -1 5z" />
    <glyph glyph-name="uni018F" unicode="&#x18f;" horiz-adv-x="490" 
d="M425.5 661.5q43.5 -46.5 43.5 -122.5q0 -9 -2 -31l-39 -319q-7 -57 -36.5 -103t-74 -71.5t-96.5 -25.5q-73 0 -116.5 47t-43.5 122q0 9 2 31l19 154q2 10 11 10h322q4 0 4 4l19 152q2 18 2 27q0 65 -36.5 104.5t-97.5 39.5q-56 0 -100 -34.5t-64 -91.5q-4 -9 -12 -9h-10
q-5 0 -7 3t0 8q20 68 74 110t122 42q73 0 116.5 -46.5zM340 65.5q49 48.5 59 123.5l16 131q0 4 -4 4h-298q-2 0 -3.5 -1t-1.5 -3l-16 -131q-2 -18 -2 -27q0 -65 36.5 -105t97.5 -40q67 0 116 48.5z" />
    <glyph glyph-name="florin" unicode="&#x192;" horiz-adv-x="444" 
d="M337.5 646.5q20.5 34.5 50.5 48.5t77 14q5 0 7.5 -3t1.5 -7l-2 -8q-3 -9 -11 -9h-16q-47 0 -72.5 -33t-43.5 -102l-47 -170q0 -4 2 -4h77q9 0 9 -10l-1 -6q-2 -10 -11 -10h-81q-5 0 -5 -4l-109 -393q-17 -62 -37.5 -96.5t-50.5 -48.5t-77 -14q-5 0 -7.5 3t-1.5 7l2 8
q3 9 11 9h16q46 0 71.5 33t44.5 102l108 390q0 4 -2 4h-60q-4 0 -6.5 3t-1.5 7l1 6q0 4 3 7t8 3h64q1 0 3 1t2 3l47 173q17 62 37.5 96.5z" />
    <glyph glyph-name="Ohorn" unicode="&#x1a0;" horiz-adv-x="433" 
d="M368 681q48 -38 48 -108q0 -9 -2 -27l-48 -393q-9 -72 -56.5 -116.5t-114.5 -44.5q-60 0 -95.5 37t-35.5 99q0 17 1 25l49 393q8 72 55.5 117t113.5 45q22 0 48 -7q0 -1 4 -1q25 2 45 20.5t27 46.5q1 10 11 10h5q10 0 8 -11q-6 -27 -22.5 -48t-39.5 -32q-4 -1 -1 -5z
M385 548q1 7 1 22q0 50 -29 80t-78 30q-53 0 -91 -37t-45 -95l-49 -397q-1 -7 -1 -20q0 -50 28.5 -80.5t76.5 -30.5q54 0 92.5 36.5t46.5 94.5z" />
    <glyph glyph-name="ohorn" unicode="&#x1a1;" horiz-adv-x="386" 
d="M316 481q37 -34 37 -94q0 -15 -1 -23l-28 -227q-8 -64 -50 -104.5t-101 -40.5q-54 0 -86 33.5t-32 87.5q0 8 2 24l27 227q8 63 50.5 104t101.5 41q20 0 45 -7q1 -1 4 -1q25 2 45.5 20.5t27.5 46.5q3 10 12 10h4q4 0 6 -3t1 -9q-6 -27 -22.5 -48t-40.5 -32q-5 -2 -2 -5z
M324 384q0 44 -24.5 70.5t-66.5 26.5q-47 0 -80 -32.5t-39 -84.5l-28 -227q-1 -7 -1 -20q0 -44 24.5 -70.5t66.5 -26.5q47 0 80 32.5t39 84.5l28 227q1 7 1 20z" />
    <glyph glyph-name="Uhorn" unicode="&#x1af;" horiz-adv-x="460" 
d="M531 767q-8 -34 -30 -58t-52 -30q-4 -1 -4 -5l-61 -497q-11 -83 -59 -134t-116 -51q-60 0 -95 40.5t-35 109.5q0 23 2 35l63 513q2 10 11 10h10q4 0 6.5 -3t1.5 -7l-63 -517q-2 -22 -2 -31q0 -56 28 -89t76 -33q56 0 95 42t47 111l63 517q1 4 4 7t7 3h2q27 0 49 19t28 48
q3 10 12 10h4q10 0 8 -10z" />
    <glyph glyph-name="uhorn" unicode="&#x1b0;" 
d="M447.5 575q2.5 -3 1.5 -7q-7 -33 -29 -56.5t-52 -31.5q-3 -1 -3 -5l-57 -465q-2 -10 -11 -10h-10q-10 0 -8 10l5 40q0 3 -2 3.5t-3 -2.5q-39 -58 -109 -58q-51 0 -79.5 28t-28.5 84q0 21 2 33l43 353q2 10 11 10h9q5 0 7.5 -3t1.5 -7l-43 -346q-2 -20 -2 -29
q0 -47 22 -71t64 -24q47 0 79.5 36t40.5 99l41 335q0 10 10 10q27 0 48.5 18.5t28.5 48.5q3 10 12 10h4q4 0 6.5 -3z" />
    <glyph glyph-name="uni01CD" unicode="&#x1cd;" horiz-adv-x="356" 
d="M297 9l-12 139q0 4 -4 4h-207q-2 0 -3.5 -1t-1.5 -3l-47 -139q-1 -9 -11 -9h-10q-5 0 -7 3t0 8l231 680q3 9 12 9h14q9 0 9 -9l66 -680v-2q0 -4 -3 -6.5t-7 -2.5h-9q-10 0 -10 9zM81 180.5q1 -1.5 3 -1.5h193q2 0 3.5 1.5t0.5 2.5l-42 461q0 3 -1 3t-3 -3l-154 -461
q-1 -1 0 -2.5zM182 889q0 7 8 7h15q6 0 11 -7l39 -82q1 -1 3 -1t3 1l59 82q7 7 13 7h13q6 0 7.5 -3.5t-1.5 -8.5l-78 -101q-4 -6 -12 -6h-17q-7 0 -11 7l-51 100q-1 2 -1 5z" />
    <glyph glyph-name="uni01CE" unicode="&#x1ce;" horiz-adv-x="380" 
d="M340 498q3 3 8 3h9q5 0 7.5 -3t1.5 -7l-59 -481q-2 -10 -11 -10h-10q-10 0 -8 10l4 39q1 3 -0.5 3.5t-3.5 -1.5q-20 -28 -48 -43.5t-61 -15.5q-53 0 -83.5 33t-30.5 87q0 7 2 25l27 227q8 64 49 104.5t99 40.5q33 0 58 -16t37 -44q1 -3 2.5 -2.5t2.5 3.5l5 41q0 4 3 7z
M254.5 52.5q32.5 32.5 38.5 84.5l28 227q1 7 1 21q0 43 -24 69.5t-64 26.5q-47 0 -80.5 -32.5t-39.5 -84.5l-28 -227q-1 -7 -1 -20q0 -44 25 -70.5t67 -26.5q45 0 77.5 32.5zM170 690q0 7 8 7h15q6 0 11 -7l39 -82q1 -1 3 -1t3 1l59 82q7 7 13 7h13q6 0 7.5 -3.5t-1.5 -8.5
l-78 -101q-4 -6 -12 -6h-17q-7 0 -11 7l-51 100q-1 2 -1 5z" />
    <glyph glyph-name="uni01D4" unicode="&#x1d4;" 
d="M341 498q3 3 8 3h9q5 0 7.5 -3t1.5 -7l-59 -481q-2 -10 -11 -10h-10q-10 0 -8 10l5 40q0 3 -2 3.5t-3 -2.5q-39 -58 -109 -58q-51 0 -79.5 28t-28.5 84q0 21 2 33l43 353q2 10 11 10h9q5 0 7.5 -3t1.5 -7l-43 -346q-2 -20 -2 -29q0 -47 22 -71t64 -24q47 0 79.5 36
t40.5 99l41 335q0 4 3 7zM176 690q0 7 8 7h15q6 0 11 -7l39 -82q1 -1 3 -1t3 1l59 82q7 7 13 7h13q6 0 7.5 -3.5t-1.5 -8.5l-78 -101q-4 -6 -12 -6h-17q-7 0 -11 7l-51 100q-1 2 -1 5z" />
    <glyph glyph-name="uni01E5" unicode="&#x1e5;" horiz-adv-x="390" 
d="M400 250v-5q-2 -10 -11 -10h-50q-4 0 -4 -4l-28 -229q-25 -202 -194 -202q-7 0 -9 2.5t-1 7.5l1 7q0 4 3 7t8 3q73 0 112 45t50 131l6 47q0 3 -1.5 3.5t-3.5 -1.5q-19 -28 -47.5 -43.5t-61.5 -15.5q-53 0 -83.5 32.5t-30.5 86.5q0 7 2 25l27 227q8 64 49 104.5t99 40.5
q33 0 58 -15.5t37 -43.5q1 -2 2.5 -1.5t2.5 3.5l5 39q0 4 3 7t8 3h10q5 0 7.5 -3t1.5 -7l-28 -227q0 -4 3 -4h50q10 0 8 -10zM254.5 53.5q32.5 32.5 38.5 84.5l12 93q0 4 -4 4h-102q-5 0 -7.5 3t-1.5 7l1 5q0 4 3 7t8 3h102q2 0 3.5 1t1.5 3l12 100q1 7 1 21q0 43 -24 69.5
t-64 26.5q-47 0 -80.5 -32.5t-39.5 -84.5l-28 -226q-1 -7 -1 -20q0 -44 25 -70.5t67 -26.5q45 0 77.5 32.5z" />
    <glyph glyph-name="gcaron" unicode="&#x1e7;" horiz-adv-x="385" 
d="M340 498q3 3 8 3h10q5 0 7.5 -3t1.5 -7l-60 -489q-25 -202 -194 -202q-7 0 -9 2.5t-1 7.5l1 7q0 4 3 7t8 3q73 0 112 45t50 131l6 47q0 3 -1.5 3.5t-3.5 -1.5q-19 -28 -47.5 -43.5t-61.5 -15.5q-53 0 -83.5 32.5t-30.5 86.5q0 7 2 25l27 227q8 64 49 104.5t99 40.5
q33 0 58 -15.5t37 -43.5q1 -2 2.5 -1.5t2.5 3.5l5 39q0 4 3 7zM254.5 53.5q32.5 32.5 38.5 84.5l28 226q1 7 1 21q0 43 -24 69.5t-64 26.5q-47 0 -80.5 -32.5t-39.5 -84.5l-28 -226q-1 -7 -1 -20q0 -44 25 -70.5t67 -26.5q45 0 77.5 32.5zM173 690q0 7 8 7h15q6 0 11 -7
l39 -82q1 -1 3 -1t3 1l59 82q7 7 13 7h13q6 0 7.5 -3.5t-1.5 -8.5l-78 -101q-4 -6 -12 -6h-17q-7 0 -11 7l-51 100q-1 2 -1 5z" />
    <glyph glyph-name="uni01E9" unicode="&#x1e9;" horiz-adv-x="368" 
d="M54 10l83 680q2 10 11 10h10q10 0 8 -10l-54 -442q0 -2 1.5 -2.5t3.5 1.5l209 248q4 6 13 6h12q5 0 6.5 -4t-2.5 -8l-107 -126q-2 -3 -1 -5l69 -347v-2q0 -9 -9 -9h-11q-8 0 -11 8l-60 322q-1 6 -6 1l-111 -132l-3 -5l-22 -184q-2 -10 -11 -10h-10q-10 0 -8 10zM197 889
q0 7 8 7h15q6 0 11 -7l39 -82q1 -1 3 -1t3 1l59 82q7 7 13 7h13q6 0 7.5 -3.5t-1.5 -8.5l-78 -101q-4 -6 -12 -6h-17q-7 0 -11 7l-51 100q-1 2 -1 5z" />
    <glyph glyph-name="uni01EF" unicode="&#x1ef;" horiz-adv-x="440" 
d="M147 228q116 2 171.5 -45t55.5 -131q0 -24 -2 -37q-9 -78 -49.5 -129.5t-97 -75.5t-116.5 -24q-46 0 -86 14q-7 3 -5 12l1 7q0 6 3.5 8t8.5 0q36 -12 79 -12q53 0 102.5 19t86 63.5t44.5 115.5q2 22 2 33q0 156 -203 156q-22 0 -34 -1h-2q-7 0 -7 9l-1 5q0 7 6 13
l249 240q2 2 1.5 3.5t-2.5 1.5h-211q-5 0 -7.5 3t-1.5 7l1 8q2 10 11 10h244q5 0 7.5 -3t1.5 -7l-1 -11q-1 -6 -7 -12l-243 -235q-3 -5 1 -5zM207 690q0 7 8 7h15q6 0 11 -7l39 -82q1 -1 3 -1t3 1l59 82q7 7 13 7h13q6 0 7.5 -3.5t-1.5 -8.5l-78 -101q-4 -6 -12 -6h-17
q-7 0 -11 7l-51 100q-1 2 -1 5z" />
    <glyph glyph-name="oslashacute" unicode="&#x1ff;" horiz-adv-x="386" 
d="M332 464q22 -31 22 -77q0 -15 -1 -23l-28 -227q-8 -64 -50 -104.5t-102 -40.5q-39 0 -68 19q-4 1 -6 -2l-24 -49q-5 -10 -14 -6l-6 4q-8 6 -4 13l29 57q2 3 0 5q-25 33 -25 79q0 7 2 25l27 227q8 63 50.5 104t101.5 41q44 0 71 -21q4 -1 6 2l29 57q3 10 13 5l6 -4
q8 -5 3 -13l-33 -66q-1 -3 1 -5zM84 117q0 -25 12 -49q0 -2 2 -1.5t3 2.5l194 385q2 3 -1 5q-24 22 -61 22q-47 0 -80 -32.5t-39 -84.5l-28 -227q-2 -14 -2 -20zM325 383q0 25 -8 46q-1 2 -2.5 2t-2.5 -3l-195 -384q-1 -4 1 -5q24 -19 58 -19q47 0 80.5 32.5t39.5 84.5
l28 227q1 7 1 19zM214.5 572.5q-1.5 3.5 2.5 8.5l74 112q4 7 12 7h9q6 0 7.5 -3.5t-2.5 -8.5l-77 -112q-5 -7 -12 -7h-6q-6 0 -7.5 3.5z" />
    <glyph glyph-name="uni0218" unicode="&#x218;" horiz-adv-x="388" 
d="M80.5 30.5q-34.5 38.5 -34.5 103.5q0 9 2 31l3 19q0 4 3 7t8 3h8q5 0 7.5 -3t1.5 -7l-2 -18q-2 -20 -2 -28q0 -55 27 -87t73 -32q51 0 89.5 39t46.5 102q1 8 1 22q0 34 -13 60t-32.5 45.5t-61.5 55.5q-40 35 -62 58t-36 52t-14 66q0 58 22 101t59 65.5t81 22.5
q59 0 93 -38.5t34 -103.5q0 -10 -2 -32l-3 -25q-2 -10 -11 -10h-10q-10 0 -8 10l3 24q2 20 2 28q0 55 -27.5 87.5t-74.5 32.5q-49 0 -84.5 -35t-43.5 -99q-1 -8 -1 -23q0 -43 22.5 -74t79.5 -79q47 -40 70 -64t36 -50.5t13 -61.5q0 -8 -2 -28q-10 -79 -57 -127t-111 -48
q-58 0 -92.5 38.5zM125.5 -204.5q-1.5 3.5 2.5 8.5l74 112q4 7 12 7h9q6 0 7.5 -3.5t-2.5 -8.5l-77 -112q-5 -7 -12 -7h-6q-6 0 -7.5 3.5z" />
    <glyph glyph-name="uni0219" unicode="&#x219;" horiz-adv-x="342" 
d="M75.5 25q-31.5 29 -31.5 76q0 11 1 16l1 5q2 10 11 10h9q4 0 6.5 -3t1.5 -7v-4q-1 -5 -1 -14q0 -36 24.5 -59t66.5 -23q48 0 79 33t31 85q0 27 -12.5 45t-30.5 29t-51 26t-53.5 28t-34.5 35t-14 55q0 12 1 19q7 58 46 93t96 35q52 0 81.5 -30t29.5 -78q0 -12 -1 -19
l-1 -3q0 -4 -3 -7t-8 -3h-7q-5 0 -7.5 3t-1.5 7v3q1 5 1 14q0 38 -23.5 62t-63.5 24q-43 0 -73 -28t-36 -73q-1 -5 -1 -14q0 -36 22 -56t66 -40q36 -16 57 -29.5t36 -36.5t15 -57q0 -65 -40.5 -106.5t-102.5 -41.5q-53 0 -84.5 29zM113.5 -200.5q-1.5 3.5 2.5 8.5l74 112
q4 7 12 7h9q6 0 7.5 -3.5t-2.5 -8.5l-77 -112q-5 -7 -12 -7h-6q-6 0 -7.5 3.5z" />
    <glyph glyph-name="uni021A" unicode="&#x21a;" horiz-adv-x="384" 
d="M412 690l-1 -8q-2 -10 -11 -10h-130q-3 0 -5 -4l-80 -658q-1 -4 -4 -7t-7 -3h-10q-9 0 -9 10l81 658q0 4 -3 4h-122q-5 0 -7.5 3t-1.5 7l1 8q2 10 11 10h289q9 0 9 -10zM57.5 -200.5q-1.5 3.5 2.5 8.5l74 112q4 7 12 7h9q6 0 7.5 -3.5t-2.5 -8.5l-77 -112q-5 -7 -12 -7
h-6q-6 0 -7.5 3.5z" />
    <glyph glyph-name="uni021B" unicode="&#x21b;" horiz-adv-x="245" 
d="M249 478q-3 -3 -7 -3h-83q-4 0 -4 -4l-43 -345q-2 -22 -2 -30q0 -38 16 -53t49 -15h11q10 0 8 -10l-1 -8q0 -4 -3 -7t-8 -3h-14q-43 0 -65.5 19.5t-22.5 70.5q0 8 2 34l43 347q0 4 -4 4h-39q-5 0 -7.5 3t-1.5 7l1 6q2 10 11 10h40q4 0 4 4l14 112q0 4 3 7t8 3h10
q9 0 9 -10l-14 -112q0 -4 3 -4h83q10 0 8 -10v-6q-1 -4 -4 -7zM81.5 -183.5q-1.5 3.5 2.5 8.5l74 112q4 7 12 7h9q6 0 7.5 -3.5t-2.5 -8.5l-77 -112q-5 -7 -12 -7h-6q-6 0 -7.5 3.5z" />
    <glyph glyph-name="uni021F" unicode="&#x21f;" 
d="M332 477.5q27 -30.5 27 -87.5q0 -9 -2 -33l-42 -347q-1 -4 -4 -7t-7 -3h-10q-9 0 -9 10l43 343q2 18 2 27q0 48 -22 74t-64 26q-48 0 -80.5 -36t-39.5 -99l-41 -335q-2 -10 -11 -10h-10q-10 0 -8 10l83 680q2 10 11 10h10q10 0 8 -10l-30 -247q-1 -3 1 -3t3 3
q20 32 49.5 48.5t64.5 16.5q51 0 78 -30.5zM212 889q0 7 8 7h15q6 0 11 -7l39 -82q1 -1 3 -1t3 1l59 82q7 7 13 7h13q6 0 7.5 -3.5t-1.5 -8.5l-78 -101q-4 -6 -12 -6h-17q-7 0 -11 7l-51 100q-1 2 -1 5z" />
    <glyph glyph-name="uni0228" unicode="&#x228;" horiz-adv-x="411" 
d="M418 672h-237q-1 0 -2.5 -1t-1.5 -3l-37 -300q0 -4 4 -4h155q10 0 8 -10l-1 -7q0 -4 -3 -7t-7 -3h-156q-4 0 -4 -4l-37 -301q0 -4 3 -4h237q9 0 9 -10l-1 -8q-1 -4 -4 -7t-7 -3h-112q-5 0 -2 -5q29 -36 29 -78q0 -18 -5 -36q-8 -30 -28.5 -44t-46.5 -14q-14 0 -21 2
q-8 2 -5 12l1 4q3 10 13 7q4 -1 14 -1q17 0 30.5 10t19.5 32q3 12 3 24q0 41 -33 85q-2 2 -5 2h-112q-5 0 -7.5 3t-1.5 7l84 680q0 4 3 7t8 3h260q4 0 6.5 -3t1.5 -7l-1 -8q-2 -10 -11 -10z" />
    <glyph glyph-name="uni0229" unicode="&#x229;" horiz-adv-x="379" 
d="M328 244h-225q-3 0 -5 -4l-12 -103q-1 -7 -1 -20q0 -44 24.5 -70.5t66.5 -26.5q38 0 68 23t43 61q5 9 12 9h10q5 0 7 -3.5t0 -8.5q-13 -42 -45 -70.5t-74 -36.5q-5 -1 -3 -5q25 -32 25 -71q0 -19 -6 -37q-8 -30 -28 -44t-46 -14q-14 0 -21 2q-9 2 -6 12l1 4q4 10 13 7
q5 -1 14 -1q39 0 50 42q3 12 3 23q0 38 -27 78q-2 2 -5 2q-48 4 -76.5 37t-28.5 85q0 15 1 23l27 227q8 63 50.5 104t101.5 41q54 0 85.5 -34t31.5 -89q0 -14 -1 -22l-13 -110q-2 -10 -11 -10zM153 448.5q-33 -32.5 -39 -84.5l-11 -90q-1 -1 0 -2.5t3 -1.5h202q4 0 4 4
l11 90q1 7 1 20q0 44 -24.5 70.5t-66.5 26.5q-47 0 -80 -32.5z" />
    <glyph glyph-name="uni0237" unicode="&#x237;" horiz-adv-x="181" 
d="M-58 -201l1 8q2 10 11 10q37 4 60.5 33.5t29.5 80.5l69 560q0 4 3 7t8 3h9q5 0 7.5 -3t1.5 -7l-69 -560q-8 -64 -38.5 -101t-83.5 -41q-9 0 -9 10z" />
    <glyph glyph-name="uni0259" unicode="&#x259;" horiz-adv-x="379" 
d="M315 475.5q32 -33.5 32 -87.5q0 -8 -2 -24l-27 -227q-8 -63 -50.5 -104t-100.5 -41q-54 0 -86.5 33.5t-32.5 87.5q0 8 2 24l13 110q2 10 11 10h225q3 0 5 4l12 103q1 7 1 20q0 44 -24.5 70.5t-65.5 26.5q-38 0 -68.5 -23t-43.5 -61q-4 -9 -12 -9h-10q-5 0 -7 3.5t0 7.5
q16 50 54.5 80t89.5 30q53 0 85 -33.5zM249 52.5q33 32.5 39 84.5l11 90q1 1 0 2.5t-3 1.5h-202q-4 0 -4 -4l-11 -90q-1 -7 -1 -20q0 -44 25 -70.5t67 -26.5q46 0 79 32.5z" />
    <glyph glyph-name="uni0292" unicode="&#x292;" horiz-adv-x="440" 
d="M147 228q116 2 171.5 -45t55.5 -131q0 -24 -2 -37q-9 -78 -49.5 -129.5t-97 -75.5t-116.5 -24q-46 0 -86 14q-7 3 -5 12l1 7q0 6 3.5 8t8.5 0q36 -12 79 -12q53 0 102.5 19t86 63.5t44.5 115.5q2 22 2 33q0 156 -203 156q-22 0 -34 -1h-2q-7 0 -7 9l-1 5q0 7 6 13
l249 240q2 2 1.5 3.5t-2.5 1.5h-211q-5 0 -7.5 3t-1.5 7l1 8q2 10 11 10h244q5 0 7.5 -3t1.5 -7l-1 -11q-1 -6 -7 -12l-243 -235q-3 -5 1 -5z" />
    <glyph glyph-name="uni02BB" unicode="&#x2bb;" horiz-adv-x="83" 
d="M69 691q0 9 9 9h12q9 0 9 -9l25 -172v-2q0 -9 -10 -9h-4q-8 0 -11 8l-30 173v2z" />
    <glyph glyph-name="uni02BC" unicode="&#x2bc;" horiz-adv-x="83" 
d="M144 689l-73 -173q-1 -4 -5 -6t-8 -2h-3q-5 0 -7.5 3t-0.5 8l68 173q3 8 12 8h10q12 0 7 -11z" />
    <glyph glyph-name="circumflex" unicode="&#x2c6;" horiz-adv-x="184" 
d="M87 593l76 100q5 7 12 7h18q6 0 11 -6l52 -101l1 -4q0 -8 -9 -8h-14q-7 0 -10 7l-40 81q-1 2 -3 2t-3 -2l-59 -81q-7 -7 -13 -7h-14q-12 0 -5 12z" />
    <glyph glyph-name="caron" unicode="&#x2c7;" horiz-adv-x="237" 
d="M98 693q0 7 8 7h15q6 0 11 -7l39 -82q1 -1 3 -1t3 1l59 82q7 7 13 7h13q6 0 7.5 -3.5t-1.5 -8.5l-78 -101q-4 -6 -12 -6h-17q-7 0 -11 7l-51 100q-1 2 -1 5z" />
    <glyph glyph-name="uni02C9" unicode="&#x2c9;" horiz-adv-x="187" 
d="M65 684v6q2 10 11 10h168q9 0 9 -10l-1 -6q-2 -10 -11 -10h-168q-10 0 -8 10z" />
    <glyph glyph-name="breve" unicode="&#x2d8;" horiz-adv-x="238" 
d="M110 588.5q-23 25.5 -22 62.5v2q0 4 3 6t7 2h5q9 0 9 -12q0 -27 17 -44.5t43 -17.5t47.5 18t28.5 46q3 10 12 10h4q5 0 7 -3t1 -7q-8 -38 -37.5 -63t-65.5 -25t-59 25.5z" />
    <glyph glyph-name="dotaccent" unicode="&#x2d9;" horiz-adv-x="135" 
d="M97 623q-10 10 -10 27q0 20 13.5 34t33.5 14q18 0 28.5 -12t8.5 -30q-3 -19 -16 -31t-31 -12q-17 0 -27 10z" />
    <glyph glyph-name="ring" unicode="&#x2da;" horiz-adv-x="239" 
d="M113.5 612.5q-23.5 24.5 -23.5 61.5q0 30 15 55.5t39.5 41t51.5 15.5q36 0 59 -24.5t23 -60.5q0 -30 -15 -56t-39 -41.5t-52 -15.5q-35 0 -58.5 24.5zM230 637.5q24 24.5 24 59.5q0 28 -17.5 46t-43.5 18q-31 0 -55.5 -24.5t-24.5 -59.5q0 -28 18 -46t44 -18
q31 0 55 24.5z" />
    <glyph glyph-name="ogonek" unicode="&#x2db;" horiz-adv-x="99" 
d="M48 -180q-10 -3 -22 -3q-26 0 -43 15t-17 48q0 66 58 113q4 3 4 4q5 3 11 3h3q6 0 7 -4t-4 -8q-23 -23 -37.5 -49.5t-14.5 -52.5q0 -23 11 -34t29 -11q8 0 13 1l4 1q5 0 6 -6l1 -4v-1q0 -11 -9 -12z" />
    <glyph glyph-name="tilde" unicode="&#x2dc;" horiz-adv-x="293" 
d="M225 627.5q-11 6.5 -23 17.5q-2 2 -10 9t-15.5 10t-16.5 3q-15 0 -26.5 -5.5t-24.5 -22.5q-6 -9 -14 -3l-2 2q-4 3 -4 6q0 4 3 8q31 41 70 41q15 0 26 -6t25 -17q16 -12 24 -17t19 -5q14 0 25 6.5t24 24.5q3 4 7 5t7 -1l3 -2q4 -2 4 -7t-6 -13q-16 -21 -34.5 -30.5
t-34.5 -9.5q-15 0 -26 6.5z" />
    <glyph glyph-name="hungarumlaut" unicode="&#x2dd;" horiz-adv-x="255" 
d="M83.5 580.5q-1.5 3.5 2.5 8.5l74 112q4 7 12 7h9q6 0 7.5 -3.5t-2.5 -8.5l-77 -112q-5 -7 -12 -7h-6q-6 0 -7.5 3.5zM185.5 580.5q-1.5 3.5 2.5 8.5l74 112q4 7 12 7h9q6 0 7.5 -3.5t-2.5 -8.5l-77 -112q-5 -7 -12 -7h-6q-6 0 -7.5 3.5z" />
    <glyph glyph-name="gravecomb" unicode="&#x300;" horiz-adv-x="0" 
d="M46 576q0 -7 -8 -7h-6q-6 0 -11 7l-50 112q-1 2 -1 5q0 7 9 7h9q7 0 11 -7l46 -112q1 -2 1 -5z" />
    <glyph glyph-name="acutecomb" unicode="&#x301;" horiz-adv-x="0" 
d="M-44.5 572.5q-1.5 3.5 2.5 8.5l74 112q4 7 12 7h9q6 0 7.5 -3.5t-2.5 -8.5l-77 -112q-5 -7 -12 -7h-6q-6 0 -7.5 3.5z" />
    <glyph glyph-name="uni0302" unicode="&#x302;" horiz-adv-x="0" 
d="M-150 593l76 100q5 7 12 7h18q6 0 11 -6l52 -101l1 -4q0 -8 -9 -8h-14q-7 0 -10 7l-40 81q-1 2 -3 2t-3 -2l-59 -81q-7 -7 -13 -7h-14q-12 0 -5 12z" />
    <glyph glyph-name="tildecomb" unicode="&#x303;" horiz-adv-x="0" 
d="M-41 627.5q-11 6.5 -23 17.5q-2 2 -10 9t-15.5 10t-16.5 3q-15 0 -26.5 -5.5t-24.5 -22.5q-6 -9 -14 -3l-2 2q-4 3 -4 6q0 4 3 8q31 41 70 41q15 0 26 -6t25 -17q16 -12 24 -17t19 -5q14 0 25 6.5t24 24.5q3 4 7 5t7 -1l3 -2q4 -2 4 -7t-6 -13q-16 -21 -34.5 -30.5
t-34.5 -9.5q-15 0 -26 6.5z" />
    <glyph glyph-name="uni0304" unicode="&#x304;" horiz-adv-x="0" 
d="M-125.5 640q-2.5 3 -1.5 7l1 6q2 10 11 10h168q4 0 6.5 -3t1.5 -7l-1 -6q0 -4 -3 -7t-8 -3h-167q-5 0 -7.5 3z" />
    <glyph glyph-name="uni0306" unicode="&#x306;" horiz-adv-x="0" 
d="M-125.5 613.5q-23.5 25.5 -21.5 63.5q0 10 10 10h5q9 0 9 -10q-1 -28 16.5 -46.5t43.5 -18.5t47.5 18.5t28.5 46.5q3 10 12 10h5q10 0 8 -10q-8 -38 -38 -63.5t-66 -25.5t-59.5 25.5z" />
    <glyph glyph-name="uni0307" unicode="&#x307;" horiz-adv-x="0" 
d="M-14 623q-10 10 -10 27q0 20 13.5 34t33.5 14q18 0 28.5 -12t8.5 -30q-3 -19 -16 -31t-31 -12q-17 0 -27 10z" />
    <glyph glyph-name="uni0308" unicode="&#x308;" horiz-adv-x="0" 
d="M-12 623q-10 10 -10 27q0 20 13.5 34t33.5 14q18 0 28.5 -12t8.5 -30q-3 -19 -16 -31t-31 -12q-17 0 -27 10zM-138 623q-10 10 -10 27q0 20 13.5 34t33.5 14q18 0 28.5 -12t8.5 -30q-3 -19 -16 -31t-31 -12q-17 0 -27 10z" />
    <glyph glyph-name="hookabovecomb" unicode="&#x309;" horiz-adv-x="0" 
d="M-269.5 550.5q-1.5 3.5 1.5 7.5q11 22 39 45q16 14 23.5 24t9.5 26q2 17 -10.5 29.5t-33.5 12.5q-20 0 -32 -8t-28 -29q-8 -9 -14 -3l-3 2q-7 5 -1 14q19 26 36 37t46 11q28 0 46.5 -16t18.5 -41q0 -26 -11.5 -42t-34.5 -37q-22 -18 -30 -31q-2 -1 -2 -2t-1 -2
q-5 -6 -11 -4l-3 1q-4 2 -5.5 5.5z" />
    <glyph glyph-name="uni030A" unicode="&#x30a;" horiz-adv-x="0" 
d="M-97.5 612.5q-23.5 24.5 -23.5 61.5q0 30 15 55.5t39.5 41t51.5 15.5q36 0 59 -24.5t23 -60.5q0 -30 -15 -56t-39 -41.5t-52 -15.5q-35 0 -58.5 24.5zM19 637.5q24 24.5 24 59.5q0 28 -17.5 46t-43.5 18q-31 0 -55.5 -24.5t-24.5 -59.5q0 -28 18 -46t44 -18q31 0 55 24.5
z" />
    <glyph glyph-name="uni030B" unicode="&#x30b;" horiz-adv-x="0" 
d="M-172.5 572.5q-1.5 3.5 2.5 8.5l73 112q3 7 12 7h9q6 0 7.5 -3.5t-2.5 -8.5l-75 -112q-7 -7 -13 -7h-6q-6 0 -7.5 3.5zM-69.5 572.5q-1.5 3.5 2.5 8.5l73 112q3 7 12 7h8q6 0 7.5 -3.5t-2.5 -8.5l-75 -112q-5 -7 -12 -7h-6q-6 0 -7.5 3.5z" />
    <glyph glyph-name="uni030C" unicode="&#x30c;" horiz-adv-x="0" 
d="M-139 693q0 7 8 7h15q6 0 11 -7l39 -82q1 -1 3 -1t3 1l59 82q7 7 13 7h13q6 0 7.5 -3.5t-1.5 -8.5l-78 -101q-4 -6 -12 -6h-17q-7 0 -11 7l-51 100q-1 2 -1 5z" />
    <glyph glyph-name="uni0312" unicode="&#x312;" horiz-adv-x="0" 
d="M33.5 696.5q1.5 -3.5 -2.5 -8.5l-74 -112q-4 -7 -12 -7h-8q-6 0 -7.5 3.5t2.5 8.5l77 112q5 7 12 7h6q5 0 6.5 -3.5z" />
    <glyph glyph-name="uni0313" unicode="&#x313;" horiz-adv-x="0" 
d="M-44.5 572.5q-1.5 3.5 2.5 8.5l74 112q4 7 12 7h9q6 0 7.5 -3.5t-2.5 -8.5l-77 -112q-5 -7 -12 -7h-6q-6 0 -7.5 3.5z" />
    <glyph glyph-name="uni031B" unicode="&#x31b;" horiz-adv-x="0" 
d="M-72 478q-8 0 -6 9v4q2 10 11 11q24 3 43 21t25 45q1 10 11 10h5q10 0 8 -11q-8 -36 -34.5 -60.5t-60.5 -28.5h-2z" />
    <glyph glyph-name="dotbelowcomb" unicode="&#x323;" horiz-adv-x="0" 
d="M-107.5 -152.5q-9.5 10.5 -9.5 26.5q0 18 13 31t31 13q16 0 25.5 -9.5t9.5 -24.5q0 -20 -13 -33.5t-32 -13.5q-15 0 -24.5 10.5z" />
    <glyph glyph-name="uni0326" unicode="&#x326;" horiz-adv-x="0" 
d="M-165.5 -196.5q-1.5 3.5 2.5 8.5l74 112q4 7 12 7h9q6 0 7.5 -3.5t-2.5 -8.5l-77 -112q-5 -7 -12 -7h-6q-6 0 -7.5 3.5z" />
    <glyph glyph-name="uni0327" unicode="&#x327;" horiz-adv-x="0" 
d="M-136 -168v1l2 4q3 8 12 5q4 -1 13 -1q17 0 30.5 10.5t19.5 32.5q3 12 3 24q0 39 -30 80q-4 4 -3 8t6 4h6q7 0 10 -3l3 -4q34 -37 34 -81q0 -20 -6 -36q-8 -31 -28 -45t-45 -14q-11 0 -22 3q-9 2 -5 12z" />
    <glyph glyph-name="uni0328" unicode="&#x328;" horiz-adv-x="0" 
d="M-51 -180q-10 -3 -22 -3q-26 0 -43 15t-17 48q0 29 13.5 58.5t43.5 54.5q4 3 4 4q4 3 11 3h3q5 0 6.5 -4t-3.5 -8q-51 -51 -51 -102q0 -45 39 -45q9 0 14 1l4 1q4 0 6 -6l1 -4v-1q0 -11 -9 -12z" />
    <glyph glyph-name="uni0335" unicode="&#x335;" horiz-adv-x="0" 
d="M-184 600h228q10 0 8 -10v-5q-2 -10 -11 -10h-228q-9 0 -9 10l1 5q2 10 11 10z" />
    <glyph glyph-name="uni0336" unicode="&#x336;" horiz-adv-x="0" 
d="M-330 529v6q2 10 11 10h356q9 0 9 -10l-1 -6q-2 -10 -11 -10h-356q-10 0 -8 10z" />
    <glyph glyph-name="uni0337" unicode="&#x337;" horiz-adv-x="0" 
d="M-252 145q-4 0 -7 4l-3 7q-1 2 -1 5q0 4 5 9l336 212q8 6 13 -2l3 -7q1 -2 1 -5q0 -4 -5 -9l-335 -212q-3 -2 -7 -2z" />
    <glyph glyph-name="uni0338" unicode="&#x338;" horiz-adv-x="0" 
d="M-345.5 -27.5q-1.5 3.5 1.5 8.5l383 751q4 8 12 8h9q5 0 6.5 -3.5t-1.5 -8.5l-383 -751q-4 -8 -12 -8h-9q-5 0 -6.5 3.5z" />
    <glyph glyph-name="uni0394" unicode="&#x394;" horiz-adv-x="460" 
d="M-8 10l1 12q0 4 1 7t2 5l284 658q1 4 5 6t8 2h8q4 0 7 -2t4 -6l122 -659q0 -2 0.5 -5t-0.5 -7l-1 -11q-2 -10 -11 -10h-422q-10 0 -8 10zM24.5 28.5q1.5 -1.5 3.5 -1.5h373q2 0 3.5 1.5t1.5 3.5l-112 623q-1 2 -3 2t-3 -2l-264 -623q-1 -2 0.5 -3.5z" />
    <glyph glyph-name="uni03A9" unicode="&#x3a9;" horiz-adv-x="459" 
d="M48 10l1 8q2 10 11 10h62q2 0 3 1.5t-1 3.5q-21 18 -33 45t-12 62q0 16 1 24l47 382q9 72 56.5 117t113.5 45q61 0 97.5 -37t36.5 -99q0 -8 -2 -26l-47 -382q-5 -43 -25 -77t-52 -54q-2 -2 -2 -3.5t3 -1.5h61q9 0 9 -10l-1 -8q-2 -10 -11 -10h-117q-4 0 -6.5 3t-1.5 7
l1 9q1 9 10 10q36 8 66 44t36 86l48 389q1 7 1 22q0 50 -29 80t-78 30q-54 0 -92 -36.5t-45 -95.5l-48 -389q-1 -8 -1 -22q0 -42 20 -71.5t50 -36.5q8 -1 8 -10l-1 -9q-1 -4 -4 -7t-7 -3h-118q-10 0 -8 10z" />
    <glyph glyph-name="uni03BC" unicode="&#x3bc;" horiz-adv-x="405" 
d="M348 498q3 3 7 3h10q9 0 9 -10l-59 -481q-1 -4 -4 -7t-7 -3h-10q-9 0 -9 10l5 41q1 3 -1 3.5t-3 -2.5q-39 -59 -109 -59q-60 0 -87 36q-5 3 -5 -2l-27 -217q-2 -10 -11 -10h-9q-5 0 -7.5 3t-1.5 7l84 681q0 4 3 7t8 3h9q5 0 7.5 -3t1.5 -7l-43 -346q-2 -20 -2 -28
q0 -47 22.5 -71.5t63.5 -24.5q48 0 80.5 36t39.5 99l41 335q1 4 4 7z" />
    <glyph glyph-name="pi" unicode="&#x3c0;" horiz-adv-x="476" 
d="M476 477q-3 -3 -7 -3h-51q-4 0 -4 -4l-50 -404q-2 -20 8 -27.5t35 -7.5q5 0 7.5 -3t1.5 -7l-2 -11q0 -4 -3 -7t-8 -3q-35 2 -52.5 12.5t-17.5 36.5q0 8 1 12l51 409q0 4 -4 4h-203q-1 0 -2.5 -1t-1.5 -3l-56 -460q-2 -10 -11 -10h-10q-10 0 -8 10l56 460q0 4 -3 4h-58
q-4 0 -6.5 3t-1.5 7l1 7q2 10 11 10h384q10 0 8 -10l-1 -7q0 -4 -3 -7z" />
    <glyph glyph-name="Wgrave" unicode="&#x1e80;" horiz-adv-x="566" 
d="M140 9l-42 680q0 11 10 11h11q9 0 9 -9l35 -619q1 -2 2 -2t2 2l169 619q3 9 11 9h12q8 0 8 -9l20 -619q1 -2 2 -2t2 2l178 619q3 9 12 9h11q10 0 8 -11l-203 -680q-3 -9 -12 -9h-12q-8 0 -8 9l-19 616q0 2 -1 2t-2 -2l-171 -616q-3 -9 -11 -9h-12q-9 0 -9 9zM371 775
q0 -7 -8 -7h-6q-6 0 -11 7l-50 112q-1 2 -1 5q0 7 9 7h9q7 0 11 -7l46 -112q1 -2 1 -5z" />
    <glyph glyph-name="wgrave" unicode="&#x1e81;" horiz-adv-x="504" 
d="M111 9l-42 481q0 11 10 11h10q9 0 9 -9l32 -441q1 -3 2 -3t2 3l142 441q2 9 12 9h10q10 0 10 -9l34 -441q0 -3 1.5 -3t2.5 3l142 441q3 9 12 9h10q4 0 6.5 -3t0.5 -8l-162 -481q-3 -9 -12 -9h-11q-10 0 -10 9l-35 429q-1 3 -2 3t-2 -3l-138 -429q-3 -9 -12 -9h-13
q-9 0 -9 9zM311 576q0 -7 -8 -7h-6q-6 0 -11 7l-50 112q-1 2 -1 5q0 7 9 7h9q7 0 11 -7l46 -112q1 -2 1 -5z" />
    <glyph glyph-name="Wacute" unicode="&#x1e82;" horiz-adv-x="566" 
d="M140 9l-42 680q0 11 10 11h11q9 0 9 -9l35 -619q1 -2 2 -2t2 2l169 619q3 9 11 9h12q8 0 8 -9l20 -619q1 -2 2 -2t2 2l178 619q3 9 12 9h11q10 0 8 -11l-203 -680q-3 -9 -12 -9h-12q-8 0 -8 9l-19 616q0 2 -1 2t-2 -2l-171 -616q-3 -9 -11 -9h-12q-9 0 -9 9zM332.5 771.5
q-1.5 3.5 2.5 8.5l74 112q4 7 12 7h9q6 0 7.5 -3.5t-2.5 -8.5l-77 -112q-5 -7 -12 -7h-6q-6 0 -7.5 3.5z" />
    <glyph glyph-name="wacute" unicode="&#x1e83;" horiz-adv-x="504" 
d="M111 9l-42 481q0 11 10 11h10q9 0 9 -9l32 -441q1 -3 2 -3t2 3l142 441q2 9 12 9h10q10 0 10 -9l34 -441q0 -3 1.5 -3t2.5 3l142 441q3 9 12 9h10q4 0 6.5 -3t0.5 -8l-162 -481q-3 -9 -12 -9h-11q-10 0 -10 9l-35 429q-1 3 -2 3t-2 -3l-138 -429q-3 -9 -12 -9h-13
q-9 0 -9 9zM272.5 572.5q-1.5 3.5 2.5 8.5l74 112q4 7 12 7h9q6 0 7.5 -3.5t-2.5 -8.5l-77 -112q-5 -7 -12 -7h-6q-6 0 -7.5 3.5z" />
    <glyph glyph-name="Wdieresis" unicode="&#x1e84;" horiz-adv-x="566" 
d="M140 9l-42 680q0 11 10 11h11q9 0 9 -9l35 -619q1 -2 2 -2t2 2l169 619q3 9 11 9h12q8 0 8 -9l20 -619q1 -2 2 -2t2 2l178 619q3 9 12 9h11q10 0 8 -11l-203 -680q-3 -9 -12 -9h-12q-8 0 -8 9l-19 616q0 2 -1 2t-2 -2l-171 -616q-3 -9 -11 -9h-12q-9 0 -9 9zM403 822
q-10 10 -10 27q0 20 13.5 34t33.5 14q18 0 28.5 -12t8.5 -30q-3 -19 -16 -31t-31 -12q-17 0 -27 10zM277 822q-10 10 -10 27q0 20 13.5 34t33.5 14q18 0 28.5 -12t8.5 -30q-3 -19 -16 -31t-31 -12q-17 0 -27 10z" />
    <glyph glyph-name="wdieresis" unicode="&#x1e85;" horiz-adv-x="504" 
d="M111 9l-42 481q0 11 10 11h10q9 0 9 -9l32 -441q1 -3 2 -3t2 3l142 441q2 9 12 9h10q10 0 10 -9l34 -441q0 -3 1.5 -3t2.5 3l142 441q3 9 12 9h10q4 0 6.5 -3t0.5 -8l-162 -481q-3 -9 -12 -9h-11q-10 0 -10 9l-35 429q-1 3 -2 3t-2 -3l-138 -429q-3 -9 -12 -9h-13
q-9 0 -9 9zM343 623q-10 10 -10 27q0 20 13.5 34t33.5 14q18 0 28.5 -12t8.5 -30q-3 -19 -16 -31t-31 -12q-17 0 -27 10zM217 623q-10 10 -10 27q0 20 13.5 34t33.5 14q18 0 28.5 -12t8.5 -30q-3 -19 -16 -31t-31 -12q-17 0 -27 10z" />
    <glyph glyph-name="uni1EA0" unicode="&#x1ea0;" horiz-adv-x="356" 
d="M297 9l-12 139q0 4 -4 4h-207q-2 0 -3.5 -1t-1.5 -3l-47 -139q-1 -9 -11 -9h-10q-5 0 -7 3t0 8l231 680q3 9 12 9h14q9 0 9 -9l66 -680v-2q0 -4 -3 -6.5t-7 -2.5h-9q-10 0 -10 9zM81 180.5q1 -1.5 3 -1.5h193q2 0 3.5 1.5t0.5 2.5l-42 461q0 3 -1 3t-3 -3l-154 -461
q-1 -1 0 -2.5zM114.5 -152.5q-9.5 10.5 -9.5 26.5q0 18 13 31t31 13q16 0 25.5 -9.5t9.5 -24.5q0 -20 -13 -33.5t-32 -13.5q-15 0 -24.5 10.5z" />
    <glyph glyph-name="uni1EA1" unicode="&#x1ea1;" horiz-adv-x="380" 
d="M340 498q3 3 8 3h9q5 0 7.5 -3t1.5 -7l-59 -481q-2 -10 -11 -10h-10q-10 0 -8 10l4 39q1 3 -0.5 3.5t-3.5 -1.5q-20 -28 -48 -43.5t-61 -15.5q-53 0 -83.5 33t-30.5 87q0 7 2 25l27 227q8 64 49 104.5t99 40.5q33 0 58 -16t37 -44q1 -3 2.5 -2.5t2.5 3.5l5 41q0 4 3 7z
M254.5 52.5q32.5 32.5 38.5 84.5l28 227q1 7 1 21q0 43 -24 69.5t-64 26.5q-47 0 -80.5 -32.5t-39.5 -84.5l-28 -227q-1 -7 -1 -20q0 -44 25 -70.5t67 -26.5q45 0 77.5 32.5zM125.5 -152.5q-9.5 10.5 -9.5 26.5q0 18 13 31t31 13q16 0 25.5 -9.5t9.5 -24.5q0 -20 -13 -33.5
t-32 -13.5q-15 0 -24.5 10.5z" />
    <glyph glyph-name="uni1EA2" unicode="&#x1ea2;" horiz-adv-x="356" 
d="M297 9l-12 139q0 4 -4 4h-207q-2 0 -3.5 -1t-1.5 -3l-47 -139q-1 -9 -11 -9h-10q-5 0 -7 3t0 8l231 680q3 9 12 9h14q9 0 9 -9l66 -680v-2q0 -4 -3 -6.5t-7 -2.5h-9q-10 0 -10 9zM81 180.5q1 -1.5 3 -1.5h193q2 0 3.5 1.5t0.5 2.5l-42 461q0 3 -1 3t-3 -3l-154 -461
q-1 -1 0 -2.5zM241.5 749.5q-1.5 3.5 1.5 7.5q11 22 39 45q16 14 23.5 24t9.5 26q2 17 -10.5 29.5t-33.5 12.5q-20 0 -32 -8t-28 -29q-8 -9 -14 -3l-3 2q-7 5 -1 14q19 26 36 37t46 11q28 0 46.5 -16t18.5 -41q0 -26 -11.5 -42t-34.5 -37q-22 -18 -30 -31q-2 -1 -2 -2t-1 -2
q-5 -6 -11 -4l-3 1q-4 2 -5.5 5.5z" />
    <glyph glyph-name="uni1EA3" unicode="&#x1ea3;" horiz-adv-x="380" 
d="M340 498q3 3 8 3h9q5 0 7.5 -3t1.5 -7l-59 -481q-2 -10 -11 -10h-10q-10 0 -8 10l4 39q1 3 -0.5 3.5t-3.5 -1.5q-20 -28 -48 -43.5t-61 -15.5q-53 0 -83.5 33t-30.5 87q0 7 2 25l27 227q8 64 49 104.5t99 40.5q33 0 58 -16t37 -44q1 -3 2.5 -2.5t2.5 3.5l5 41q0 4 3 7z
M254.5 52.5q32.5 32.5 38.5 84.5l28 227q1 7 1 21q0 43 -24 69.5t-64 26.5q-47 0 -80.5 -32.5t-39.5 -84.5l-28 -227q-1 -7 -1 -20q0 -44 25 -70.5t67 -26.5q45 0 77.5 32.5zM229.5 550.5q-1.5 3.5 1.5 7.5q11 22 39 45q16 14 23.5 24t9.5 26q2 17 -10.5 29.5t-33.5 12.5
q-20 0 -32 -8t-28 -29q-8 -9 -14 -3l-3 2q-7 5 -1 14q19 26 36 37t46 11q28 0 46.5 -16t18.5 -41q0 -26 -11.5 -42t-34.5 -37q-22 -18 -30 -31q-2 -1 -2 -2t-1 -2q-5 -6 -11 -4l-3 1q-4 2 -5.5 5.5z" />
    <glyph glyph-name="uni1EA4" unicode="&#x1ea4;" horiz-adv-x="356" 
d="M297 9l-12 139q0 4 -4 4h-207q-2 0 -3.5 -1t-1.5 -3l-47 -139q-1 -9 -11 -9h-10q-5 0 -7 3t0 8l231 680q3 9 12 9h14q9 0 9 -9l66 -680v-2q0 -4 -3 -6.5t-7 -2.5h-9q-10 0 -10 9zM81 180.5q1 -1.5 3 -1.5h193q2 0 3.5 1.5t0.5 2.5l-42 461q0 3 -1 3t-3 -3l-154 -461
q-1 -1 0 -2.5zM171 792l76 100q5 7 12 7h18q6 0 11 -6l52 -101l1 -4q0 -8 -9 -8h-14q-7 0 -10 7l-40 81q-1 2 -3 2t-3 -2l-59 -81q-7 -7 -13 -7h-14q-12 0 -5 12zM355.5 846.5q-1.5 3.5 2.5 8.5l74 112q4 7 12 7h9q6 0 7.5 -3.5t-2.5 -8.5l-77 -112q-5 -7 -12 -7h-6
q-6 0 -7.5 3.5z" />
    <glyph glyph-name="uni1EA5" unicode="&#x1ea5;" horiz-adv-x="380" 
d="M340 498q3 3 8 3h9q5 0 7.5 -3t1.5 -7l-59 -481q-2 -10 -11 -10h-10q-10 0 -8 10l4 39q1 3 -0.5 3.5t-3.5 -1.5q-20 -28 -48 -43.5t-61 -15.5q-53 0 -83.5 33t-30.5 87q0 7 2 25l27 227q8 64 49 104.5t99 40.5q33 0 58 -16t37 -44q1 -3 2.5 -2.5t2.5 3.5l5 41q0 4 3 7z
M254.5 52.5q32.5 32.5 38.5 84.5l28 227q1 7 1 21q0 43 -24 69.5t-64 26.5q-47 0 -80.5 -32.5t-39.5 -84.5l-28 -227q-1 -7 -1 -20q0 -44 25 -70.5t67 -26.5q45 0 77.5 32.5zM158 593l76 100q5 7 12 7h18q6 0 11 -6l52 -101l1 -4q0 -8 -9 -8h-14q-7 0 -10 7l-40 81
q-1 2 -3 2t-3 -2l-59 -81q-7 -7 -13 -7h-14q-12 0 -5 12zM342.5 647.5q-1.5 3.5 2.5 8.5l74 112q4 7 12 7h9q6 0 7.5 -3.5t-2.5 -8.5l-77 -112q-5 -7 -12 -7h-6q-6 0 -7.5 3.5z" />
    <glyph glyph-name="uni1EA6" unicode="&#x1ea6;" horiz-adv-x="356" 
d="M297 9l-12 139q0 4 -4 4h-207q-2 0 -3.5 -1t-1.5 -3l-47 -139q-1 -9 -11 -9h-10q-5 0 -7 3t0 8l231 680q3 9 12 9h14q9 0 9 -9l66 -680v-2q0 -4 -3 -6.5t-7 -2.5h-9q-10 0 -10 9zM81 180.5q1 -1.5 3 -1.5h193q2 0 3.5 1.5t0.5 2.5l-42 461q0 3 -1 3t-3 -3l-154 -461
q-1 -1 0 -2.5zM171 792l76 100q5 7 12 7h18q6 0 11 -6l52 -101l1 -4q0 -8 -9 -8h-14q-7 0 -10 7l-40 81q-1 2 -3 2t-3 -2l-59 -81q-7 -7 -13 -7h-14q-12 0 -5 12zM402 896q0 -7 -8 -7h-6q-6 0 -11 7l-50 112q-1 2 -1 5q0 7 9 7h9q7 0 11 -7l46 -112q1 -2 1 -5z" />
    <glyph glyph-name="uni1EA7" unicode="&#x1ea7;" horiz-adv-x="380" 
d="M340 498q3 3 8 3h9q5 0 7.5 -3t1.5 -7l-59 -481q-2 -10 -11 -10h-10q-10 0 -8 10l4 39q1 3 -0.5 3.5t-3.5 -1.5q-20 -28 -48 -43.5t-61 -15.5q-53 0 -83.5 33t-30.5 87q0 7 2 25l27 227q8 64 49 104.5t99 40.5q33 0 58 -16t37 -44q1 -3 2.5 -2.5t2.5 3.5l5 41q0 4 3 7z
M254.5 52.5q32.5 32.5 38.5 84.5l28 227q1 7 1 21q0 43 -24 69.5t-64 26.5q-47 0 -80.5 -32.5t-39.5 -84.5l-28 -227q-1 -7 -1 -20q0 -44 25 -70.5t67 -26.5q45 0 77.5 32.5zM158 593l76 100q5 7 12 7h18q6 0 11 -6l52 -101l1 -4q0 -8 -9 -8h-14q-7 0 -10 7l-40 81
q-1 2 -3 2t-3 -2l-59 -81q-7 -7 -13 -7h-14q-12 0 -5 12zM389 697q0 -7 -8 -7h-6q-6 0 -11 7l-50 112q-1 2 -1 5q0 7 9 7h9q7 0 11 -7l46 -112q1 -2 1 -5z" />
    <glyph glyph-name="uni1EA8" unicode="&#x1ea8;" horiz-adv-x="356" 
d="M297 9l-12 139q0 4 -4 4h-207q-2 0 -3.5 -1t-1.5 -3l-47 -139q-1 -9 -11 -9h-10q-5 0 -7 3t0 8l231 680q3 9 12 9h14q9 0 9 -9l66 -680v-2q0 -4 -3 -6.5t-7 -2.5h-9q-10 0 -10 9zM81 180.5q1 -1.5 3 -1.5h193q2 0 3.5 1.5t0.5 2.5l-42 461q0 3 -1 3t-3 -3l-154 -461
q-1 -1 0 -2.5zM358 880q11 21 39 44q15 13 23 23.5t10 26.5q2 17 -10.5 30t-31.5 13q-20 0 -32.5 -8.5t-28.5 -29.5q-3 -5 -7 -6t-7 2l-3 3q-7 6 -1 13q19 27 36 38.5t46 11.5q31 0 49 -19t15 -48q-3 -22 -14.5 -37t-32.5 -33q-24 -24 -29 -32q-6 -9 -13 -6l-3 1
q-10 3 -5 13zM171 792l76 100q5 7 12 7h18q6 0 11 -6l52 -101l1 -4q0 -8 -9 -8h-14q-7 0 -10 7l-40 81q-1 2 -3 2t-3 -2l-59 -81q-7 -7 -13 -7h-14q-12 0 -5 12z" />
    <glyph glyph-name="uni1EA9" unicode="&#x1ea9;" horiz-adv-x="380" 
d="M340 498q3 3 8 3h9q5 0 7.5 -3t1.5 -7l-59 -481q-2 -10 -11 -10h-10q-10 0 -8 10l4 39q1 3 -0.5 3.5t-3.5 -1.5q-20 -28 -48 -43.5t-61 -15.5q-53 0 -83.5 33t-30.5 87q0 7 2 25l27 227q8 64 49 104.5t99 40.5q33 0 58 -16t37 -44q1 -3 2.5 -2.5t2.5 3.5l5 41q0 4 3 7z
M254.5 52.5q32.5 32.5 38.5 84.5l28 227q1 7 1 21q0 43 -24 69.5t-64 26.5q-47 0 -80.5 -32.5t-39.5 -84.5l-28 -227q-1 -7 -1 -20q0 -44 25 -70.5t67 -26.5q45 0 77.5 32.5zM345 681q11 21 39 44q15 13 23 23.5t10 26.5q2 17 -10.5 30t-31.5 13q-20 0 -32.5 -8.5
t-28.5 -29.5q-3 -5 -7 -6t-7 2l-3 3q-7 6 -1 13q19 27 36 38.5t46 11.5q31 0 49 -19t15 -48q-3 -22 -14.5 -37t-32.5 -33q-24 -24 -29 -32q-6 -9 -13 -6l-3 1q-10 3 -5 13zM158 593l76 100q5 7 12 7h18q6 0 11 -6l52 -101l1 -4q0 -8 -9 -8h-14q-7 0 -10 7l-40 81q-1 2 -3 2
t-3 -2l-59 -81q-7 -7 -13 -7h-14q-12 0 -5 12z" />
    <glyph glyph-name="uni1EAA" unicode="&#x1eaa;" horiz-adv-x="356" 
d="M297 9l-12 139q0 4 -4 4h-207q-2 0 -3.5 -1t-1.5 -3l-47 -139q-1 -9 -11 -9h-10q-5 0 -7 3t0 8l231 680q3 9 12 9h14q9 0 9 -9l66 -680v-2q0 -4 -3 -6.5t-7 -2.5h-9q-10 0 -10 9zM81 180.5q1 -1.5 3 -1.5h193q2 0 3.5 1.5t0.5 2.5l-42 461q0 3 -1 3t-3 -3l-154 -461
q-1 -1 0 -2.5zM171 792l76 100q5 7 12 7h18q6 0 11 -6l52 -101l1 -4q0 -8 -9 -8h-14q-7 0 -10 7l-40 81q-1 2 -3 2t-3 -2l-59 -81q-7 -7 -13 -7h-14q-12 0 -5 12zM303 933.5q-11 6.5 -23 17.5q-2 2 -10 9t-15.5 10t-16.5 3q-15 0 -26.5 -5.5t-24.5 -22.5q-6 -9 -14 -3l-2 2
q-4 3 -4 6q0 4 3 8q31 41 70 41q15 0 26 -6t25 -17q16 -12 24 -17t19 -5q14 0 25 6.5t24 24.5q3 4 7 5t7 -1l3 -2q4 -2 4 -7t-6 -13q-16 -21 -34.5 -30.5t-34.5 -9.5q-15 0 -26 6.5z" />
    <glyph glyph-name="uni1EAB" unicode="&#x1eab;" horiz-adv-x="380" 
d="M340 498q3 3 8 3h9q5 0 7.5 -3t1.5 -7l-59 -481q-2 -10 -11 -10h-10q-10 0 -8 10l4 39q1 3 -0.5 3.5t-3.5 -1.5q-20 -28 -48 -43.5t-61 -15.5q-53 0 -83.5 33t-30.5 87q0 7 2 25l27 227q8 64 49 104.5t99 40.5q33 0 58 -16t37 -44q1 -3 2.5 -2.5t2.5 3.5l5 41q0 4 3 7z
M254.5 52.5q32.5 32.5 38.5 84.5l28 227q1 7 1 21q0 43 -24 69.5t-64 26.5q-47 0 -80.5 -32.5t-39.5 -84.5l-28 -227q-1 -7 -1 -20q0 -44 25 -70.5t67 -26.5q45 0 77.5 32.5zM158 593l76 100q5 7 12 7h18q6 0 11 -6l52 -101l1 -4q0 -8 -9 -8h-14q-7 0 -10 7l-40 81
q-1 2 -3 2t-3 -2l-59 -81q-7 -7 -13 -7h-14q-12 0 -5 12zM290 734.5q-11 6.5 -23 17.5q-2 2 -10 9t-15.5 10t-16.5 3q-15 0 -26.5 -5.5t-24.5 -22.5q-6 -9 -14 -3l-2 2q-4 3 -4 6q0 4 3 8q31 41 70 41q15 0 26 -6t25 -17q16 -12 24 -17t19 -5q14 0 25 6.5t24 24.5q3 4 7 5
t7 -1l3 -2q4 -2 4 -7t-6 -13q-16 -21 -34.5 -30.5t-34.5 -9.5q-15 0 -26 6.5z" />
    <glyph glyph-name="uni1EAC" unicode="&#x1eac;" horiz-adv-x="356" 
d="M297 9l-12 139q0 4 -4 4h-207q-2 0 -3.5 -1t-1.5 -3l-47 -139q-1 -9 -11 -9h-10q-5 0 -7 3t0 8l231 680q3 9 12 9h14q9 0 9 -9l66 -680v-2q0 -4 -3 -6.5t-7 -2.5h-9q-10 0 -10 9zM81 180.5q1 -1.5 3 -1.5h193q2 0 3.5 1.5t0.5 2.5l-42 461q0 3 -1 3t-3 -3l-154 -461
q-1 -1 0 -2.5zM114.5 -152.5q-9.5 10.5 -9.5 26.5q0 18 13 31t31 13q16 0 25.5 -9.5t9.5 -24.5q0 -20 -13 -33.5t-32 -13.5q-15 0 -24.5 10.5zM171 792l76 100q5 7 12 7h18q6 0 11 -6l52 -101l1 -4q0 -8 -9 -8h-14q-7 0 -10 7l-40 81q-1 2 -3 2t-3 -2l-59 -81q-7 -7 -13 -7
h-14q-12 0 -5 12z" />
    <glyph glyph-name="uni1EAD" unicode="&#x1ead;" horiz-adv-x="380" 
d="M340 498q3 3 8 3h9q5 0 7.5 -3t1.5 -7l-59 -481q-2 -10 -11 -10h-10q-10 0 -8 10l4 39q1 3 -0.5 3.5t-3.5 -1.5q-20 -28 -48 -43.5t-61 -15.5q-53 0 -83.5 33t-30.5 87q0 7 2 25l27 227q8 64 49 104.5t99 40.5q33 0 58 -16t37 -44q1 -3 2.5 -2.5t2.5 3.5l5 41q0 4 3 7z
M254.5 52.5q32.5 32.5 38.5 84.5l28 227q1 7 1 21q0 43 -24 69.5t-64 26.5q-47 0 -80.5 -32.5t-39.5 -84.5l-28 -227q-1 -7 -1 -20q0 -44 25 -70.5t67 -26.5q45 0 77.5 32.5zM125.5 -152.5q-9.5 10.5 -9.5 26.5q0 18 13 31t31 13q16 0 25.5 -9.5t9.5 -24.5q0 -20 -13 -33.5
t-32 -13.5q-15 0 -24.5 10.5zM158 593l76 100q5 7 12 7h18q6 0 11 -6l52 -101l1 -4q0 -8 -9 -8h-14q-7 0 -10 7l-40 81q-1 2 -3 2t-3 -2l-59 -81q-7 -7 -13 -7h-14q-12 0 -5 12z" />
    <glyph glyph-name="uni1EAE" unicode="&#x1eae;" horiz-adv-x="356" 
d="M297 9l-12 139q0 4 -4 4h-207q-2 0 -3.5 -1t-1.5 -3l-47 -139q-1 -9 -11 -9h-10q-5 0 -7 3t0 8l231 680q3 9 12 9h14q9 0 9 -9l66 -680v-2q0 -4 -3 -6.5t-7 -2.5h-9q-10 0 -10 9zM81 180.5q1 -1.5 3 -1.5h193q2 0 3.5 1.5t0.5 2.5l-42 461q0 3 -1 3t-3 -3l-154 -461
q-1 -1 0 -2.5zM195.5 812.5q-23.5 25.5 -21.5 63.5q0 10 10 10h5q9 0 9 -10q-1 -28 16.5 -46.5t43.5 -18.5t47.5 18.5t28.5 46.5q3 10 12 10h5q10 0 8 -10q-8 -38 -38 -63.5t-66 -25.5t-59.5 25.5zM243.5 929.5q-1.5 3.5 2.5 8.5l74 112q4 7 12 7h9q6 0 7.5 -3.5t-2.5 -8.5
l-77 -112q-5 -7 -12 -7h-6q-6 0 -7.5 3.5z" />
    <glyph glyph-name="uni1EAF" unicode="&#x1eaf;" horiz-adv-x="380" 
d="M340 498q3 3 8 3h9q5 0 7.5 -3t1.5 -7l-59 -481q-2 -10 -11 -10h-10q-10 0 -8 10l4 39q1 3 -0.5 3.5t-3.5 -1.5q-20 -28 -48 -43.5t-61 -15.5q-53 0 -83.5 33t-30.5 87q0 7 2 25l27 227q8 64 49 104.5t99 40.5q33 0 58 -16t37 -44q1 -3 2.5 -2.5t2.5 3.5l5 41q0 4 3 7z
M254.5 52.5q32.5 32.5 38.5 84.5l28 227q1 7 1 21q0 43 -24 69.5t-64 26.5q-47 0 -80.5 -32.5t-39.5 -84.5l-28 -227q-1 -7 -1 -20q0 -44 25 -70.5t67 -26.5q45 0 77.5 32.5zM183.5 613.5q-23.5 25.5 -21.5 63.5q0 10 10 10h5q9 0 9 -10q-1 -28 16.5 -46.5t43.5 -18.5
t47.5 18.5t28.5 46.5q3 10 12 10h5q10 0 8 -10q-8 -38 -38 -63.5t-66 -25.5t-59.5 25.5zM231.5 730.5q-1.5 3.5 2.5 8.5l74 112q4 7 12 7h9q6 0 7.5 -3.5t-2.5 -8.5l-77 -112q-5 -7 -12 -7h-6q-6 0 -7.5 3.5z" />
    <glyph glyph-name="uni1EB0" unicode="&#x1eb0;" horiz-adv-x="356" 
d="M297 9l-12 139q0 4 -4 4h-207q-2 0 -3.5 -1t-1.5 -3l-47 -139q-1 -9 -11 -9h-10q-5 0 -7 3t0 8l231 680q3 9 12 9h14q9 0 9 -9l66 -680v-2q0 -4 -3 -6.5t-7 -2.5h-9q-10 0 -10 9zM81 180.5q1 -1.5 3 -1.5h193q2 0 3.5 1.5t0.5 2.5l-42 461q0 3 -1 3t-3 -3l-154 -461
q-1 -1 0 -2.5zM195.5 812.5q-23.5 25.5 -21.5 63.5q0 10 10 10h5q9 0 9 -10q-1 -28 16.5 -46.5t43.5 -18.5t47.5 18.5t28.5 46.5q3 10 12 10h5q10 0 8 -10q-8 -38 -38 -63.5t-66 -25.5t-59.5 25.5zM282 933q0 -7 -8 -7h-6q-6 0 -11 7l-50 112q-1 2 -1 5q0 7 9 7h9q7 0 11 -7
l46 -112q1 -2 1 -5z" />
    <glyph glyph-name="uni1EB1" unicode="&#x1eb1;" horiz-adv-x="380" 
d="M340 498q3 3 8 3h9q5 0 7.5 -3t1.5 -7l-59 -481q-2 -10 -11 -10h-10q-10 0 -8 10l4 39q1 3 -0.5 3.5t-3.5 -1.5q-20 -28 -48 -43.5t-61 -15.5q-53 0 -83.5 33t-30.5 87q0 7 2 25l27 227q8 64 49 104.5t99 40.5q33 0 58 -16t37 -44q1 -3 2.5 -2.5t2.5 3.5l5 41q0 4 3 7z
M254.5 52.5q32.5 32.5 38.5 84.5l28 227q1 7 1 21q0 43 -24 69.5t-64 26.5q-47 0 -80.5 -32.5t-39.5 -84.5l-28 -227q-1 -7 -1 -20q0 -44 25 -70.5t67 -26.5q45 0 77.5 32.5zM183.5 613.5q-23.5 25.5 -21.5 63.5q0 10 10 10h5q9 0 9 -10q-1 -28 16.5 -46.5t43.5 -18.5
t47.5 18.5t28.5 46.5q3 10 12 10h5q10 0 8 -10q-8 -38 -38 -63.5t-66 -25.5t-59.5 25.5zM270 734q0 -7 -8 -7h-6q-6 0 -11 7l-50 112q-1 2 -1 5q0 7 9 7h9q7 0 11 -7l46 -112q1 -2 1 -5z" />
    <glyph glyph-name="uni1EB2" unicode="&#x1eb2;" horiz-adv-x="356" 
d="M297 9l-12 139q0 4 -4 4h-207q-2 0 -3.5 -1t-1.5 -3l-47 -139q-1 -9 -11 -9h-10q-5 0 -7 3t0 8l231 680q3 9 12 9h14q9 0 9 -9l66 -680v-2q0 -4 -3 -6.5t-7 -2.5h-9q-10 0 -10 9zM81 180.5q1 -1.5 3 -1.5h193q2 0 3.5 1.5t0.5 2.5l-42 461q0 3 -1 3t-3 -3l-154 -461
q-1 -1 0 -2.5zM260.5 907.5q-1.5 3.5 1.5 7.5q12 22 38 44q16 13 24 23.5t10 26.5q2 17 -10.5 29.5t-32.5 12.5t-32.5 -8t-27.5 -29q-8 -9 -14 -3l-3 2q-7 5 -1 14q20 26 36.5 37t44.5 11t46.5 -16t18.5 -41t-12 -42t-35 -37q-22 -18 -30 -32q-3 -9 -12 -6l-4 1
q-4 2 -5.5 5.5zM195.5 812.5q-23.5 25.5 -21.5 63.5q0 10 10 10h5q9 0 9 -10q-1 -28 16.5 -46.5t43.5 -18.5t47.5 18.5t28.5 46.5q3 10 12 10h5q10 0 8 -10q-8 -38 -38 -63.5t-66 -25.5t-59.5 25.5z" />
    <glyph glyph-name="uni1EB3" unicode="&#x1eb3;" horiz-adv-x="380" 
d="M340 498q3 3 8 3h9q5 0 7.5 -3t1.5 -7l-59 -481q-2 -10 -11 -10h-10q-10 0 -8 10l4 39q1 3 -0.5 3.5t-3.5 -1.5q-20 -28 -48 -43.5t-61 -15.5q-53 0 -83.5 33t-30.5 87q0 7 2 25l27 227q8 64 49 104.5t99 40.5q33 0 58 -16t37 -44q1 -3 2.5 -2.5t2.5 3.5l5 41q0 4 3 7z
M254.5 52.5q32.5 32.5 38.5 84.5l28 227q1 7 1 21q0 43 -24 69.5t-64 26.5q-47 0 -80.5 -32.5t-39.5 -84.5l-28 -227q-1 -7 -1 -20q0 -44 25 -70.5t67 -26.5q45 0 77.5 32.5zM248.5 708.5q-1.5 3.5 1.5 7.5q12 22 38 44q16 13 24 23.5t10 26.5q2 17 -10.5 29.5t-32.5 12.5
t-32.5 -8t-27.5 -29q-8 -9 -14 -3l-3 2q-7 5 -1 14q20 26 36.5 37t44.5 11t46.5 -16t18.5 -41t-12 -42t-35 -37q-22 -18 -30 -32q-3 -9 -12 -6l-4 1q-4 2 -5.5 5.5zM183.5 613.5q-23.5 25.5 -21.5 63.5q0 10 10 10h5q9 0 9 -10q-1 -28 16.5 -46.5t43.5 -18.5t47.5 18.5
t28.5 46.5q3 10 12 10h5q10 0 8 -10q-8 -38 -38 -63.5t-66 -25.5t-59.5 25.5z" />
    <glyph glyph-name="uni1EB4" unicode="&#x1eb4;" horiz-adv-x="356" 
d="M297 9l-12 139q0 4 -4 4h-207q-2 0 -3.5 -1t-1.5 -3l-47 -139q-1 -9 -11 -9h-10q-5 0 -7 3t0 8l231 680q3 9 12 9h14q9 0 9 -9l66 -680v-2q0 -4 -3 -6.5t-7 -2.5h-9q-10 0 -10 9zM81 180.5q1 -1.5 3 -1.5h193q2 0 3.5 1.5t0.5 2.5l-42 461q0 3 -1 3t-3 -3l-154 -461
q-1 -1 0 -2.5zM195.5 812.5q-23.5 25.5 -21.5 63.5q0 10 10 10h5q9 0 9 -10q-1 -28 16.5 -46.5t43.5 -18.5t47.5 18.5t28.5 46.5q3 10 12 10h5q10 0 8 -10q-8 -38 -38 -63.5t-66 -25.5t-59.5 25.5zM290 932.5q-11 6.5 -23 17.5q-2 2 -10 9t-15.5 10t-16.5 3
q-15 0 -26.5 -5.5t-24.5 -22.5q-6 -9 -14 -3l-2 2q-4 3 -4 6q0 4 3 8q31 41 70 41q15 0 26 -6t25 -17q16 -12 24 -17t19 -5q14 0 25 6.5t24 24.5q3 4 7 5t7 -1l3 -2q4 -2 4 -7t-6 -13q-16 -21 -34.5 -30.5t-34.5 -9.5q-15 0 -26 6.5z" />
    <glyph glyph-name="uni1EB5" unicode="&#x1eb5;" horiz-adv-x="380" 
d="M340 498q3 3 8 3h9q5 0 7.5 -3t1.5 -7l-59 -481q-2 -10 -11 -10h-10q-10 0 -8 10l4 39q1 3 -0.5 3.5t-3.5 -1.5q-20 -28 -48 -43.5t-61 -15.5q-53 0 -83.5 33t-30.5 87q0 7 2 25l27 227q8 64 49 104.5t99 40.5q33 0 58 -16t37 -44q1 -3 2.5 -2.5t2.5 3.5l5 41q0 4 3 7z
M254.5 52.5q32.5 32.5 38.5 84.5l28 227q1 7 1 21q0 43 -24 69.5t-64 26.5q-47 0 -80.5 -32.5t-39.5 -84.5l-28 -227q-1 -7 -1 -20q0 -44 25 -70.5t67 -26.5q45 0 77.5 32.5zM183.5 613.5q-23.5 25.5 -21.5 63.5q0 10 10 10h5q9 0 9 -10q-1 -28 16.5 -46.5t43.5 -18.5
t47.5 18.5t28.5 46.5q3 10 12 10h5q10 0 8 -10q-8 -38 -38 -63.5t-66 -25.5t-59.5 25.5zM278 733.5q-11 6.5 -23 17.5q-2 2 -10 9t-15.5 10t-16.5 3q-15 0 -26.5 -5.5t-24.5 -22.5q-6 -9 -14 -3l-2 2q-4 3 -4 6q0 4 3 8q31 41 70 41q15 0 26 -6t25 -17q16 -12 24 -17t19 -5
q14 0 25 6.5t24 24.5q3 4 7 5t7 -1l3 -2q4 -2 4 -7t-6 -13q-16 -21 -34.5 -30.5t-34.5 -9.5q-15 0 -26 6.5z" />
    <glyph glyph-name="uni1EB6" unicode="&#x1eb6;" horiz-adv-x="356" 
d="M297 9l-12 139q0 4 -4 4h-207q-2 0 -3.5 -1t-1.5 -3l-47 -139q-1 -9 -11 -9h-10q-5 0 -7 3t0 8l231 680q3 9 12 9h14q9 0 9 -9l66 -680v-2q0 -4 -3 -6.5t-7 -2.5h-9q-10 0 -10 9zM81 180.5q1 -1.5 3 -1.5h193q2 0 3.5 1.5t0.5 2.5l-42 461q0 3 -1 3t-3 -3l-154 -461
q-1 -1 0 -2.5zM114.5 -152.5q-9.5 10.5 -9.5 26.5q0 18 13 31t31 13q16 0 25.5 -9.5t9.5 -24.5q0 -20 -13 -33.5t-32 -13.5q-15 0 -24.5 10.5zM195.5 812.5q-23.5 25.5 -21.5 63.5q0 10 10 10h5q9 0 9 -10q-1 -28 16.5 -46.5t43.5 -18.5t47.5 18.5t28.5 46.5q3 10 12 10h5
q10 0 8 -10q-8 -38 -38 -63.5t-66 -25.5t-59.5 25.5z" />
    <glyph glyph-name="uni1EB7" unicode="&#x1eb7;" horiz-adv-x="380" 
d="M340 498q3 3 8 3h9q5 0 7.5 -3t1.5 -7l-59 -481q-2 -10 -11 -10h-10q-10 0 -8 10l4 39q1 3 -0.5 3.5t-3.5 -1.5q-20 -28 -48 -43.5t-61 -15.5q-53 0 -83.5 33t-30.5 87q0 7 2 25l27 227q8 64 49 104.5t99 40.5q33 0 58 -16t37 -44q1 -3 2.5 -2.5t2.5 3.5l5 41q0 4 3 7z
M254.5 52.5q32.5 32.5 38.5 84.5l28 227q1 7 1 21q0 43 -24 69.5t-64 26.5q-47 0 -80.5 -32.5t-39.5 -84.5l-28 -227q-1 -7 -1 -20q0 -44 25 -70.5t67 -26.5q45 0 77.5 32.5zM125.5 -152.5q-9.5 10.5 -9.5 26.5q0 18 13 31t31 13q16 0 25.5 -9.5t9.5 -24.5q0 -20 -13 -33.5
t-32 -13.5q-15 0 -24.5 10.5zM183.5 613.5q-23.5 25.5 -21.5 63.5q0 10 10 10h5q9 0 9 -10q-1 -28 16.5 -46.5t43.5 -18.5t47.5 18.5t28.5 46.5q3 10 12 10h5q10 0 8 -10q-8 -38 -38 -63.5t-66 -25.5t-59.5 25.5z" />
    <glyph glyph-name="uni1EB8" unicode="&#x1eb8;" horiz-adv-x="411" 
d="M418 672h-237q-1 0 -2.5 -1t-1.5 -3l-37 -300q0 -4 4 -4h155q10 0 8 -10l-1 -7q0 -4 -3 -7t-7 -3h-156q-4 0 -4 -4l-37 -301q0 -4 3 -4h237q9 0 9 -10l-1 -8q-1 -4 -4 -7t-7 -3h-260q-5 0 -7.5 3t-1.5 7l84 680q0 4 3 7t8 3h260q4 0 6.5 -3t1.5 -7l-1 -8q-2 -10 -11 -10z
M158.5 -152.5q-9.5 10.5 -9.5 26.5q0 18 13 31t31 13q16 0 25.5 -9.5t9.5 -24.5q0 -20 -13 -33.5t-32 -13.5q-15 0 -24.5 10.5z" />
    <glyph glyph-name="uni1EB9" unicode="&#x1eb9;" horiz-adv-x="379" 
d="M328 244h-225q-3 0 -5 -4l-12 -103q-1 -7 -1 -20q0 -44 24.5 -70.5t66.5 -26.5q38 0 68 23t43 61q5 9 12 9h10q5 0 7 -3.5t0 -8.5q-15 -49 -53.5 -79t-89.5 -30q-54 0 -86 33.5t-32 87.5q0 8 2 24l27 227q8 63 50.5 104t101.5 41q54 0 85.5 -34t31.5 -89q0 -14 -1 -22
l-13 -110q-2 -10 -11 -10zM153 448.5q-33 -32.5 -39 -84.5l-11 -90q-1 -1 0 -2.5t3 -1.5h202q4 0 4 4l11 90q1 7 1 20q0 44 -24.5 70.5t-66.5 26.5q-47 0 -80 -32.5zM125.5 -152.5q-9.5 10.5 -9.5 26.5q0 18 13 31t31 13q16 0 25.5 -9.5t9.5 -24.5q0 -20 -13 -33.5
t-32 -13.5q-15 0 -24.5 10.5z" />
    <glyph glyph-name="uni1EBA" unicode="&#x1eba;" horiz-adv-x="411" 
d="M418 672h-237q-1 0 -2.5 -1t-1.5 -3l-37 -300q0 -4 4 -4h155q10 0 8 -10l-1 -7q0 -4 -3 -7t-7 -3h-156q-4 0 -4 -4l-37 -301q0 -4 3 -4h237q9 0 9 -10l-1 -8q-1 -4 -4 -7t-7 -3h-260q-5 0 -7.5 3t-1.5 7l84 680q0 4 3 7t8 3h260q4 0 6.5 -3t1.5 -7l-1 -8q-2 -10 -11 -10z
M288.5 749.5q-1.5 3.5 1.5 7.5q11 22 39 45q16 14 23.5 24t9.5 26q2 17 -10.5 29.5t-33.5 12.5q-20 0 -32 -8t-28 -29q-8 -9 -14 -3l-3 2q-7 5 -1 14q19 26 36 37t46 11q28 0 46.5 -16t18.5 -41q0 -26 -11.5 -42t-34.5 -37q-22 -18 -30 -31q-2 -1 -2 -2t-1 -2q-5 -6 -11 -4
l-3 1q-4 2 -5.5 5.5z" />
    <glyph glyph-name="uni1EBB" unicode="&#x1ebb;" horiz-adv-x="379" 
d="M328 244h-225q-3 0 -5 -4l-12 -103q-1 -7 -1 -20q0 -44 24.5 -70.5t66.5 -26.5q38 0 68 23t43 61q5 9 12 9h10q5 0 7 -3.5t0 -8.5q-15 -49 -53.5 -79t-89.5 -30q-54 0 -86 33.5t-32 87.5q0 8 2 24l27 227q8 63 50.5 104t101.5 41q54 0 85.5 -34t31.5 -89q0 -14 -1 -22
l-13 -110q-2 -10 -11 -10zM153 448.5q-33 -32.5 -39 -84.5l-11 -90q-1 -1 0 -2.5t3 -1.5h202q4 0 4 4l11 90q1 7 1 20q0 44 -24.5 70.5t-66.5 26.5q-47 0 -80 -32.5zM229.5 550.5q-1.5 3.5 1.5 7.5q11 22 39 45q16 14 23.5 24t9.5 26q2 17 -10.5 29.5t-33.5 12.5
q-20 0 -32 -8t-28 -29q-8 -9 -14 -3l-3 2q-7 5 -1 14q19 26 36 37t46 11q28 0 46.5 -16t18.5 -41q0 -26 -11.5 -42t-34.5 -37q-22 -18 -30 -31q-2 -1 -2 -2t-1 -2q-5 -6 -11 -4l-3 1q-4 2 -5.5 5.5z" />
    <glyph glyph-name="uni1EBC" unicode="&#x1ebc;" horiz-adv-x="411" 
d="M418 672h-237q-1 0 -2.5 -1t-1.5 -3l-37 -300q0 -4 4 -4h155q10 0 8 -10l-1 -7q0 -4 -3 -7t-7 -3h-156q-4 0 -4 -4l-37 -301q0 -4 3 -4h237q9 0 9 -10l-1 -8q-1 -4 -4 -7t-7 -3h-260q-5 0 -7.5 3t-1.5 7l84 680q0 4 3 7t8 3h260q4 0 6.5 -3t1.5 -7l-1 -8q-2 -10 -11 -10z
M337 826.5q-11 6.5 -23 17.5q-2 2 -10 9t-15.5 10t-16.5 3q-15 0 -26.5 -5.5t-24.5 -22.5q-6 -9 -14 -3l-2 2q-4 3 -4 6q0 4 3 8q31 41 70 41q15 0 26 -6t25 -17q16 -12 24 -17t19 -5q14 0 25 6.5t24 24.5q3 4 7 5t7 -1l3 -2q4 -2 4 -7t-6 -13q-16 -21 -34.5 -30.5
t-34.5 -9.5q-15 0 -26 6.5z" />
    <glyph glyph-name="uni1EBD" unicode="&#x1ebd;" horiz-adv-x="379" 
d="M328 244h-225q-3 0 -5 -4l-12 -103q-1 -7 -1 -20q0 -44 24.5 -70.5t66.5 -26.5q38 0 68 23t43 61q5 9 12 9h10q5 0 7 -3.5t0 -8.5q-15 -49 -53.5 -79t-89.5 -30q-54 0 -86 33.5t-32 87.5q0 8 2 24l27 227q8 63 50.5 104t101.5 41q54 0 85.5 -34t31.5 -89q0 -14 -1 -22
l-13 -110q-2 -10 -11 -10zM153 448.5q-33 -32.5 -39 -84.5l-11 -90q-1 -1 0 -2.5t3 -1.5h202q4 0 4 4l11 90q1 7 1 20q0 44 -24.5 70.5t-66.5 26.5q-47 0 -80 -32.5zM278 627.5q-11 6.5 -23 17.5q-2 2 -10 9t-15.5 10t-16.5 3q-15 0 -26.5 -5.5t-24.5 -22.5q-6 -9 -14 -3
l-2 2q-4 3 -4 6q0 4 3 8q31 41 70 41q15 0 26 -6t25 -17q16 -12 24 -17t19 -5q14 0 25 6.5t24 24.5q3 4 7 5t7 -1l3 -2q4 -2 4 -7t-6 -13q-16 -21 -34.5 -30.5t-34.5 -9.5q-15 0 -26 6.5z" />
    <glyph glyph-name="uni1EBE" unicode="&#x1ebe;" horiz-adv-x="411" 
d="M418 672h-237q-1 0 -2.5 -1t-1.5 -3l-37 -300q0 -4 4 -4h155q10 0 8 -10l-1 -7q0 -4 -3 -7t-7 -3h-156q-4 0 -4 -4l-37 -301q0 -4 3 -4h237q9 0 9 -10l-1 -8q-1 -4 -4 -7t-7 -3h-260q-5 0 -7.5 3t-1.5 7l84 680q0 4 3 7t8 3h260q4 0 6.5 -3t1.5 -7l-1 -8q-2 -10 -11 -10z
M218 792l76 100q5 7 12 7h18q6 0 11 -6l52 -101l1 -4q0 -8 -9 -8h-14q-7 0 -10 7l-40 81q-1 2 -3 2t-3 -2l-59 -81q-7 -7 -13 -7h-14q-12 0 -5 12zM402.5 846.5q-1.5 3.5 2.5 8.5l74 112q4 7 12 7h9q6 0 7.5 -3.5t-2.5 -8.5l-77 -112q-5 -7 -12 -7h-6q-6 0 -7.5 3.5z" />
    <glyph glyph-name="uni1EBF" unicode="&#x1ebf;" horiz-adv-x="379" 
d="M328 244h-225q-3 0 -5 -4l-12 -103q-1 -7 -1 -20q0 -44 24.5 -70.5t66.5 -26.5q38 0 68 23t43 61q5 9 12 9h10q5 0 7 -3.5t0 -8.5q-15 -49 -53.5 -79t-89.5 -30q-54 0 -86 33.5t-32 87.5q0 8 2 24l27 227q8 63 50.5 104t101.5 41q54 0 85.5 -34t31.5 -89q0 -14 -1 -22
l-13 -110q-2 -10 -11 -10zM153 448.5q-33 -32.5 -39 -84.5l-11 -90q-1 -1 0 -2.5t3 -1.5h202q4 0 4 4l11 90q1 7 1 20q0 44 -24.5 70.5t-66.5 26.5q-47 0 -80 -32.5zM158 593l76 100q5 7 12 7h18q6 0 11 -6l52 -101l1 -4q0 -8 -9 -8h-14q-7 0 -10 7l-40 81q-1 2 -3 2t-3 -2
l-59 -81q-7 -7 -13 -7h-14q-12 0 -5 12zM342.5 647.5q-1.5 3.5 2.5 8.5l74 112q4 7 12 7h9q6 0 7.5 -3.5t-2.5 -8.5l-77 -112q-5 -7 -12 -7h-6q-6 0 -7.5 3.5z" />
    <glyph glyph-name="uni1EC0" unicode="&#x1ec0;" horiz-adv-x="411" 
d="M418 672h-237q-1 0 -2.5 -1t-1.5 -3l-37 -300q0 -4 4 -4h155q10 0 8 -10l-1 -7q0 -4 -3 -7t-7 -3h-156q-4 0 -4 -4l-37 -301q0 -4 3 -4h237q9 0 9 -10l-1 -8q-1 -4 -4 -7t-7 -3h-260q-5 0 -7.5 3t-1.5 7l84 680q0 4 3 7t8 3h260q4 0 6.5 -3t1.5 -7l-1 -8q-2 -10 -11 -10z
M218 792l76 100q5 7 12 7h18q6 0 11 -6l52 -101l1 -4q0 -8 -9 -8h-14q-7 0 -10 7l-40 81q-1 2 -3 2t-3 -2l-59 -81q-7 -7 -13 -7h-14q-12 0 -5 12zM449 896q0 -7 -8 -7h-6q-6 0 -11 7l-50 112q-1 2 -1 5q0 7 9 7h9q7 0 11 -7l46 -112q1 -2 1 -5z" />
    <glyph glyph-name="uni1EC1" unicode="&#x1ec1;" horiz-adv-x="379" 
d="M328 244h-225q-3 0 -5 -4l-12 -103q-1 -7 -1 -20q0 -44 24.5 -70.5t66.5 -26.5q38 0 68 23t43 61q5 9 12 9h10q5 0 7 -3.5t0 -8.5q-15 -49 -53.5 -79t-89.5 -30q-54 0 -86 33.5t-32 87.5q0 8 2 24l27 227q8 63 50.5 104t101.5 41q54 0 85.5 -34t31.5 -89q0 -14 -1 -22
l-13 -110q-2 -10 -11 -10zM153 448.5q-33 -32.5 -39 -84.5l-11 -90q-1 -1 0 -2.5t3 -1.5h202q4 0 4 4l11 90q1 7 1 20q0 44 -24.5 70.5t-66.5 26.5q-47 0 -80 -32.5zM158 593l76 100q5 7 12 7h18q6 0 11 -6l52 -101l1 -4q0 -8 -9 -8h-14q-7 0 -10 7l-40 81q-1 2 -3 2t-3 -2
l-59 -81q-7 -7 -13 -7h-14q-12 0 -5 12zM389 697q0 -7 -8 -7h-6q-6 0 -11 7l-50 112q-1 2 -1 5q0 7 9 7h9q7 0 11 -7l46 -112q1 -2 1 -5z" />
    <glyph glyph-name="uni1EC2" unicode="&#x1ec2;" horiz-adv-x="411" 
d="M418 672h-237q-1 0 -2.5 -1t-1.5 -3l-37 -300q0 -4 4 -4h155q10 0 8 -10l-1 -7q0 -4 -3 -7t-7 -3h-156q-4 0 -4 -4l-37 -301q0 -4 3 -4h237q9 0 9 -10l-1 -8q-1 -4 -4 -7t-7 -3h-260q-5 0 -7.5 3t-1.5 7l84 680q0 4 3 7t8 3h260q4 0 6.5 -3t1.5 -7l-1 -8q-2 -10 -11 -10z
M405 880q11 21 39 44q15 13 23 23.5t10 26.5q2 17 -10.5 30t-31.5 13q-20 0 -32.5 -8.5t-28.5 -29.5q-3 -5 -7 -6t-7 2l-3 3q-7 6 -1 13q19 27 36 38.5t46 11.5q31 0 49 -19t15 -48q-3 -22 -14.5 -37t-32.5 -33q-24 -24 -29 -32q-6 -9 -13 -6l-3 1q-10 3 -5 13zM218 792
l76 100q5 7 12 7h18q6 0 11 -6l52 -101l1 -4q0 -8 -9 -8h-14q-7 0 -10 7l-40 81q-1 2 -3 2t-3 -2l-59 -81q-7 -7 -13 -7h-14q-12 0 -5 12z" />
    <glyph glyph-name="uni1EC3" unicode="&#x1ec3;" horiz-adv-x="379" 
d="M328 244h-225q-3 0 -5 -4l-12 -103q-1 -7 -1 -20q0 -44 24.5 -70.5t66.5 -26.5q38 0 68 23t43 61q5 9 12 9h10q5 0 7 -3.5t0 -8.5q-15 -49 -53.5 -79t-89.5 -30q-54 0 -86 33.5t-32 87.5q0 8 2 24l27 227q8 63 50.5 104t101.5 41q54 0 85.5 -34t31.5 -89q0 -14 -1 -22
l-13 -110q-2 -10 -11 -10zM153 448.5q-33 -32.5 -39 -84.5l-11 -90q-1 -1 0 -2.5t3 -1.5h202q4 0 4 4l11 90q1 7 1 20q0 44 -24.5 70.5t-66.5 26.5q-47 0 -80 -32.5zM345 681q11 21 39 44q15 13 23 23.5t10 26.5q2 17 -10.5 30t-31.5 13q-20 0 -32.5 -8.5t-28.5 -29.5
q-3 -5 -7 -6t-7 2l-3 3q-7 6 -1 13q19 27 36 38.5t46 11.5q31 0 49 -19t15 -48q-3 -22 -14.5 -37t-32.5 -33q-24 -24 -29 -32q-6 -9 -13 -6l-3 1q-10 3 -5 13zM158 593l76 100q5 7 12 7h18q6 0 11 -6l52 -101l1 -4q0 -8 -9 -8h-14q-7 0 -10 7l-40 81q-1 2 -3 2t-3 -2
l-59 -81q-7 -7 -13 -7h-14q-12 0 -5 12z" />
    <glyph glyph-name="uni1EC4" unicode="&#x1ec4;" horiz-adv-x="411" 
d="M418 672h-237q-1 0 -2.5 -1t-1.5 -3l-37 -300q0 -4 4 -4h155q10 0 8 -10l-1 -7q0 -4 -3 -7t-7 -3h-156q-4 0 -4 -4l-37 -301q0 -4 3 -4h237q9 0 9 -10l-1 -8q-1 -4 -4 -7t-7 -3h-260q-5 0 -7.5 3t-1.5 7l84 680q0 4 3 7t8 3h260q4 0 6.5 -3t1.5 -7l-1 -8q-2 -10 -11 -10z
M218 792l76 100q5 7 12 7h18q6 0 11 -6l52 -101l1 -4q0 -8 -9 -8h-14q-7 0 -10 7l-40 81q-1 2 -3 2t-3 -2l-59 -81q-7 -7 -13 -7h-14q-12 0 -5 12zM350 933.5q-11 6.5 -23 17.5q-2 2 -10 9t-15.5 10t-16.5 3q-15 0 -26.5 -5.5t-24.5 -22.5q-6 -9 -14 -3l-2 2q-4 3 -4 6
q0 4 3 8q31 41 70 41q15 0 26 -6t25 -17q16 -12 24 -17t19 -5q14 0 25 6.5t24 24.5q3 4 7 5t7 -1l3 -2q4 -2 4 -7t-6 -13q-16 -21 -34.5 -30.5t-34.5 -9.5q-15 0 -26 6.5z" />
    <glyph glyph-name="uni1EC5" unicode="&#x1ec5;" horiz-adv-x="379" 
d="M328 244h-225q-3 0 -5 -4l-12 -103q-1 -7 -1 -20q0 -44 24.5 -70.5t66.5 -26.5q38 0 68 23t43 61q5 9 12 9h10q5 0 7 -3.5t0 -8.5q-15 -49 -53.5 -79t-89.5 -30q-54 0 -86 33.5t-32 87.5q0 8 2 24l27 227q8 63 50.5 104t101.5 41q54 0 85.5 -34t31.5 -89q0 -14 -1 -22
l-13 -110q-2 -10 -11 -10zM153 448.5q-33 -32.5 -39 -84.5l-11 -90q-1 -1 0 -2.5t3 -1.5h202q4 0 4 4l11 90q1 7 1 20q0 44 -24.5 70.5t-66.5 26.5q-47 0 -80 -32.5zM158 593l76 100q5 7 12 7h18q6 0 11 -6l52 -101l1 -4q0 -8 -9 -8h-14q-7 0 -10 7l-40 81q-1 2 -3 2t-3 -2
l-59 -81q-7 -7 -13 -7h-14q-12 0 -5 12zM290 734.5q-11 6.5 -23 17.5q-2 2 -10 9t-15.5 10t-16.5 3q-15 0 -26.5 -5.5t-24.5 -22.5q-6 -9 -14 -3l-2 2q-4 3 -4 6q0 4 3 8q31 41 70 41q15 0 26 -6t25 -17q16 -12 24 -17t19 -5q14 0 25 6.5t24 24.5q3 4 7 5t7 -1l3 -2
q4 -2 4 -7t-6 -13q-16 -21 -34.5 -30.5t-34.5 -9.5q-15 0 -26 6.5z" />
    <glyph glyph-name="uni1EC6" unicode="&#x1ec6;" horiz-adv-x="411" 
d="M418 672h-237q-1 0 -2.5 -1t-1.5 -3l-37 -300q0 -4 4 -4h155q10 0 8 -10l-1 -7q0 -4 -3 -7t-7 -3h-156q-4 0 -4 -4l-37 -301q0 -4 3 -4h237q9 0 9 -10l-1 -8q-1 -4 -4 -7t-7 -3h-260q-5 0 -7.5 3t-1.5 7l84 680q0 4 3 7t8 3h260q4 0 6.5 -3t1.5 -7l-1 -8q-2 -10 -11 -10z
M158.5 -152.5q-9.5 10.5 -9.5 26.5q0 18 13 31t31 13q16 0 25.5 -9.5t9.5 -24.5q0 -20 -13 -33.5t-32 -13.5q-15 0 -24.5 10.5zM218 792l76 100q5 7 12 7h18q6 0 11 -6l52 -101l1 -4q0 -8 -9 -8h-14q-7 0 -10 7l-40 81q-1 2 -3 2t-3 -2l-59 -81q-7 -7 -13 -7h-14
q-12 0 -5 12z" />
    <glyph glyph-name="uni1EC7" unicode="&#x1ec7;" horiz-adv-x="379" 
d="M328 244h-225q-3 0 -5 -4l-12 -103q-1 -7 -1 -20q0 -44 24.5 -70.5t66.5 -26.5q38 0 68 23t43 61q5 9 12 9h10q5 0 7 -3.5t0 -8.5q-15 -49 -53.5 -79t-89.5 -30q-54 0 -86 33.5t-32 87.5q0 8 2 24l27 227q8 63 50.5 104t101.5 41q54 0 85.5 -34t31.5 -89q0 -14 -1 -22
l-13 -110q-2 -10 -11 -10zM153 448.5q-33 -32.5 -39 -84.5l-11 -90q-1 -1 0 -2.5t3 -1.5h202q4 0 4 4l11 90q1 7 1 20q0 44 -24.5 70.5t-66.5 26.5q-47 0 -80 -32.5zM125.5 -152.5q-9.5 10.5 -9.5 26.5q0 18 13 31t31 13q16 0 25.5 -9.5t9.5 -24.5q0 -20 -13 -33.5
t-32 -13.5q-15 0 -24.5 10.5zM158 593l76 100q5 7 12 7h18q6 0 11 -6l52 -101l1 -4q0 -8 -9 -8h-14q-7 0 -10 7l-40 81q-1 2 -3 2t-3 -2l-59 -81q-7 -7 -13 -7h-14q-12 0 -5 12z" />
    <glyph glyph-name="uni1EC8" unicode="&#x1ec8;" horiz-adv-x="200" 
d="M68.5 3q-2.5 3 -1.5 7l84 680q0 4 3 7t8 3h9q5 0 7.5 -3t1.5 -7l-84 -680q0 -4 -3 -7t-8 -3h-9q-5 0 -7.5 3zM163.5 749.5q-1.5 3.5 1.5 7.5q11 22 39 45q16 14 23.5 24t9.5 26q2 17 -10.5 29.5t-33.5 12.5q-20 0 -32 -8t-28 -29q-8 -9 -14 -3l-3 2q-7 5 -1 14
q19 26 36 37t46 11q28 0 46.5 -16t18.5 -41q0 -26 -11.5 -42t-34.5 -37q-22 -18 -30 -31q-2 -1 -2 -2t-1 -2q-5 -6 -11 -4l-3 1q-4 2 -5.5 5.5z" />
    <glyph glyph-name="uni1EC9" unicode="&#x1ec9;" horiz-adv-x="152" 
d="M44.5 3q-2.5 3 -1.5 7l59 481q2 10 11 10h10q4 0 6.5 -3t1.5 -7l-59 -481q-2 -10 -11 -10h-10q-4 0 -6.5 3zM115.5 550.5q-1.5 3.5 1.5 7.5q11 22 39 45q16 14 23.5 24t9.5 26q2 17 -10.5 29.5t-33.5 12.5q-20 0 -32 -8t-28 -29q-8 -9 -14 -3l-3 2q-7 5 -1 14
q19 26 36 37t46 11q28 0 46.5 -16t18.5 -41q0 -26 -11.5 -42t-34.5 -37q-22 -18 -30 -31q-2 -1 -2 -2t-1 -2q-5 -6 -11 -4l-3 1q-4 2 -5.5 5.5z" />
    <glyph glyph-name="uni1ECA" unicode="&#x1eca;" horiz-adv-x="200" 
d="M68.5 3q-2.5 3 -1.5 7l84 680q0 4 3 7t8 3h9q5 0 7.5 -3t1.5 -7l-84 -680q0 -4 -3 -7t-8 -3h-9q-5 0 -7.5 3zM35.5 -152.5q-9.5 10.5 -9.5 26.5q0 18 13 31t31 13q16 0 25.5 -9.5t9.5 -24.5q0 -20 -13 -33.5t-32 -13.5q-15 0 -24.5 10.5z" />
    <glyph glyph-name="uni1ECB" unicode="&#x1ecb;" horiz-adv-x="195" 
d="M127.5 623.5q-10.5 10.5 -10.5 26.5q0 20 13.5 34t33.5 14q16 0 26 -10t10 -26q0 -21 -13.5 -35t-32.5 -14q-16 0 -26.5 10.5zM65 10l59 481q2 10 11 10h10q10 0 8 -10l-59 -481q0 -4 -3 -7t-8 -3h-9q-9 0 -9 10zM33.5 -152.5q-9.5 10.5 -9.5 26.5q0 18 13 31t31 13
q16 0 25.5 -9.5t9.5 -24.5q0 -20 -13 -33.5t-32 -13.5q-15 0 -24.5 10.5z" />
    <glyph glyph-name="uni1ECC" unicode="&#x1ecc;" horiz-adv-x="433" 
d="M99.5 29q-35.5 37 -35.5 99q0 17 1 25l49 393q8 72 55.5 117t113.5 45q61 0 97 -37t36 -99q0 -8 -2 -26l-48 -393q-9 -72 -56.5 -116.5t-114.5 -44.5q-60 0 -95.5 37zM290.5 56.5q38.5 36.5 46.5 94.5l48 397q1 7 1 22q0 50 -29 80t-78 30q-53 0 -91 -37t-45 -95
l-49 -397q-1 -7 -1 -20q0 -50 28.5 -80.5t76.5 -30.5q54 0 92.5 36.5zM152.5 -152.5q-9.5 10.5 -9.5 26.5q0 18 13 31t31 13q16 0 25.5 -9.5t9.5 -24.5q0 -20 -13 -33.5t-32 -13.5q-15 0 -24.5 10.5z" />
    <glyph glyph-name="uni1ECD" unicode="&#x1ecd;" horiz-adv-x="386" 
d="M87 25.5q-32 33.5 -32 87.5q0 8 2 24l27 227q8 63 50.5 104t101.5 41q54 0 85.5 -34t31.5 -89q0 -14 -1 -22l-28 -227q-8 -64 -50 -104.5t-101 -40.5q-54 0 -86 33.5zM256 52.5q33 32.5 39 84.5l28 227q1 7 1 20q0 44 -24.5 70.5t-66.5 26.5q-47 0 -80 -32.5t-39 -84.5
l-28 -227q-1 -7 -1 -20q0 -44 24.5 -70.5t66.5 -26.5q47 0 80 32.5zM129.5 -152.5q-9.5 10.5 -9.5 26.5q0 18 13 31t31 13q16 0 25.5 -9.5t9.5 -24.5q0 -20 -13 -33.5t-32 -13.5q-15 0 -24.5 10.5z" />
    </font>
</defs>
</svg>
