<?xml version="1.0" standalone="no"?>
<!DOCTYPE svg PUBLIC "-//W3C//DTD SVG 1.1//EN" "http://www.w3.org/Graphics/SVG/1.1/DTD/svg11.dtd" >
<svg xmlns="http://www.w3.org/2000/svg" xmlns:xlink="http://www.w3.org/1999/xlink" version="1.1">
<metadata>
Created by FontForge 20201107 at Wed Nov  7 06:08:17 2018
 By 
Copyright 2017 The Barlow Project Authors (https://github.com/jpt/barlow)
</metadata>
<defs>
<font id="BarlowCondensed-Thin" horiz-adv-x="0" >
  <font-face 
    font-family="Barlow Condensed Thin"
    font-weight="250"
    font-stretch="condensed"
    units-per-em="1000"
    panose-1="0 0 3 6 0 0 0 0 0 0"
    ascent="800"
    descent="-200"
    x-height="501"
    cap-height="700"
    bbox="-601.571 -214 967 1075"
    underline-thickness="50"
    underline-position="-100"
    unicode-range="U+000D-FB02"
  />
<missing-glyph horiz-adv-x="304" 
d="M4 0h296q4 0 4 4v692q0 4 -4 4h-296q-4 0 -4 -4v-692q0 -4 4 -4zM134 233v49q0 28 11 47t32 41q24 26 36.5 49t12.5 60q0 43 -19.5 69.5t-50.5 26.5q-32 0 -52.5 -26t-20.5 -69v-25q0 -10 -10 -10h-1q-10 0 -10 10v25q0 52 26 84t68 32q41 0 66 -32.5t25 -85.5
q0 -45 -14 -70.5t-40 -54.5q-18 -20 -27 -35t-9 -36v-49q0 -10 -10 -10h-3q-10 0 -10 10zM124.5 101q-8.5 9 -8.5 22t8.5 21.5t21.5 8.5t22 -8.5t9 -21.5t-8.5 -22t-22.5 -9q-13 0 -21.5 9z" />
    <glyph glyph-name="fi" unicode="fi" horiz-adv-x="466" 
d="M139 649.5q-17 -32.5 -17 -101.5v-43q0 -4 4 -4h88q10 0 10 -10v-6q0 -10 -10 -10h-88q-4 0 -4 -4v-461q0 -10 -10 -10h-10q-10 0 -10 10v461q0 4 -4 4h-45q-10 0 -10 10v6q0 10 10 10h45q4 0 4 4v44q0 81 24.5 120.5t85.5 39.5h15q10 0 10 -10v-7q0 -10 -10 -10h-14
q-47 0 -64 -32.5zM334 625q-12 12 -12 31q0 18 12 30t31 12q18 0 30 -12t12 -30q0 -19 -12 -31t-30 -12q-19 0 -31 12zM350 10v481q0 10 10 10h10q10 0 10 -10v-481q0 -10 -10 -10h-10q-10 0 -10 10z" />
    <glyph glyph-name="fl" unicode="fl" horiz-adv-x="430" 
d="M139 649.5q-17 -32.5 -17 -101.5v-43q0 -4 4 -4h88q10 0 10 -10v-6q0 -10 -10 -10h-88q-4 0 -4 -4v-461q0 -10 -10 -10h-10q-10 0 -10 10v461q0 4 -4 4h-45q-10 0 -10 10v6q0 10 10 10h45q4 0 4 4v44q0 81 24.5 120.5t85.5 39.5h15q10 0 10 -10v-7q0 -10 -10 -10h-14
q-47 0 -64 -32.5zM332 10v680q0 10 10 10h10q10 0 10 -10v-680q0 -10 -10 -10h-10q-10 0 -10 10z" />
    <glyph glyph-name="I_J.liga" unicode="IJ" horiz-adv-x="616" 
d="M88 10v680q0 10 10 10h10q10 0 10 -10v-680q0 -10 -10 -10h-10q-10 0 -10 10zM273.5 35.5q-40.5 43.5 -40.5 114.5v92q0 10 10 10h10q10 0 10 -10v-93q0 -58 32.5 -93.5t85.5 -35.5q52 0 84.5 35.5t32.5 93.5v541q0 10 10 10h10q10 0 10 -10v-540q0 -71 -40.5 -114.5
t-106.5 -43.5q-67 0 -107.5 43.5z" />
    <glyph glyph-name="f_f_i.liga" unicode="ffi" horiz-adv-x="722" 
d="M122 505q0 -4 4 -4h93q10 0 10 -10v-6q0 -10 -10 -10h-93q-4 0 -4 -4v-461q0 -10 -10 -10h-10q-10 0 -10 10v461q0 4 -4 4h-45q-10 0 -10 10v6q0 10 10 10h45q4 0 4 4v45q0 81 24.5 120.5t85.5 39.5h15q10 0 10 -10v-6q0 -10 -10 -10h-14q-48 -1 -64.5 -33.5
t-16.5 -101.5v-44zM378.5 670.5q24.5 39.5 85.5 39.5h15q10 0 10 -10v-6q0 -10 -10 -10h-14q-48 -1 -64.5 -33.5t-16.5 -101.5v-44q0 -4 4 -4h88q10 0 10 -10v-6q0 -10 -10 -10h-88q-4 0 -4 -4v-461q0 -10 -10 -10h-10q-10 0 -10 10v461q0 4 -4 4h-50q-10 0 -10 10v6
q0 10 10 10h50q4 0 4 4v45q0 81 24.5 120.5zM651 686q12 -12 12 -30q0 -19 -12 -31t-30 -12q-19 0 -31 12t-12 31q0 18 12 30t31 12q18 0 30 -12zM606 10v481q0 10 10 10h10q10 0 10 -10v-481q0 -10 -10 -10h-10q-10 0 -10 10z" />
    <glyph glyph-name="f_f_l.liga" unicode="ffl" horiz-adv-x="692" 
d="M122 505q0 -4 4 -4h93q10 0 10 -10v-6q0 -10 -10 -10h-93q-4 0 -4 -4v-461q0 -10 -10 -10h-10q-10 0 -10 10v461q0 4 -4 4h-45q-10 0 -10 10v6q0 10 10 10h45q4 0 4 4v45q0 81 24.5 120.5t85.5 39.5h15q10 0 10 -10v-6q0 -10 -10 -10h-14q-48 -1 -64.5 -33.5
t-16.5 -101.5v-44zM379 670.5q24 39.5 85 39.5h15q10 0 10 -10v-6q0 -10 -10 -10h-14q-47 -1 -63.5 -33.5t-16.5 -101.5v-44q0 -4 4 -4h87q10 0 10 -10v-6q0 -10 -10 -10h-87q-4 0 -4 -4v-461q0 -10 -10 -10h-10q-10 0 -10 10v461q0 4 -4 4h-50q-10 0 -10 10v6q0 10 10 10
h50q4 0 4 4v45q0 81 24 120.5zM604 700h10q10 0 10 -10v-680q0 -10 -10 -10h-10q-10 0 -10 10v680q0 10 10 10z" />
    <glyph glyph-name="g_j.liga" unicode="gj" horiz-adv-x="586" 
d="M516 686q12 -12 12 -30q0 -19 -12 -31t-30 -12q-19 0 -31 12t-12 31q0 18 12 30t31 12q18 0 30 -12zM303.5 448.5q1.5 0.5 1.5 3.5v39q0 10 10 10h11q10 0 10 -10v-489q0 -202 -174 -202q-12 0 -12 10v7q0 10 10 10q76 0 110.5 45t34.5 131v47q0 3 -1.5 3.5t-3.5 -1.5
q-17 -28 -44 -43.5t-61 -15.5q-60 0 -97 40t-37 104v227q0 64 37 104.5t97 40.5q35 0 62 -15.5t43 -43.5q2 -2 3.5 -1.5zM471 491q0 10 10 10h10q10 0 10 -10v-560q0 -64 -27.5 -101t-79.5 -40q-10 0 -10 10v7q0 10 8 10q37 3 58 33t21 81v560zM275.5 53.5
q29.5 32.5 29.5 84.5v226q0 52 -29.5 84.5t-75.5 32.5q-48 0 -78.5 -32.5t-30.5 -84.5v-226q0 -52 30.5 -84.5t78.5 -32.5q46 0 75.5 32.5z" />
    <glyph glyph-name="i_j.liga" unicode="ij" horiz-adv-x="388" 
d="M70 625q-12 12 -12 31q0 18 12 30t31 12q18 0 30 -12t12 -30q0 -19 -12 -31t-30 -12q-19 0 -31 12zM257 625q-12 12 -12 31q0 18 12 30t30 12q19 0 31 -12t12 -30q0 -19 -12 -31t-31 -12q-18 0 -30 12zM86 10v481q0 10 10 10h10q10 0 10 -10v-481q0 -10 -10 -10h-10
q-10 0 -10 10zM183 -201v8q0 10 10 10q38 4 58 33.5t20 80.5v560q0 10 10 10h10q10 0 10 -10v-560q0 -65 -27 -101.5t-81 -40.5q-10 0 -10 10z" />
    <glyph glyph-name="hyphen_hyphen.liga" unicode="&#x2d;&#x2d;" horiz-adv-x="592" 
d="M37 307v8q0 10 10 10h498q10 0 10 -10v-8q0 -10 -10 -10h-498q-10 0 -10 10z" />
    <glyph glyph-name=".notdef" horiz-adv-x="304" 
d="M4 0h296q4 0 4 4v692q0 4 -4 4h-296q-4 0 -4 -4v-692q0 -4 4 -4zM134 233v49q0 28 11 47t32 41q24 26 36.5 49t12.5 60q0 43 -19.5 69.5t-50.5 26.5q-32 0 -52.5 -26t-20.5 -69v-25q0 -10 -10 -10h-1q-10 0 -10 10v25q0 52 26 84t68 32q41 0 66 -32.5t25 -85.5
q0 -45 -14 -70.5t-40 -54.5q-18 -20 -27 -35t-9 -36v-49q0 -10 -10 -10h-3q-10 0 -10 10zM124.5 101q-8.5 9 -8.5 22t8.5 21.5t21.5 8.5t22 -8.5t9 -21.5t-8.5 -22t-22.5 -9q-13 0 -21.5 9z" />
    <glyph glyph-name=".null" 
 />
    <glyph glyph-name="nonmarkingreturn" unicode="&#xd;" horiz-adv-x="200" 
 />
    <glyph glyph-name="NULL" 
 />
    <glyph glyph-name="NULL" 
 />
    <glyph glyph-name="space" unicode=" " horiz-adv-x="200" 
 />
    <glyph glyph-name="exclam" unicode="!" horiz-adv-x="235" 
d="M105 231l-1 459q0 10 10 10h10q10 0 10 -10l-2 -459q0 -10 -10 -10h-7q-10 0 -10 10zM87 17q-12 12 -12 30q0 19 12 31t31 12q18 0 30 -12t12 -31q0 -18 -12 -30t-30 -12q-19 0 -31 12z" />
    <glyph glyph-name="quotedbl" unicode="&#x22;" horiz-adv-x="170" 
d="M31 508l-4 174q0 10 10 10h12q10 0 10 -10l-3 -174q0 -10 -10 -10h-5q-10 0 -10 10zM111 508l-3 174q0 10 10 10h13q10 0 10 -10l-4 -174q0 -10 -10 -10h-6q-10 0 -10 10z" />
    <glyph glyph-name="numbersign" unicode="#" horiz-adv-x="573" 
d="M495 444h-62q-5 0 -5 -4l-28 -194q0 -4 3 -4h61q10 0 10 -10v-8q0 -10 -10 -10h-65q-5 0 -5 -4l-29 -191q-1 -8 -11 -8h-9q-4 0 -7 3t-2 8l27 188q0 4 -3 4h-182q-5 0 -5 -4l-28 -190q-1 -9 -11 -9h-9q-4 0 -7 3t-2 8l27 188q0 4 -3 4h-62q-10 0 -10 10v8q0 10 10 10h66
q5 0 5 4l28 194q0 4 -3 4h-65q-10 0 -10 10v8q0 10 10 10h69q5 0 5 4l29 192q1 8 11 8h9q4 0 7 -3t2 -8l-27 -189q0 -4 3 -4h181q5 0 5 4l29 192q1 8 11 8h10q4 0 7 -3t2 -8l-28 -189q0 -4 3 -4h58q10 0 10 -10v-8q0 -10 -10 -10zM369 246l28 194q0 4 -3 4h-181q-5 0 -5 -4
l-28 -194q0 -4 3 -4h181q5 0 5 4z" />
    <glyph glyph-name="dollar" unicode="$" horiz-adv-x="400" 
d="M316 50.5q-34 -46.5 -89 -55.5q-4 -1 -4 -5v-77q0 -10 -10 -10h-6q-10 0 -10 10v75q0 4 -4 4q-64 2 -104 49.5t-40 123.5v19q0 10 10 10h9q10 0 10 -10v-18q0 -66 33.5 -106.5t86.5 -40.5t87.5 39t34.5 102q0 42 -16 71.5t-39.5 50.5t-76.5 61q-51 39 -78.5 64.5
t-44.5 60t-17 81.5q0 73 39 115t101 44q4 0 4 4v79q0 10 10 10h6q10 0 10 -10v-81q0 -4 4 -5q56 -10 89 -55.5t33 -115.5v-25q0 -10 -10 -10h-10q-10 0 -10 10v24q0 67 -33.5 107.5t-87.5 40.5q-51 0 -83 -35t-32 -99q0 -37 13 -64.5t38.5 -51t74.5 -60.5q59 -44 87.5 -70.5
t43.5 -57.5t15 -76q0 -70 -34 -116.5z" />
    <glyph glyph-name="percent" unicode="%" horiz-adv-x="790" 
d="M153 461q-30 18 -47.5 49t-17.5 67t17.5 66.5t47.5 48.5t66 18q35 0 65 -18t47 -48.5t17 -66.5t-17 -67t-47 -49t-65 -18q-36 0 -66 18zM197.5 3.5q-2.5 3.5 0.5 8.5l367 681q3 7 12 7h6q6 0 8.5 -3.5t-0.5 -8.5l-367 -681q-3 -7 -12 -7h-6q-6 0 -8.5 3.5zM292.5 500
q30.5 32 30.5 77t-30.5 76.5t-73.5 31.5q-44 0 -75 -31.5t-31 -76.5q0 -46 31 -77.5t75 -31.5q43 0 73.5 32zM507 8q-30 18 -47.5 49t-17.5 67t17.5 66.5t47.5 48.5t66 18q35 0 65 -18t47 -48.5t17 -66.5t-17 -67t-47 -49t-65 -18q-36 0 -66 18zM646.5 47q30.5 32 30.5 77
t-30.5 76.5t-73.5 31.5q-44 0 -75 -31.5t-31 -76.5q0 -46 31 -77.5t75 -31.5q43 0 73.5 32z" />
    <glyph glyph-name="ampersand" unicode="&#x26;" horiz-adv-x="507" 
d="M451 6q0 -6 -8 -6h-10q-7 0 -12 7l-55 84q-1 2 -3 1.5t-3 -1.5q-39 -54 -75.5 -76.5t-84.5 -22.5q-70 0 -111 41t-41 115q0 70 33 120t94 107q3 1 1 5q-38 58 -55 89.5t-22.5 52t-5.5 47.5q0 64 33.5 101.5t87.5 37.5t88 -37t34 -98q0 -60 -30 -104t-88 -98q-3 -3 -1 -6
l73 -112l69 -105q1 -1 3 -1t3 1l35 57l16 28q4 9 14 3l7 -5q7 -6 3 -13q-37 -65 -59 -97q-1 -3 0 -6l68 -103q2 -2 2 -6zM148.5 650q-25.5 -30 -25.5 -81q0 -34 13 -65.5t59 -104.5q3 -4 6 -1q52 50 78.5 88t26.5 87q0 48 -25 77.5t-66 29.5t-66.5 -30zM275.5 41.5
q32.5 21.5 69.5 75.5q2 3 0 6l-53 80l-50 76l-45 67q-1 5 -5 1q-55 -52 -84 -97t-29 -104t32 -92.5t89 -33.5q43 0 75.5 21.5z" />
    <glyph glyph-name="quotesingle" unicode="'" horiz-adv-x="89" 
d="M31 515l-4 172q0 10 10 10h13q10 0 10 -10l-4 -172q0 -10 -10 -10h-5q-10 0 -10 10z" />
    <glyph glyph-name="parenleft" unicode="(" horiz-adv-x="169" 
d="M70 -105q-34 75 -54.5 190.5t-20.5 235.5q0 124 21.5 243.5t56.5 194.5q3 7 11 7h8q5 0 7.5 -3.5t0.5 -7.5q-31 -77 -50.5 -195t-19.5 -237q0 -118 19.5 -233t50.5 -191q1 -1 1 -4t-2.5 -5t-6.5 -2h-11q-8 0 -11 7z" />
    <glyph glyph-name="parenright" unicode=")" horiz-adv-x="169" 
d="M99 759q34 -75 54.5 -190.5t20.5 -235.5q0 -124 -21.5 -243.5t-56.5 -194.5q-3 -7 -11 -7h-8q-5 0 -7.5 3.5t-0.5 7.5q31 77 50.5 195t19.5 237q0 118 -19.5 233t-50.5 191q-1 1 -1 4t2.5 5t6.5 2h11q8 0 11 -7z" />
    <glyph glyph-name="asterisk" unicode="*" horiz-adv-x="360" 
d="M167 403v139q0 2 -1.5 3t-3.5 0l-114 -71l-5 -2q-5 0 -9 6l-2 4q-2 4 -2 6q0 6 5 8l115 71q2 1 2 3t-2 3l-115 71q-8 5 -3 14l2 4q6 10 14 4l114 -71q2 -1 3.5 0t1.5 3v139q0 10 10 10h6q10 0 10 -10v-139q0 -2 1.5 -3t3.5 0l114 71l5 2q5 0 9 -6l2 -4q2 -4 2 -6
q0 -5 -5 -8l-115 -71q-1 -1 -1 -3t1 -3l115 -71q8 -5 3 -14l-2 -4q-6 -10 -14 -4l-114 71q-2 1 -3.5 0t-1.5 -3v-139q0 -10 -10 -10h-6q-10 0 -10 10z" />
    <glyph glyph-name="plus" unicode="+" horiz-adv-x="444" 
d="M407 326v-6q0 -10 -10 -10h-158q-4 0 -4 -4v-158q0 -10 -10 -10h-6q-10 0 -10 10v158q0 4 -4 4h-158q-10 0 -10 10v6q0 10 10 10h158q4 0 4 4v158q0 10 10 10h6q10 0 10 -10v-158q0 -4 4 -4h158q10 0 10 -10z" />
    <glyph glyph-name="comma" unicode="," horiz-adv-x="158" 
d="M44.5 -65q-2.5 3 -1.5 8l37 201q2 9 11 9h8q5 0 7.5 -3t1.5 -8l-40 -201q-1 -9 -11 -9h-5q-5 0 -7.5 3z" />
    <glyph glyph-name="hyphen" unicode="-" horiz-adv-x="303" 
d="M37 316v8q0 10 10 10h209q10 0 10 -10v-8q0 -10 -10 -10h-209q-10 0 -10 10z" />
    <glyph glyph-name="period" unicode="." horiz-adv-x="170" 
d="M54 17q-12 12 -12 31q0 18 12 30t31 12t31 -12t12 -30q0 -19 -12 -31t-31 -12t-31 12z" />
    <glyph glyph-name="slash" unicode="/" horiz-adv-x="286" 
d="M30.5 3q-2.5 3 -0.5 8l157 680q2 9 11 9h10q5 0 7.5 -3t0.5 -8l-157 -680q-2 -9 -11 -9h-10q-5 0 -7.5 3z" />
    <glyph glyph-name="zero" unicode="0" horiz-adv-x="439" 
d="M107 36.5q-42 45.5 -42 120.5v386q0 75 42 120.5t112 45.5q69 0 112 -45.5t43 -120.5v-386q0 -75 -43 -120.5t-112 -45.5q-70 0 -112 45.5zM309.5 56q34.5 37 34.5 98v392q0 61 -34.5 98t-90.5 37t-90 -37t-34 -98v-392q0 -61 34 -98t90 -37t90.5 37z" />
    <glyph glyph-name="one" unicode="1" horiz-adv-x="239" 
d="M144 700h13q10 0 10 -10v-680q0 -10 -10 -10h-10q-10 0 -10 10v646q0 2 -1.5 3t-3.5 0l-103 -50q-2 -1 -5 -1q-6 0 -8 6l-3 7q-1 1 -1 4q0 7 6 10l113 62q5 3 13 3z" />
    <glyph glyph-name="two" unicode="2" horiz-adv-x="380" 
d="M86.5 29.5q0.5 -1.5 2.5 -1.5h247q10 0 10 -10v-8q0 -10 -10 -10h-278q-10 0 -10 10v11q0 7 3 13l72 127l98 176q70 124 70 205q0 62 -30 100t-79 38q-47 0 -76 -38t-28 -100v-34q0 -10 -10 -10h-11q-10 0 -10 10v35q1 74 38.5 119.5t97.5 45.5q62 0 100 -46t38 -120
q0 -93 -71 -220l-163 -289q-1 -2 -0.5 -3.5z" />
    <glyph glyph-name="three" unicode="3" horiz-adv-x="392" 
d="M327 206q0 -61 -12 -105q-30 -109 -130 -109q-52 0 -85 29.5t-46 85.5q-8 35 -10 86q0 10 10 10h10q10 0 10 -10q1 -43 9 -76q21 -97 102 -97q75 0 101 86q11 44 11 101q0 74 -17 123q-26 74 -95 74q-8 0 -18 -2h-4q-5 0 -9 4l-4 4q-6 6 -2 14l138 243q1 2 0 3.5t-3 1.5
h-227q-10 0 -10 10v8q0 10 10 10h259q10 0 10 -10v-11q0 -7 -3 -13l-132 -234q-1 -2 -0.5 -3.5t2.5 -1.5q40 0 69 -21.5t45 -62.5q21 -52 21 -137z" />
    <glyph glyph-name="four" unicode="4" horiz-adv-x="375" 
d="M348 218v-8q0 -10 -10 -10h-29q-4 0 -4 -4v-186q0 -10 -10 -10h-10q-10 0 -10 10v186q0 4 -4 4h-234q-10 0 -10 10v10q0 4 2 12l159 460q3 8 12 8h12q11 0 8 -11l-158 -456q-1 -2 0 -3.5t3 -1.5h206q4 0 4 4v180q0 10 10 10h10q10 0 10 -10v-180q0 -4 4 -4h29
q10 0 10 -10z" />
    <glyph glyph-name="five" unicode="5" horiz-adv-x="391" 
d="M347 211q0 -54 -9 -95q-26 -124 -133 -124q-55 0 -89.5 32.5t-45.5 96.5l-3 30v2q0 8 9 8h10q10 0 11 -10q0 -5 1 -13.5t2 -14.5q21 -103 105 -103q79 0 102 96q10 39 10 95q0 60 -13 107q-26 83 -99 83q-86 0 -107 -87q-3 -9 -11 -9h-11q-10 0 -10 10v375q0 10 10 10
h239q10 0 10 -10v-8q0 -10 -10 -10h-215q-4 0 -4 -4l-1 -295q0 -3 2 -3.5t3 2.5q16 28 44 42.5t65 14.5q94 0 124 -102q14 -48 14 -116z" />
    <glyph glyph-name="six" unicode="6" horiz-adv-x="392" 
d="M348 211q0 -48 -7 -83q-10 -67 -44.5 -101.5t-90.5 -34.5q-52 0 -85.5 32t-46.5 94q-8 43 -8 93v330q0 76 38.5 121.5t102.5 45.5q56 0 93 -46t37 -121v-5q0 -10 -10 -10h-10q-10 0 -10 10v7q0 61 -28.5 99t-71.5 38q-50 0 -80.5 -38t-30.5 -99v-179q0 -3 1.5 -3.5
t2.5 2.5q17 33 45 50t63 17q98 0 129 -113q11 -46 11 -106zM318 211q0 59 -12 101q-22 90 -100 90t-101 -95q-9 -35 -9 -96q0 -52 7 -87q23 -104 103 -104q87 0 106 112q6 35 6 79z" />
    <glyph glyph-name="seven" unicode="7" horiz-adv-x="342" 
d="M115.5 3q-2.5 3 -1.5 8l174 657q1 1 -0.5 2.5t-3.5 1.5h-224q-4 0 -4 -4v-42q0 -10 -10 -10h-7q-10 0 -10 10v64q0 10 10 10h272q10 0 10 -10v-12q0 -2 -2 -12l-173 -657q-2 -9 -11 -9h-12q-5 0 -7.5 3z" />
    <glyph glyph-name="eight" unicode="8" horiz-adv-x="412" 
d="M270 373q34 -18 53 -57q24 -49 24 -125q0 -53 -13 -97q-16 -49 -49 -75.5t-80 -26.5q-45 0 -78 26.5t-49 74.5q-13 46 -13 99q0 69 19 114q19 46 57 67q5 3 0 5q-32 16 -52 50q-24 42 -24 108q0 67 23 107q17 32 47 48.5t70 16.5q80 0 116 -62q26 -40 26 -111
q0 -65 -23 -104q-20 -35 -54 -53q-5 -2 0 -5zM205 390q33 0 56.5 15t37.5 42q19 36 19 89q0 58 -23 95q-30 50 -90 50q-62 0 -91 -54q-20 -37 -20 -93q0 -54 21 -93q29 -51 90 -51zM317 191q0 64 -19 107q-27 64 -93 64q-33 0 -57 -17.5t-37 -51.5q-17 -40 -17 -101
q0 -53 13 -89q12 -40 37.5 -61.5t60.5 -21.5q37 0 63 22.5t38 64.5q11 38 11 84z" />
    <glyph glyph-name="nine" unicode="9" horiz-adv-x="385" 
d="M319 489v-330q0 -76 -39 -121.5t-103 -45.5q-56 0 -92.5 46t-36.5 121v5q0 10 10 10h10q10 0 10 -10v-7q0 -60 28.5 -98.5t70.5 -38.5q50 0 81 38t31 99v179q0 3 -1.5 3.5t-2.5 -2.5q-17 -33 -45 -50t-63 -17q-49 0 -82 28.5t-47 84.5q-11 40 -11 106q0 46 6 83
q11 67 45 101.5t90 34.5q53 0 86.5 -32t45.5 -94q9 -40 9 -93zM279 393q10 39 10 96q0 47 -8 87q-21 104 -103 104q-85 0 -106 -112q-5 -38 -5 -79q0 -57 11 -101q23 -90 100 -90q78 0 101 95z" />
    <glyph glyph-name="colon" unicode=":" horiz-adv-x="173" 
d="M56 359q-12 12 -12 31q0 18 12 30t31 12t31 -12t12 -30q0 -19 -12 -31t-31 -12t-31 12zM56 18q-12 12 -12 31q0 18 12 30t31 12t31 -12t12 -30q0 -19 -12 -31t-31 -12t-31 12z" />
    <glyph glyph-name="semicolon" unicode=";" horiz-adv-x="170" 
d="M58.5 379q-10.5 13 -10.5 31t11 30.5t26 12.5t26.5 -12.5t11.5 -30.5t-11.5 -31t-26.5 -13q-16 0 -26.5 13zM51 -58.5q-3 3.5 -2 7.5l23 190q1 9 10 9h10q4 0 7 -3t2 -8l-27 -190q-1 -9 -10 -9h-5q-5 0 -8 3.5z" />
    <glyph glyph-name="less" unicode="&#x3c;" horiz-adv-x="444" 
d="M403.5 69q-3.5 -2 -8.5 0l-351 180q-7 3 -7 12v15q0 9 7 12l351 180q2 1 5 1q7 0 7 -8v-11q0 -9 -7 -12l-330 -167q-2 -1 -2 -3t2 -3l330 -166q7 -3 7 -12v-11q0 -5 -3.5 -7z" />
    <glyph glyph-name="equal" unicode="=" horiz-adv-x="444" 
d="M37 444v6q0 10 10 10h350q10 0 10 -10v-6q0 -10 -10 -10h-350q-10 0 -10 10zM37 226v6q0 10 10 10h350q10 0 10 -10v-6q0 -10 -10 -10h-350q-10 0 -10 10z" />
    <glyph glyph-name="greater" unicode="&#x3e;" horiz-adv-x="444" 
d="M44 68q-7 0 -7 8v11q0 9 7 12l330 166q2 1 2 3t-2 3l-330 167q-7 3 -7 12v11q0 5 3.5 7t8.5 0l351 -180q7 -3 7 -12v-15q0 -9 -7 -12l-351 -180q-2 -1 -5 -1z" />
    <glyph glyph-name="question" unicode="?" horiz-adv-x="330" 
d="M135 197v74q0 39 14.5 64.5t44.5 58.5q34 36 51.5 67.5t17.5 84.5q0 61 -27 98t-71 37q-45 0 -73 -37t-28 -97v-38q0 -10 -10 -10h-10q-10 0 -10 10v38q0 73 36 117.5t95 44.5q58 0 93 -45t35 -120q0 -44 -10.5 -76t-25.5 -53t-39 -47q-27 -29 -39 -49t-12 -49v-73
q0 -10 -10 -10h-12q-10 0 -10 10zM121 17q-12 12 -12 30q0 19 12 31t31 12q18 0 30 -12t12 -31q0 -18 -12 -30t-30 -12q-19 0 -31 12z" />
    <glyph glyph-name="at" unicode="@" horiz-adv-x="764" 
d="M571.5 559.5q63.5 -33.5 98 -95t34.5 -144.5q0 -16 -4 -54q-12 -91 -56 -142.5t-109 -51.5q-33 0 -57 14t-35 39q-2 5 -5 0q-13 -26 -37.5 -40.5t-51.5 -14.5q-40 0 -64.5 25t-24.5 65l1 13l20 158q5 45 34.5 73.5t72.5 28.5q22 0 39.5 -9.5t27.5 -27.5q1 -2 3 -1.5
t2 2.5l3 22q1 9 10 9h7q5 0 8 -3.5t2 -7.5l-29 -220q-1 -6 -1 -16q0 -38 21.5 -61t58.5 -23q51 0 86 43.5t45 123.5q4 36 4 52q0 77 -32 134t-89.5 87.5t-134.5 30.5q-81 0 -152 -40.5t-117.5 -113.5t-58.5 -167q-3 -25 -3 -50q0 -80 31.5 -139.5t88 -92t129.5 -32.5
q54 0 100 14t73 35q3 2 7 2t7 -4l3 -3q3 -3 3 -7t-4 -7q-31 -24 -82.5 -40t-110.5 -16q-80 0 -142 35t-96 100t-34 150q0 26 3 54q13 102 64 181t128.5 122.5t167.5 43.5q84 0 147.5 -33.5zM404.5 116.5q21.5 21.5 27.5 57.5l3 17v4l7 60l3 18l8 63q2 32 -15.5 52.5
t-46.5 20.5q-32 0 -55 -22.5t-28 -57.5q-4 -22 -10 -78l-10 -77q-4 -35 14 -57t50 -22q31 0 52.5 21.5z" />
    <glyph glyph-name="A" unicode="A" horiz-adv-x="367" 
d="M325 9l-30 139q0 2 -1.5 3t-3.5 1h-213q-2 0 -3.5 -1t-1.5 -3l-30 -139q-1 -9 -11 -9h-10q-5 0 -7.5 3t-1.5 8l153 680q2 9 11 9h14q9 0 11 -9l154 -680v-2q0 -9 -9 -9h-10q-9 0 -11 9zM80.5 180.5q1.5 -1.5 3.5 -1.5h199q2 0 3.5 1.5t0.5 2.5l-102 461q-1 3 -2 3t-2 -3
l-101 -461q-1 -1 0.5 -2.5z" />
    <glyph glyph-name="B" unicode="B" horiz-adv-x="436" 
d="M303 359q44 -20 68.5 -64t24.5 -108q0 -88 -44.5 -137.5t-122.5 -49.5h-131q-10 0 -10 10v680q0 10 10 10h129q78 0 122.5 -47t44.5 -131q0 -58 -23.5 -98.5t-67.5 -59.5q-5 -2 0 -5zM118 668v-288q0 -4 4 -4h105q64 0 100.5 38.5t36.5 106.5q0 71 -36 111t-101 40h-105
q-4 0 -4 -4zM329 71q37 42 37 117q0 76 -36.5 118.5t-101.5 42.5h-106q-4 0 -4 -4v-312q0 -4 4 -4h105q65 0 102 42z" />
    <glyph glyph-name="C" unicode="C" horiz-adv-x="435" 
d="M110 35.5q-42 43.5 -42 115.5v399q0 72 42 115t110 43q70 0 112 -43t42 -115v-20q0 -10 -10 -10l-11 -1q-10 0 -10 10v23q0 58 -34 93t-89 35t-88.5 -35t-33.5 -93v-403q0 -58 33.5 -93.5t88.5 -35.5t89 35.5t34 93.5v22q0 9 10 9l11 -1q10 0 10 -10v-18
q0 -72 -42 -115.5t-112 -43.5q-68 0 -110 43.5z" />
    <glyph glyph-name="D" unicode="D" horiz-adv-x="459" 
d="M88 10v680q0 10 10 10h137q69 0 109.5 -48.5t40.5 -132.5v-338q0 -84 -40.5 -132.5t-109.5 -48.5h-137q-10 0 -10 10zM122 28h114q54 0 86 41t32 112v337q0 72 -31.5 113t-86.5 41h-114q-4 0 -4 -4v-636q0 -4 4 -4z" />
    <glyph glyph-name="E" unicode="E" horiz-adv-x="424" 
d="M366 672h-244q-4 0 -4 -4v-300q0 -4 4 -4h160q10 0 10 -10v-7q0 -10 -10 -10h-160q-4 0 -4 -4v-301q0 -4 4 -4h244q10 0 10 -10v-8q0 -10 -10 -10h-268q-10 0 -10 10v680q0 10 10 10h268q10 0 10 -10v-8q0 -10 -10 -10z" />
    <glyph glyph-name="F" unicode="F" horiz-adv-x="394" 
d="M364 672h-242q-4 0 -4 -4v-300q0 -4 4 -4h159q10 0 10 -10v-7q0 -10 -10 -10h-159q-4 0 -4 -4v-323q0 -10 -10 -10h-10q-10 0 -10 10v680q0 10 10 10h266q10 0 10 -10v-8q0 -10 -10 -10z" />
    <glyph glyph-name="G" unicode="G" horiz-adv-x="441" 
d="M110 34q-42 42 -42 112v408q0 70 42 112t110 42q69 0 111 -42.5t42 -112.5v-45q0 -10 -10 -10h-10q-10 0 -10 10v47q0 56 -34 90.5t-89 34.5t-88.5 -34.5t-33.5 -90.5v-410q0 -56 33.5 -90.5t88.5 -34.5t89 34.5t34 90.5v159q0 4 -4 4h-103q-10 0 -10 10v7q0 10 10 10
h127q10 0 10 -10v-179q0 -70 -42 -112t-111 -42q-68 0 -110 42z" />
    <glyph glyph-name="H" unicode="H" horiz-adv-x="467" 
d="M359 700h10q10 0 10 -10v-680q0 -10 -10 -10h-10q-10 0 -10 10v323q0 4 -4 4h-223q-4 0 -4 -4v-323q0 -10 -10 -10h-10q-10 0 -10 10v680q0 10 10 10h10q10 0 10 -10v-322q0 -4 4 -4h223q4 0 4 4v322q0 10 10 10z" />
    <glyph glyph-name="I" unicode="I" horiz-adv-x="206" 
d="M88 10v680q0 10 10 10h10q10 0 10 -10v-680q0 -10 -10 -10h-10q-10 0 -10 10z" />
    <glyph glyph-name="J" unicode="J" horiz-adv-x="410" 
d="M67.5 35.5q-40.5 43.5 -40.5 114.5v92q0 10 10 10h10q10 0 10 -10v-93q0 -58 32.5 -93.5t85.5 -35.5q52 0 84.5 35.5t32.5 93.5v541q0 10 10 10h10q10 0 10 -10v-540q0 -71 -40.5 -114.5t-106.5 -43.5q-67 0 -107.5 43.5z" />
    <glyph glyph-name="K" unicode="K" horiz-adv-x="429" 
d="M88 10v680q0 10 10 10h10q10 0 10 -10v-365q0 -3 2 -3.5t3 2.5l230 369q5 7 12 7h14q6 0 8 -3.5t-1 -8.5l-160 -260q-3 -3 -1 -6l179 -410l1 -4q0 -8 -9 -8h-14q-8 0 -11 8l-167 384q-1 4 -5 0l-80 -120q-1 -1 -1 -5v-257q0 -10 -10 -10h-10q-10 0 -10 10z" />
    <glyph glyph-name="L" unicode="L" horiz-adv-x="378" 
d="M88 10v680q0 10 10 10h10q10 0 10 -10v-658q0 -4 4 -4h239q10 0 10 -10v-8q0 -10 -10 -10h-263q-10 0 -10 10z" />
    <glyph glyph-name="M" unicode="M" horiz-adv-x="505" 
d="M396 700h11q10 0 10 -10v-680q0 -10 -10 -10h-10q-10 0 -10 10v606q0 3 -2 3t-3 -2l-117 -280q-3 -8 -11 -8h-1q-8 0 -11 8l-119 279q-1 2 -3 2t-2 -3v-605q0 -10 -10 -10h-10q-10 0 -10 10v680q0 10 10 10h11q8 0 11 -8l130 -306q1 -2 3 -2t3 2l129 306q3 8 11 8z" />
    <glyph glyph-name="N" unicode="N" horiz-adv-x="481" 
d="M374 700h10q10 0 10 -10v-680q0 -10 -10 -10h-14q-8 0 -11 8l-236 610q-1 3 -3 2.5t-2 -3.5v-607q0 -10 -10 -10h-10q-10 0 -10 10v680q0 10 10 10h13q8 0 11 -8l237 -612q1 -3 3 -2.5t2 3.5v609q0 10 10 10z" />
    <glyph glyph-name="O" unicode="O" horiz-adv-x="446" 
d="M111 36.5q-43 44.5 -43 116.5v393q0 72 43 117t111 45q69 0 112.5 -45t43.5 -117v-393q0 -72 -43.5 -116.5t-112.5 -44.5q-68 0 -111 44.5zM313 56.5q35 36.5 35 94.5v397q0 58 -35 95t-91 37q-55 0 -89.5 -37t-34.5 -95v-397q0 -58 34.5 -94.5t89.5 -36.5q56 0 91 36.5z
" />
    <glyph glyph-name="P" unicode="P" horiz-adv-x="429" 
d="M347.5 651.5q40.5 -50.5 40.5 -133.5q0 -82 -40.5 -132t-106.5 -50h-119q-4 0 -4 -4v-322q0 -10 -10 -10h-10q-10 0 -10 10v682q0 10 10 10h142q67 0 107.5 -50.5zM325 405.5q33 42.5 33 112.5t-33 113t-86 43h-117q-4 0 -4 -4v-303q0 -4 4 -4h117q53 0 86 42.5z" />
    <glyph glyph-name="Q" unicode="Q" horiz-adv-x="433" 
d="M324 663q41 -45 41 -117v-392q0 -67 -35 -110.5t-94 -50.5q-4 0 -4 -4v-104q0 -10 -10 -10h-11q-10 0 -10 10v104q0 4 -4 4q-58 7 -93.5 51t-35.5 110v392q0 72 41.5 117t107.5 45t107 -45zM335 548q0 59 -33 95.5t-85 36.5q-53 0 -86 -37t-33 -95v-396q0 -58 33 -95
t86 -37q52 0 85 36.5t33 95.5v396z" />
    <glyph glyph-name="R" unicode="R" horiz-adv-x="427" 
d="M360 8l-119 327q-1 3 -4 3h-115q-4 0 -4 -4v-324q0 -10 -10 -10h-10q-10 0 -10 10v680q0 10 10 10h142q67 0 107.5 -50t40.5 -132q0 -70 -31 -117.5t-84 -59.5q-4 -2 -3 -5l119 -325l1 -4q0 -7 -9 -7h-9q-9 0 -12 8zM118 668v-299q0 -4 4 -4h117q54 0 86.5 42t32.5 111
t-32.5 111.5t-86.5 42.5h-117q-4 0 -4 -4z" />
    <glyph glyph-name="S" unicode="S" horiz-adv-x="400" 
d="M90.5 39.5q-41.5 47.5 -41.5 125.5v19q0 10 10 10h9q10 0 10 -10v-18q0 -66 33.5 -106.5t86.5 -40.5t87.5 39t34.5 102q0 42 -16 71.5t-39.5 50.5t-76.5 61q-51 39 -78.5 64.5t-44.5 60t-17 81.5q0 74 40.5 116.5t104.5 42.5q68 0 109.5 -48t41.5 -126v-25q0 -10 -10 -10
h-10q-10 0 -10 10v24q0 67 -33.5 107.5t-87.5 40.5q-51 0 -83 -35t-32 -99q0 -37 13 -64.5t38.5 -51t74.5 -60.5q59 -44 87.5 -70.5t43.5 -57.5t15 -76q0 -79 -42 -127t-109 -48t-108.5 47.5z" />
    <glyph glyph-name="T" unicode="T" horiz-adv-x="396" 
d="M357 690v-8q0 -10 -10 -10h-134q-4 0 -4 -4v-658q0 -10 -10 -10h-10q-10 0 -10 10v658q0 4 -4 4h-126q-10 0 -10 10v8q0 10 10 10h298q10 0 10 -10z" />
    <glyph glyph-name="U" unicode="U" horiz-adv-x="474" 
d="M123.5 43q-42.5 51 -42.5 134v513q0 10 10 10h10q10 0 10 -10v-517q0 -69 34.5 -111t90.5 -42q57 0 92 42t35 111v517q0 10 10 10h10q10 0 10 -10v-513q0 -83 -43 -134t-114 -51q-70 0 -112.5 51z" />
    <glyph glyph-name="V" unicode="V" horiz-adv-x="411" 
d="M188 9l-145 680v2q0 9 9 9h11q10 0 11 -9l130 -625q1 -3 2 -3t2 3l130 625q2 9 11 9h10q11 0 9 -11l-145 -680q-1 -9 -11 -9h-13q-9 0 -11 9z" />
    <glyph glyph-name="W" unicode="W" horiz-adv-x="585" 
d="M163 9l-129 680v2q0 9 9 9h11q10 0 11 -9l114 -619q1 -2 2 -2t2 2l96 619q2 9 10 9h12q9 0 10 -9l99 -619q1 -2 2 -2t2 2l105 619q2 9 11 9h12q5 0 7.5 -3t1.5 -8l-123 -680q-1 -9 -11 -9h-12q-8 0 -10 9l-97 616q-1 2 -2 2t-2 -2l-98 -616q-1 -9 -10 -9h-12q-9 0 -11 9z
" />
    <glyph glyph-name="X" unicode="X" horiz-adv-x="410" 
d="M46.5 3.5q-2.5 3.5 -0.5 8.5l142 335q2 3 0 6l-142 335l-1 4q0 8 9 8h12q8 0 11 -8l125 -308q1 -2 3 -2t3 2l125 308q3 8 11 8h12q5 0 7.5 -3.5t0.5 -8.5l-143 -336q-1 -3 0 -6l143 -334l1 -4q0 -8 -9 -8h-12q-8 0 -11 8l-125 307q-1 2 -3 2t-3 -2l-125 -307
q-3 -8 -11 -8h-12q-5 0 -7.5 3.5z" />
    <glyph glyph-name="Y" unicode="Y" horiz-adv-x="395" 
d="M183 10v322q0 4 -1 5l-137 351l-1 4q0 8 9 8h11q8 0 11 -8l120 -322q1 -3 3 -3t3 3l119 322q3 8 11 8h11q5 0 7.5 -3.5t0.5 -8.5l-136 -351q-1 -1 -1 -5v-322q0 -10 -10 -10h-10q-10 0 -10 10z" />
    <glyph glyph-name="Z" unicode="Z" horiz-adv-x="385" 
d="M41 10v12q0 7 2 12l260 633q1 2 0 3.5t-3 1.5h-249q-10 0 -10 10v8q0 10 10 10h277q10 0 10 -10v-12q0 -7 -2 -12l-260 -633q-1 -2 0 -3.5t3 -1.5h249q10 0 10 -10v-8q0 -10 -10 -10h-277q-10 0 -10 10z" />
    <glyph glyph-name="bracketleft" unicode="[" horiz-adv-x="278" 
d="M24 -96v845q0 10 10 10h125q10 0 10 -10v-8q0 -10 -10 -10h-101q-4 0 -4 -4v-801q0 -4 4 -4h102q10 0 10 -10v-8q0 -10 -10 -10h-126q-10 0 -10 10z" />
    <glyph glyph-name="backslash" unicode="\" horiz-adv-x="286" 
d="M256 8q0 -8 -8 -8h-10q-9 0 -11 9l-156 680v3q0 8 8 8h10q9 0 11 -9l156 -680v-3z" />
    <glyph glyph-name="bracketright" unicode="]" horiz-adv-x="278" 
d="M244 -106h-126q-10 0 -10 10v8q0 10 10 10h102q4 0 4 4v801q0 4 -4 4h-101q-10 0 -10 10v8q0 10 10 10h125q10 0 10 -10v-845q0 -10 -10 -10z" />
    <glyph glyph-name="asciicircum" unicode="^" horiz-adv-x="381" 
d="M41 324l131 368q3 8 12 8h13q9 0 12 -8l131 -368l1 -4q0 -7 -9 -7h-8q-9 0 -12 8l-119 342q-1 2 -3 2t-3 -2l-118 -342q-3 -8 -12 -8h-8q-11 0 -8 11z" />
    <glyph glyph-name="underscore" unicode="_" horiz-adv-x="350" 
d="M27 10v8q0 10 10 10h276q10 0 10 -10v-8q0 -10 -10 -10h-276q-10 0 -10 10z" />
    <glyph glyph-name="grave" unicode="`" horiz-adv-x="157" 
d="M126 575q0 -6 -8 -6h-6q-7 0 -12 7l-66 112q-2 4 -2 6q0 6 9 6h9q8 0 12 -7l62 -112q2 -4 2 -6z" />
    <glyph glyph-name="a" unicode="a" horiz-adv-x="392" 
d="M296 464q35 -45 35 -121v-333q0 -10 -10 -10h-10q-10 0 -10 10v45q0 3 -2 3.5t-3 -2.5q-19 -32 -51 -48t-71 -16q-52 0 -88 30.5t-36 105.5q0 80 43 119t115 39h89q4 0 4 4v55q0 62 -27 99t-78 37q-40 0 -70 -24.5t-34 -63.5q0 -9 -10 -9l-11 1q-5 0 -7.5 3t-1.5 8
q6 51 44.5 82t90.5 31q64 0 99 -45zM264.5 52q36.5 32 36.5 92v111q0 4 -4 4h-88q-59 0 -94 -33t-35 -97q0 -55 27 -82t71 -27q50 0 86.5 32z" />
    <glyph glyph-name="b" unicode="b" horiz-adv-x="410" 
d="M311.5 468.5q37.5 -40.5 37.5 -104.5v-227q0 -64 -37.5 -104.5t-97.5 -40.5q-34 0 -61 15t-44 42q-2 2 -3.5 2t-1.5 -3v-38q0 -10 -10 -10h-10q-10 0 -10 10v680q0 10 10 10h10q10 0 10 -10v-238q0 -3 1.5 -3.5t2.5 2.5q18 28 45 43t61 15q60 0 97.5 -40.5zM288.5 448.5
q-30.5 32.5 -79.5 32.5q-46 0 -75.5 -32.5t-29.5 -84.5v-227q0 -52 29.5 -84.5t75.5 -32.5q49 0 79.5 32.5t30.5 84.5v227q0 52 -30.5 84.5z" />
    <glyph glyph-name="c" unicode="c" horiz-adv-x="384" 
d="M99.5 32.5q-38.5 40.5 -38.5 104.5v227q0 63 38.5 104t99.5 41q40 0 71.5 -17.5t49 -46.5t17.5 -62v-3q0 -10 -10 -10h-10q-10 0 -10 10v3q0 39 -30.5 68.5t-77.5 29.5q-48 0 -78 -32.5t-30 -84.5v-227q0 -52 30 -84.5t78 -32.5q47 0 77.5 29.5t30.5 68.5v3q0 10 10 10
h10q10 0 10 -10v-3q0 -33 -17.5 -62t-49 -46.5t-71.5 -17.5q-61 0 -99.5 40.5z" />
    <glyph glyph-name="d" unicode="d" horiz-adv-x="410" 
d="M315 700h10q10 0 10 -10v-680q0 -10 -10 -10h-10q-10 0 -10 10v37q0 3 -1.5 3t-3.5 -2q-17 -27 -43.5 -41.5t-60.5 -14.5q-60 0 -97.5 40.5t-37.5 104.5v227q0 64 37.5 104.5t97.5 40.5q33 0 60 -14.5t44 -41.5q2 -2 3.5 -2t1.5 3v236q0 10 10 10zM275.5 52.5
q29.5 32.5 29.5 84.5v227q0 52 -29.5 84.5t-75.5 32.5q-48 0 -78.5 -32.5t-30.5 -84.5v-227q0 -52 30.5 -84.5t78.5 -32.5q46 0 75.5 32.5z" />
    <glyph glyph-name="e" unicode="e" horiz-adv-x="391" 
d="M327 244h-232q-4 0 -4 -4v-103q0 -52 30 -84.5t78 -32.5q39 0 67 23t37 61q3 9 11 9h10q5 0 7.5 -3.5t1.5 -8.5q-9 -49 -45.5 -79t-88.5 -30q-61 0 -99.5 40.5t-38.5 104.5v227q0 63 38.5 104t99.5 41t99.5 -41t38.5 -104v-110q0 -10 -10 -10zM121 448.5
q-30 -32.5 -30 -84.5v-90q0 -4 4 -4h208q4 0 4 4v90q0 52 -30 84.5t-78 32.5t-78 -32.5z" />
    <glyph glyph-name="f" unicode="f" horiz-adv-x="264" 
d="M139 649.5q-17 -32.5 -17 -101.5v-43q0 -4 4 -4h88q10 0 10 -10v-6q0 -10 -10 -10h-88q-4 0 -4 -4v-461q0 -10 -10 -10h-10q-10 0 -10 10v461q0 4 -4 4h-45q-10 0 -10 10v6q0 10 10 10h45q4 0 4 4v44q0 81 24.5 120.5t85.5 39.5h15q10 0 10 -10v-7q0 -10 -10 -10h-14
q-47 0 -64 -32.5z" />
    <glyph glyph-name="g" unicode="g" horiz-adv-x="397" 
d="M315 501h11q10 0 10 -10v-489q0 -202 -174 -202q-12 0 -12 10v7q0 10 10 10q76 0 110.5 45t34.5 131v47q0 3 -1.5 3.5t-3.5 -1.5q-17 -28 -44 -43.5t-61 -15.5q-60 0 -97 40t-37 104v227q0 64 37 104.5t97 40.5q35 0 62 -15.5t43 -43.5q2 -2 3.5 -1.5t1.5 3.5v39
q0 10 10 10zM275.5 53.5q29.5 32.5 29.5 84.5v226q0 52 -29.5 84.5t-75.5 32.5q-48 0 -78.5 -32.5t-30.5 -84.5v-226q0 -52 30.5 -84.5t78.5 -32.5q46 0 75.5 32.5z" />
    <glyph glyph-name="h" unicode="h" horiz-adv-x="411" 
d="M310 468q33 -40 33 -111v-347q0 -10 -10 -10h-10q-10 0 -10 10v343q0 60 -26.5 93.5t-75.5 33.5t-78 -36t-29 -99v-335q0 -10 -10 -10h-10q-10 0 -10 10v680q0 10 10 10h10q10 0 10 -10v-247q0 -3 2 -3t3 3q16 31 44.5 48t64.5 17q59 0 92 -40z" />
    <glyph glyph-name="i" unicode="i" horiz-adv-x="201" 
d="M70 625q-12 12 -12 31q0 18 12 30t31 12q18 0 30 -12t12 -30q0 -19 -12 -31t-30 -12q-19 0 -31 12zM86 10v481q0 10 10 10h10q10 0 10 -10v-481q0 -10 -10 -10h-10q-10 0 -10 10z" />
    <glyph glyph-name="j" unicode="j" horiz-adv-x="190" 
d="M59 625q-12 12 -12 31q0 18 12 30t30 12q19 0 31 -12t12 -30q0 -19 -12 -31t-31 -12q-18 0 -30 12zM-14 -201v8q0 10 10 10q38 4 58 33.5t20 80.5v560q0 10 10 10h10q10 0 10 -10v-560q0 -65 -27 -101.5t-81 -40.5q-10 0 -10 10z" />
    <glyph glyph-name="k" unicode="k" horiz-adv-x="379" 
d="M74 10v680q0 10 10 10h10q10 0 10 -10v-442q0 -2 2 -2.5t3 1.5l184 248q4 6 13 6h12q6 0 8 -4t-2 -8l-94 -126q-2 -3 -1 -5l115 -347l1 -4q0 -7 -9 -7h-11q-9 0 -12 8l-103 322q-1 6 -6 1l-98 -132q-2 -2 -2 -5v-184q0 -10 -10 -10h-10q-10 0 -10 10z" />
    <glyph glyph-name="l" unicode="l" horiz-adv-x="165" 
d="M68 10v680q0 10 10 10h10q10 0 10 -10v-680q0 -10 -10 -10h-10q-10 0 -10 10z" />
    <glyph glyph-name="m" unicode="m" horiz-adv-x="632" 
d="M531 464.5q33 -43.5 33 -117.5v-337q0 -10 -10 -10h-9q-10 0 -10 10v334q0 62 -27.5 99t-71.5 37q-46 0 -74 -36.5t-28 -98.5v-335q0 -10 -10 -10h-10q-10 0 -10 10v334q0 62 -27 99t-70 37q-47 0 -75 -36t-28 -99v-335q0 -10 -10 -10h-10q-10 0 -10 10v481q0 10 10 10
h10q10 0 10 -10v-45q0 -3 2 -3.5t3 2.5q16 30 44 46.5t61 16.5q39 0 67 -22t42 -63q2 -6 5 1q15 42 45.5 63t70.5 21q54 0 87 -43.5z" />
    <glyph glyph-name="n" unicode="n" horiz-adv-x="411" 
d="M310 468q33 -40 33 -111v-347q0 -10 -10 -10h-10q-10 0 -10 10v343q0 60 -26.5 93.5t-75.5 33.5t-78 -36t-29 -99v-335q0 -10 -10 -10h-10q-10 0 -10 10v481q0 10 10 10h10q10 0 10 -10v-48q0 -3 2 -3t3 3q16 31 44.5 48t64.5 17q59 0 92 -40z" />
    <glyph glyph-name="o" unicode="o" horiz-adv-x="398" 
d="M99.5 32.5q-38.5 40.5 -38.5 104.5v227q0 63 38.5 104t99.5 41t99.5 -41t38.5 -104v-227q0 -64 -38.5 -104.5t-99.5 -40.5t-99.5 40.5zM277 52.5q30 32.5 30 84.5v227q0 52 -30 84.5t-78 32.5t-78 -32.5t-30 -84.5v-227q0 -52 30 -84.5t78 -32.5t78 32.5z" />
    <glyph glyph-name="p" unicode="p" horiz-adv-x="416" 
d="M318 468.5q37 -40.5 37 -104.5v-227q0 -64 -37 -104.5t-97 -40.5q-34 0 -61 15t-44 42q-2 2 -3.5 2t-1.5 -3v-237q0 -10 -10 -10h-10q-10 0 -10 10v680q0 10 10 10h10q10 0 10 -10v-38q0 -3 1.5 -3.5t2.5 2.5q17 27 44.5 42t61.5 15q60 0 97 -40.5zM295 448.5
q-31 32.5 -79 32.5q-46 0 -75.5 -32.5t-29.5 -84.5v-227q0 -52 29.5 -84.5t75.5 -32.5q48 0 79 32.5t31 84.5v227q0 52 -31 84.5z" />
    <glyph glyph-name="q" unicode="q" horiz-adv-x="416" 
d="M315 501h10q10 0 10 -10v-680q0 -10 -10 -10h-10q-10 0 -10 10v236q0 3 -1.5 3t-3.5 -2q-17 -27 -43.5 -41.5t-60.5 -14.5q-60 0 -97.5 40.5t-37.5 104.5v227q0 64 37.5 104.5t97.5 40.5q34 0 60.5 -14.5t43.5 -41.5q2 -2 3.5 -2t1.5 3v37q0 10 10 10zM275.5 52.5
q29.5 32.5 29.5 84.5v227q0 52 -29.5 84.5t-75.5 32.5q-48 0 -78.5 -32.5t-30.5 -84.5v-227q0 -52 30.5 -84.5t78.5 -32.5q46 0 75.5 32.5z" />
    <glyph glyph-name="r" unicode="r" horiz-adv-x="274" 
d="M253 495q7 -4 4 -13l-4 -12q-3 -10 -13 -5q-16 7 -35 7q-44 -1 -72.5 -43.5t-28.5 -106.5v-312q0 -10 -10 -10h-10q-10 0 -10 10v481q0 10 10 10h10q10 0 10 -10v-65q0 -3 2 -3t3 4q15 37 40.5 57.5t60.5 20.5q25 0 43 -10z" />
    <glyph glyph-name="s" unicode="s" horiz-adv-x="352" 
d="M89 30.5q-37 34.5 -37 86.5v5q0 10 10 10h9q10 0 10 -10v-4q0 -41 28.5 -68.5t76.5 -27.5q45 0 72.5 28t27.5 74q0 33 -15 54t-36.5 33.5t-59.5 28.5q-40 17 -64 31t-40.5 40t-16.5 66q0 58 35.5 93t94.5 35q58 0 93.5 -35.5t35.5 -91.5v-3q0 -10 -10 -10h-8
q-10 0 -10 10v3q0 43 -28.5 71.5t-73.5 28.5t-72 -28t-27 -73q0 -30 13.5 -50.5t34 -32.5t55.5 -27q43 -18 68 -32.5t43 -41.5t18 -69q0 -58 -36 -93t-95 -35t-96 34.5z" />
    <glyph glyph-name="t" unicode="t" horiz-adv-x="253" 
d="M209 475h-85q-4 0 -4 -4v-345q0 -55 18.5 -76.5t58.5 -21.5h11q10 0 10 -10v-8q0 -10 -10 -10h-15q-51 0 -77.5 26.5t-26.5 97.5v347q0 4 -4 4h-41q-10 0 -10 10v6q0 10 10 10h41q4 0 4 4v112q0 10 10 10h11q10 0 10 -10v-112q0 -4 4 -4h85q10 0 10 -10v-6q0 -10 -10 -10
z" />
    <glyph glyph-name="u" unicode="u" horiz-adv-x="411" 
d="M316 501h10q10 0 10 -10v-481q0 -10 -10 -10h-10q-10 0 -10 10v40q0 3 -2 3.5t-3 -2.5q-31 -58 -105 -58q-60 0 -94 36.5t-34 108.5v353q0 10 10 10h10q10 0 10 -10v-346q0 -62 26.5 -93t75.5 -31t77.5 36t28.5 99v335q0 10 10 10z" />
    <glyph glyph-name="v" unicode="v" horiz-adv-x="345" 
d="M156 9l-126 481l-1 3q0 8 10 8h13q10 0 11 -9l108 -437q1 -3 2 -3t2 3l108 437q2 9 11 9h13q11 0 8 -11l-123 -481q-1 -9 -11 -9h-14q-9 0 -11 9z" />
    <glyph glyph-name="w" unicode="w" horiz-adv-x="520" 
d="M133 9l-104 481v2q0 9 9 9h10q10 0 11 -9l89 -441q1 -3 2 -3t2 3l90 441q2 9 11 9h11q10 0 11 -9l91 -441q1 -3 2 -3t2 3l91 441q2 9 11 9h10q5 0 7.5 -3t1.5 -8l-106 -481q-1 -9 -11 -9h-12q-9 0 -11 9l-91 429q-1 3 -2 3t-2 -3l-88 -429q-1 -9 -11 -9h-13q-9 0 -11 9z
" />
    <glyph glyph-name="x" unicode="x" horiz-adv-x="338" 
d="M25.5 3.5q-2.5 3.5 0.5 8.5l127 235q2 3 0 6l-127 236l-2 5q0 3 2.5 5t6.5 2h13q9 0 12 -7l109 -214q1 -2 3 -2t3 2l108 214q3 7 12 7h12q5 0 7 -3.5t0 -8.5l-125 -236q-1 -3 0 -6l125 -235q1 -2 1 -5q0 -7 -8 -7h-12q-9 0 -12 7l-108 214q-1 2 -3 2t-3 -2l-109 -214
q-3 -7 -12 -7h-12q-6 0 -8.5 3.5z" />
    <glyph glyph-name="y" unicode="y" horiz-adv-x="335" 
d="M43 -197q-2 3 -2 7v7q0 10 10 10h1q29 1 44.5 14t26.5 46.5t29 109.5q1 2 0.5 3.5t-0.5 2.5l-129 487l-1 3q0 8 10 8h11q10 0 11 -9l112 -445q1 -3 2 -3t2 3l111 445q2 9 11 9h11q5 0 7.5 -3t1.5 -8l-143 -549q-17 -62 -31.5 -91.5t-33.5 -39.5t-52 -10h-5q-2 0 -4 3z
" />
    <glyph glyph-name="z" unicode="z" horiz-adv-x="353" 
d="M42 10v11q0 6 3 13l232 434q2 5 -2 5h-220q-10 0 -10 10v8q0 10 10 10h250q10 0 10 -10v-11q0 -5 -3 -13l-233 -434q-2 -5 2 -5h222q10 0 10 -10v-8q0 -10 -10 -10h-251q-10 0 -10 10z" />
    <glyph glyph-name="braceleft" unicode="{" horiz-adv-x="231" 
d="M99 -81q-20 25 -20 83v223q0 42 -11 63.5t-35 27.5q-9 2 -9 10v9q0 9 9 10q24 6 35 27t11 63v216q0 58 20 83t66 25h32q10 0 10 -10v-8q0 -10 -10 -10h-29q-32 0 -45.5 -19t-13.5 -62v-212q0 -44 -10 -69t-33 -36q-5 -2 0 -5q22 -12 32.5 -37.5t10.5 -68.5v-219
q0 -43 13.5 -62t45.5 -19h29q10 0 10 -10v-8q0 -10 -10 -10h-32q-46 0 -66 25z" />
    <glyph glyph-name="bar" unicode="|" horiz-adv-x="119" 
d="M44 -70v820q0 10 10 10h10q10 0 10 -10v-820q0 -10 -10 -10h-10q-10 0 -10 10z" />
    <glyph glyph-name="braceright" unicode="}" horiz-adv-x="231" 
d="M34 -106q-10 0 -10 10v8q0 10 10 10h30q31 0 44.5 19t13.5 62v219q0 43 10 68.5t33 37.5q5 3 0 5q-23 11 -33 36t-10 69v212q0 43 -13.5 62t-44.5 19h-30q-10 0 -10 10v8q0 10 10 10h32q46 0 66 -25t20 -83v-216q0 -42 11 -63t35 -27q9 -1 9 -10v-9q0 -8 -9 -10
q-24 -6 -35 -27.5t-11 -63.5v-223q0 -58 -20 -83t-66 -25h-32z" />
    <glyph glyph-name="asciitilde" unicode="~" horiz-adv-x="444" 
d="M263.5 259q-21.5 9 -53.5 28q-19 11 -35.5 17t-35.5 6q-27 0 -45 -10.5t-31 -31.5q-2 -4 -6 -5t-8 1l-4 2q-8 5 -4 14q15 28 39.5 43.5t57.5 15.5q24 0 42.5 -7t40.5 -20q29 -18 48 -26t47 -8q21 0 35 10t30 31q2 3 5.5 4t6.5 -1l4 -2l2 -1q8 -6 3 -14
q-18 -26 -38.5 -40.5t-48.5 -14.5q-30 0 -51.5 9z" />
    <glyph glyph-name="uni00A0" unicode="&#xa0;" horiz-adv-x="200" 
 />
    <glyph glyph-name="exclamdown" unicode="&#xa1;" horiz-adv-x="235" 
d="M148 696q12 -12 12 -31q0 -18 -12 -30t-30 -12q-19 0 -31 12t-12 30q0 19 12 31t31 12q18 0 30 -12zM115 491h7q10 0 10 -10l2 -458q0 -10 -10 -10h-10q-10 0 -10 10l1 458q0 10 10 10z" />
    <glyph glyph-name="cent" unicode="&#xa2;" horiz-adv-x="384" 
d="M327 460h-10q-10 0 -10 10v3q0 39 -30.5 68.5t-77.5 29.5q-48 0 -78 -32.5t-30 -84.5v-227q0 -52 30 -84.5t78 -32.5q47 0 77.5 29.5t30.5 68.5v3q0 10 10 10h10q10 0 10 -10v-3q0 -47 -33.5 -83t-87.5 -42q-4 0 -4 -4l1 -69q0 -10 -10 -10h-9q-10 0 -10 10l1 69
q0 4 -4 4q-54 6 -87 45.5t-33 98.5v227q0 59 33 98.5t87 45.5q4 0 4 4l-1 69q0 10 10 10h9q10 0 10 -10l-1 -69q0 -4 4 -4q53 -6 87 -42.5t34 -82.5v-6q0 -7 -10 -7z" />
    <glyph glyph-name="sterling" unicode="&#xa3;" horiz-adv-x="495" 
d="M154 27h290q10 0 10 -10v-7q0 -10 -10 -10h-322q-10 0 -10 10v9q0 8 6 12q19 15 31.5 52t12.5 83v151q0 4 -4 4h-60q-10 0 -10 10v6q0 10 10 10h60q4 0 4 4v173q0 86 40.5 135t109.5 49q99 0 131 -118v-2q0 -8 -8 -10l-8 -2h-3q-8 0 -9 8q-24 97 -104 97q-57 0 -89 -41
t-32 -115v-174q0 -4 4 -4h150q10 0 10 -10v-6q0 -10 -10 -10h-150q-4 0 -4 -4v-148q0 -44 -10 -80t-28 -57q-3 -5 2 -5z" />
    <glyph glyph-name="currency" unicode="&#xa4;" horiz-adv-x="478" 
d="M380 183q-3 -3 0 -6l64 -64q3 -3 3 -6q0 -4 -4 -8l-6 -5q-3 -3 -7 -3q-3 0 -7 4l-63 62q-3 3 -6 1q-53 -42 -119 -42q-65 0 -113 39q-2 1 -6 -1l-61 -59q-7 -7 -14 -1l-6 5q-7 8 -1 14l61 60q3 3 0 6q-46 54 -46 121t43 118q3 3 0 6l-65 64q-3 3 -3 6q0 4 4 8l6 5
q7 7 14 0l64 -63q4 -2 6 -1q51 43 117 43q70 0 123 -45q3 -3 6 0l66 66q7 7 14 0l6 -5q8 -7 1 -14l-68 -67q-3 -2 -1 -6q40 -50 40 -115t-42 -117zM98.5 222q21.5 -36 58 -57.5t78.5 -21.5q43 0 79.5 21t57.5 57t21 79t-21.5 79t-57.5 57.5t-79 21.5q-42 0 -78.5 -21
t-58 -57.5t-21.5 -79.5q0 -42 21.5 -78z" />
    <glyph glyph-name="yen" unicode="&#xa5;" horiz-adv-x="519" 
d="M420 320h-145q-4 0 -4 -4v-83q0 -4 4 -4h145q10 0 10 -10v-4q0 -10 -10 -10h-145q-4 0 -4 -4v-191q0 -10 -10 -10h-10q-10 0 -10 10v191q0 4 -4 4h-138q-10 0 -10 10v4q0 10 10 10h138q4 0 4 4v83q0 4 -4 4h-138q-10 0 -10 10v3q0 10 10 10h134q2 0 3 1.5t0 3.5l-133 340
q-1 2 -1 5q0 7 8 7h12q8 0 11 -8l120 -322q1 -3 3 -3t3 3l119 322q3 8 11 8h11q5 0 7.5 -3.5t0.5 -8.5l-132 -340q-1 -2 0 -3.5t3 -1.5h141q10 0 10 -10v-3q0 -10 -10 -10z" />
    <glyph glyph-name="brokenbar" unicode="&#xa6;" horiz-adv-x="119" 
d="M44 395v355q0 10 10 10h10q10 0 10 -10v-355q0 -10 -10 -10h-10q-10 0 -10 10zM44 -70v345q0 10 10 10h10q10 0 10 -10v-345q0 -10 -10 -10h-10q-10 0 -10 10z" />
    <glyph glyph-name="section" unicode="&#xa7;" horiz-adv-x="359" 
d="M89.5 -165.5q-33.5 42.5 -33.5 110.5v12q0 10 10 10h10q10 0 10 -10v-11q1 -56 26.5 -91t65.5 -35q41 0 67.5 35t26.5 88q0 60 -31.5 88.5t-78.5 45.5q-38 15 -60.5 30.5t-35.5 48.5q-17 39 -17 89t22 95q26 51 68 63q2 0 2 1t-2 2q-37 16 -61 57t-24 96q0 65 34 107
t89 42q54 0 87.5 -42.5t34.5 -110.5v-11q0 -10 -10 -10h-11q-10 0 -10 10v10q0 56 -25 91t-66 35q-42 0 -67.5 -35.5t-25.5 -90.5t27 -86t83 -53q4 -2 22.5 -9.5t36 -21.5t29.5 -34q26 -40 26 -101q0 -55 -20 -97q-24 -53 -70 -62q-4 -1 0 -4q36 -16 60 -54t24 -91
q0 -64 -34.5 -106.5t-89.5 -42.5t-88.5 42.5zM263 169q16 35 16 81q0 53 -25 88q-13 19 -34 31t-45 12q-29 0 -50 -17.5t-32 -42.5q-13 -33 -13 -76t14 -77q25 -56 84 -56q60 0 85 57z" />
    <glyph glyph-name="dieresis" unicode="&#xa8;" horiz-adv-x="269" 
d="M168 625q-12 12 -12 31q0 18 12 30t31 12t31 -12t12 -30q0 -19 -12 -31t-31 -12t-31 12zM38 625q-12 12 -12 31q0 18 12 30t31 12t31 -12t12 -30q0 -19 -12 -31t-31 -12t-31 12z" />
    <glyph glyph-name="copyright" unicode="&#xa9;" horiz-adv-x="860" 
d="M245.5 39.5q-82.5 47.5 -130 129t-47.5 178.5q0 100 47.5 182.5t130 130.5t183.5 48q102 0 185 -48t130.5 -130.5t47.5 -182.5q0 -97 -47.5 -178.5t-130.5 -129t-185 -47.5q-101 0 -183.5 47.5zM600 61.5q77 44.5 121.5 120t44.5 165.5q0 93 -44.5 170t-121.5 121.5
t-171 44.5q-93 0 -170 -44.5t-121.5 -121.5t-44.5 -170q0 -90 44.5 -165.5t121.5 -120t170 -44.5q94 0 171 44.5zM373.5 201.5q-21.5 19.5 -21.5 52.5v185q0 32 21.5 51.5t56.5 19.5q36 0 57.5 -19.5t21.5 -51.5v-8q0 -10 -10 -10h-5q-10 0 -10 10v10q0 20 -15 33t-39 13
t-38.5 -13t-14.5 -33v-189q0 -21 14.5 -33.5t38.5 -12.5t39 12.5t15 33.5v10q0 10 10 10h5q10 0 10 -10v-8q0 -33 -21.5 -52.5t-57.5 -19.5q-35 0 -56.5 19.5z" />
    <glyph glyph-name="ordfeminine" unicode="&#xaa;" horiz-adv-x="266" 
d="M189 560q4 0 4 4v34q0 39 -17.5 62.5t-49.5 23.5q-24 0 -41.5 -14.5t-21.5 -37.5q-2 -11 -11 -9l-8 1q-10 2 -9 11q5 33 31 53t61 20q44 0 68.5 -29.5t24.5 -79.5v-218q0 -10 -10 -10h-7q-10 0 -10 10v21q0 3 -1.5 3.5t-3.5 -2.5q-12 -18 -32 -27.5t-44 -9.5
q-35 0 -60 20.5t-25 70.5q0 53 29 78t78 25h55zM170 410q23 20 23 58v65q0 4 -4 4h-54q-37 0 -58.5 -20t-21.5 -59q0 -35 16.5 -51.5t43.5 -16.5q32 0 55 20zM35 315h190q10 0 10 -10v-5q0 -10 -10 -10h-190q-10 0 -10 10v5q0 10 10 10z" />
    <glyph glyph-name="guillemotleft" unicode="&#xab;" horiz-adv-x="480" 
d="M243 113q0 -2 -2 -4t-6 -2h-7q-9 0 -13 6l-123 161q-2 3 -2 7t2 7l123 161q4 6 13 6h7q6 0 8 -3.5t-2 -8.5l-121 -159q-1 -3 0 -6l121 -159q2 -2 2 -6zM385 113q0 -2 -2 -4t-6 -2h-8q-9 0 -13 6l-122 161q-2 3 -2 7t2 7l122 161q4 6 13 6h8q6 0 8 -3.5t-2 -8.5l-122 -159
q-1 -3 0 -6l122 -159q2 -2 2 -6z" />
    <glyph glyph-name="logicalnot" unicode="&#xac;" horiz-adv-x="444" 
d="M407 324v-6l-1 -10h-1v-113q0 -10 -10 -10h-8q-10 0 -10 10v109q0 4 -4 4h-326q-10 0 -10 10v6q0 10 10 10h350q10 0 10 -10z" />
    <glyph glyph-name="uni00AD" unicode="&#xad;" horiz-adv-x="303" 
d="M37 316v8q0 10 10 10h209q10 0 10 -10v-8q0 -10 -10 -10h-209q-10 0 -10 10z" />
    <glyph glyph-name="registered" unicode="&#xae;" horiz-adv-x="440" 
d="M316.5 690.5q44.5 -25.5 70.5 -69.5t26 -96t-26 -96t-70.5 -69.5t-96.5 -25.5q-53 0 -97 25.5t-70 69.5t-26 96t26 96t70 69.5t97 25.5q52 0 96.5 -25.5zM304.5 380.5q38.5 22.5 61 61t22.5 83.5t-22.5 83.5t-61 61t-84.5 22.5t-84.5 -22.5t-61 -61t-22.5 -83.5
t22.5 -83.5t61 -61t84.5 -22.5t84.5 22.5zM271.5 533q-7.5 -12 -20.5 -17q-3 -1 -2 -5l28 -63q1 -2 1 -5q0 -7 -8 -7h-4q-8 0 -11 8l-30 66q-1 3 -4 3h-22q-4 0 -4 -4v-63q0 -10 -10 -10h-2q-10 0 -10 10v155q0 10 10 10h47q22 0 35.5 -14t13.5 -36q0 -16 -7.5 -28zM195 588
v-54q0 -4 4 -4h29q13 0 21 8.5t8 22.5t-8 22.5t-21 8.5h-29q-4 0 -4 -4z" />
    <glyph glyph-name="macron" unicode="&#xaf;" horiz-adv-x="582" 
d="M193 613v6q0 10 10 10h173q10 0 10 -10v-6q0 -10 -10 -10h-173q-10 0 -10 10z" />
    <glyph glyph-name="degree" unicode="&#xb0;" horiz-adv-x="358" 
d="M102 520.5q-35 20.5 -55 55.5t-20 78t20 78t55 55.5t77 20.5t77 -20.5t55 -55.5t20 -78t-20 -78t-55 -55.5t-77 -20.5t-77 20.5zM268 563q36 37 36 91t-36 91t-89 37t-89 -37t-36 -91t36 -91t89 -37t89 37z" />
    <glyph glyph-name="plusminus" unicode="&#xb1;" horiz-adv-x="444" 
d="M407 331v-6q0 -10 -10 -10h-158q-4 0 -4 -4v-158q0 -10 -10 -10h-6q-10 0 -10 10v158q0 4 -4 4h-158q-10 0 -10 10v6q0 10 10 10h158q4 0 4 4v158q0 10 10 10h6q10 0 10 -10v-158q0 -4 4 -4h158q10 0 10 -10zM37 48v6q0 10 10 10h350q10 0 10 -10v-6q0 -10 -10 -10h-350
q-10 0 -10 10z" />
    <glyph glyph-name="uni00B2" unicode="&#xb2;" horiz-adv-x="232" 
d="M26 467v7q0 7 3 13q34 55 66 111l38 64q39 71 39 118q0 35 -16.5 56t-44.5 21q-26 0 -41.5 -21t-15.5 -55v-18q0 -10 -10 -10h-8q-10 0 -10 10v18q0 46 24 73.5t63 27.5t63 -27.5t24 -74.5q0 -55 -41 -129q-36 -65 -94 -165q-1 -2 0 -3.5t3 -1.5h135q10 0 10 -10v-4
q0 -10 -10 -10h-167q-10 0 -10 10z" />
    <glyph glyph-name="uni00B3" unicode="&#xb3;" horiz-adv-x="252" 
d="M206 582q0 -42 -11 -72q-21 -58 -81 -58q-35 0 -58.5 23t-30.5 60q-3 18 -3 36q0 10 10 10h8q10 0 10 -10q0 -12 2 -28q5 -31 21 -48.5t41 -17.5q39 0 55 42q11 28 11 65q0 34 -7 58q-7 26 -22 39.5t-37 13.5q-6 0 -9 -1h-4q-6 0 -10 4l-2 2q-5 7 -1 14l81 134q1 2 0 3.5
t-3 1.5h-132q-10 0 -10 10v4q0 10 10 10h159q10 0 10 -10v-7q0 -7 -3 -13l-76 -125q-1 -2 -0.5 -3.5t2.5 -1.5q27 -1 45.5 -19.5t26.5 -50.5q8 -30 8 -65z" />
    <glyph glyph-name="acute" unicode="&#xb4;" horiz-adv-x="157" 
d="M33 572.5q-2 3.5 1 8.5l62 112q3 7 12 7h9q6 0 8 -3.5t-1 -8.5l-65 -112q-5 -7 -12 -7h-6q-6 0 -8 3.5z" />
    <glyph glyph-name="uni00B5" unicode="&#xb5;" horiz-adv-x="417" 
d="M323 501h10q10 0 10 -10v-481q0 -10 -10 -10h-10q-10 0 -10 10v41q0 3 -2 3.5t-3 -2.5q-16 -29 -42.5 -44t-62.5 -15q-61 0 -94 36q-5 3 -5 -2v-217q0 -10 -10 -10h-10q-10 0 -10 10v681q0 10 10 10h10q10 0 10 -10v-346q0 -61 26.5 -92.5t75.5 -31.5q50 0 78.5 36
t28.5 99v335q0 10 10 10z" />
    <glyph glyph-name="paragraph" unicode="&#xb6;" horiz-adv-x="444" 
d="M346 700q10 0 10 -10v-880q0 -10 -10 -10h-6q-10 0 -10 10v859q0 4 -4 4h-97q-4 0 -4 -4v-859q0 -10 -10 -10h-8q-10 0 -10 10v436q0 4 -4 4q-45 2 -79.5 32.5t-53.5 81t-19 111.5q0 62 19.5 113.5t55.5 81.5t83 30h147z" />
    <glyph glyph-name="periodcentered" unicode="&#xb7;" horiz-adv-x="179" 
d="M59 240q-12 12 -12 31q0 18 12 30t31 12t31 -12t12 -30q0 -19 -12 -31t-31 -12t-31 12z" />
    <glyph glyph-name="cedilla" unicode="&#xb8;" horiz-adv-x="103" 
d="M3 -168v1l2 4q2 8 11 5q5 -1 14 -1q20 0 33.5 13t13.5 42q0 45 -42 92q-4 4 -3.5 8t5.5 4h6q7 0 10 -3l4 -4q46 -43 46 -96q0 -7 -2 -21q-4 -31 -23 -45t-45 -14q-12 0 -23 3q-10 1 -7 12z" />
    <glyph glyph-name="uni00B9" unicode="&#xb9;" horiz-adv-x="138" 
d="M80 877h11q10 0 10 -10v-400q0 -10 -10 -10h-8q-10 0 -10 10v375q0 2 -1.5 3.5t-3.5 0.5l-33 -11l-4 -1q-7 0 -7 8v3q0 8 7 12l36 17q6 3 13 3z" />
    <glyph glyph-name="ordmasculine" unicode="&#xba;" horiz-adv-x="272" 
d="M67 393q-26 27 -26 70v148q0 43 26 70t69 27t69 -27t26 -70v-148q0 -43 -26 -70t-69 -27t-69 27zM185 410.5q19 20.5 19 53.5v146q0 32 -19 53t-49 21t-49 -21t-19 -53v-146q0 -33 19 -53.5t49 -20.5t49 20.5zM31 300v5q0 10 10 10h190q10 0 10 -10v-5q0 -10 -10 -10
h-190q-10 0 -10 10z" />
    <glyph glyph-name="guillemotright" unicode="&#xbb;" horiz-adv-x="480" 
d="M95 110.5q-2 3.5 2 8.5l122 159q2 3 0 6l-122 159q-2 2 -2 6q0 2 2 4t6 2h7q9 0 13 -6l123 -161q2 -3 2 -7t-2 -7l-123 -161q-4 -6 -13 -6h-7q-6 0 -8 3.5zM236 110.5q-2 3.5 2 8.5l122 159q2 3 0 6l-122 159q-2 2 -2 6q0 2 2 4t6 2h7q9 0 13 -6l123 -161q2 -3 2 -7
t-2 -7l-123 -161q-4 -6 -13 -6h-7q-6 0 -8 3.5z" />
    <glyph glyph-name="onequarter" unicode="&#xbc;" horiz-adv-x="631" 
d="M80 700h11q10 0 10 -10v-400q0 -10 -10 -10h-8q-10 0 -10 10v375q0 2 -1.5 3.5t-3.5 0.5l-33 -11l-4 -1q-7 0 -7 8v3q0 8 7 12l36 17q6 3 13 3zM71.5 3.5q-1.5 3.5 1.5 8.5l443 681q5 7 12 7h6q6 0 7.5 -3.5t-1.5 -8.5l-443 -681q-5 -7 -12 -7h-6q-6 0 -7.5 3.5zM616 133
v-5q0 -10 -10 -10h-13q-4 0 -4 -4v-104q0 -10 -10 -10h-6q-10 0 -10 10v104q0 4 -4 4h-127q-10 0 -10 10v6q0 4 2 12l91 266q3 8 12 8h9q11 0 8 -11l-89 -261q-1 -2 0 -3.5t3 -1.5h101q4 0 4 4v96q0 10 10 10h6q10 0 10 -10v-96q0 -4 4 -4h13q10 0 10 -10z" />
    <glyph glyph-name="onehalf" unicode="&#xbd;" horiz-adv-x="649" 
d="M80 700h11q10 0 10 -10v-400q0 -10 -10 -10h-8q-10 0 -10 10v375q0 2 -1.5 3.5t-3.5 0.5l-33 -11l-4 -1q-7 0 -7 8v3q0 8 7 12l36 17q6 3 13 3zM71.5 3.5q-1.5 3.5 1.5 8.5l443 681q5 7 12 7h6q6 0 7.5 -3.5t-1.5 -8.5l-443 -681q-5 -7 -12 -7h-6q-6 0 -7.5 3.5zM443 10
v7q0 7 3 13q34 55 66 111l38 64q39 71 39 118q0 35 -16.5 56t-44.5 21q-26 0 -41.5 -21t-15.5 -55v-18q0 -10 -10 -10h-8q-10 0 -10 10v18q0 46 24 73.5t63 27.5t63 -27.5t24 -74.5q0 -55 -41 -129q-36 -65 -94 -165q-1 -2 0 -3.5t3 -1.5h135q10 0 10 -10v-4q0 -10 -10 -10
h-167q-10 0 -10 10z" />
    <glyph glyph-name="threequarters" unicode="&#xbe;" horiz-adv-x="696" 
d="M206 402q0 -42 -11 -72q-21 -58 -81 -58q-35 0 -58.5 23t-30.5 60q-3 18 -3 36q0 10 10 10h8q10 0 10 -10q0 -12 2 -28q5 -31 21 -48.5t41 -17.5q39 0 55 42q11 28 11 65q0 34 -7 58q-7 26 -22 39.5t-37 13.5q-6 0 -9 -1h-4q-6 0 -10 4l-2 2q-5 7 -1 14l81 134q1 2 0 3.5
t-3 1.5h-132q-10 0 -10 10v4q0 10 10 10h159q10 0 10 -10v-7q0 -7 -3 -13l-76 -125q-1 -2 -0.5 -3.5t2.5 -1.5q27 -1 45.5 -19.5t26.5 -50.5q8 -30 8 -65zM136.5 3.5q-1.5 3.5 1.5 8.5l443 681q5 7 12 7h6q6 0 7.5 -3.5t-1.5 -8.5l-443 -681q-5 -7 -12 -7h-6q-6 0 -7.5 3.5z
M681 133v-5q0 -10 -10 -10h-13q-4 0 -4 -4v-104q0 -10 -10 -10h-6q-10 0 -10 10v104q0 4 -4 4h-127q-10 0 -10 10v6q0 4 2 12l91 266q3 8 12 8h9q11 0 8 -11l-89 -261q-1 -2 0 -3.5t3 -1.5h101q4 0 4 4v96q0 10 10 10h6q10 0 10 -10v-96q0 -4 4 -4h13q10 0 10 -10z" />
    <glyph glyph-name="questiondown" unicode="&#xbf;" horiz-adv-x="330" 
d="M208.5 483q12.5 -12 12.5 -30q0 -19 -12.5 -31t-30.5 -12q-19 0 -31 12t-12 31q0 18 12 30t31 12q18 0 30.5 -12zM195 303v-74q0 -39 -14.5 -64.5t-44.5 -58.5q-34 -36 -51.5 -67.5t-17.5 -84.5q0 -61 27 -98t71 -37q45 0 73 37t28 97v38q0 10 10 10h10q10 0 10 -10v-38
q0 -73 -36 -117.5t-95 -44.5q-58 0 -93 45t-35 120q0 44 10.5 76t25.5 53t39 47q27 29 39 49t12 49v73q0 10 10 10h12q10 0 10 -10z" />
    <glyph glyph-name="Agrave" unicode="&#xc0;" horiz-adv-x="367" 
d="M325 9l-30 139q0 2 -1.5 3t-3.5 1h-213q-2 0 -3.5 -1t-1.5 -3l-30 -139q-1 -9 -11 -9h-10q-5 0 -7.5 3t-1.5 8l153 680q2 9 11 9h14q9 0 11 -9l154 -680v-2q0 -9 -9 -9h-10q-9 0 -11 9zM80.5 180.5q1.5 -1.5 3.5 -1.5h199q2 0 3.5 1.5t0.5 2.5l-102 461q-1 3 -2 3t-2 -3
l-101 -461q-1 -1 0.5 -2.5zM193 774q0 -6 -8 -6h-6q-7 0 -12 7l-66 112q-2 4 -2 6q0 6 9 6h9q8 0 12 -7l62 -112q2 -4 2 -6z" />
    <glyph glyph-name="Aacute" unicode="&#xc1;" horiz-adv-x="367" 
d="M325 9l-30 139q0 2 -1.5 3t-3.5 1h-213q-2 0 -3.5 -1t-1.5 -3l-30 -139q-1 -9 -11 -9h-10q-5 0 -7.5 3t-1.5 8l153 680q2 9 11 9h14q9 0 11 -9l154 -680v-2q0 -9 -9 -9h-10q-9 0 -11 9zM80.5 180.5q1.5 -1.5 3.5 -1.5h199q2 0 3.5 1.5t0.5 2.5l-102 461q-1 3 -2 3t-2 -3
l-101 -461q-1 -1 0.5 -2.5zM154 771.5q-2 3.5 1 8.5l62 112q3 7 12 7h9q6 0 8 -3.5t-1 -8.5l-65 -112q-5 -7 -12 -7h-6q-6 0 -8 3.5z" />
    <glyph glyph-name="Acircumflex" unicode="&#xc2;" horiz-adv-x="367" 
d="M325 9l-30 139q0 2 -1.5 3t-3.5 1h-213q-2 0 -3.5 -1t-1.5 -3l-30 -139q-1 -9 -11 -9h-10q-5 0 -7.5 3t-1.5 8l153 680q2 9 11 9h14q9 0 11 -9l154 -680v-2q0 -9 -9 -9h-10q-9 0 -11 9zM80.5 180.5q1.5 -1.5 3.5 -1.5h199q2 0 3.5 1.5t0.5 2.5l-102 461q-1 3 -2 3t-2 -3
l-101 -461q-1 -1 0.5 -2.5zM94.5 783.5q-1.5 3.5 1.5 8.5l65 100q5 7 12 7h18q7 0 12 -6l67 -101l2 -5q0 -7 -9 -7h-14q-7 0 -12 7l-51 81q-1 2 -3 2t-3 -2l-51 -81q-5 -7 -12 -7h-15q-6 0 -7.5 3.5z" />
    <glyph glyph-name="Atilde" unicode="&#xc3;" horiz-adv-x="367" 
d="M325 9l-30 139q0 2 -1.5 3t-3.5 1h-213q-2 0 -3.5 -1t-1.5 -3l-30 -139q-1 -9 -11 -9h-10q-5 0 -7.5 3t-1.5 8l153 680q2 9 11 9h14q9 0 11 -9l154 -680v-2q0 -9 -9 -9h-10q-9 0 -11 9zM80.5 180.5q1.5 -1.5 3.5 -1.5h199q2 0 3.5 1.5t0.5 2.5l-102 461q-1 3 -2 3t-2 -3
l-101 -461q-1 -1 0.5 -2.5zM215 826.5q-12 6.5 -26 17.5q-2 2 -11.5 9t-17.5 10t-17 3q-16 0 -27 -5.5t-22 -22.5q-6 -9 -14 -3l-3 2q-8 5 -2 14q26 41 67 41q15 0 26.5 -6t28.5 -17q18 -12 27 -17t20 -5q14 0 25 6.5t22 24.5q2 4 6 5t8 -1l3 -2q5 -3 5 -9t-4 -11
q-14 -21 -32 -30.5t-35 -9.5q-15 0 -27 6.5z" />
    <glyph glyph-name="Adieresis" unicode="&#xc4;" horiz-adv-x="367" 
d="M325 9l-30 139q0 2 -1.5 3t-3.5 1h-213q-2 0 -3.5 -1t-1.5 -3l-30 -139q-1 -9 -11 -9h-10q-5 0 -7.5 3t-1.5 8l153 680q2 9 11 9h14q9 0 11 -9l154 -680v-2q0 -9 -9 -9h-10q-9 0 -11 9zM80.5 180.5q1.5 -1.5 3.5 -1.5h199q2 0 3.5 1.5t0.5 2.5l-102 461q-1 3 -2 3t-2 -3
l-101 -461q-1 -1 0.5 -2.5zM217 824q-12 12 -12 31q0 18 12 30t31 12t31 -12t12 -30q0 -19 -12 -31t-31 -12t-31 12zM87 824q-12 12 -12 31q0 18 12 30t31 12t31 -12t12 -30q0 -19 -12 -31t-31 -12t-31 12z" />
    <glyph glyph-name="Aring" unicode="&#xc5;" horiz-adv-x="367" 
d="M325 9l-30 139q0 2 -1.5 3t-3.5 1h-213q-2 0 -3.5 -1t-1.5 -3l-30 -139q-1 -9 -11 -9h-10q-5 0 -7.5 3t-1.5 8l153 680q2 9 11 9h14q9 0 11 -9l154 -680v-2q0 -9 -9 -9h-10q-9 0 -11 9zM80.5 180.5q1.5 -1.5 3.5 -1.5h199q2 0 3.5 1.5t0.5 2.5l-102 461q-1 3 -2 3t-2 -3
l-101 -461q-1 -1 0.5 -2.5zM115 816q-28 29 -28 70t28 70t68 29t68 -29t28 -70t-28 -70t-68 -29t-68 29zM233 833.5q21 21.5 21 52.5t-21 52.5t-50 21.5q-30 0 -51 -21.5t-21 -52.5t21 -52.5t51 -21.5q29 0 50 21.5z" />
    <glyph glyph-name="AE" unicode="&#xc6;" horiz-adv-x="666" 
d="M608 672h-244q-4 0 -4 -4v-300q0 -4 4 -4h161q10 0 10 -10v-7q0 -10 -10 -10h-161q-4 0 -4 -4v-301q0 -4 4 -4h244q10 0 10 -10v-8q0 -10 -10 -10h-269q-10 0 -10 10v138q0 4 -4 4h-214q-2 0 -4 -3l-63 -141q-3 -8 -11 -8h-10q-5 0 -7.5 3.5t-0.5 8.5l306 680q3 8 11 8
h276q10 0 10 -10v-8q0 -10 -10 -10zM122 180.5q1 -1.5 3 -1.5h200q4 0 4 4l1 456q0 3 -2 3t-3 -2l-203 -456q-1 -2 0 -3.5z" />
    <glyph glyph-name="Ccedilla" unicode="&#xc7;" horiz-adv-x="435" 
d="M364 520l-11 -1q-10 0 -10 10v23q0 58 -34 93t-89 35t-88.5 -35t-33.5 -93v-403q0 -58 33.5 -93.5t88.5 -35.5t89 35.5t34 93.5v22q0 9 10 9l11 -1q10 0 10 -10v-18q0 -67 -36 -109t-98 -48q-6 -2 -1 -5q43 -42 43 -95q0 -42 -20.5 -60.5t-51.5 -18.5q-15 0 -22 2
q-9 1 -7 12l1 4q1 10 12 7q5 -1 14 -1q47 0 47 55q0 48 -46 96q-2 2 -5 2q-62 5 -99 48.5t-37 110.5v399q0 72 42 115t110 43q70 0 112 -43t42 -115v-20q0 -10 -10 -10z" />
    <glyph glyph-name="Egrave" unicode="&#xc8;" horiz-adv-x="424" 
d="M366 672h-244q-4 0 -4 -4v-300q0 -4 4 -4h160q10 0 10 -10v-7q0 -10 -10 -10h-160q-4 0 -4 -4v-301q0 -4 4 -4h244q10 0 10 -10v-8q0 -10 -10 -10h-268q-10 0 -10 10v680q0 10 10 10h268q10 0 10 -10v-8q0 -10 -10 -10zM242 774q0 -6 -8 -6h-6q-7 0 -12 7l-66 112
q-2 4 -2 6q0 6 9 6h9q8 0 12 -7l62 -112q2 -4 2 -6z" />
    <glyph glyph-name="Eacute" unicode="&#xc9;" horiz-adv-x="424" 
d="M366 672h-244q-4 0 -4 -4v-300q0 -4 4 -4h160q10 0 10 -10v-7q0 -10 -10 -10h-160q-4 0 -4 -4v-301q0 -4 4 -4h244q10 0 10 -10v-8q0 -10 -10 -10h-268q-10 0 -10 10v680q0 10 10 10h268q10 0 10 -10v-8q0 -10 -10 -10zM202 771.5q-2 3.5 1 8.5l62 112q3 7 12 7h9
q6 0 8 -3.5t-1 -8.5l-65 -112q-5 -7 -12 -7h-6q-6 0 -8 3.5z" />
    <glyph glyph-name="Ecircumflex" unicode="&#xca;" horiz-adv-x="424" 
d="M366 672h-244q-4 0 -4 -4v-300q0 -4 4 -4h160q10 0 10 -10v-7q0 -10 -10 -10h-160q-4 0 -4 -4v-301q0 -4 4 -4h244q10 0 10 -10v-8q0 -10 -10 -10h-268q-10 0 -10 10v680q0 10 10 10h268q10 0 10 -10v-8q0 -10 -10 -10zM143.5 783.5q-1.5 3.5 1.5 8.5l65 100q5 7 12 7h18
q7 0 12 -6l67 -101l2 -5q0 -7 -9 -7h-14q-7 0 -12 7l-51 81q-1 2 -3 2t-3 -2l-51 -81q-5 -7 -12 -7h-15q-6 0 -7.5 3.5z" />
    <glyph glyph-name="Edieresis" unicode="&#xcb;" horiz-adv-x="424" 
d="M366 672h-244q-4 0 -4 -4v-300q0 -4 4 -4h160q10 0 10 -10v-7q0 -10 -10 -10h-160q-4 0 -4 -4v-301q0 -4 4 -4h244q10 0 10 -10v-8q0 -10 -10 -10h-268q-10 0 -10 10v680q0 10 10 10h268q10 0 10 -10v-8q0 -10 -10 -10zM265 824q-12 12 -12 31q0 18 12 30t31 12t31 -12
t12 -30q0 -19 -12 -31t-31 -12t-31 12zM135 824q-12 12 -12 31q0 18 12 30t31 12t31 -12t12 -30q0 -19 -12 -31t-31 -12t-31 12z" />
    <glyph glyph-name="Igrave" unicode="&#xcc;" horiz-adv-x="206" 
d="M88 10v680q0 10 10 10h10q10 0 10 -10v-680q0 -10 -10 -10h-10q-10 0 -10 10zM113 774q0 -6 -8 -6h-6q-7 0 -12 7l-66 112q-2 4 -2 6q0 6 9 6h9q8 0 12 -7l62 -112q2 -4 2 -6z" />
    <glyph glyph-name="Iacute" unicode="&#xcd;" horiz-adv-x="206" 
d="M88 10v680q0 10 10 10h10q10 0 10 -10v-680q0 -10 -10 -10h-10q-10 0 -10 10zM73 771.5q-2 3.5 1 8.5l62 112q3 7 12 7h9q6 0 8 -3.5t-1 -8.5l-65 -112q-5 -7 -12 -7h-6q-6 0 -8 3.5z" />
    <glyph glyph-name="Icircumflex" unicode="&#xce;" horiz-adv-x="206" 
d="M88 10v680q0 10 10 10h10q10 0 10 -10v-680q0 -10 -10 -10h-10q-10 0 -10 10zM14.5 783.5q-1.5 3.5 1.5 8.5l65 100q5 7 12 7h18q7 0 12 -6l67 -101l2 -5q0 -7 -9 -7h-14q-7 0 -12 7l-51 81q-1 2 -3 2t-3 -2l-51 -81q-5 -7 -12 -7h-15q-6 0 -7.5 3.5z" />
    <glyph glyph-name="Idieresis" unicode="&#xcf;" horiz-adv-x="206" 
d="M88 10v680q0 10 10 10h10q10 0 10 -10v-680q0 -10 -10 -10h-10q-10 0 -10 10zM136 824q-12 12 -12 31q0 18 12 30t31 12t31 -12t12 -30q0 -19 -12 -31t-31 -12t-31 12zM6 824q-12 12 -12 31q0 18 12 30t31 12t31 -12t12 -30q0 -19 -12 -31t-31 -12t-31 12z" />
    <glyph glyph-name="Eth" unicode="&#xd0;" horiz-adv-x="510" 
d="M395 651.5q40 -48.5 40 -132.5v-338q0 -84 -40 -132.5t-109 -48.5h-138q-10 0 -10 10v339q0 4 -4 4h-36q-10 0 -10 10v5q0 10 10 10h36q4 0 4 4v308q0 10 10 10h138q69 0 109 -48.5zM404 518q0 72 -31.5 113t-86.5 41h-114q-4 0 -4 -4v-286q0 -4 4 -4h96q10 0 10 -10v-5
q0 -10 -10 -10h-96q-4 0 -4 -4v-317q0 -4 4 -4h114q55 0 86.5 41t31.5 112v337z" />
    <glyph glyph-name="Ntilde" unicode="&#xd1;" horiz-adv-x="481" 
d="M374 700h10q10 0 10 -10v-680q0 -10 -10 -10h-14q-8 0 -11 8l-236 610q-1 3 -3 2.5t-2 -3.5v-607q0 -10 -10 -10h-10q-10 0 -10 10v680q0 10 10 10h13q8 0 11 -8l237 -612q1 -3 3 -2.5t2 3.5v609q0 10 10 10zM272 836.5q-12 6.5 -26 17.5q-2 2 -11.5 9t-17.5 10t-17 3
q-16 0 -27 -5.5t-22 -22.5q-6 -9 -14 -3l-3 2q-8 5 -2 14q26 41 67 41q15 0 26.5 -6t28.5 -17q18 -12 27 -17t20 -5q14 0 25 6.5t22 24.5q2 4 6 5t8 -1l3 -2q5 -3 5 -9t-4 -11q-14 -21 -32 -30.5t-35 -9.5q-15 0 -27 6.5z" />
    <glyph glyph-name="Ograve" unicode="&#xd2;" horiz-adv-x="446" 
d="M111 36.5q-43 44.5 -43 116.5v393q0 72 43 117t111 45q69 0 112.5 -45t43.5 -117v-393q0 -72 -43.5 -116.5t-112.5 -44.5q-68 0 -111 44.5zM313 56.5q35 36.5 35 94.5v397q0 58 -35 95t-91 37q-55 0 -89.5 -37t-34.5 -95v-397q0 -58 34.5 -94.5t89.5 -36.5q56 0 91 36.5z
M232 773q0 -6 -8 -6h-6q-7 0 -12 7l-66 112q-2 4 -2 6q0 6 9 6h9q8 0 12 -7l62 -112q2 -4 2 -6z" />
    <glyph glyph-name="Oacute" unicode="&#xd3;" horiz-adv-x="446" 
d="M111 36.5q-43 44.5 -43 116.5v393q0 72 43 117t111 45q69 0 112.5 -45t43.5 -117v-393q0 -72 -43.5 -116.5t-112.5 -44.5q-68 0 -111 44.5zM313 56.5q35 36.5 35 94.5v397q0 58 -35 95t-91 37q-55 0 -89.5 -37t-34.5 -95v-397q0 -58 34.5 -94.5t89.5 -36.5q56 0 91 36.5z
M192 770.5q-2 3.5 1 8.5l62 112q3 7 12 7h9q6 0 8 -3.5t-1 -8.5l-65 -112q-5 -7 -12 -7h-6q-6 0 -8 3.5z" />
    <glyph glyph-name="Ocircumflex" unicode="&#xd4;" horiz-adv-x="446" 
d="M111 36.5q-43 44.5 -43 116.5v393q0 72 43 117t111 45q69 0 112.5 -45t43.5 -117v-393q0 -72 -43.5 -116.5t-112.5 -44.5q-68 0 -111 44.5zM313 56.5q35 36.5 35 94.5v397q0 58 -35 95t-91 37q-55 0 -89.5 -37t-34.5 -95v-397q0 -58 34.5 -94.5t89.5 -36.5q56 0 91 36.5z
M133.5 782.5q-1.5 3.5 1.5 8.5l65 100q5 7 12 7h18q7 0 12 -6l67 -101l2 -5q0 -7 -9 -7h-14q-7 0 -12 7l-51 81q-1 2 -3 2t-3 -2l-51 -81q-5 -7 -12 -7h-15q-6 0 -7.5 3.5z" />
    <glyph glyph-name="Otilde" unicode="&#xd5;" horiz-adv-x="446" 
d="M111 36.5q-43 44.5 -43 116.5v393q0 72 43 117t111 45q69 0 112.5 -45t43.5 -117v-393q0 -72 -43.5 -116.5t-112.5 -44.5q-68 0 -111 44.5zM313 56.5q35 36.5 35 94.5v397q0 58 -35 95t-91 37q-55 0 -89.5 -37t-34.5 -95v-397q0 -58 34.5 -94.5t89.5 -36.5q56 0 91 36.5z
M253 825.5q-12 6.5 -26 17.5q-2 2 -11.5 9t-17.5 10t-17 3q-16 0 -27 -5.5t-22 -22.5q-6 -9 -14 -3l-3 2q-8 5 -2 14q26 41 67 41q15 0 26.5 -6t28.5 -17q18 -12 27 -17t20 -5q14 0 25 6.5t22 24.5q2 4 6 5t8 -1l3 -2q5 -3 5 -9t-4 -11q-14 -21 -32 -30.5t-35 -9.5
q-15 0 -27 6.5z" />
    <glyph glyph-name="Odieresis" unicode="&#xd6;" horiz-adv-x="446" 
d="M111 36.5q-43 44.5 -43 116.5v393q0 72 43 117t111 45q69 0 112.5 -45t43.5 -117v-393q0 -72 -43.5 -116.5t-112.5 -44.5q-68 0 -111 44.5zM313 56.5q35 36.5 35 94.5v397q0 58 -35 95t-91 37q-55 0 -89.5 -37t-34.5 -95v-397q0 -58 34.5 -94.5t89.5 -36.5q56 0 91 36.5z
M256 823q-12 12 -12 31q0 18 12 30t31 12t31 -12t12 -30q0 -19 -12 -31t-31 -12t-31 12zM126 823q-12 12 -12 31q0 18 12 30t31 12t31 -12t12 -30q0 -19 -12 -31t-31 -12t-31 12z" />
    <glyph glyph-name="multiply" unicode="&#xd7;" horiz-adv-x="353" 
d="M309 426l-111 -111q-3 -3 0 -6l111 -112q3 -3 3 -7t-3 -7l-4 -4q-3 -3 -7 -3t-7 3l-111 112q-3 3 -6 0l-112 -112q-3 -3 -7 -3t-7 3l-4 4q-3 3 -3 7t3 7l111 112q3 3 0 6l-111 111q-6 6 0 14l4 4q3 4 7 4t7 -3l112 -112q3 -3 6 0l111 112q3 3 7 3t7 -4l4 -4q6 -8 0 -14z
" />
    <glyph glyph-name="Oslash" unicode="&#xd8;" horiz-adv-x="457" 
d="M379 706l-25 -63q-1 -2 1 -6q24 -37 24 -91v-393q0 -72 -44 -116.5t-113 -44.5q-64 0 -106 40q-4 3 -6 -2l-19 -48q-3 -10 -13 -5l-6 3q-8 5 -5 13l25 63q2 3 -1 6q-23 38 -23 91v393q0 72 43 117t111 45q32 0 60 -10.5t48 -30.5q4 -2 6 2l19 48q3 10 13 5l6 -3
q8 -5 5 -13zM105 103q1 -3 3 -2.5t3 2.5l210 528q1 3 -1 5q-36 44 -98 44q-55 0 -89.5 -37t-34.5 -95v-397q0 -27 7 -48zM341 597q-1 2 -2.5 2t-2.5 -2l-210 -528q-1 -2 1 -6q16 -20 40.5 -31.5t54.5 -11.5q56 0 91.5 36.5t35.5 94.5v397q0 25 -8 49z" />
    <glyph glyph-name="Ugrave" unicode="&#xd9;" horiz-adv-x="474" 
d="M123.5 43q-42.5 51 -42.5 134v513q0 10 10 10h10q10 0 10 -10v-517q0 -69 34.5 -111t90.5 -42q57 0 92 42t35 111v517q0 10 10 10h10q10 0 10 -10v-513q0 -83 -43 -134t-114 -51q-70 0 -112.5 51zM246 774q0 -6 -8 -6h-6q-7 0 -12 7l-66 112q-2 4 -2 6q0 6 9 6h9
q8 0 12 -7l62 -112q2 -4 2 -6z" />
    <glyph glyph-name="Uacute" unicode="&#xda;" horiz-adv-x="474" 
d="M123.5 43q-42.5 51 -42.5 134v513q0 10 10 10h10q10 0 10 -10v-517q0 -69 34.5 -111t90.5 -42q57 0 92 42t35 111v517q0 10 10 10h10q10 0 10 -10v-513q0 -83 -43 -134t-114 -51q-70 0 -112.5 51zM207 771.5q-2 3.5 1 8.5l62 112q3 7 12 7h9q6 0 8 -3.5t-1 -8.5l-65 -112
q-5 -7 -12 -7h-6q-6 0 -8 3.5z" />
    <glyph glyph-name="Ucircumflex" unicode="&#xdb;" horiz-adv-x="474" 
d="M123.5 43q-42.5 51 -42.5 134v513q0 10 10 10h10q10 0 10 -10v-517q0 -69 34.5 -111t90.5 -42q57 0 92 42t35 111v517q0 10 10 10h10q10 0 10 -10v-513q0 -83 -43 -134t-114 -51q-70 0 -112.5 51zM147.5 783.5q-1.5 3.5 1.5 8.5l65 100q5 7 12 7h18q7 0 12 -6l67 -101
l2 -5q0 -7 -9 -7h-14q-7 0 -12 7l-51 81q-1 2 -3 2t-3 -2l-51 -81q-5 -7 -12 -7h-15q-6 0 -7.5 3.5z" />
    <glyph glyph-name="Udieresis" unicode="&#xdc;" horiz-adv-x="474" 
d="M123.5 43q-42.5 51 -42.5 134v513q0 10 10 10h10q10 0 10 -10v-517q0 -69 34.5 -111t90.5 -42q57 0 92 42t35 111v517q0 10 10 10h10q10 0 10 -10v-513q0 -83 -43 -134t-114 -51q-70 0 -112.5 51zM270 824q-12 12 -12 31q0 18 12 30t31 12t31 -12t12 -30q0 -19 -12 -31
t-31 -12t-31 12zM140 824q-12 12 -12 31q0 18 12 30t31 12t31 -12t12 -30q0 -19 -12 -31t-31 -12t-31 12z" />
    <glyph glyph-name="Yacute" unicode="&#xdd;" horiz-adv-x="395" 
d="M183 10v322q0 4 -1 5l-137 351l-1 4q0 8 9 8h11q8 0 11 -8l120 -322q1 -3 3 -3t3 3l119 322q3 8 11 8h11q5 0 7.5 -3.5t0.5 -8.5l-136 -351q-1 -1 -1 -5v-322q0 -10 -10 -10h-10q-10 0 -10 10zM168 771.5q-2 3.5 1 8.5l62 112q3 7 12 7h9q6 0 8 -3.5t-1 -8.5l-65 -112
q-5 -7 -12 -7h-6q-6 0 -8 3.5z" />
    <glyph glyph-name="Thorn" unicode="&#xde;" horiz-adv-x="429" 
d="M347.5 484.5q40.5 -50.5 40.5 -133.5q0 -82 -40.5 -132t-106.5 -50h-119q-4 0 -4 -4v-155q0 -10 -10 -10h-10q-10 0 -10 10v680q0 10 10 10h10q10 0 10 -10v-151q0 -4 4 -4h118q67 0 107.5 -50.5zM325 238.5q33 42.5 33 112.5t-33 113t-86 43h-117q-4 0 -4 -4v-303
q0 -4 4 -4h117q53 0 86 42.5z" />
    <glyph glyph-name="germandbls" unicode="&#xdf;" horiz-adv-x="412" 
d="M74 10v515q0 86 35 135t97 49q66 0 103.5 -50.5t37.5 -139.5q0 -57 -18.5 -96.5t-51.5 -54.5q-5 -2 0 -5q35 -19 55 -64.5t20 -110.5q0 -87 -40 -137.5t-112 -50.5h-43q-10 0 -10 10v7q0 10 10 10l44 1q58 1 89.5 42.5t31.5 118.5t-26.5 120t-76.5 45h-44q-10 0 -10 10v7
q0 10 10 10h45q46 0 71.5 36t25.5 103q0 76 -29.5 118.5t-81.5 42.5q-48 0 -75 -40t-27 -114v-517q0 -10 -10 -10h-10q-10 0 -10 10z" />
    <glyph glyph-name="agrave" unicode="&#xe0;" horiz-adv-x="392" 
d="M296 464q35 -45 35 -121v-333q0 -10 -10 -10h-10q-10 0 -10 10v45q0 3 -2 3.5t-3 -2.5q-19 -32 -51 -48t-71 -16q-52 0 -88 30.5t-36 105.5q0 80 43 119t115 39h89q4 0 4 4v55q0 62 -27 99t-78 37q-40 0 -70 -24.5t-34 -63.5q0 -9 -10 -9l-11 1q-5 0 -7.5 3t-1.5 8
q6 51 44.5 82t90.5 31q64 0 99 -45zM264.5 52q36.5 32 36.5 92v111q0 4 -4 4h-88q-59 0 -94 -33t-35 -97q0 -55 27 -82t71 -27q50 0 86.5 32zM206 575q0 -6 -8 -6h-6q-7 0 -12 7l-66 112q-2 4 -2 6q0 6 9 6h9q8 0 12 -7l62 -112q2 -4 2 -6z" />
    <glyph glyph-name="aacute" unicode="&#xe1;" horiz-adv-x="392" 
d="M296 464q35 -45 35 -121v-333q0 -10 -10 -10h-10q-10 0 -10 10v45q0 3 -2 3.5t-3 -2.5q-19 -32 -51 -48t-71 -16q-52 0 -88 30.5t-36 105.5q0 80 43 119t115 39h89q4 0 4 4v55q0 62 -27 99t-78 37q-40 0 -70 -24.5t-34 -63.5q0 -9 -10 -9l-11 1q-5 0 -7.5 3t-1.5 8
q6 51 44.5 82t90.5 31q64 0 99 -45zM264.5 52q36.5 32 36.5 92v111q0 4 -4 4h-88q-59 0 -94 -33t-35 -97q0 -55 27 -82t71 -27q50 0 86.5 32zM166 572.5q-2 3.5 1 8.5l62 112q3 7 12 7h9q6 0 8 -3.5t-1 -8.5l-65 -112q-5 -7 -12 -7h-6q-6 0 -8 3.5z" />
    <glyph glyph-name="acircumflex" unicode="&#xe2;" horiz-adv-x="392" 
d="M296 464q35 -45 35 -121v-333q0 -10 -10 -10h-10q-10 0 -10 10v45q0 3 -2 3.5t-3 -2.5q-19 -32 -51 -48t-71 -16q-52 0 -88 30.5t-36 105.5q0 80 43 119t115 39h89q4 0 4 4v55q0 62 -27 99t-78 37q-40 0 -70 -24.5t-34 -63.5q0 -9 -10 -9l-11 1q-5 0 -7.5 3t-1.5 8
q6 51 44.5 82t90.5 31q64 0 99 -45zM264.5 52q36.5 32 36.5 92v111q0 4 -4 4h-88q-59 0 -94 -33t-35 -97q0 -55 27 -82t71 -27q50 0 86.5 32zM107.5 584.5q-1.5 3.5 1.5 8.5l65 100q5 7 12 7h18q7 0 12 -6l67 -101l2 -5q0 -7 -9 -7h-14q-7 0 -12 7l-51 81q-1 2 -3 2t-3 -2
l-51 -81q-5 -7 -12 -7h-15q-6 0 -7.5 3.5z" />
    <glyph glyph-name="atilde" unicode="&#xe3;" horiz-adv-x="392" 
d="M296 464q35 -45 35 -121v-333q0 -10 -10 -10h-10q-10 0 -10 10v45q0 3 -2 3.5t-3 -2.5q-19 -32 -51 -48t-71 -16q-52 0 -88 30.5t-36 105.5q0 80 43 119t115 39h89q4 0 4 4v55q0 62 -27 99t-78 37q-40 0 -70 -24.5t-34 -63.5q0 -9 -10 -9l-11 1q-5 0 -7.5 3t-1.5 8
q6 51 44.5 82t90.5 31q64 0 99 -45zM264.5 52q36.5 32 36.5 92v111q0 4 -4 4h-88q-59 0 -94 -33t-35 -97q0 -55 27 -82t71 -27q50 0 86.5 32zM227 627.5q-12 6.5 -26 17.5q-2 2 -11.5 9t-17.5 10t-17 3q-16 0 -27 -5.5t-22 -22.5q-6 -9 -14 -3l-3 2q-8 5 -2 14q26 41 67 41
q15 0 26.5 -6t28.5 -17q18 -12 27 -17t20 -5q14 0 25 6.5t22 24.5q2 4 6 5t8 -1l3 -2q5 -3 5 -9t-4 -11q-14 -21 -32 -30.5t-35 -9.5q-15 0 -27 6.5z" />
    <glyph glyph-name="adieresis" unicode="&#xe4;" horiz-adv-x="392" 
d="M296 464q35 -45 35 -121v-333q0 -10 -10 -10h-10q-10 0 -10 10v45q0 3 -2 3.5t-3 -2.5q-19 -32 -51 -48t-71 -16q-52 0 -88 30.5t-36 105.5q0 80 43 119t115 39h89q4 0 4 4v55q0 62 -27 99t-78 37q-40 0 -70 -24.5t-34 -63.5q0 -9 -10 -9l-11 1q-5 0 -7.5 3t-1.5 8
q6 51 44.5 82t90.5 31q64 0 99 -45zM264.5 52q36.5 32 36.5 92v111q0 4 -4 4h-88q-59 0 -94 -33t-35 -97q0 -55 27 -82t71 -27q50 0 86.5 32zM229 625q-12 12 -12 31q0 18 12 30t31 12t31 -12t12 -30q0 -19 -12 -31t-31 -12t-31 12zM99 625q-12 12 -12 31q0 18 12 30t31 12
t31 -12t12 -30q0 -19 -12 -31t-31 -12t-31 12z" />
    <glyph glyph-name="aring" unicode="&#xe5;" horiz-adv-x="392" 
d="M296 464q35 -45 35 -121v-333q0 -10 -10 -10h-10q-10 0 -10 10v45q0 3 -2 3.5t-3 -2.5q-19 -32 -51 -48t-71 -16q-52 0 -88 30.5t-36 105.5q0 80 43 119t115 39h89q4 0 4 4v55q0 62 -27 99t-78 37q-40 0 -70 -24.5t-34 -63.5q0 -9 -10 -9l-11 1q-5 0 -7.5 3t-1.5 8
q6 51 44.5 82t90.5 31q64 0 99 -45zM264.5 52q36.5 32 36.5 92v111q0 4 -4 4h-88q-59 0 -94 -33t-35 -97q0 -55 27 -82t71 -27q50 0 86.5 32zM128 617q-28 29 -28 70t28 70t68 29t68 -29t28 -70t-28 -70t-68 -29t-68 29zM246 634.5q21 21.5 21 52.5t-21 52.5t-50 21.5
q-30 0 -51 -21.5t-21 -52.5t21 -52.5t51 -21.5q29 0 50 21.5z" />
    <glyph glyph-name="ae" unicode="&#xe6;" horiz-adv-x="633" 
d="M85.5 22q-35.5 30 -35.5 105q0 149 157 149h90q4 0 4 4v65q0 62 -27 99t-78 37q-40 0 -70 -24.5t-34 -63.5q-2 -11 -11 -9l-11 1q-10 2 -9 11q6 51 44.5 82t91.5 31q42 0 71.5 -20t45.5 -58q2 -5 5 0q16 37 47.5 57.5t73.5 20.5q62 0 100.5 -41t38.5 -104v-104
q0 -10 -10 -10h-233q-4 0 -4 -4v-109q0 -51 30.5 -84t77.5 -33q39 0 67 23t38 60q3 9 11 9h10q5 0 7.5 -3t1.5 -8q-11 -49 -47 -79t-87 -30q-45 0 -79 23.5t-47 62.5q-1 3 -2 3t-2 -3q-15 -42 -52.5 -64t-85.5 -22q-52 0 -87.5 30zM336 276h209q4 0 4 4v84q0 52 -30.5 84.5
t-78.5 32.5q-47 0 -77.5 -32.5t-30.5 -84.5v-84q0 -4 4 -4zM264.5 51q36.5 32 36.5 92v102q0 4 -4 4h-88q-60 0 -94.5 -29t-34.5 -92q0 -55 27 -82t71 -27q50 0 86.5 32z" />
    <glyph glyph-name="ccedilla" unicode="&#xe7;" horiz-adv-x="384" 
d="M327 370h-10q-10 0 -10 10v3q0 39 -30.5 68.5t-77.5 29.5q-48 0 -78 -32.5t-30 -84.5v-227q0 -52 30 -84.5t78 -32.5q47 0 77.5 29.5t30.5 68.5v3q0 10 10 10h10q10 0 10 -10v-3q0 -46 -33 -82t-86 -42q-6 -2 -1 -5q43 -42 43 -95q0 -42 -20.5 -60.5t-51.5 -18.5
q-15 0 -22 2q-9 1 -7 12l1 4q1 10 12 7q5 -1 15 -1q47 0 47 55q0 46 -47 97q-2 2 -5 2q-54 5 -87.5 45t-33.5 99v227q0 63 38.5 104t99.5 41q40 0 71.5 -17.5t49 -46.5t17.5 -62v-6q0 -7 -10 -7z" />
    <glyph glyph-name="egrave" unicode="&#xe8;" horiz-adv-x="391" 
d="M327 244h-232q-4 0 -4 -4v-103q0 -52 30 -84.5t78 -32.5q39 0 67 23t37 61q3 9 11 9h10q5 0 7.5 -3.5t1.5 -8.5q-9 -49 -45.5 -79t-88.5 -30q-61 0 -99.5 40.5t-38.5 104.5v227q0 63 38.5 104t99.5 41t99.5 -41t38.5 -104v-110q0 -10 -10 -10zM121 448.5
q-30 -32.5 -30 -84.5v-90q0 -4 4 -4h208q4 0 4 4v90q0 52 -30 84.5t-78 32.5t-78 -32.5zM206 575q0 -6 -8 -6h-6q-7 0 -12 7l-66 112q-2 4 -2 6q0 6 9 6h9q8 0 12 -7l62 -112q2 -4 2 -6z" />
    <glyph glyph-name="eacute" unicode="&#xe9;" horiz-adv-x="391" 
d="M327 244h-232q-4 0 -4 -4v-103q0 -52 30 -84.5t78 -32.5q39 0 67 23t37 61q3 9 11 9h10q5 0 7.5 -3.5t1.5 -8.5q-9 -49 -45.5 -79t-88.5 -30q-61 0 -99.5 40.5t-38.5 104.5v227q0 63 38.5 104t99.5 41t99.5 -41t38.5 -104v-110q0 -10 -10 -10zM121 448.5
q-30 -32.5 -30 -84.5v-90q0 -4 4 -4h208q4 0 4 4v90q0 52 -30 84.5t-78 32.5t-78 -32.5zM166 572.5q-2 3.5 1 8.5l62 112q3 7 12 7h9q6 0 8 -3.5t-1 -8.5l-65 -112q-5 -7 -12 -7h-6q-6 0 -8 3.5z" />
    <glyph glyph-name="ecircumflex" unicode="&#xea;" horiz-adv-x="391" 
d="M327 244h-232q-4 0 -4 -4v-103q0 -52 30 -84.5t78 -32.5q39 0 67 23t37 61q3 9 11 9h10q5 0 7.5 -3.5t1.5 -8.5q-9 -49 -45.5 -79t-88.5 -30q-61 0 -99.5 40.5t-38.5 104.5v227q0 63 38.5 104t99.5 41t99.5 -41t38.5 -104v-110q0 -10 -10 -10zM121 448.5
q-30 -32.5 -30 -84.5v-90q0 -4 4 -4h208q4 0 4 4v90q0 52 -30 84.5t-78 32.5t-78 -32.5zM107.5 584.5q-1.5 3.5 1.5 8.5l65 100q5 7 12 7h18q7 0 12 -6l67 -101l2 -5q0 -7 -9 -7h-14q-7 0 -12 7l-51 81q-1 2 -3 2t-3 -2l-51 -81q-5 -7 -12 -7h-15q-6 0 -7.5 3.5z" />
    <glyph glyph-name="edieresis" unicode="&#xeb;" horiz-adv-x="391" 
d="M327 244h-232q-4 0 -4 -4v-103q0 -52 30 -84.5t78 -32.5q39 0 67 23t37 61q3 9 11 9h10q5 0 7.5 -3.5t1.5 -8.5q-9 -49 -45.5 -79t-88.5 -30q-61 0 -99.5 40.5t-38.5 104.5v227q0 63 38.5 104t99.5 41t99.5 -41t38.5 -104v-110q0 -10 -10 -10zM121 448.5
q-30 -32.5 -30 -84.5v-90q0 -4 4 -4h208q4 0 4 4v90q0 52 -30 84.5t-78 32.5t-78 -32.5zM229 625q-12 12 -12 31q0 18 12 30t31 12t31 -12t12 -30q0 -19 -12 -31t-31 -12t-31 12zM99 625q-12 12 -12 31q0 18 12 30t31 12t31 -12t12 -30q0 -19 -12 -31t-31 -12t-31 12z" />
    <glyph glyph-name="igrave" unicode="&#xec;" horiz-adv-x="156" 
d="M63 10v481q0 10 10 10h10q10 0 10 -10v-481q0 -10 -10 -10h-10q-10 0 -10 10zM88 575q0 -6 -8 -6h-6q-7 0 -12 7l-66 112q-2 4 -2 6q0 6 9 6h9q8 0 12 -7l62 -112q2 -4 2 -6z" />
    <glyph glyph-name="iacute" unicode="&#xed;" horiz-adv-x="156" 
d="M63 10v481q0 10 10 10h10q10 0 10 -10v-481q0 -10 -10 -10h-10q-10 0 -10 10zM49 572.5q-2 3.5 1 8.5l62 112q3 7 12 7h9q6 0 8 -3.5t-1 -8.5l-65 -112q-5 -7 -12 -7h-6q-6 0 -8 3.5z" />
    <glyph glyph-name="icircumflex" unicode="&#xee;" horiz-adv-x="156" 
d="M63 10v481q0 10 10 10h10q10 0 10 -10v-481q0 -10 -10 -10h-10q-10 0 -10 10zM-10.5 584.5q-1.5 3.5 1.5 8.5l65 100q5 7 12 7h18q7 0 12 -6l67 -101l2 -5q0 -7 -9 -7h-14q-7 0 -12 7l-51 81q-1 2 -3 2t-3 -2l-51 -81q-5 -7 -12 -7h-15q-6 0 -7.5 3.5z" />
    <glyph glyph-name="idieresis" unicode="&#xef;" horiz-adv-x="156" 
d="M63 10v481q0 10 10 10h10q10 0 10 -10v-481q0 -10 -10 -10h-10q-10 0 -10 10zM112 625q-12 12 -12 31q0 18 12 30t31 12t31 -12t12 -30q0 -19 -12 -31t-31 -12t-31 12zM-18 625q-12 12 -12 31q0 18 12 30t31 12t31 -12t12 -30q0 -19 -12 -31t-31 -12t-31 12z" />
    <glyph glyph-name="eth" unicode="&#xf0;" horiz-adv-x="422" 
d="M277 602q56 -96 60 -240v-35v-77v-113q0 -64 -38.5 -104.5t-99.5 -40.5t-99.5 40.5t-38.5 104.5v225q0 63 38 104t98 41t99 -42q2 -2 3.5 -1.5t0.5 2.5q-8 66 -47 130q-2 4 -5 2l-70 -24q-1 -1 -4 -1q-6 0 -8 6q-1 1 -1 3l-1 1l-1 4q0 6 8 9l62 21q4 2 2 5q-28 38 -59 66
q-4 4 -4 7q0 5 7 5h9q7 0 10 -3l4 -4q36 -32 58 -64q2 -4 5 -2l80 27l4 1q6 0 9 -8l1 -3v-3q0 -6 -7 -9l-73 -25q-3 -2 -2 -5zM277 446.5q-30 32.5 -78 32.5t-78 -32.5t-30 -84.5v-225q0 -52 30 -84.5t78 -32.5t78 32.5t30 84.5v225q0 52 -30 84.5z" />
    <glyph glyph-name="ntilde" unicode="&#xf1;" horiz-adv-x="411" 
d="M155 661.5q-9 -5.5 -19 -21.5q-5 -10 -13 -3l-3 2q-6 6 -1 12q23 42 57 42q12 0 21 -5t25 -18q2 -2 10 -8.5t15 -10t14 -3.5q11 0 20.5 6.5t17.5 23.5q7 10 14 5l1 -1q7 -5 4 -13q-11 -25 -27.5 -36.5t-31.5 -11.5q-12 0 -21.5 6t-22.5 18q-3 2 -10.5 9t-14 10t-13.5 3
q-13 0 -22 -5.5zM310 468q33 -40 33 -111v-347q0 -10 -10 -10h-10q-10 0 -10 10v343q0 60 -26.5 93.5t-75.5 33.5t-78 -36t-29 -99v-335q0 -10 -10 -10h-10q-10 0 -10 10v481q0 10 10 10h10q10 0 10 -10v-48q0 -3 2 -3t3 3q16 31 44.5 48t64.5 17q59 0 92 -40z" />
    <glyph glyph-name="ograve" unicode="&#xf2;" horiz-adv-x="398" 
d="M99.5 32.5q-38.5 40.5 -38.5 104.5v227q0 63 38.5 104t99.5 41t99.5 -41t38.5 -104v-227q0 -64 -38.5 -104.5t-99.5 -40.5t-99.5 40.5zM277 52.5q30 32.5 30 84.5v227q0 52 -30 84.5t-78 32.5t-78 -32.5t-30 -84.5v-227q0 -52 30 -84.5t78 -32.5t78 32.5zM209 575
q0 -6 -8 -6h-6q-7 0 -12 7l-66 112q-2 4 -2 6q0 6 9 6h9q8 0 12 -7l62 -112q2 -4 2 -6z" />
    <glyph glyph-name="oacute" unicode="&#xf3;" horiz-adv-x="398" 
d="M99.5 32.5q-38.5 40.5 -38.5 104.5v227q0 63 38.5 104t99.5 41t99.5 -41t38.5 -104v-227q0 -64 -38.5 -104.5t-99.5 -40.5t-99.5 40.5zM277 52.5q30 32.5 30 84.5v227q0 52 -30 84.5t-78 32.5t-78 -32.5t-30 -84.5v-227q0 -52 30 -84.5t78 -32.5t78 32.5zM169 572.5
q-2 3.5 1 8.5l62 112q3 7 12 7h9q6 0 8 -3.5t-1 -8.5l-65 -112q-5 -7 -12 -7h-6q-6 0 -8 3.5z" />
    <glyph glyph-name="ocircumflex" unicode="&#xf4;" horiz-adv-x="398" 
d="M99.5 32.5q-38.5 40.5 -38.5 104.5v227q0 63 38.5 104t99.5 41t99.5 -41t38.5 -104v-227q0 -64 -38.5 -104.5t-99.5 -40.5t-99.5 40.5zM277 52.5q30 32.5 30 84.5v227q0 52 -30 84.5t-78 32.5t-78 -32.5t-30 -84.5v-227q0 -52 30 -84.5t78 -32.5t78 32.5zM110.5 584.5
q-1.5 3.5 1.5 8.5l65 100q5 7 12 7h18q7 0 12 -6l67 -101l2 -5q0 -7 -9 -7h-14q-7 0 -12 7l-51 81q-1 2 -3 2t-3 -2l-51 -81q-5 -7 -12 -7h-15q-6 0 -7.5 3.5z" />
    <glyph glyph-name="otilde" unicode="&#xf5;" horiz-adv-x="398" 
d="M99.5 32.5q-38.5 40.5 -38.5 104.5v227q0 63 38.5 104t99.5 41t99.5 -41t38.5 -104v-227q0 -64 -38.5 -104.5t-99.5 -40.5t-99.5 40.5zM277 52.5q30 32.5 30 84.5v227q0 52 -30 84.5t-78 32.5t-78 -32.5t-30 -84.5v-227q0 -52 30 -84.5t78 -32.5t78 32.5zM230 627.5
q-12 6.5 -26 17.5q-2 2 -11.5 9t-17.5 10t-17 3q-16 0 -27 -5.5t-22 -22.5q-6 -9 -14 -3l-3 2q-8 5 -2 14q26 41 67 41q15 0 26.5 -6t28.5 -17q18 -12 27 -17t20 -5q14 0 25 6.5t22 24.5q2 4 6 5t8 -1l3 -2q5 -3 5 -9t-4 -11q-14 -21 -32 -30.5t-35 -9.5q-15 0 -27 6.5z" />
    <glyph glyph-name="odieresis" unicode="&#xf6;" horiz-adv-x="398" 
d="M99.5 32.5q-38.5 40.5 -38.5 104.5v227q0 63 38.5 104t99.5 41t99.5 -41t38.5 -104v-227q0 -64 -38.5 -104.5t-99.5 -40.5t-99.5 40.5zM277 52.5q30 32.5 30 84.5v227q0 52 -30 84.5t-78 32.5t-78 -32.5t-30 -84.5v-227q0 -52 30 -84.5t78 -32.5t78 32.5zM232 625
q-12 12 -12 31q0 18 12 30t31 12t31 -12t12 -30q0 -19 -12 -31t-31 -12t-31 12zM102 625q-12 12 -12 31q0 18 12 30t31 12t31 -12t12 -30q0 -19 -12 -31t-31 -12t-31 12z" />
    <glyph glyph-name="divide" unicode="&#xf7;" horiz-adv-x="444" 
d="M190.5 446.5q-12.5 12.5 -12.5 30.5q0 17 13 29.5t30 12.5t30.5 -12.5t13.5 -29.5q0 -18 -13 -30.5t-31 -12.5t-30.5 12.5zM37 331v5q0 10 10 10h350q10 0 10 -10v-5q0 -10 -10 -10h-350q-10 0 -10 10zM190.5 161.5q-12.5 12.5 -12.5 30.5q0 17 13 29.5t30 12.5
t30.5 -12.5t13.5 -29.5q0 -18 -13 -30.5t-31 -12.5t-30.5 12.5z" />
    <glyph glyph-name="oslash" unicode="&#xf8;" horiz-adv-x="401" 
d="M303 464q35 -38 35 -100v-227q0 -64 -38.5 -104.5t-100.5 -40.5q-40 0 -72 19q-4 1 -6 -2l-19 -49q-2 -5 -5.5 -6.5t-7.5 0.5l-7 4q-9 5 -6 13l23 57q1 3 -1 5q-37 40 -37 104v227q0 63 38.5 104t99.5 41q44 0 76 -21q4 -1 6 2l22 57q3 10 13 5l7 -4q8 -5 5 -13l-26 -66
q-1 -3 1 -5zM110 68q1 -2 2.5 -1.5t2.5 2.5l152 385q1 3 -2 5q-27 22 -66 22q-48 0 -78 -32.5t-30 -84.5v-227q0 -39 19 -69zM292 429q-1 2 -2.5 2t-2.5 -3l-152 -384q-1 -3 2 -5q27 -19 62 -19q48 0 78.5 32.5t30.5 84.5v227q0 36 -16 65z" />
    <glyph glyph-name="ugrave" unicode="&#xf9;" horiz-adv-x="411" 
d="M316 501h10q10 0 10 -10v-481q0 -10 -10 -10h-10q-10 0 -10 10v40q0 3 -2 3.5t-3 -2.5q-31 -58 -105 -58q-60 0 -94 36.5t-34 108.5v353q0 10 10 10h10q10 0 10 -10v-346q0 -62 26.5 -93t75.5 -31t77.5 36t28.5 99v335q0 10 10 10zM212 575q0 -6 -8 -6h-6q-7 0 -12 7
l-66 112q-2 4 -2 6q0 6 9 6h9q8 0 12 -7l62 -112q2 -4 2 -6z" />
    <glyph glyph-name="uacute" unicode="&#xfa;" horiz-adv-x="411" 
d="M316 501h10q10 0 10 -10v-481q0 -10 -10 -10h-10q-10 0 -10 10v40q0 3 -2 3.5t-3 -2.5q-31 -58 -105 -58q-60 0 -94 36.5t-34 108.5v353q0 10 10 10h10q10 0 10 -10v-346q0 -62 26.5 -93t75.5 -31t77.5 36t28.5 99v335q0 10 10 10zM172 572.5q-2 3.5 1 8.5l62 112
q3 7 12 7h9q6 0 8 -3.5t-1 -8.5l-65 -112q-5 -7 -12 -7h-6q-6 0 -8 3.5z" />
    <glyph glyph-name="ucircumflex" unicode="&#xfb;" horiz-adv-x="411" 
d="M316 501h10q10 0 10 -10v-481q0 -10 -10 -10h-10q-10 0 -10 10v40q0 3 -2 3.5t-3 -2.5q-31 -58 -105 -58q-60 0 -94 36.5t-34 108.5v353q0 10 10 10h10q10 0 10 -10v-346q0 -62 26.5 -93t75.5 -31t77.5 36t28.5 99v335q0 10 10 10zM112.5 584.5q-1.5 3.5 1.5 8.5l65 100
q5 7 12 7h18q7 0 12 -6l67 -101l2 -5q0 -7 -9 -7h-14q-7 0 -12 7l-51 81q-1 2 -3 2t-3 -2l-51 -81q-5 -7 -12 -7h-15q-6 0 -7.5 3.5z" />
    <glyph glyph-name="udieresis" unicode="&#xfc;" horiz-adv-x="411" 
d="M316 501h10q10 0 10 -10v-481q0 -10 -10 -10h-10q-10 0 -10 10v40q0 3 -2 3.5t-3 -2.5q-31 -58 -105 -58q-60 0 -94 36.5t-34 108.5v353q0 10 10 10h10q10 0 10 -10v-346q0 -62 26.5 -93t75.5 -31t77.5 36t28.5 99v335q0 10 10 10zM235 625q-12 12 -12 31q0 18 12 30
t31 12t31 -12t12 -30q0 -19 -12 -31t-31 -12t-31 12zM105 625q-12 12 -12 31q0 18 12 30t31 12t31 -12t12 -30q0 -19 -12 -31t-31 -12t-31 12z" />
    <glyph glyph-name="yacute" unicode="&#xfd;" horiz-adv-x="335" 
d="M43 -197q-2 3 -2 7v7q0 10 10 10h1q29 1 44.5 14t26.5 46.5t29 109.5q1 2 0.5 3.5t-0.5 2.5l-129 487l-1 3q0 8 10 8h11q10 0 11 -9l112 -445q1 -3 2 -3t2 3l111 445q2 9 11 9h11q5 0 7.5 -3t1.5 -8l-143 -549q-17 -62 -31.5 -91.5t-33.5 -39.5t-52 -10h-5q-2 0 -4 3z
M138 572.5q-2 3.5 1 8.5l62 112q3 7 12 7h9q6 0 8 -3.5t-1 -8.5l-65 -112q-5 -7 -12 -7h-6q-6 0 -8 3.5z" />
    <glyph glyph-name="thorn" unicode="&#xfe;" horiz-adv-x="403" 
d="M305 468.5q37 -40.5 37 -104.5v-227q0 -64 -37 -104.5t-97 -40.5q-34 0 -61 15.5t-44 43.5q-2 2 -3.5 1.5t-1.5 -3.5v-239q0 -10 -10 -10h-10q-10 0 -10 10v880q0 10 10 10h10q10 0 10 -10v-238q0 -3 1.5 -3.5t2.5 1.5q17 28 44.5 43.5t61.5 15.5q60 0 97 -40.5z
M281.5 448.5q-30.5 32.5 -79.5 32.5q-46 0 -75 -32.5t-29 -84.5v-227q0 -52 29 -84.5t75 -32.5q49 0 79.5 32.5t30.5 84.5v227q0 52 -30.5 84.5z" />
    <glyph glyph-name="ydieresis" unicode="&#xff;" horiz-adv-x="335" 
d="M43 -197q-2 3 -2 7v7q0 10 10 10h1q29 1 44.5 14t26.5 46.5t29 109.5q1 2 0.5 3.5t-0.5 2.5l-129 487l-1 3q0 8 10 8h11q10 0 11 -9l112 -445q1 -3 2 -3t2 3l111 445q2 9 11 9h11q5 0 7.5 -3t1.5 -8l-143 -549q-17 -62 -31.5 -91.5t-33.5 -39.5t-52 -10h-5q-2 0 -4 3z
M202 625q-12 12 -12 31q0 18 12 30t31 12t31 -12t12 -30q0 -19 -12 -31t-31 -12t-31 12zM72 625q-12 12 -12 31q0 18 12 30t31 12t31 -12t12 -30q0 -19 -12 -31t-31 -12t-31 12z" />
    <glyph glyph-name="Amacron" unicode="&#x100;" horiz-adv-x="367" 
d="M325 9l-30 139q0 2 -1.5 3t-3.5 1h-213q-2 0 -3.5 -1t-1.5 -3l-30 -139q-1 -9 -11 -9h-10q-5 0 -7.5 3t-1.5 8l153 680q2 9 11 9h14q9 0 11 -9l154 -680v-2q0 -9 -9 -9h-10q-9 0 -11 9zM80.5 180.5q1.5 -1.5 3.5 -1.5h199q2 0 3.5 1.5t0.5 2.5l-102 461q-1 3 -2 3t-2 -3
l-101 -461q-1 -1 0.5 -2.5zM87 812v6q0 10 10 10h173q10 0 10 -10v-6q0 -10 -10 -10h-173q-10 0 -10 10z" />
    <glyph glyph-name="amacron" unicode="&#x101;" horiz-adv-x="392" 
d="M296 464q35 -45 35 -121v-333q0 -10 -10 -10h-10q-10 0 -10 10v45q0 3 -2 3.5t-3 -2.5q-19 -32 -51 -48t-71 -16q-52 0 -88 30.5t-36 105.5q0 80 43 119t115 39h89q4 0 4 4v55q0 62 -27 99t-78 37q-40 0 -70 -24.5t-34 -63.5q0 -9 -10 -9l-11 1q-5 0 -7.5 3t-1.5 8
q6 51 44.5 82t90.5 31q64 0 99 -45zM264.5 52q36.5 32 36.5 92v111q0 4 -4 4h-88q-59 0 -94 -33t-35 -97q0 -55 27 -82t71 -27q50 0 86.5 32zM99 613v6q0 10 10 10h173q10 0 10 -10v-6q0 -10 -10 -10h-173q-10 0 -10 10z" />
    <glyph glyph-name="Abreve" unicode="&#x102;" horiz-adv-x="367" 
d="M325 9l-30 139q0 2 -1.5 3t-3.5 1h-213q-2 0 -3.5 -1t-1.5 -3l-30 -139q-1 -9 -11 -9h-10q-5 0 -7.5 3t-1.5 8l153 680q2 9 11 9h14q9 0 11 -9l154 -680v-2q0 -9 -9 -9h-10q-9 0 -11 9zM80.5 180.5q1.5 -1.5 3.5 -1.5h199q2 0 3.5 1.5t0.5 2.5l-102 461q-1 3 -2 3t-2 -3
l-101 -461q-1 -1 0.5 -2.5zM118.5 787q-27.5 25 -30.5 63v2q0 8 9 8h5q10 0 11 -10q3 -28 23 -46t47 -18t47 18t23 46q1 10 11 10h5q5 0 7.5 -3t1.5 -7q-3 -38 -30 -63t-65 -25q-37 0 -64.5 25z" />
    <glyph glyph-name="abreve" unicode="&#x103;" horiz-adv-x="392" 
d="M296 464q35 -45 35 -121v-333q0 -10 -10 -10h-10q-10 0 -10 10v45q0 3 -2 3.5t-3 -2.5q-19 -32 -51 -48t-71 -16q-52 0 -88 30.5t-36 105.5q0 80 43 119t115 39h89q4 0 4 4v55q0 62 -27 99t-78 37q-40 0 -70 -24.5t-34 -63.5q0 -9 -10 -9l-11 1q-5 0 -7.5 3t-1.5 8
q6 51 44.5 82t90.5 31q64 0 99 -45zM264.5 52q36.5 32 36.5 92v111q0 4 -4 4h-88q-59 0 -94 -33t-35 -97q0 -55 27 -82t71 -27q50 0 86.5 32zM131.5 588q-27.5 25 -30.5 63v2q0 8 9 8h5q10 0 11 -10q3 -28 23 -46t47 -18t47 18t23 46q1 10 11 10h5q5 0 7.5 -3t1.5 -7
q-3 -38 -30 -63t-65 -25q-37 0 -64.5 25z" />
    <glyph glyph-name="Aogonek" unicode="&#x104;" horiz-adv-x="367" 
d="M325 9l-30 139q0 2 -1.5 3t-3.5 1h-213q-2 0 -3.5 -1t-1.5 -3l-30 -139q-1 -9 -11 -9h-10q-5 0 -7.5 3t-1.5 8l153 680q2 9 11 9h14q9 0 11 -9l154 -680v-2q0 -9 -9 -9h-10q-9 0 -11 9zM80.5 180.5q1.5 -1.5 3.5 -1.5h199q2 0 3.5 1.5t0.5 2.5l-102 461q-1 3 -2 3t-2 -3
l-101 -461q-1 -1 0.5 -2.5zM378 -171q0 -8 -7 -9q-11 -3 -23 -3q-30 0 -50.5 18.5t-20.5 60.5q0 56 47 97l4 4q3 3 10 3h3q6 0 7.5 -4t-2.5 -8q-42 -47 -42 -92q0 -29 13.5 -42t34.5 -13q9 0 13 1l4 1q6 0 7 -6l2 -4v-1v-3z" />
    <glyph glyph-name="aogonek" unicode="&#x105;" horiz-adv-x="392" 
d="M342 -157q6 0 7 -6l2 -4v-3q0 -9 -8 -10q-10 -3 -23 -3q-29 0 -49.5 19t-20.5 60q0 57 51 102q2 1 1 4q-1 2 -1 8v45q0 3 -2 3.5t-3 -2.5q-19 -32 -51 -48t-71 -16q-52 0 -88 30.5t-36 105.5q0 80 43 119t115 39h89q4 0 4 4v55q0 62 -27 99t-78 37q-40 0 -70 -24.5
t-34 -63.5q0 -9 -10 -9l-11 1q-5 0 -7.5 3t-1.5 7q6 51 44.5 82.5t90.5 31.5q64 0 99 -45t35 -121v-336q0 -5 -5 -12q-49 -51 -49 -98q0 -29 13 -42.5t34 -13.5q9 0 14 1zM264.5 52q36.5 32 36.5 92v111q0 4 -4 4h-88q-59 0 -94 -33t-35 -97q0 -55 27 -82t71 -27
q50 0 86.5 32z" />
    <glyph glyph-name="Cacute" unicode="&#x106;" horiz-adv-x="435" 
d="M110 35.5q-42 43.5 -42 115.5v399q0 72 42 115t110 43q70 0 112 -43t42 -115v-20q0 -10 -10 -10l-11 -1q-10 0 -10 10v23q0 58 -34 93t-89 35t-88.5 -35t-33.5 -93v-403q0 -58 33.5 -93.5t88.5 -35.5t89 35.5t34 93.5v22q0 9 10 9l11 -1q10 0 10 -10v-18
q0 -72 -42 -115.5t-112 -43.5q-68 0 -110 43.5zM190 771.5q-2 3.5 1 8.5l62 112q3 7 12 7h9q6 0 8 -3.5t-1 -8.5l-65 -112q-5 -7 -12 -7h-6q-6 0 -8 3.5z" />
    <glyph glyph-name="cacute" unicode="&#x107;" horiz-adv-x="384" 
d="M99.5 32.5q-38.5 40.5 -38.5 104.5v227q0 63 38.5 104t99.5 41q40 0 71.5 -17.5t49 -46.5t17.5 -62v-3q0 -10 -10 -10h-10q-10 0 -10 10v3q0 39 -30.5 68.5t-77.5 29.5q-48 0 -78 -32.5t-30 -84.5v-227q0 -52 30 -84.5t78 -32.5q47 0 77.5 29.5t30.5 68.5v3q0 10 10 10
h10q10 0 10 -10v-3q0 -33 -17.5 -62t-49 -46.5t-71.5 -17.5q-61 0 -99.5 40.5zM169 572.5q-2 3.5 1 8.5l62 112q3 7 12 7h9q6 0 8 -3.5t-1 -8.5l-65 -112q-5 -7 -12 -7h-6q-6 0 -8 3.5z" />
    <glyph glyph-name="Ccircumflex" unicode="&#x108;" horiz-adv-x="435" 
d="M110 35.5q-42 43.5 -42 115.5v399q0 72 42 115t110 43q70 0 112 -43t42 -115v-20q0 -10 -10 -10l-11 -1q-10 0 -10 10v23q0 58 -34 93t-89 35t-88.5 -35t-33.5 -93v-403q0 -58 33.5 -93.5t88.5 -35.5t89 35.5t34 93.5v22q0 9 10 9l11 -1q10 0 10 -10v-18
q0 -72 -42 -115.5t-112 -43.5q-68 0 -110 43.5zM131.5 783.5q-1.5 3.5 1.5 8.5l65 100q5 7 12 7h18q7 0 12 -6l67 -101l2 -5q0 -7 -9 -7h-14q-7 0 -12 7l-51 81q-1 2 -3 2t-3 -2l-51 -81q-5 -7 -12 -7h-15q-6 0 -7.5 3.5z" />
    <glyph glyph-name="ccircumflex" unicode="&#x109;" horiz-adv-x="384" 
d="M99.5 32.5q-38.5 40.5 -38.5 104.5v227q0 63 38.5 104t99.5 41q40 0 71.5 -17.5t49 -46.5t17.5 -62v-3q0 -10 -10 -10h-10q-10 0 -10 10v3q0 39 -30.5 68.5t-77.5 29.5q-48 0 -78 -32.5t-30 -84.5v-227q0 -52 30 -84.5t78 -32.5q47 0 77.5 29.5t30.5 68.5v3q0 10 10 10
h10q10 0 10 -10v-3q0 -33 -17.5 -62t-49 -46.5t-71.5 -17.5q-61 0 -99.5 40.5zM110.5 584.5q-1.5 3.5 1.5 8.5l65 100q5 7 12 7h18q7 0 12 -6l67 -101l2 -5q0 -7 -9 -7h-14q-7 0 -12 7l-51 81q-1 2 -3 2t-3 -2l-51 -81q-5 -7 -12 -7h-15q-6 0 -7.5 3.5z" />
    <glyph glyph-name="Cdotaccent" unicode="&#x10a;" horiz-adv-x="435" 
d="M110 35.5q-42 43.5 -42 115.5v399q0 72 42 115t110 43q70 0 112 -43t42 -115v-20q0 -10 -10 -10l-11 -1q-10 0 -10 10v23q0 58 -34 93t-89 35t-88.5 -35t-33.5 -93v-403q0 -58 33.5 -93.5t88.5 -35.5t89 35.5t34 93.5v22q0 9 10 9l11 -1q10 0 10 -10v-18
q0 -72 -42 -115.5t-112 -43.5q-68 0 -110 43.5zM189 824q-12 12 -12 31q0 18 12 30t31 12t31 -12t12 -30q0 -19 -12 -31t-31 -12t-31 12z" />
    <glyph glyph-name="cdotaccent" unicode="&#x10b;" horiz-adv-x="384" 
d="M99.5 32.5q-38.5 40.5 -38.5 104.5v227q0 63 38.5 104t99.5 41q40 0 71.5 -17.5t49 -46.5t17.5 -62v-3q0 -10 -10 -10h-10q-10 0 -10 10v3q0 39 -30.5 68.5t-77.5 29.5q-48 0 -78 -32.5t-30 -84.5v-227q0 -52 30 -84.5t78 -32.5q47 0 77.5 29.5t30.5 68.5v3q0 10 10 10
h10q10 0 10 -10v-3q0 -33 -17.5 -62t-49 -46.5t-71.5 -17.5q-61 0 -99.5 40.5zM168 625q-12 12 -12 31q0 18 12 30t31 12t31 -12t12 -30q0 -19 -12 -31t-31 -12t-31 12z" />
    <glyph glyph-name="Ccaron" unicode="&#x10c;" horiz-adv-x="435" 
d="M110 35.5q-42 43.5 -42 115.5v399q0 72 42 115t110 43q70 0 112 -43t42 -115v-20q0 -10 -10 -10l-11 -1q-10 0 -10 10v23q0 58 -34 93t-89 35t-88.5 -35t-33.5 -93v-403q0 -58 33.5 -93.5t88.5 -35.5t89 35.5t34 93.5v22q0 9 10 9l11 -1q10 0 10 -10v-18
q0 -72 -42 -115.5t-112 -43.5q-68 0 -110 43.5zM132 893q0 6 8 6h15q7 0 12 -7l51 -82q1 -1 3 -1t3 1l51 82q5 7 12 7h14q6 0 8 -3.5t-1 -8.5l-67 -101q-4 -6 -12 -6h-18q-7 0 -12 7l-65 100q-2 4 -2 6z" />
    <glyph glyph-name="ccaron" unicode="&#x10d;" horiz-adv-x="384" 
d="M99.5 32.5q-38.5 40.5 -38.5 104.5v227q0 63 38.5 104t99.5 41q40 0 71.5 -17.5t49 -46.5t17.5 -62v-3q0 -10 -10 -10h-10q-10 0 -10 10v3q0 39 -30.5 68.5t-77.5 29.5q-48 0 -78 -32.5t-30 -84.5v-227q0 -52 30 -84.5t78 -32.5q47 0 77.5 29.5t30.5 68.5v3q0 10 10 10
h10q10 0 10 -10v-3q0 -33 -17.5 -62t-49 -46.5t-71.5 -17.5q-61 0 -99.5 40.5zM111 694q0 6 8 6h15q7 0 12 -7l51 -82q1 -1 3 -1t3 1l51 82q5 7 12 7h14q6 0 8 -3.5t-1 -8.5l-67 -101q-4 -6 -12 -6h-18q-7 0 -12 7l-65 100q-2 4 -2 6z" />
    <glyph glyph-name="Dcaron" unicode="&#x10e;" horiz-adv-x="459" 
d="M88 10v680q0 10 10 10h137q69 0 109.5 -48.5t40.5 -132.5v-338q0 -84 -40.5 -132.5t-109.5 -48.5h-137q-10 0 -10 10zM122 28h114q54 0 86 41t32 112v337q0 72 -31.5 113t-86.5 41h-114q-4 0 -4 -4v-636q0 -4 4 -4zM140 890q0 6 8 6h15q7 0 12 -7l51 -82q1 -1 3 -1t3 1
l51 82q5 7 12 7h14q6 0 8 -3.5t-1 -8.5l-67 -101q-4 -6 -12 -6h-18q-7 0 -12 7l-65 100q-2 4 -2 6z" />
    <glyph glyph-name="dcaron" unicode="&#x10f;" horiz-adv-x="410" 
d="M315 700h10q10 0 10 -10v-680q0 -10 -10 -10h-10q-10 0 -10 10v37q0 3 -1.5 3t-3.5 -2q-17 -27 -43.5 -41.5t-60.5 -14.5q-60 0 -97.5 40.5t-37.5 104.5v227q0 64 37.5 104.5t97.5 40.5q33 0 60 -14.5t44 -41.5q2 -2 3.5 -2t1.5 3v236q0 10 10 10zM275.5 52.5
q29.5 32.5 29.5 84.5v227q0 52 -29.5 84.5t-75.5 32.5q-48 0 -78.5 -32.5t-30.5 -84.5v-227q0 -52 30.5 -84.5t78.5 -32.5q46 0 75.5 32.5zM409 572.5q-2 3.5 1 8.5l62 112q3 7 12 7h9q6 0 8 -3.5t-1 -8.5l-65 -112q-5 -7 -12 -7h-6q-6 0 -8 3.5z" />
    <glyph glyph-name="Dcroat" unicode="&#x110;" horiz-adv-x="510" 
d="M395 651.5q40 -48.5 40 -132.5v-338q0 -84 -40 -132.5t-109 -48.5h-138q-10 0 -10 10v339q0 4 -4 4h-36q-10 0 -10 10v5q0 10 10 10h36q4 0 4 4v308q0 10 10 10h138q69 0 109 -48.5zM404 518q0 72 -31.5 113t-86.5 41h-114q-4 0 -4 -4v-286q0 -4 4 -4h96q10 0 10 -10v-5
q0 -10 -10 -10h-96q-4 0 -4 -4v-317q0 -4 4 -4h114q55 0 86.5 41t31.5 112v337z" />
    <glyph glyph-name="dcroat" unicode="&#x111;" horiz-adv-x="410" 
d="M387 590v-5q0 -10 -10 -10h-38q-4 0 -4 -4v-561q0 -10 -10 -10h-10q-10 0 -10 10v37q0 3 -1.5 3t-3.5 -2q-17 -27 -43.5 -41.5t-60.5 -14.5q-60 0 -97.5 40.5t-37.5 104.5v227q0 64 37.5 104.5t97.5 40.5q33 0 60 -14.5t44 -41.5q2 -2 3.5 -2t1.5 3v117q0 4 -4 4h-159
q-10 0 -10 10v5q0 10 10 10h159q4 0 4 4v86q0 10 10 10h10q10 0 10 -10v-86q0 -4 4 -4h38q10 0 10 -10zM275.5 52.5q29.5 32.5 29.5 84.5v227q0 52 -29.5 84.5t-75.5 32.5q-48 0 -78.5 -32.5t-30.5 -84.5v-227q0 -52 30.5 -84.5t78.5 -32.5q46 0 75.5 32.5z" />
    <glyph glyph-name="Emacron" unicode="&#x112;" horiz-adv-x="424" 
d="M366 672h-244q-4 0 -4 -4v-300q0 -4 4 -4h160q10 0 10 -10v-7q0 -10 -10 -10h-160q-4 0 -4 -4v-301q0 -4 4 -4h244q10 0 10 -10v-8q0 -10 -10 -10h-268q-10 0 -10 10v680q0 10 10 10h268q10 0 10 -10v-8q0 -10 -10 -10zM135 812v6q0 10 10 10h173q10 0 10 -10v-6
q0 -10 -10 -10h-173q-10 0 -10 10z" />
    <glyph glyph-name="emacron" unicode="&#x113;" horiz-adv-x="391" 
d="M327 244h-232q-4 0 -4 -4v-103q0 -52 30 -84.5t78 -32.5q39 0 67 23t37 61q3 9 11 9h10q5 0 7.5 -3.5t1.5 -8.5q-9 -49 -45.5 -79t-88.5 -30q-61 0 -99.5 40.5t-38.5 104.5v227q0 63 38.5 104t99.5 41t99.5 -41t38.5 -104v-110q0 -10 -10 -10zM121 448.5
q-30 -32.5 -30 -84.5v-90q0 -4 4 -4h208q4 0 4 4v90q0 52 -30 84.5t-78 32.5t-78 -32.5zM99 647v6q0 10 10 10h173q10 0 10 -10v-6q0 -10 -10 -10h-173q-10 0 -10 10z" />
    <glyph glyph-name="Edotaccent" unicode="&#x116;" horiz-adv-x="424" 
d="M366 672h-244q-4 0 -4 -4v-300q0 -4 4 -4h160q10 0 10 -10v-7q0 -10 -10 -10h-160q-4 0 -4 -4v-301q0 -4 4 -4h244q10 0 10 -10v-8q0 -10 -10 -10h-268q-10 0 -10 10v680q0 10 10 10h268q10 0 10 -10v-8q0 -10 -10 -10zM201 824q-12 12 -12 31q0 18 12 30t31 12t31 -12
t12 -30q0 -19 -12 -31t-31 -12t-31 12z" />
    <glyph glyph-name="edotaccent" unicode="&#x117;" horiz-adv-x="391" 
d="M327 244h-232q-4 0 -4 -4v-103q0 -52 30 -84.5t78 -32.5q39 0 67 23t37 61q3 9 11 9h10q5 0 7.5 -3.5t1.5 -8.5q-9 -49 -45.5 -79t-88.5 -30q-61 0 -99.5 40.5t-38.5 104.5v227q0 63 38.5 104t99.5 41t99.5 -41t38.5 -104v-110q0 -10 -10 -10zM121 448.5
q-30 -32.5 -30 -84.5v-90q0 -4 4 -4h208q4 0 4 4v90q0 52 -30 84.5t-78 32.5t-78 -32.5zM165 625q-12 12 -12 31q0 18 12 30t31 12t31 -12t12 -30q0 -19 -12 -31t-31 -12t-31 12z" />
    <glyph glyph-name="Eogonek" unicode="&#x118;" horiz-adv-x="424" 
d="M366 672h-244q-4 0 -4 -4v-300q0 -4 4 -4h160q10 0 10 -10v-7q0 -10 -10 -10h-160q-4 0 -4 -4v-301q0 -4 4 -4h244q10 0 10 -10v-8q0 -10 -10 -10h-120q-3 0 -5 -2q-47 -51 -47 -96q0 -29 12.5 -42.5t32.5 -13.5q6 0 16 2h3q6 0 9 -8l1 -3l1 -5q0 -5 -8 -7q-11 -3 -23 -3
q-26 0 -45 14t-23 45q-2 14 -2 22q0 50 42 92q3 5 -2 5h-110q-10 0 -10 10v680q0 10 10 10h268q10 0 10 -10v-8q0 -10 -10 -10z" />
    <glyph glyph-name="eogonek" unicode="&#x119;" horiz-adv-x="391" 
d="M327 244h-232q-4 0 -4 -4v-103q0 -52 30 -84.5t78 -32.5q39 0 67 23t37 61q3 9 11 9h10q5 0 7.5 -3.5t1.5 -8.5q-9 -48 -44 -78t-85 -31q-3 0 -5 -2q-39 -46 -39 -89q0 -28 13 -41.5t33 -13.5q6 0 16 2h3q7 0 8 -6l2 -4v-3q0 -9 -8 -10q-10 -3 -23 -3q-29 0 -49.5 19
t-20.5 61q0 48 37 88q4 4 -2 5q-49 10 -78.5 48.5t-29.5 93.5v227q0 63 38.5 104t99.5 41t99.5 -41t38.5 -104v-110q0 -10 -10 -10zM121 448.5q-30 -32.5 -30 -84.5v-90q0 -4 4 -4h208q4 0 4 4v90q0 52 -30 84.5t-78 32.5t-78 -32.5z" />
    <glyph glyph-name="Ecaron" unicode="&#x11a;" horiz-adv-x="424" 
d="M366 672h-244q-4 0 -4 -4v-300q0 -4 4 -4h160q10 0 10 -10v-7q0 -10 -10 -10h-160q-4 0 -4 -4v-301q0 -4 4 -4h244q10 0 10 -10v-8q0 -10 -10 -10h-268q-10 0 -10 10v680q0 10 10 10h268q10 0 10 -10v-8q0 -10 -10 -10zM144 893q0 6 8 6h15q7 0 12 -7l51 -82q1 -1 3 -1
t3 1l51 82q5 7 12 7h14q6 0 8 -3.5t-1 -8.5l-67 -101q-4 -6 -12 -6h-18q-7 0 -12 7l-65 100q-2 4 -2 6z" />
    <glyph glyph-name="ecaron" unicode="&#x11b;" horiz-adv-x="391" 
d="M327 244h-232q-4 0 -4 -4v-103q0 -52 30 -84.5t78 -32.5q39 0 67 23t37 61q3 9 11 9h10q5 0 7.5 -3.5t1.5 -8.5q-9 -49 -45.5 -79t-88.5 -30q-61 0 -99.5 40.5t-38.5 104.5v227q0 63 38.5 104t99.5 41t99.5 -41t38.5 -104v-110q0 -10 -10 -10zM121 448.5
q-30 -32.5 -30 -84.5v-90q0 -4 4 -4h208q4 0 4 4v90q0 52 -30 84.5t-78 32.5t-78 -32.5zM108 691q0 6 8 6h15q7 0 12 -7l51 -82q1 -1 3 -1t3 1l51 82q5 7 12 7h14q6 0 8 -3.5t-1 -8.5l-67 -101q-4 -6 -12 -6h-18q-7 0 -12 7l-65 100q-2 4 -2 6z" />
    <glyph glyph-name="Gcircumflex" unicode="&#x11c;" horiz-adv-x="441" 
d="M110 34q-42 42 -42 112v408q0 70 42 112t110 42q69 0 111 -42.5t42 -112.5v-45q0 -10 -10 -10h-10q-10 0 -10 10v47q0 56 -34 90.5t-89 34.5t-88.5 -34.5t-33.5 -90.5v-410q0 -56 33.5 -90.5t88.5 -34.5t89 34.5t34 90.5v159q0 4 -4 4h-103q-10 0 -10 10v7q0 10 10 10
h127q10 0 10 -10v-179q0 -70 -42 -112t-111 -42q-68 0 -110 42zM131.5 783.5q-1.5 3.5 1.5 8.5l65 100q5 7 12 7h18q7 0 12 -6l67 -101l2 -5q0 -7 -9 -7h-14q-7 0 -12 7l-51 81q-1 2 -3 2t-3 -2l-51 -81q-5 -7 -12 -7h-15q-6 0 -7.5 3.5z" />
    <glyph glyph-name="gcircumflex" unicode="&#x11d;" horiz-adv-x="397" 
d="M315 501h11q10 0 10 -10v-489q0 -202 -174 -202q-12 0 -12 10v7q0 10 10 10q76 0 110.5 45t34.5 131v47q0 3 -1.5 3.5t-3.5 -1.5q-17 -28 -44 -43.5t-61 -15.5q-60 0 -97 40t-37 104v227q0 64 37 104.5t97 40.5q35 0 62 -15.5t43 -43.5q2 -2 3.5 -1.5t1.5 3.5v39
q0 10 10 10zM275.5 53.5q29.5 32.5 29.5 84.5v226q0 52 -29.5 84.5t-75.5 32.5q-48 0 -78.5 -32.5t-30.5 -84.5v-226q0 -52 30.5 -84.5t78.5 -32.5q46 0 75.5 32.5zM110.5 584.5q-1.5 3.5 1.5 8.5l65 100q5 7 12 7h18q7 0 12 -6l67 -101l2 -5q0 -7 -9 -7h-14q-7 0 -12 7
l-51 81q-1 2 -3 2t-3 -2l-51 -81q-5 -7 -12 -7h-15q-6 0 -7.5 3.5z" />
    <glyph glyph-name="Gbreve" unicode="&#x11e;" horiz-adv-x="441" 
d="M110 34q-42 42 -42 112v408q0 70 42 112t110 42q69 0 111 -42.5t42 -112.5v-45q0 -10 -10 -10h-10q-10 0 -10 10v47q0 56 -34 90.5t-89 34.5t-88.5 -34.5t-33.5 -90.5v-410q0 -56 33.5 -90.5t88.5 -34.5t89 34.5t34 90.5v159q0 4 -4 4h-103q-10 0 -10 10v7q0 10 10 10
h127q10 0 10 -10v-179q0 -70 -42 -112t-111 -42q-68 0 -110 42zM155.5 787q-27.5 25 -30.5 63v2q0 8 9 8h5q10 0 11 -10q3 -28 23 -46t47 -18t47 18t23 46q1 10 11 10h5q5 0 7.5 -3t1.5 -7q-3 -38 -30 -63t-65 -25q-37 0 -64.5 25z" />
    <glyph glyph-name="gbreve" unicode="&#x11f;" horiz-adv-x="397" 
d="M315 501h11q10 0 10 -10v-489q0 -202 -174 -202q-12 0 -12 10v7q0 10 10 10q76 0 110.5 45t34.5 131v47q0 3 -1.5 3.5t-3.5 -1.5q-17 -28 -44 -43.5t-61 -15.5q-60 0 -97 40t-37 104v227q0 64 37 104.5t97 40.5q35 0 62 -15.5t43 -43.5q2 -2 3.5 -1.5t1.5 3.5v39
q0 10 10 10zM275.5 53.5q29.5 32.5 29.5 84.5v226q0 52 -29.5 84.5t-75.5 32.5q-48 0 -78.5 -32.5t-30.5 -84.5v-226q0 -52 30.5 -84.5t78.5 -32.5q46 0 75.5 32.5zM134.5 588q-27.5 25 -30.5 63v2q0 8 9 8h5q10 0 11 -10q3 -28 23 -46t47 -18t47 18t23 46q1 10 11 10h5
q5 0 7.5 -3t1.5 -7q-3 -38 -30 -63t-65 -25q-37 0 -64.5 25z" />
    <glyph glyph-name="Gdotaccent" unicode="&#x120;" horiz-adv-x="441" 
d="M110 34q-42 42 -42 112v408q0 70 42 112t110 42q69 0 111 -42.5t42 -112.5v-45q0 -10 -10 -10h-10q-10 0 -10 10v47q0 56 -34 90.5t-89 34.5t-88.5 -34.5t-33.5 -90.5v-410q0 -56 33.5 -90.5t88.5 -34.5t89 34.5t34 90.5v159q0 4 -4 4h-103q-10 0 -10 10v7q0 10 10 10
h127q10 0 10 -10v-179q0 -70 -42 -112t-111 -42q-68 0 -110 42zM189 824q-12 12 -12 31q0 18 12 30t31 12t31 -12t12 -30q0 -19 -12 -31t-31 -12t-31 12z" />
    <glyph glyph-name="gdotaccent" unicode="&#x121;" horiz-adv-x="397" 
d="M315 501h11q10 0 10 -10v-489q0 -202 -174 -202q-12 0 -12 10v7q0 10 10 10q76 0 110.5 45t34.5 131v47q0 3 -1.5 3.5t-3.5 -1.5q-17 -28 -44 -43.5t-61 -15.5q-60 0 -97 40t-37 104v227q0 64 37 104.5t97 40.5q35 0 62 -15.5t43 -43.5q2 -2 3.5 -1.5t1.5 3.5v39
q0 10 10 10zM275.5 53.5q29.5 32.5 29.5 84.5v226q0 52 -29.5 84.5t-75.5 32.5q-48 0 -78.5 -32.5t-30.5 -84.5v-226q0 -52 30.5 -84.5t78.5 -32.5q46 0 75.5 32.5zM168 625q-12 12 -12 31q0 18 12 30t31 12t31 -12t12 -30q0 -19 -12 -31t-31 -12t-31 12z" />
    <glyph glyph-name="uni0122" unicode="&#x122;" horiz-adv-x="441" 
d="M110 34q-42 42 -42 112v408q0 70 42 112t110 42q69 0 111 -42.5t42 -112.5v-45q0 -10 -10 -10h-10q-10 0 -10 10v47q0 56 -34 90.5t-89 34.5t-88.5 -34.5t-33.5 -90.5v-410q0 -56 33.5 -90.5t88.5 -34.5t89 34.5t34 90.5v159q0 4 -4 4h-103q-10 0 -10 10v7q0 10 10 10
h127q10 0 10 -10v-179q0 -70 -42 -112t-111 -42q-68 0 -110 42zM195 -204.5q-2 3.5 1 8.5l62 112q3 7 12 7h9q6 0 8 -3.5t-1 -8.5l-65 -112q-5 -7 -12 -7h-6q-6 0 -8 3.5z" />
    <glyph glyph-name="uni0123" unicode="&#x123;" horiz-adv-x="397" 
d="M223 696.5q2 -3.5 -1 -8.5l-62 -111q-5 -7 -12 -7h-9q-6 0 -8 3.5t1 8.5l65 111q5 7 12 7h6q6 0 8 -3.5zM315 501h11q10 0 10 -10v-489q0 -202 -174 -202q-12 0 -12 10v7q0 10 10 10q76 0 110.5 45t34.5 131v47q0 3 -1.5 3.5t-3.5 -1.5q-17 -28 -44 -43.5t-61 -15.5
q-60 0 -97 40t-37 104v227q0 64 37 104.5t97 40.5q35 0 62 -15.5t43 -43.5q2 -2 3.5 -1.5t1.5 3.5v39q0 10 10 10zM275.5 53.5q29.5 32.5 29.5 84.5v226q0 52 -29.5 84.5t-75.5 32.5q-48 0 -78.5 -32.5t-30.5 -84.5v-226q0 -52 30.5 -84.5t78.5 -32.5q46 0 75.5 32.5z" />
    <glyph glyph-name="Hcircumflex" unicode="&#x124;" horiz-adv-x="467" 
d="M359 700h10q10 0 10 -10v-680q0 -10 -10 -10h-10q-10 0 -10 10v323q0 4 -4 4h-223q-4 0 -4 -4v-323q0 -10 -10 -10h-10q-10 0 -10 10v680q0 10 10 10h10q10 0 10 -10v-322q0 -4 4 -4h223q4 0 4 4v322q0 10 10 10zM142.5 784.5q-1.5 3.5 1.5 8.5l65 100q5 7 12 7h18
q7 0 12 -6l67 -101l2 -5q0 -7 -9 -7h-14q-7 0 -12 7l-51 81q-1 2 -3 2t-3 -2l-51 -81q-5 -7 -12 -7h-15q-6 0 -7.5 3.5z" />
    <glyph glyph-name="hcircumflex" unicode="&#x125;" horiz-adv-x="411" 
d="M310 468q33 -40 33 -111v-347q0 -10 -10 -10h-10q-10 0 -10 10v343q0 60 -26.5 93.5t-75.5 33.5t-78 -36t-29 -99v-335q0 -10 -10 -10h-10q-10 0 -10 10v680q0 10 10 10h10q10 0 10 -10v-247q0 -3 2 -3t3 3q16 31 44.5 48t64.5 17q59 0 92 -40zM118.5 753.5
q-1.5 3.5 1.5 8.5l65 100q5 7 12 7h18q7 0 12 -6l67 -101l2 -5q0 -7 -9 -7h-14q-7 0 -12 7l-51 81q-1 2 -3 2t-3 -2l-51 -81q-5 -7 -12 -7h-15q-6 0 -7.5 3.5z" />
    <glyph glyph-name="Hbar" unicode="&#x126;" horiz-adv-x="467" 
d="M427 524v-6q0 -10 -10 -10h-34q-4 0 -4 -4v-494q0 -10 -10 -10h-10q-10 0 -10 10v323q0 4 -4 4h-223q-4 0 -4 -4v-323q0 -10 -10 -10h-10q-10 0 -10 10v494q0 4 -4 4h-34q-10 0 -10 10v6q0 10 10 10h34q4 0 4 4v152q0 10 10 10h10q10 0 10 -10v-152q0 -4 4 -4h223
q4 0 4 4v152q0 10 10 10h10q10 0 10 -10v-152q0 -4 4 -4h34q10 0 10 -10zM349 368v136q0 4 -4 4h-223q-4 0 -4 -4v-136q0 -4 4 -4h223q4 0 4 4z" />
    <glyph glyph-name="hbar" unicode="&#x127;" horiz-adv-x="411" 
d="M310 468q33 -40 33 -111v-347q0 -10 -10 -10h-10q-10 0 -10 10v343q0 60 -26.5 93.5t-75.5 33.5t-78 -36t-29 -99v-335q0 -10 -10 -10h-10q-10 0 -10 10v542q0 4 -4 4h-44q-10 0 -10 10v6q0 10 10 10h44q4 0 4 4v104q0 10 10 10h10q10 0 10 -10v-104q0 -4 4 -4h153
q10 0 10 -10v-6q0 -10 -10 -10h-153q-4 0 -4 -4v-109q0 -3 2 -3t3 3q16 31 44.5 48t64.5 17q59 0 92 -40z" />
    <glyph glyph-name="Itilde" unicode="&#x128;" horiz-adv-x="206" 
d="M88 10v680q0 10 10 10h10q10 0 10 -10v-680q0 -10 -10 -10h-10q-10 0 -10 10zM134 826.5q-12 6.5 -26 17.5q-2 2 -11.5 9t-17.5 10t-17 3q-16 0 -27 -5.5t-22 -22.5q-6 -9 -14 -3l-3 2q-8 5 -2 14q26 41 67 41q15 0 26.5 -6t28.5 -17q18 -12 27 -17t20 -5q14 0 25 6.5
t22 24.5q2 4 6 5t8 -1l3 -2q5 -3 5 -9t-4 -11q-14 -21 -32 -30.5t-35 -9.5q-15 0 -27 6.5z" />
    <glyph glyph-name="itilde" unicode="&#x129;" horiz-adv-x="156" 
d="M63 10v481q0 10 10 10h10q10 0 10 -10v-481q0 -10 -10 -10h-10q-10 0 -10 10zM110 627.5q-12 6.5 -26 17.5q-2 2 -11.5 9t-17.5 10t-17 3q-16 0 -27 -5.5t-22 -22.5q-6 -9 -14 -3l-3 2q-8 5 -2 14q26 41 67 41q15 0 26.5 -6t28.5 -17q18 -12 27 -17t20 -5q14 0 25 6.5
t22 24.5q2 4 6 5t8 -1l3 -2q5 -3 5 -9t-4 -11q-14 -21 -32 -30.5t-35 -9.5q-15 0 -27 6.5z" />
    <glyph glyph-name="Imacron" unicode="&#x12a;" horiz-adv-x="206" 
d="M88 10v680q0 10 10 10h10q10 0 10 -10v-680q0 -10 -10 -10h-10q-10 0 -10 10zM6 812v6q0 10 10 10h173q10 0 10 -10v-6q0 -10 -10 -10h-173q-10 0 -10 10z" />
    <glyph glyph-name="imacron" unicode="&#x12b;" horiz-adv-x="156" 
d="M63 10v481q0 10 10 10h10q10 0 10 -10v-481q0 -10 -10 -10h-10q-10 0 -10 10zM-18 613v6q0 10 10 10h173q10 0 10 -10v-6q0 -10 -10 -10h-173q-10 0 -10 10z" />
    <glyph glyph-name="ibreve" unicode="&#x12d;" horiz-adv-x="156" 
d="M63 10v481q0 10 10 10h10q10 0 10 -10v-481q0 -10 -10 -10h-10q-10 0 -10 10zM14 613.5q-27 25.5 -31 63.5v2q0 8 9 8h5q10 0 11 -10q3 -28 23 -46.5t47 -18.5t47 18.5t23 46.5q1 10 11 10h5q10 0 10 -10q-4 -38 -31 -63.5t-65 -25.5q-37 0 -64 25.5z" />
    <glyph glyph-name="Iogonek" unicode="&#x12e;" horiz-adv-x="168" 
d="M70 10v680q0 10 10 10h10q10 0 10 -10v-680q0 -10 -10 -10h-10q-10 0 -10 10zM121 -171q0 -8 -7 -9q-11 -3 -23 -3q-29 0 -49.5 19t-20.5 60q0 58 45 97l4 4q4 3 10 3h3q6 0 8 -4t-2 -8q-42 -45 -42 -92q0 -29 13.5 -42t34.5 -13q9 0 13 1q2 1 5 1q4 0 6 -6l2 -4v-1v-3z
" />
    <glyph glyph-name="iogonek" unicode="&#x12f;" horiz-adv-x="224" 
d="M108 10v481q0 10 10 10h10q10 0 10 -10v-481q0 -10 -10 -10h-10q-10 0 -10 10zM92 625q-12 12 -12 31q0 18 12 30t31 12t31 -12t12 -30q0 -19 -12 -31t-31 -12t-31 12zM159 -171q0 -8 -7 -9q-11 -3 -23 -3q-29 0 -49.5 19t-20.5 60q0 58 45 97l4 4q4 3 10 3h3q6 0 8 -4
t-2 -8q-42 -45 -42 -92q0 -29 13.5 -42t34.5 -13q9 0 13 1q2 1 5 1q4 0 6 -6l2 -4v-1v-3z" />
    <glyph glyph-name="Idotaccent" unicode="&#x130;" horiz-adv-x="206" 
d="M88 10v680q0 10 10 10h10q10 0 10 -10v-680q0 -10 -10 -10h-10q-10 0 -10 10zM72 824q-12 12 -12 31q0 18 12 30t31 12t31 -12t12 -30q0 -19 -12 -31t-31 -12t-31 12z" />
    <glyph glyph-name="dotlessi" unicode="&#x131;" horiz-adv-x="156" 
d="M63 10v481q0 10 10 10h10q10 0 10 -10v-481q0 -10 -10 -10h-10q-10 0 -10 10z" />
    <glyph glyph-name="ij" unicode="&#x133;" horiz-adv-x="396" 
d="M70 625q-12 12 -12 31q0 18 12 30t31 12q18 0 30 -12t12 -30q0 -19 -12 -31t-30 -12q-19 0 -31 12zM86 10v481q0 10 10 10h10q10 0 10 -10v-481q0 -10 -10 -10h-10q-10 0 -10 10zM265 625q-12 12 -12 31q0 18 12 30t30 12q19 0 31 -12t12 -30q0 -19 -12 -31t-31 -12
q-18 0 -30 12zM192 -201v8q0 10 10 10q38 4 58 33.5t20 80.5v560q0 10 10 10h10q10 0 10 -10v-560q0 -65 -27 -101.5t-81 -40.5q-10 0 -10 10z" />
    <glyph glyph-name="Jcircumflex" unicode="&#x134;" horiz-adv-x="410" 
d="M67.5 35.5q-40.5 43.5 -40.5 114.5v92q0 10 10 10h10q10 0 10 -10v-93q0 -58 32.5 -93.5t85.5 -35.5q52 0 84.5 35.5t32.5 93.5v541q0 10 10 10h10q10 0 10 -10v-540q0 -71 -40.5 -114.5t-106.5 -43.5q-67 0 -107.5 43.5zM218.5 784.5q-1.5 3.5 1.5 8.5l65 100q5 7 12 7
h18q7 0 12 -6l67 -101l2 -5q0 -7 -9 -7h-14q-7 0 -12 7l-51 81q-1 2 -3 2t-3 -2l-51 -81q-5 -7 -12 -7h-15q-6 0 -7.5 3.5z" />
    <glyph glyph-name="jcircumflex" unicode="&#x135;" horiz-adv-x="186" 
d="M-14 -201v8q0 10 10 10q38 4 58 33.5t20 80.5v560q0 10 10 10h10q10 0 10 -10v-560q0 -65 -27 -101.5t-81 -40.5q-10 0 -10 10zM0.5 584.5q-1.5 3.5 1.5 8.5l65 100q5 7 12 7h18q7 0 12 -6l67 -101l2 -5q0 -7 -9 -7h-14q-7 0 -12 7l-51 81q-1 2 -3 2t-3 -2l-51 -81
q-5 -7 -12 -7h-15q-6 0 -7.5 3.5z" />
    <glyph glyph-name="uni0136" unicode="&#x136;" horiz-adv-x="429" 
d="M88 10v680q0 10 10 10h10q10 0 10 -10v-365q0 -3 2 -3.5t3 2.5l230 369q5 7 12 7h14q6 0 8 -3.5t-1 -8.5l-160 -260q-3 -3 -1 -6l179 -410l1 -4q0 -8 -9 -8h-14q-8 0 -11 8l-167 384q-1 4 -5 0l-80 -120q-1 -1 -1 -5v-257q0 -10 -10 -10h-10q-10 0 -10 10zM215 -196.5
q-2 3.5 1 8.5l62 112q3 7 12 7h9q6 0 8 -3.5t-1 -8.5l-65 -112q-5 -7 -12 -7h-6q-6 0 -8 3.5z" />
    <glyph glyph-name="uni0137" unicode="&#x137;" horiz-adv-x="379" 
d="M74 10v680q0 10 10 10h10q10 0 10 -10v-442q0 -2 2 -2.5t3 1.5l184 248q4 6 13 6h12q6 0 8 -4t-2 -8l-94 -126q-2 -3 -1 -5l115 -347l1 -4q0 -7 -9 -7h-11q-9 0 -12 8l-103 322q-1 6 -6 1l-98 -132q-2 -2 -2 -5v-184q0 -10 -10 -10h-10q-10 0 -10 10zM181 -196.5
q-2 3.5 1 8.5l62 112q3 7 12 7h9q6 0 8 -3.5t-1 -8.5l-65 -112q-5 -7 -12 -7h-6q-6 0 -8 3.5z" />
    <glyph glyph-name="Lacute" unicode="&#x139;" horiz-adv-x="378" 
d="M88 10v680q0 10 10 10h10q10 0 10 -10v-658q0 -4 4 -4h239q10 0 10 -10v-8q0 -10 -10 -10h-263q-10 0 -10 10zM71 771.5q-2 3.5 1 8.5l62 112q3 7 12 7h9q6 0 8 -3.5t-1 -8.5l-65 -112q-5 -7 -12 -7h-6q-6 0 -8 3.5z" />
    <glyph glyph-name="lacute" unicode="&#x13a;" horiz-adv-x="165" 
d="M68 10v680q0 10 10 10h10q10 0 10 -10v-680q0 -10 -10 -10h-10q-10 0 -10 10zM53 771.5q-2 3.5 1 8.5l62 112q3 7 12 7h9q6 0 8 -3.5t-1 -8.5l-65 -112q-5 -7 -12 -7h-6q-6 0 -8 3.5z" />
    <glyph glyph-name="uni013B" unicode="&#x13b;" horiz-adv-x="378" 
d="M88 10v680q0 10 10 10h10q10 0 10 -10v-658q0 -4 4 -4h239q10 0 10 -10v-8q0 -10 -10 -10h-263q-10 0 -10 10zM172 -196.5q-2 3.5 1 8.5l62 112q3 7 12 7h9q6 0 8 -3.5t-1 -8.5l-65 -112q-5 -7 -12 -7h-6q-6 0 -8 3.5z" />
    <glyph glyph-name="uni013C" unicode="&#x13c;" horiz-adv-x="165" 
d="M68 10v680q0 10 10 10h10q10 0 10 -10v-680q0 -10 -10 -10h-10q-10 0 -10 10zM-1 -196.5q-2 3.5 1 8.5l62 112q3 7 12 7h9q6 0 8 -3.5t-1 -8.5l-65 -112q-5 -7 -12 -7h-6q-6 0 -8 3.5z" />
    <glyph glyph-name="Lcaron" unicode="&#x13d;" horiz-adv-x="379" 
d="M88 10v680q0 10 10 10h10q10 0 10 -10v-658q0 -4 4 -4h239q10 0 10 -10v-8q0 -10 -10 -10h-263q-10 0 -10 10zM182 572.5q-2 3.5 1 8.5l62 112q3 7 12 7h9q6 0 8 -3.5t-1 -8.5l-65 -112q-5 -7 -12 -7h-6q-6 0 -8 3.5z" />
    <glyph glyph-name="lcaron" unicode="&#x13e;" horiz-adv-x="287" 
d="M68 10v680q0 10 10 10h10q10 0 10 -10v-680q0 -10 -10 -10h-10q-10 0 -10 10zM149 572.5q-2 3.5 1 8.5l62 112q3 7 12 7h9q6 0 8 -3.5t-1 -8.5l-65 -112q-5 -7 -12 -7h-6q-6 0 -8 3.5z" />
    <glyph glyph-name="ldot" unicode="&#x140;" horiz-adv-x="220" 
d="M96 10v680q0 10 10 10h10q10 0 10 -10v-680q0 -10 -10 -10h-10q-10 0 -10 10zM80 823q-12 12 -12 31q0 18 12 30t31 12t31 -12t12 -30q0 -19 -12 -31t-31 -12t-31 12z" />
    <glyph glyph-name="Lslash" unicode="&#x141;" horiz-adv-x="383" 
d="M126 28h239q10 0 10 -10v-8q0 -10 -10 -10h-263q-10 0 -10 10v264q0 2 -2 3t-3 0l-80 -54q-2 -2 -6 -2q-6 0 -8 5l-4 6q-2 3 -2 7t4 7l98 65q3 3 3 5v374q0 10 10 10h10q10 0 10 -10v-351q0 -2 2 -3t3 0l183 122q2 2 6 2q5 0 8 -4l4 -7q2 -4 2 -6q0 -5 -4 -8l-201 -133
q-3 -3 -3 -5v-265q0 -4 4 -4z" />
    <glyph glyph-name="lslash" unicode="&#x142;" horiz-adv-x="236" 
d="M212 383q0 -5 -5 -8l-75 -46q-3 -1 -3 -5v-314q0 -10 -10 -10h-10q-10 0 -10 10v292q0 2 -1.5 3t-3.5 0l-51 -31q-4 -2 -6 -2q-4 0 -7 5l-4 6q-2 4 -2 6q0 6 5 8l67 41q3 2 3 5v347q0 10 10 10h10q10 0 10 -10v-325q0 -2 1.5 -3t3.5 0l59 36q4 2 6 2q4 0 7 -5l4 -6
q2 -4 2 -6z" />
    <glyph glyph-name="Nacute" unicode="&#x143;" horiz-adv-x="481" 
d="M374 700h10q10 0 10 -10v-680q0 -10 -10 -10h-14q-8 0 -11 8l-236 610q-1 3 -3 2.5t-2 -3.5v-607q0 -10 -10 -10h-10q-10 0 -10 10v680q0 10 10 10h13q8 0 11 -8l237 -612q1 -3 3 -2.5t2 3.5v609q0 10 10 10zM211 781.5q-2 3.5 1 8.5l62 112q3 7 12 7h9q6 0 8 -3.5
t-1 -8.5l-65 -112q-5 -7 -12 -7h-6q-6 0 -8 3.5z" />
    <glyph glyph-name="nacute" unicode="&#x144;" horiz-adv-x="411" 
d="M310 468q33 -40 33 -111v-347q0 -10 -10 -10h-10q-10 0 -10 10v343q0 60 -26.5 93.5t-75.5 33.5t-78 -36t-29 -99v-335q0 -10 -10 -10h-10q-10 0 -10 10v481q0 10 10 10h10q10 0 10 -10v-48q0 -3 2 -3t3 3q16 31 44.5 48t64.5 17q59 0 92 -40zM180 572.5q-2 3.5 1 8.5
l62 112q3 7 12 7h9q6 0 8 -3.5t-1 -8.5l-65 -112q-5 -7 -12 -7h-6q-6 0 -8 3.5z" />
    <glyph glyph-name="uni0145" unicode="&#x145;" horiz-adv-x="481" 
d="M374 700h10q10 0 10 -10v-680q0 -10 -10 -10h-14q-8 0 -11 8l-236 610q-1 3 -3 2.5t-2 -3.5v-607q0 -10 -10 -10h-10q-10 0 -10 10v680q0 10 10 10h13q8 0 11 -8l237 -612q1 -3 3 -2.5t2 3.5v609q0 10 10 10zM214 -196.5q-2 3.5 1 8.5l62 112q3 7 12 7h9q6 0 8 -3.5
t-1 -8.5l-65 -112q-5 -7 -12 -7h-6q-6 0 -8 3.5z" />
    <glyph glyph-name="uni0146" unicode="&#x146;" horiz-adv-x="411" 
d="M310 468q33 -40 33 -111v-347q0 -10 -10 -10h-10q-10 0 -10 10v343q0 60 -26.5 93.5t-75.5 33.5t-78 -36t-29 -99v-335q0 -10 -10 -10h-10q-10 0 -10 10v481q0 10 10 10h10q10 0 10 -10v-48q0 -3 2 -3t3 3q16 31 44.5 48t64.5 17q59 0 92 -40zM190 -196.5q-2 3.5 1 8.5
l62 112q3 7 12 7h9q6 0 8 -3.5t-1 -8.5l-65 -112q-5 -7 -12 -7h-6q-6 0 -8 3.5z" />
    <glyph glyph-name="Ncaron" unicode="&#x147;" horiz-adv-x="481" 
d="M374 700h10q10 0 10 -10v-680q0 -10 -10 -10h-14q-8 0 -11 8l-236 610q-1 3 -3 2.5t-2 -3.5v-607q0 -10 -10 -10h-10q-10 0 -10 10v680q0 10 10 10h13q8 0 11 -8l237 -612q1 -3 3 -2.5t2 3.5v609q0 10 10 10zM153 903q0 6 8 6h15q7 0 12 -7l51 -82q1 -1 3 -1t3 1l51 82
q5 7 12 7h14q6 0 8 -3.5t-1 -8.5l-67 -101q-4 -6 -12 -6h-18q-7 0 -12 7l-65 100q-2 4 -2 6z" />
    <glyph glyph-name="ncaron" unicode="&#x148;" horiz-adv-x="411" 
d="M310 468q33 -40 33 -111v-347q0 -10 -10 -10h-10q-10 0 -10 10v343q0 60 -26.5 93.5t-75.5 33.5t-78 -36t-29 -99v-335q0 -10 -10 -10h-10q-10 0 -10 10v481q0 10 10 10h10q10 0 10 -10v-48q0 -3 2 -3t3 3q16 31 44.5 48t64.5 17q59 0 92 -40zM122 694q0 6 8 6h15
q7 0 12 -7l51 -82q1 -1 3 -1t3 1l51 82q5 7 12 7h14q6 0 8 -3.5t-1 -8.5l-67 -101q-4 -6 -12 -6h-18q-7 0 -12 7l-65 100q-2 4 -2 6z" />
    <glyph glyph-name="Eng" unicode="&#x14a;" horiz-adv-x="481" 
d="M394 690v-683v-7l-1 -2q0 -48 -5 -74.5t-24 -42.5t-59 -18q-10 0 -10 10v8q0 10 10 10q29 2 41.5 14.5t14.5 31t2 60.5v3h-1l-239 618q-1 3 -3 2.5t-2 -3.5v-607q0 -10 -10 -10h-10q-10 0 -10 10v680q0 10 10 10h13q8 0 11 -8l236 -610q1 -3 3 -2.5t2 3.5v471v4q1 1 1 5
v127q0 10 10 10h10q10 0 10 -10z" />
    <glyph glyph-name="eng" unicode="&#x14b;" horiz-adv-x="411" 
d="M310 468q33 -40 33 -111v-378q0 -127 -98 -132q-10 0 -10 10v7q0 10 10 10q68 7 68 105v374q0 60 -26.5 93.5t-75.5 33.5t-78 -36t-29 -99v-335q0 -10 -10 -10h-10q-10 0 -10 10v481q0 10 10 10h10q10 0 10 -10v-48q0 -3 2 -3t3 3q16 31 44.5 48t64.5 17q59 0 92 -40z
" />
    <glyph glyph-name="Omacron" unicode="&#x14c;" horiz-adv-x="446" 
d="M111 36.5q-43 44.5 -43 116.5v393q0 72 43 117t111 45q69 0 112.5 -45t43.5 -117v-393q0 -72 -43.5 -116.5t-112.5 -44.5q-68 0 -111 44.5zM313 56.5q35 36.5 35 94.5v397q0 58 -35 95t-91 37q-55 0 -89.5 -37t-34.5 -95v-397q0 -58 34.5 -94.5t89.5 -36.5q56 0 91 36.5z
M126 811v6q0 10 10 10h173q10 0 10 -10v-6q0 -10 -10 -10h-173q-10 0 -10 10z" />
    <glyph glyph-name="omacron" unicode="&#x14d;" horiz-adv-x="398" 
d="M99.5 32.5q-38.5 40.5 -38.5 104.5v227q0 63 38.5 104t99.5 41t99.5 -41t38.5 -104v-227q0 -64 -38.5 -104.5t-99.5 -40.5t-99.5 40.5zM277 52.5q30 32.5 30 84.5v227q0 52 -30 84.5t-78 32.5t-78 -32.5t-30 -84.5v-227q0 -52 30 -84.5t78 -32.5t78 32.5zM102 613v6
q0 10 10 10h173q10 0 10 -10v-6q0 -10 -10 -10h-173q-10 0 -10 10z" />
    <glyph glyph-name="obreve" unicode="&#x14f;" horiz-adv-x="398" 
d="M99.5 32.5q-38.5 40.5 -38.5 104.5v227q0 63 38.5 104t99.5 41t99.5 -41t38.5 -104v-227q0 -64 -38.5 -104.5t-99.5 -40.5t-99.5 40.5zM277 52.5q30 32.5 30 84.5v227q0 52 -30 84.5t-78 32.5t-78 -32.5t-30 -84.5v-227q0 -52 30 -84.5t78 -32.5t78 32.5zM134 613.5
q-27 25.5 -31 63.5v2q0 8 9 8h5q10 0 11 -10q3 -28 23 -46.5t47 -18.5t47 18.5t23 46.5q1 10 11 10h5q10 0 10 -10q-4 -38 -31 -63.5t-65 -25.5q-37 0 -64 25.5z" />
    <glyph glyph-name="Ohungarumlaut" unicode="&#x150;" horiz-adv-x="446" 
d="M111 36.5q-43 44.5 -43 116.5v393q0 72 43 117t111 45q69 0 112.5 -45t43.5 -117v-393q0 -72 -43.5 -116.5t-112.5 -44.5q-68 0 -111 44.5zM313 56.5q35 36.5 35 94.5v397q0 58 -35 95t-91 37q-55 0 -89.5 -37t-34.5 -95v-397q0 -58 34.5 -94.5t89.5 -36.5q56 0 91 36.5z
M158 770.5q-2 3.5 1 8.5l61 112q3 7 12 7h9q6 0 8 -3.5t-1 -8.5l-64 -112q-5 -7 -12 -7h-6q-6 0 -8 3.5zM264 770.5q-2 3.5 1 8.5l61 112q3 7 12 7h8q6 0 8 -3.5t-1 -8.5l-63 -112q-5 -7 -12 -7h-6q-6 0 -8 3.5z" />
    <glyph glyph-name="ohungarumlaut" unicode="&#x151;" horiz-adv-x="398" 
d="M99.5 32.5q-38.5 40.5 -38.5 104.5v227q0 63 38.5 104t99.5 41t99.5 -41t38.5 -104v-227q0 -64 -38.5 -104.5t-99.5 -40.5t-99.5 40.5zM277 52.5q30 32.5 30 84.5v227q0 52 -30 84.5t-78 32.5t-78 -32.5t-30 -84.5v-227q0 -52 30 -84.5t78 -32.5t78 32.5zM135 572.5
q-2 3.5 1 8.5l61 112q3 7 12 7h9q6 0 8 -3.5t-1 -8.5l-64 -112q-5 -7 -12 -7h-6q-6 0 -8 3.5zM241 572.5q-2 3.5 1 8.5l61 112q3 7 12 7h8q6 0 8 -3.5t-1 -8.5l-63 -112q-5 -7 -12 -7h-6q-6 0 -8 3.5z" />
    <glyph glyph-name="OE" unicode="&#x152;" horiz-adv-x="684" 
d="M626 672h-244q-4 0 -4 -4v-300q0 -4 4 -4h161q10 0 10 -10v-7q0 -10 -10 -10h-161q-4 0 -4 -4v-301q0 -4 4 -4h244q10 0 10 -10v-8q0 -10 -10 -10h-268q-10 0 -10 10v43q0 3 -1.5 3.5t-3.5 -1.5q-20 -30 -51.5 -46.5t-71.5 -16.5q-67 0 -109.5 44.5t-42.5 116.5v393
q0 72 42.5 117t109.5 45q40 0 71.5 -16.5t51.5 -46.5q2 -2 3.5 -1.5t1.5 3.5v43q0 10 10 10h268q10 0 10 -10v-8q0 -10 -10 -10zM313 56.5q35 36.5 35 94.5v397q0 58 -35 95t-91 37q-55 0 -89.5 -37t-34.5 -95v-397q0 -58 34.5 -94.5t89.5 -36.5q56 0 91 36.5z" />
    <glyph glyph-name="oe" unicode="&#x153;" horiz-adv-x="639" 
d="M575 246h-233q-4 0 -4 -4v-42q0 -7 0.5 -18t-0.5 -26v-19q0 -52 30.5 -84.5t77.5 -32.5q39 0 67 22.5t38 60.5q3 9 11 9h10q5 0 7.5 -3t1.5 -8q-11 -49 -47 -79t-88 -30q-42 0 -73 20.5t-47 56.5q-3 5 -6 0q-16 -36 -47.5 -56.5t-73.5 -20.5q-61 0 -99.5 40.5
t-38.5 104.5v227q0 63 38.5 104t99.5 41q42 0 73.5 -20.5t47.5 -56.5q3 -4 6 0q16 36 47 56.5t73 20.5q62 0 100.5 -41t38.5 -104v-108q0 -10 -10 -10zM277 448.5q-30 32.5 -78 32.5t-78 -32.5t-30 -84.5v-227q0 -52 30 -84.5t78 -32.5t78 32.5t30 84.5v227q0 52 -30 84.5z
M368.5 448.5q-30.5 -32.5 -30.5 -84.5v-19q1 -15 0.5 -26t-0.5 -18v-27q0 -4 4 -4h209q4 0 4 4v90q0 52 -30 84.5t-79 32.5q-47 0 -77.5 -32.5z" />
    <glyph glyph-name="Racute" unicode="&#x154;" horiz-adv-x="427" 
d="M360 8l-119 327q-1 3 -4 3h-115q-4 0 -4 -4v-324q0 -10 -10 -10h-10q-10 0 -10 10v680q0 10 10 10h142q67 0 107.5 -50t40.5 -132q0 -70 -31 -117.5t-84 -59.5q-4 -2 -3 -5l119 -325l1 -4q0 -7 -9 -7h-9q-9 0 -12 8zM118 668v-299q0 -4 4 -4h117q54 0 86.5 42t32.5 111
t-32.5 111.5t-86.5 42.5h-117q-4 0 -4 -4zM191 771.5q-2 3.5 1 8.5l62 112q3 7 12 7h9q6 0 8 -3.5t-1 -8.5l-65 -112q-5 -7 -12 -7h-6q-6 0 -8 3.5z" />
    <glyph glyph-name="racute" unicode="&#x155;" horiz-adv-x="274" 
d="M253 495q7 -4 4 -13l-4 -12q-3 -10 -13 -5q-16 7 -35 7q-44 -1 -72.5 -43.5t-28.5 -106.5v-312q0 -10 -10 -10h-10q-10 0 -10 10v481q0 10 10 10h10q10 0 10 -10v-65q0 -3 2 -3t3 4q15 37 40.5 57.5t60.5 20.5q25 0 43 -10zM139 572.5q-2 3.5 1 8.5l62 112q3 7 12 7h9
q6 0 8 -3.5t-1 -8.5l-65 -112q-5 -7 -12 -7h-6q-6 0 -8 3.5z" />
    <glyph glyph-name="uni0156" unicode="&#x156;" horiz-adv-x="427" 
d="M360 8l-119 327q-1 3 -4 3h-115q-4 0 -4 -4v-324q0 -10 -10 -10h-10q-10 0 -10 10v680q0 10 10 10h142q67 0 107.5 -50t40.5 -132q0 -70 -31 -117.5t-84 -59.5q-4 -2 -3 -5l119 -325l1 -4q0 -7 -9 -7h-9q-9 0 -12 8zM118 668v-299q0 -4 4 -4h117q54 0 86.5 42t32.5 111
t-32.5 111.5t-86.5 42.5h-117q-4 0 -4 -4zM207 -196.5q-2 3.5 1 8.5l62 112q3 7 12 7h9q6 0 8 -3.5t-1 -8.5l-65 -112q-5 -7 -12 -7h-6q-6 0 -8 3.5z" />
    <glyph glyph-name="uni0157" unicode="&#x157;" horiz-adv-x="274" 
d="M253 495q7 -4 4 -13l-4 -12q-3 -10 -13 -5q-16 7 -35 7q-44 -1 -72.5 -43.5t-28.5 -106.5v-312q0 -10 -10 -10h-10q-10 0 -10 10v481q0 10 10 10h10q10 0 10 -10v-65q0 -3 2 -3t3 4q15 37 40.5 57.5t60.5 20.5q25 0 43 -10zM7 -196.5q-2 3.5 1 8.5l62 112q3 7 12 7h9
q6 0 8 -3.5t-1 -8.5l-65 -112q-5 -7 -12 -7h-6q-6 0 -8 3.5z" />
    <glyph glyph-name="Rcaron" unicode="&#x158;" horiz-adv-x="427" 
d="M360 8l-119 327q-1 3 -4 3h-115q-4 0 -4 -4v-324q0 -10 -10 -10h-10q-10 0 -10 10v680q0 10 10 10h142q67 0 107.5 -50t40.5 -132q0 -70 -31 -117.5t-84 -59.5q-4 -2 -3 -5l119 -325l1 -4q0 -7 -9 -7h-9q-9 0 -12 8zM118 668v-299q0 -4 4 -4h117q54 0 86.5 42t32.5 111
t-32.5 111.5t-86.5 42.5h-117q-4 0 -4 -4zM133 893q0 6 8 6h15q7 0 12 -7l51 -82q1 -1 3 -1t3 1l51 82q5 7 12 7h14q6 0 8 -3.5t-1 -8.5l-67 -101q-4 -6 -12 -6h-18q-7 0 -12 7l-65 100q-2 4 -2 6z" />
    <glyph glyph-name="rcaron" unicode="&#x159;" horiz-adv-x="274" 
d="M253 495q7 -4 4 -13l-4 -12q-3 -10 -13 -5q-16 7 -35 7q-44 -1 -72.5 -43.5t-28.5 -106.5v-312q0 -10 -10 -10h-10q-10 0 -10 10v481q0 10 10 10h10q10 0 10 -10v-65q0 -3 2 -3t3 4q15 37 40.5 57.5t60.5 20.5q25 0 43 -10zM81 694q0 6 8 6h15q7 0 12 -7l51 -82
q1 -1 3 -1t3 1l51 82q5 7 12 7h14q6 0 8 -3.5t-1 -8.5l-67 -101q-4 -6 -12 -6h-18q-7 0 -12 7l-65 100q-2 4 -2 6z" />
    <glyph glyph-name="Sacute" unicode="&#x15a;" horiz-adv-x="400" 
d="M90.5 39.5q-41.5 47.5 -41.5 125.5v19q0 10 10 10h9q10 0 10 -10v-18q0 -66 33.5 -106.5t86.5 -40.5t87.5 39t34.5 102q0 42 -16 71.5t-39.5 50.5t-76.5 61q-51 39 -78.5 64.5t-44.5 60t-17 81.5q0 74 40.5 116.5t104.5 42.5q68 0 109.5 -48t41.5 -126v-25q0 -10 -10 -10
h-10q-10 0 -10 10v24q0 67 -33.5 107.5t-87.5 40.5q-51 0 -83 -35t-32 -99q0 -37 13 -64.5t38.5 -51t74.5 -60.5q59 -44 87.5 -70.5t43.5 -57.5t15 -76q0 -79 -42 -127t-109 -48t-108.5 47.5zM163 771.5q-2 3.5 1 8.5l62 112q3 7 12 7h9q6 0 8 -3.5t-1 -8.5l-65 -112
q-5 -7 -12 -7h-6q-6 0 -8 3.5z" />
    <glyph glyph-name="sacute" unicode="&#x15b;" horiz-adv-x="352" 
d="M89 30.5q-37 34.5 -37 86.5v5q0 10 10 10h9q10 0 10 -10v-4q0 -41 28.5 -68.5t76.5 -27.5q45 0 72.5 28t27.5 74q0 33 -15 54t-36.5 33.5t-59.5 28.5q-40 17 -64 31t-40.5 40t-16.5 66q0 58 35.5 93t94.5 35q58 0 93.5 -35.5t35.5 -91.5v-3q0 -10 -10 -10h-8
q-10 0 -10 10v3q0 43 -28.5 71.5t-73.5 28.5t-72 -28t-27 -73q0 -30 13.5 -50.5t34 -32.5t55.5 -27q43 -18 68 -32.5t43 -41.5t18 -69q0 -58 -36 -93t-95 -35t-96 34.5zM153 572.5q-2 3.5 1 8.5l62 112q3 7 12 7h9q6 0 8 -3.5t-1 -8.5l-65 -112q-5 -7 -12 -7h-6q-6 0 -8 3.5
z" />
    <glyph glyph-name="Scircumflex" unicode="&#x15c;" horiz-adv-x="400" 
d="M90.5 39.5q-41.5 47.5 -41.5 125.5v19q0 10 10 10h9q10 0 10 -10v-18q0 -66 33.5 -106.5t86.5 -40.5t87.5 39t34.5 102q0 42 -16 71.5t-39.5 50.5t-76.5 61q-51 39 -78.5 64.5t-44.5 60t-17 81.5q0 74 40.5 116.5t104.5 42.5q68 0 109.5 -48t41.5 -126v-25q0 -10 -10 -10
h-10q-10 0 -10 10v24q0 67 -33.5 107.5t-87.5 40.5q-51 0 -83 -35t-32 -99q0 -37 13 -64.5t38.5 -51t74.5 -60.5q59 -44 87.5 -70.5t43.5 -57.5t15 -76q0 -79 -42 -127t-109 -48t-108.5 47.5zM104.5 783.5q-1.5 3.5 1.5 8.5l65 100q5 7 12 7h18q7 0 12 -6l67 -101l2 -5
q0 -7 -9 -7h-14q-7 0 -12 7l-51 81q-1 2 -3 2t-3 -2l-51 -81q-5 -7 -12 -7h-15q-6 0 -7.5 3.5z" />
    <glyph glyph-name="scircumflex" unicode="&#x15d;" horiz-adv-x="352" 
d="M89 30.5q-37 34.5 -37 86.5v5q0 10 10 10h9q10 0 10 -10v-4q0 -41 28.5 -68.5t76.5 -27.5q45 0 72.5 28t27.5 74q0 33 -15 54t-36.5 33.5t-59.5 28.5q-40 17 -64 31t-40.5 40t-16.5 66q0 58 35.5 93t94.5 35q58 0 93.5 -35.5t35.5 -91.5v-3q0 -10 -10 -10h-8
q-10 0 -10 10v3q0 43 -28.5 71.5t-73.5 28.5t-72 -28t-27 -73q0 -30 13.5 -50.5t34 -32.5t55.5 -27q43 -18 68 -32.5t43 -41.5t18 -69q0 -58 -36 -93t-95 -35t-96 34.5zM94.5 584.5q-1.5 3.5 1.5 8.5l65 100q5 7 12 7h18q7 0 12 -6l67 -101l2 -5q0 -7 -9 -7h-14q-7 0 -12 7
l-51 81q-1 2 -3 2t-3 -2l-51 -81q-5 -7 -12 -7h-15q-6 0 -7.5 3.5z" />
    <glyph glyph-name="Scedilla" unicode="&#x15e;" horiz-adv-x="400" 
d="M314 47.5q-36 -46.5 -95 -53.5q-6 -2 -1 -5q43 -42 43 -95q0 -42 -20.5 -60.5t-51.5 -18.5q-15 0 -22 2q-10 1 -8 12l1 4q3 10 13 7q5 -1 14 -1q21 0 34 13t13 42q0 46 -47 97q-2 2 -5 2q-59 6 -96 52.5t-37 119.5v19q0 10 10 10h9q10 0 10 -10v-18q0 -66 33.5 -106.5
t86.5 -40.5t87.5 39t34.5 102q0 42 -16 71.5t-39.5 50.5t-76.5 61q-51 39 -78.5 64.5t-44.5 60t-17 81.5q0 74 40.5 116.5t104.5 42.5q68 0 109.5 -48t41.5 -126v-25q0 -10 -10 -10h-10q-10 0 -10 10v24q0 67 -33.5 107.5t-87.5 40.5q-51 0 -83 -35t-32 -99q0 -37 13 -64.5
t38.5 -51t74.5 -60.5q59 -44 87.5 -70.5t43.5 -57.5t15 -76q0 -73 -36 -119.5z" />
    <glyph glyph-name="scedilla" unicode="&#x15f;" horiz-adv-x="352" 
d="M286 37q-30 -34 -81 -39q-6 -2 -1 -5q44 -43 44 -94q0 -42 -20.5 -61.5t-50.5 -19.5q-12 0 -23 3q-9 1 -7 12l1 4q1 10 12 7q5 -1 14 -1q47 0 47 55q0 46 -47 97q-2 2 -5 2q-53 4 -85 37.5t-32 82.5v5q0 10 10 10h9q10 0 10 -10v-4q0 -41 28.5 -68.5t76.5 -27.5
q45 0 72.5 28t27.5 74q0 33 -15 54t-36.5 33.5t-59.5 28.5q-40 17 -64 31t-40.5 40t-16.5 66q0 58 35.5 93t94.5 35q58 0 93.5 -35.5t35.5 -91.5v-3q0 -10 -10 -10h-8q-10 0 -10 10v3q0 43 -28.5 71.5t-73.5 28.5t-72 -28t-27 -73q0 -30 13.5 -50.5t34 -32.5t55.5 -27
q43 -18 68 -32.5t43 -41.5t18 -69q0 -53 -30 -87z" />
    <glyph glyph-name="Scaron" unicode="&#x160;" horiz-adv-x="400" 
d="M90.5 39.5q-41.5 47.5 -41.5 125.5v19q0 10 10 10h9q10 0 10 -10v-18q0 -66 33.5 -106.5t86.5 -40.5t87.5 39t34.5 102q0 42 -16 71.5t-39.5 50.5t-76.5 61q-51 39 -78.5 64.5t-44.5 60t-17 81.5q0 74 40.5 116.5t104.5 42.5q68 0 109.5 -48t41.5 -126v-25q0 -10 -10 -10
h-10q-10 0 -10 10v24q0 67 -33.5 107.5t-87.5 40.5q-51 0 -83 -35t-32 -99q0 -37 13 -64.5t38.5 -51t74.5 -60.5q59 -44 87.5 -70.5t43.5 -57.5t15 -76q0 -79 -42 -127t-109 -48t-108.5 47.5zM105 893q0 6 8 6h15q7 0 12 -7l51 -82q1 -1 3 -1t3 1l51 82q5 7 12 7h14
q6 0 8 -3.5t-1 -8.5l-67 -101q-4 -6 -12 -6h-18q-7 0 -12 7l-65 100q-2 4 -2 6z" />
    <glyph glyph-name="scaron" unicode="&#x161;" horiz-adv-x="352" 
d="M89 30.5q-37 34.5 -37 86.5v5q0 10 10 10h9q10 0 10 -10v-4q0 -41 28.5 -68.5t76.5 -27.5q45 0 72.5 28t27.5 74q0 33 -15 54t-36.5 33.5t-59.5 28.5q-40 17 -64 31t-40.5 40t-16.5 66q0 58 35.5 93t94.5 35q58 0 93.5 -35.5t35.5 -91.5v-3q0 -10 -10 -10h-8
q-10 0 -10 10v3q0 43 -28.5 71.5t-73.5 28.5t-72 -28t-27 -73q0 -30 13.5 -50.5t34 -32.5t55.5 -27q43 -18 68 -32.5t43 -41.5t18 -69q0 -58 -36 -93t-95 -35t-96 34.5zM95 694q0 6 8 6h15q7 0 12 -7l51 -82q1 -1 3 -1t3 1l51 82q5 7 12 7h14q6 0 8 -3.5t-1 -8.5l-67 -101
q-4 -6 -12 -6h-18q-7 0 -12 7l-65 100q-2 4 -2 6z" />
    <glyph glyph-name="uni0162" unicode="&#x162;" horiz-adv-x="396" 
d="M357 690v-8q0 -10 -10 -10h-134q-4 0 -4 -4v-658q0 -10 -10 -10h-10q-10 0 -10 10v658q0 4 -4 4h-126q-10 0 -10 10v8q0 10 10 10h298q10 0 10 -10zM162 -168v1l2 4q3 8 11 5q5 -1 14 -1q21 0 34 13.5t13 42.5q0 44 -42 91q-5 4 -4 8t6 4h6q7 0 10 -3l4 -4q46 -41 46 -95
q0 -8 -2 -22q-4 -31 -23 -45t-45 -14q-12 0 -23 3q-10 1 -7 12z" />
    <glyph glyph-name="uni0163" unicode="&#x163;" horiz-adv-x="253" 
d="M209 475h-85q-4 0 -4 -4v-345q0 -55 18.5 -76.5t58.5 -21.5h11q10 0 10 -10v-8q0 -10 -10 -10h-15h-8q-6 0 -3 -4q31 -38 31 -80q0 -8 -2 -22q-4 -31 -23 -45t-45 -14q-13 0 -23 3q-10 1 -7 12v1l2 4q2 8 11 5q5 -1 14 -1q20 0 33.5 13t13.5 42q0 45 -42 92l-4 3
q-26 11 -39 38t-13 77v347q0 4 -4 4h-41q-10 0 -10 10v6q0 10 10 10h41q4 0 4 4v112q0 10 10 10h11q10 0 10 -10v-112q0 -4 4 -4h85q10 0 10 -10v-6q0 -10 -10 -10z" />
    <glyph glyph-name="Tcaron" unicode="&#x164;" horiz-adv-x="396" 
d="M357 690v-8q0 -10 -10 -10h-134q-4 0 -4 -4v-658q0 -10 -10 -10h-10q-10 0 -10 10v658q0 4 -4 4h-126q-10 0 -10 10v8q0 10 10 10h298q10 0 10 -10zM107 890q0 6 8 6h15q7 0 12 -7l51 -82q1 -1 3 -1t3 1l51 82q5 7 12 7h14q6 0 8 -3.5t-1 -8.5l-67 -101q-4 -6 -12 -6h-18
q-7 0 -12 7l-65 100q-2 4 -2 6z" />
    <glyph glyph-name="tcaron" unicode="&#x165;" horiz-adv-x="253" 
d="M209 475h-85q-4 0 -4 -4v-345q0 -55 18.5 -76.5t58.5 -21.5h11q10 0 10 -10v-8q0 -10 -10 -10h-15q-51 0 -77.5 26.5t-26.5 97.5v347q0 4 -4 4h-41q-10 0 -10 10v6q0 10 10 10h41q4 0 4 4v112q0 10 10 10h11q10 0 10 -10v-112q0 -4 4 -4h85q10 0 10 -10v-6q0 -10 -10 -10
zM142 572.5q-2 3.5 1 8.5l62 112q3 7 12 7h9q6 0 8 -3.5t-1 -8.5l-65 -112q-5 -7 -12 -7h-6q-6 0 -8 3.5z" />
    <glyph glyph-name="Tbar" unicode="&#x166;" horiz-adv-x="396" 
d="M347 672h-134q-4 0 -4 -4v-241q0 -4 4 -4h93q10 0 10 -10v-5q0 -10 -10 -10h-93q-4 0 -4 -4v-384q0 -10 -10 -10h-10q-10 0 -10 10v384q0 4 -4 4h-104q-10 0 -10 10v5q0 10 10 10h104q4 0 4 4v241q0 4 -4 4h-126q-10 0 -10 10v8q0 10 10 10h298q10 0 10 -10v-8
q0 -10 -10 -10z" />
    <glyph glyph-name="tbar" unicode="&#x167;" horiz-adv-x="253" 
d="M209 475h-85q-4 0 -4 -4v-121q0 -4 4 -4h85q10 0 10 -10v-6q0 -10 -10 -10h-85q-4 0 -4 -4v-190q0 -55 18.5 -76.5t58.5 -21.5h11q10 0 10 -10v-8q0 -10 -10 -10h-15q-51 0 -77.5 26.5t-26.5 97.5v192q0 4 -4 4h-39q-10 0 -10 10v6q0 10 10 10h39q4 0 4 4v121q0 4 -4 4
h-41q-10 0 -10 10v6q0 10 10 10h41q4 0 4 4v112q0 10 10 10h11q10 0 10 -10v-112q0 -4 4 -4h85q10 0 10 -10v-6q0 -10 -10 -10z" />
    <glyph glyph-name="Utilde" unicode="&#x168;" horiz-adv-x="474" 
d="M123.5 43q-42.5 51 -42.5 134v513q0 10 10 10h10q10 0 10 -10v-517q0 -69 34.5 -111t90.5 -42q57 0 92 42t35 111v517q0 10 10 10h10q10 0 10 -10v-513q0 -83 -43 -134t-114 -51q-70 0 -112.5 51zM268 826.5q-12 6.5 -26 17.5q-2 2 -11.5 9t-17.5 10t-17 3
q-16 0 -27 -5.5t-22 -22.5q-6 -9 -14 -3l-3 2q-8 5 -2 14q26 41 67 41q15 0 26.5 -6t28.5 -17q18 -12 27 -17t20 -5q14 0 25 6.5t22 24.5q2 4 6 5t8 -1l3 -2q5 -3 5 -9t-4 -11q-14 -21 -32 -30.5t-35 -9.5q-15 0 -27 6.5z" />
    <glyph glyph-name="utilde" unicode="&#x169;" horiz-adv-x="411" 
d="M316 501h10q10 0 10 -10v-481q0 -10 -10 -10h-10q-10 0 -10 10v40q0 3 -2 3.5t-3 -2.5q-31 -58 -105 -58q-60 0 -94 36.5t-34 108.5v353q0 10 10 10h10q10 0 10 -10v-346q0 -62 26.5 -93t75.5 -31t77.5 36t28.5 99v335q0 10 10 10zM233 627.5q-12 6.5 -26 17.5
q-2 2 -11.5 9t-17.5 10t-17 3q-16 0 -27 -5.5t-22 -22.5q-6 -9 -14 -3l-3 2q-8 5 -2 14q26 41 67 41q15 0 26.5 -6t28.5 -17q18 -12 27 -17t20 -5q14 0 25 6.5t22 24.5q2 4 6 5t8 -1l3 -2q5 -3 5 -9t-4 -11q-14 -21 -32 -30.5t-35 -9.5q-15 0 -27 6.5z" />
    <glyph glyph-name="Umacron" unicode="&#x16a;" horiz-adv-x="474" 
d="M123.5 43q-42.5 51 -42.5 134v513q0 10 10 10h10q10 0 10 -10v-517q0 -69 34.5 -111t90.5 -42q57 0 92 42t35 111v517q0 10 10 10h10q10 0 10 -10v-513q0 -83 -43 -134t-114 -51q-70 0 -112.5 51zM140 812v6q0 10 10 10h173q10 0 10 -10v-6q0 -10 -10 -10h-173
q-10 0 -10 10z" />
    <glyph glyph-name="umacron" unicode="&#x16b;" horiz-adv-x="411" 
d="M316 501h10q10 0 10 -10v-481q0 -10 -10 -10h-10q-10 0 -10 10v40q0 3 -2 3.5t-3 -2.5q-31 -58 -105 -58q-60 0 -94 36.5t-34 108.5v353q0 10 10 10h10q10 0 10 -10v-346q0 -62 26.5 -93t75.5 -31t77.5 36t28.5 99v335q0 10 10 10zM105 613v6q0 10 10 10h173q10 0 10 -10
v-6q0 -10 -10 -10h-173q-10 0 -10 10z" />
    <glyph glyph-name="Ubreve" unicode="&#x16c;" horiz-adv-x="474" 
d="M123.5 43q-42.5 51 -42.5 134v513q0 10 10 10h10q10 0 10 -10v-517q0 -69 34.5 -111t90.5 -42q57 0 92 42t35 111v517q0 10 10 10h10q10 0 10 -10v-513q0 -83 -43 -134t-114 -51q-70 0 -112.5 51zM172 812.5q-27 25.5 -31 63.5v2q0 8 9 8h5q10 0 11 -10q3 -28 23 -46.5
t47 -18.5t47 18.5t23 46.5q1 10 11 10h5q10 0 10 -10q-4 -38 -31 -63.5t-65 -25.5q-37 0 -64 25.5z" />
    <glyph glyph-name="ubreve" unicode="&#x16d;" horiz-adv-x="411" 
d="M316 501h10q10 0 10 -10v-481q0 -10 -10 -10h-10q-10 0 -10 10v40q0 3 -2 3.5t-3 -2.5q-31 -58 -105 -58q-60 0 -94 36.5t-34 108.5v353q0 10 10 10h10q10 0 10 -10v-346q0 -62 26.5 -93t75.5 -31t77.5 36t28.5 99v335q0 10 10 10zM137 613.5q-27 25.5 -31 63.5v2
q0 8 9 8h5q10 0 11 -10q3 -28 23 -46.5t47 -18.5t47 18.5t23 46.5q1 10 11 10h5q10 0 10 -10q-4 -38 -31 -63.5t-65 -25.5q-37 0 -64 25.5z" />
    <glyph glyph-name="Uring" unicode="&#x16e;" horiz-adv-x="474" 
d="M123.5 43q-42.5 51 -42.5 134v513q0 10 10 10h10q10 0 10 -10v-517q0 -69 34.5 -111t90.5 -42q57 0 92 42t35 111v517q0 10 10 10h10q10 0 10 -10v-513q0 -83 -43 -134t-114 -51q-70 0 -112.5 51zM168 816q-28 29 -28 70t28 70t68 29t68 -29t28 -70t-28 -70t-68 -29
t-68 29zM286 833.5q21 21.5 21 52.5t-21 52.5t-50 21.5q-30 0 -51 -21.5t-21 -52.5t21 -52.5t51 -21.5q29 0 50 21.5z" />
    <glyph glyph-name="uring" unicode="&#x16f;" horiz-adv-x="411" 
d="M316 501h10q10 0 10 -10v-481q0 -10 -10 -10h-10q-10 0 -10 10v40q0 3 -2 3.5t-3 -2.5q-31 -58 -105 -58q-60 0 -94 36.5t-34 108.5v353q0 10 10 10h10q10 0 10 -10v-346q0 -62 26.5 -93t75.5 -31t77.5 36t28.5 99v335q0 10 10 10zM133 617q-28 29 -28 70t28 70t68 29
t68 -29t28 -70t-28 -70t-68 -29t-68 29zM251 634.5q21 21.5 21 52.5t-21 52.5t-50 21.5q-30 0 -51 -21.5t-21 -52.5t21 -52.5t51 -21.5q29 0 50 21.5z" />
    <glyph glyph-name="Uhungarumlaut" unicode="&#x170;" horiz-adv-x="474" 
d="M123.5 43q-42.5 51 -42.5 134v513q0 10 10 10h10q10 0 10 -10v-517q0 -69 34.5 -111t90.5 -42q57 0 92 42t35 111v517q0 10 10 10h10q10 0 10 -10v-513q0 -83 -43 -134t-114 -51q-70 0 -112.5 51zM172 771.5q-2 3.5 1 8.5l61 112q3 7 12 7h9q6 0 8 -3.5t-1 -8.5l-64 -112
q-5 -7 -12 -7h-6q-6 0 -8 3.5zM278 771.5q-2 3.5 1 8.5l61 112q3 7 12 7h8q6 0 8 -3.5t-1 -8.5l-63 -112q-5 -7 -12 -7h-6q-6 0 -8 3.5z" />
    <glyph glyph-name="uhungarumlaut" unicode="&#x171;" horiz-adv-x="411" 
d="M316 501h10q10 0 10 -10v-481q0 -10 -10 -10h-10q-10 0 -10 10v40q0 3 -2 3.5t-3 -2.5q-31 -58 -105 -58q-60 0 -94 36.5t-34 108.5v353q0 10 10 10h10q10 0 10 -10v-346q0 -62 26.5 -93t75.5 -31t77.5 36t28.5 99v335q0 10 10 10zM137 572.5q-2 3.5 1 8.5l61 112
q3 7 12 7h9q6 0 8 -3.5t-1 -8.5l-64 -112q-5 -7 -12 -7h-6q-6 0 -8 3.5zM243 572.5q-2 3.5 1 8.5l61 112q3 7 12 7h8q6 0 8 -3.5t-1 -8.5l-63 -112q-5 -7 -12 -7h-6q-6 0 -8 3.5z" />
    <glyph glyph-name="Uogonek" unicode="&#x172;" horiz-adv-x="474" 
d="M373 700h10q10 0 10 -10v-513q0 -80 -40 -130t-106 -55q-3 0 -5 -2q-39 -44 -39 -88q0 -29 12.5 -42.5t32.5 -13.5q6 0 16 2h3q7 0 8 -6l2 -4v-3q0 -9 -8 -10q-11 -3 -23 -3q-29 0 -49.5 19t-20.5 61q0 47 36 87q3 3 -2 5q-59 9 -94 58.5t-35 124.5v513q0 10 10 10h10
q10 0 10 -10v-517q0 -69 34.5 -111t90.5 -42q57 0 92 42t35 111v517q0 10 10 10z" />
    <glyph glyph-name="uogonek" unicode="&#x173;" horiz-adv-x="411" 
d="M349 -157q5 0 8 -8l1 -3v-3q0 -8 -8 -9q-10 -3 -23 -3q-30 0 -50 19.5t-20 61.5q0 55 50 100q1 1 0 4q-1 2 -1 8v40q0 3 -2 3.5t-3 -2.5q-31 -58 -105 -58q-60 0 -94 36.5t-34 108.5v353q0 10 10 10h10q10 0 10 -10v-346q0 -62 26.5 -93t75.5 -31t77.5 36t28.5 99v335
q0 10 10 10h10q10 0 10 -10v-484q0 -5 -5 -12q-48 -50 -48 -98q0 -30 12.5 -43t33.5 -13q10 0 15 1z" />
    <glyph glyph-name="Wcircumflex" unicode="&#x174;" horiz-adv-x="584" 
d="M163 9l-129 680v2q0 9 9 9h11q10 0 11 -9l114 -619q1 -2 2 -2t2 2l96 619q2 9 10 9h12q9 0 10 -9l99 -619q1 -2 2 -2t2 2l105 619q2 9 11 9h12q5 0 7.5 -3t1.5 -8l-123 -680q-1 -9 -11 -9h-12q-8 0 -10 9l-97 616q-1 2 -2 2t-2 -2l-98 -616q-1 -9 -10 -9h-12q-9 0 -11 9z
M206.5 783.5q-1.5 3.5 1.5 8.5l65 100q5 7 12 7h18q7 0 12 -6l67 -101l2 -5q0 -7 -9 -7h-14q-7 0 -12 7l-51 81q-1 2 -3 2t-3 -2l-51 -81q-5 -7 -12 -7h-15q-6 0 -7.5 3.5z" />
    <glyph glyph-name="wcircumflex" unicode="&#x175;" horiz-adv-x="520" 
d="M133 9l-104 481v2q0 9 9 9h10q10 0 11 -9l89 -441q1 -3 2 -3t2 3l90 441q2 9 11 9h11q10 0 11 -9l91 -441q1 -3 2 -3t2 3l91 441q2 9 11 9h10q5 0 7.5 -3t1.5 -8l-106 -481q-1 -9 -11 -9h-12q-9 0 -11 9l-91 429q-1 3 -2 3t-2 -3l-88 -429q-1 -9 -11 -9h-13q-9 0 -11 9z
M169.5 584.5q-1.5 3.5 1.5 8.5l65 100q5 7 12 7h18q7 0 12 -6l67 -101l2 -5q0 -7 -9 -7h-14q-7 0 -12 7l-51 81q-1 2 -3 2t-3 -2l-51 -81q-5 -7 -12 -7h-15q-6 0 -7.5 3.5z" />
    <glyph glyph-name="Ycircumflex" unicode="&#x176;" horiz-adv-x="395" 
d="M183 10v322q0 4 -1 5l-137 351l-1 4q0 8 9 8h11q8 0 11 -8l120 -322q1 -3 3 -3t3 3l119 322q3 8 11 8h11q5 0 7.5 -3.5t0.5 -8.5l-136 -351q-1 -1 -1 -5v-322q0 -10 -10 -10h-10q-10 0 -10 10zM109.5 783.5q-1.5 3.5 1.5 8.5l65 100q5 7 12 7h18q7 0 12 -6l67 -101l2 -5
q0 -7 -9 -7h-14q-7 0 -12 7l-51 81q-1 2 -3 2t-3 -2l-51 -81q-5 -7 -12 -7h-15q-6 0 -7.5 3.5z" />
    <glyph glyph-name="ycircumflex" unicode="&#x177;" horiz-adv-x="335" 
d="M43 -197q-2 3 -2 7v7q0 10 10 10h1q29 1 44.5 14t26.5 46.5t29 109.5q1 2 0.5 3.5t-0.5 2.5l-129 487l-1 3q0 8 10 8h11q10 0 11 -9l112 -445q1 -3 2 -3t2 3l111 445q2 9 11 9h11q5 0 7.5 -3t1.5 -8l-143 -549q-17 -62 -31.5 -91.5t-33.5 -39.5t-52 -10h-5q-2 0 -4 3z
M79.5 584.5q-1.5 3.5 1.5 8.5l65 100q5 7 12 7h18q7 0 12 -6l67 -101l2 -5q0 -7 -9 -7h-14q-7 0 -12 7l-51 81q-1 2 -3 2t-3 -2l-51 -81q-5 -7 -12 -7h-15q-6 0 -7.5 3.5z" />
    <glyph glyph-name="Ydieresis" unicode="&#x178;" horiz-adv-x="395" 
d="M183 10v322q0 4 -1 5l-137 351l-1 4q0 8 9 8h11q8 0 11 -8l120 -322q1 -3 3 -3t3 3l119 322q3 8 11 8h11q5 0 7.5 -3.5t0.5 -8.5l-136 -351q-1 -1 -1 -5v-322q0 -10 -10 -10h-10q-10 0 -10 10zM231 824q-12 12 -12 31q0 18 12 30t31 12t31 -12t12 -30q0 -19 -12 -31
t-31 -12t-31 12zM101 824q-12 12 -12 31q0 18 12 30t31 12t31 -12t12 -30q0 -19 -12 -31t-31 -12t-31 12z" />
    <glyph glyph-name="Zacute" unicode="&#x179;" horiz-adv-x="385" 
d="M41 10v12q0 7 2 12l260 633q1 2 0 3.5t-3 1.5h-249q-10 0 -10 10v8q0 10 10 10h277q10 0 10 -10v-12q0 -7 -2 -12l-260 -633q-1 -2 0 -3.5t3 -1.5h249q10 0 10 -10v-8q0 -10 -10 -10h-277q-10 0 -10 10zM162 771.5q-2 3.5 1 8.5l62 112q3 7 12 7h9q6 0 8 -3.5t-1 -8.5
l-65 -112q-5 -7 -12 -7h-6q-6 0 -8 3.5z" />
    <glyph glyph-name="zacute" unicode="&#x17a;" horiz-adv-x="353" 
d="M42 10v11q0 6 3 13l232 434q2 5 -2 5h-220q-10 0 -10 10v8q0 10 10 10h250q10 0 10 -10v-11q0 -5 -3 -13l-233 -434q-2 -5 2 -5h222q10 0 10 -10v-8q0 -10 -10 -10h-251q-10 0 -10 10zM152 572.5q-2 3.5 1 8.5l62 112q3 7 12 7h9q6 0 8 -3.5t-1 -8.5l-65 -112
q-5 -7 -12 -7h-6q-6 0 -8 3.5z" />
    <glyph glyph-name="Zdotaccent" unicode="&#x17b;" horiz-adv-x="385" 
d="M41 10v12q0 7 2 12l260 633q1 2 0 3.5t-3 1.5h-249q-10 0 -10 10v8q0 10 10 10h277q10 0 10 -10v-12q0 -7 -2 -12l-260 -633q-1 -2 0 -3.5t3 -1.5h249q10 0 10 -10v-8q0 -10 -10 -10h-277q-10 0 -10 10zM161 824q-12 12 -12 31q0 18 12 30t31 12t31 -12t12 -30
q0 -19 -12 -31t-31 -12t-31 12z" />
    <glyph glyph-name="zdotaccent" unicode="&#x17c;" horiz-adv-x="353" 
d="M42 10v11q0 6 3 13l232 434q2 5 -2 5h-220q-10 0 -10 10v8q0 10 10 10h250q10 0 10 -10v-11q0 -5 -3 -13l-233 -434q-2 -5 2 -5h222q10 0 10 -10v-8q0 -10 -10 -10h-251q-10 0 -10 10zM150 625q-12 12 -12 31q0 18 12 30t31 12t31 -12t12 -30q0 -19 -12 -31t-31 -12
t-31 12z" />
    <glyph glyph-name="Zcaron" unicode="&#x17d;" horiz-adv-x="385" 
d="M41 10v12q0 7 2 12l260 633q1 2 0 3.5t-3 1.5h-249q-10 0 -10 10v8q0 10 10 10h277q10 0 10 -10v-12q0 -7 -2 -12l-260 -633q-1 -2 0 -3.5t3 -1.5h249q10 0 10 -10v-8q0 -10 -10 -10h-277q-10 0 -10 10zM104 893q0 6 8 6h15q7 0 12 -7l51 -82q1 -1 3 -1t3 1l51 82
q5 7 12 7h14q6 0 8 -3.5t-1 -8.5l-67 -101q-4 -6 -12 -6h-18q-7 0 -12 7l-65 100q-2 4 -2 6z" />
    <glyph glyph-name="zcaron" unicode="&#x17e;" horiz-adv-x="353" 
d="M42 10v11q0 6 3 13l232 434q2 5 -2 5h-220q-10 0 -10 10v8q0 10 10 10h250q10 0 10 -10v-11q0 -5 -3 -13l-233 -434q-2 -5 2 -5h222q10 0 10 -10v-8q0 -10 -10 -10h-251q-10 0 -10 10zM93 694q0 6 8 6h15q7 0 12 -7l51 -82q1 -1 3 -1t3 1l51 82q5 7 12 7h14q6 0 8 -3.5
t-1 -8.5l-67 -101q-4 -6 -12 -6h-18q-7 0 -12 7l-65 100q-2 4 -2 6z" />
    <glyph glyph-name="uni018F" unicode="&#x18f;" horiz-adv-x="505" 
d="M346.5 682.5q42.5 -25.5 66.5 -71.5t24 -103v-319q0 -57 -24 -103t-67 -71.5t-97 -25.5q-55 0 -97.5 26t-66.5 71.5t-24 102.5v154q0 10 10 10h332q4 0 4 4v152q0 75 -44 123t-114 48q-57 0 -98.5 -34.5t-54.5 -91.5q-3 -9 -11 -9h-10q-5 0 -7.5 3t-1.5 8q13 68 63 110
t120 42q55 0 97.5 -25.5zM331 39q36 22 56 61.5t20 88.5v131q0 4 -4 4h-308q-4 0 -4 -4v-131q0 -49 20 -88.5t56 -61.5t82 -22t82 22z" />
    <glyph glyph-name="florin" unicode="&#x192;" horiz-adv-x="458" 
d="M286 647q17 34 46 48t78 14q5 0 8 -2.5t2 -7.5l-1 -8q-1 -9 -10 -9h-17q-48 0 -70 -33t-32 -102l-27 -170q0 -4 3 -4h79q10 0 10 -10v-6q0 -10 -10 -10h-83q-5 0 -5 -4l-63 -393q-9 -63 -26 -97t-46 -48t-78 -14q-5 0 -8 2.5t-2 7.5l1 8q1 9 10 9h17q48 0 69.5 33
t32.5 102l62 390q0 4 -3 4h-61q-10 0 -10 10v6q0 10 10 10h66q5 0 5 4l27 173q9 63 26 97z" />
    <glyph glyph-name="Ohorn" unicode="&#x1a0;" horiz-adv-x="446" 
d="M313 681q31 -21 48 -56t17 -79v-393q0 -72 -43.5 -116.5t-112.5 -44.5q-68 0 -111 44.5t-43 116.5v393q0 72 43 117t111 45q22 0 50 -7q1 -1 5 -1q25 2 43.5 20.5t21.5 46.5q1 10 11 10h5q5 0 7.5 -3t1.5 -8q-2 -26 -16.5 -47t-36.5 -33q-4 -1 -1 -5zM348 548
q0 58 -35 95t-91 37q-55 0 -89.5 -37t-34.5 -95v-397q0 -58 34.5 -94.5t89.5 -36.5q56 0 91 36.5t35 94.5v397z" />
    <glyph glyph-name="ohorn" unicode="&#x1a1;" horiz-adv-x="398" 
d="M285 481q25 -20 38.5 -50t13.5 -67v-227q0 -64 -38.5 -104.5t-99.5 -40.5t-99.5 40.5t-38.5 104.5v227q0 63 38.5 104t99.5 41q21 0 47 -7q1 -1 5 -1q25 2 44 20.5t22 46.5q1 10 11 10h4q11 0 9 -12q-3 -27 -17.5 -48t-37.5 -32q-4 -1 -1 -5zM277 448.5
q-30 32.5 -78 32.5t-78 -32.5t-30 -84.5v-227q0 -52 30 -84.5t78 -32.5t78 32.5t30 84.5v227q0 52 -30 84.5z" />
    <glyph glyph-name="Uhorn" unicode="&#x1af;" horiz-adv-x="474" 
d="M471 767q-4 -34 -24 -58t-50 -30q-4 -1 -4 -5v-497q0 -83 -43 -134t-114 -51q-70 0 -112.5 51t-42.5 134v513q0 10 10 10h10q10 0 10 -10v-517q0 -69 34.5 -111t90.5 -42q57 0 92 42t35 111v517q0 10 10 10h2q27 0 47.5 18.5t23.5 48.5q1 10 11 10h4q10 0 10 -10z" />
    <glyph glyph-name="uhorn" unicode="&#x1b0;" horiz-adv-x="411" 
d="M411 568q-3 -33 -22.5 -56.5t-49.5 -31.5q-3 -1 -3 -5v-465q0 -10 -10 -10h-10q-10 0 -10 10v40q0 3 -2 3.5t-3 -2.5q-31 -58 -105 -58q-60 0 -94 36.5t-34 108.5v353q0 10 10 10h10q10 0 10 -10v-346q0 -62 26.5 -93t75.5 -31t77.5 36t28.5 99v335q0 10 9 10
q27 0 47.5 18.5t23.5 48.5q1 10 11 10h4q10 0 10 -10z" />
    <glyph glyph-name="uni01CD" unicode="&#x1cd;" horiz-adv-x="367" 
d="M325 9l-30 139q0 2 -1.5 3t-3.5 1h-213q-2 0 -3.5 -1t-1.5 -3l-30 -139q-1 -9 -11 -9h-10q-5 0 -7.5 3t-1.5 8l153 680q2 9 11 9h14q9 0 11 -9l154 -680v-2q0 -9 -9 -9h-10q-9 0 -11 9zM80.5 180.5q1.5 -1.5 3.5 -1.5h199q2 0 3.5 1.5t0.5 2.5l-102 461q-1 3 -2 3t-2 -3
l-101 -461q-1 -1 0.5 -2.5zM95 890q0 6 8 6h15q7 0 12 -7l51 -82q1 -1 3 -1t3 1l51 82q5 7 12 7h14q6 0 8 -3.5t-1 -8.5l-67 -101q-4 -6 -12 -6h-18q-7 0 -12 7l-65 100q-2 4 -2 6z" />
    <glyph glyph-name="uni01CE" unicode="&#x1ce;" horiz-adv-x="392" 
d="M296 464q35 -45 35 -121v-333q0 -10 -10 -10h-10q-10 0 -10 10v45q0 3 -2 3.5t-3 -2.5q-19 -32 -51 -48t-71 -16q-52 0 -88 30.5t-36 105.5q0 80 43 119t115 39h89q4 0 4 4v55q0 62 -27 99t-78 37q-40 0 -70 -24.5t-34 -63.5q0 -9 -10 -9l-11 1q-5 0 -7.5 3t-1.5 8
q6 51 44.5 82t90.5 31q64 0 99 -45zM264.5 52q36.5 32 36.5 92v111q0 4 -4 4h-88q-59 0 -94 -33t-35 -97q0 -55 27 -82t71 -27q50 0 86.5 32zM108 691q0 6 8 6h15q7 0 12 -7l51 -82q1 -1 3 -1t3 1l51 82q5 7 12 7h14q6 0 8 -3.5t-1 -8.5l-67 -101q-4 -6 -12 -6h-18
q-7 0 -12 7l-65 100q-2 4 -2 6z" />
    <glyph glyph-name="uni01D4" unicode="&#x1d4;" horiz-adv-x="411" 
d="M316 501h10q10 0 10 -10v-481q0 -10 -10 -10h-10q-10 0 -10 10v40q0 3 -2 3.5t-3 -2.5q-31 -58 -105 -58q-60 0 -94 36.5t-34 108.5v353q0 10 10 10h10q10 0 10 -10v-346q0 -62 26.5 -93t75.5 -31t77.5 36t28.5 99v335q0 10 10 10zM114 691q0 6 8 6h15q7 0 12 -7l51 -82
q1 -1 3 -1t3 1l51 82q5 7 12 7h14q6 0 8 -3.5t-1 -8.5l-67 -101q-4 -6 -12 -6h-18q-7 0 -12 7l-65 100q-2 4 -2 6z" />
    <glyph glyph-name="uni01E5" unicode="&#x1e5;" horiz-adv-x="402" 
d="M401 250v-5q0 -10 -10 -10h-51q-4 0 -4 -4v-229q0 -202 -174 -202q-12 0 -12 10v7q0 10 10 10q76 0 110.5 45t34.5 131v47q0 3 -1.5 3.5t-3.5 -1.5q-17 -28 -44 -43.5t-61 -15.5q-60 0 -97 40t-37 104v227q0 64 37 104.5t97 40.5q35 0 62 -15.5t43 -43.5q2 -2 3.5 -1.5
t1.5 3.5v39q0 10 10 10h11q10 0 10 -10v-227q0 -4 4 -4h51q10 0 10 -10zM275.5 53.5q29.5 32.5 29.5 84.5v93q0 4 -4 4h-106q-10 0 -10 10v5q0 10 10 10h106q4 0 4 4v100q0 52 -29.5 84.5t-75.5 32.5q-48 0 -78.5 -32.5t-30.5 -84.5v-226q0 -52 30.5 -84.5t78.5 -32.5
q46 0 75.5 32.5z" />
    <glyph glyph-name="gcaron" unicode="&#x1e7;" horiz-adv-x="397" 
d="M315 501h11q10 0 10 -10v-489q0 -202 -174 -202q-12 0 -12 10v7q0 10 10 10q76 0 110.5 45t34.5 131v47q0 3 -1.5 3.5t-3.5 -1.5q-17 -28 -44 -43.5t-61 -15.5q-60 0 -97 40t-37 104v227q0 64 37 104.5t97 40.5q35 0 62 -15.5t43 -43.5q2 -2 3.5 -1.5t1.5 3.5v39
q0 10 10 10zM275.5 53.5q29.5 32.5 29.5 84.5v226q0 52 -29.5 84.5t-75.5 32.5q-48 0 -78.5 -32.5t-30.5 -84.5v-226q0 -52 30.5 -84.5t78.5 -32.5q46 0 75.5 32.5zM111 691q0 6 8 6h15q7 0 12 -7l51 -82q1 -1 3 -1t3 1l51 82q5 7 12 7h14q6 0 8 -3.5t-1 -8.5l-67 -101
q-4 -6 -12 -6h-18q-7 0 -12 7l-65 100q-2 4 -2 6z" />
    <glyph glyph-name="uni01E9" unicode="&#x1e9;" horiz-adv-x="379" 
d="M74 10v680q0 10 10 10h10q10 0 10 -10v-442q0 -2 2 -2.5t3 1.5l184 248q4 6 13 6h12q6 0 8 -4t-2 -8l-94 -126q-2 -3 -1 -5l115 -347l1 -4q0 -7 -9 -7h-11q-9 0 -12 8l-103 322q-1 6 -6 1l-98 -132q-2 -2 -2 -5v-184q0 -10 -10 -10h-10q-10 0 -10 10zM110 890q0 6 8 6h15
q7 0 12 -7l51 -82q1 -1 3 -1t3 1l51 82q5 7 12 7h14q6 0 8 -3.5t-1 -8.5l-67 -101q-4 -6 -12 -6h-18q-7 0 -12 7l-65 100q-2 4 -2 6z" />
    <glyph glyph-name="uni01EF" unicode="&#x1ef;" horiz-adv-x="453" 
d="M143 228q132 2 195.5 -55.5t63.5 -157.5q0 -78 -35 -129.5t-90.5 -75.5t-117.5 -24q-46 0 -90 14q-7 3 -7 12v7q0 11 12 8q39 -12 83 -12q54 0 103 19t80.5 63.5t31.5 115.5q0 82 -51 135.5t-181 53.5q-22 0 -34 -1h-2q-7 0 -9 9l-1 5v3q0 4 4 10l227 240q3 5 -2 5h-218
q-10 0 -10 10v8q0 10 10 10h252q10 0 10 -10v-11q0 -5 -5 -12l-221 -235q-3 -5 2 -5zM146 691q0 6 8 6h15q7 0 12 -7l51 -82q1 -1 3 -1t3 1l51 82q5 7 12 7h14q6 0 8 -3.5t-1 -8.5l-67 -101q-4 -6 -12 -6h-18q-7 0 -12 7l-65 100q-2 4 -2 6z" />
    <glyph glyph-name="oslashacute" unicode="&#x1ff;" horiz-adv-x="398" 
d="M303 464q35 -38 35 -100v-227q0 -64 -38.5 -104.5t-100.5 -40.5q-40 0 -72 19q-4 1 -6 -2l-19 -49q-2 -5 -5.5 -6.5t-7.5 0.5l-7 4q-9 5 -6 13l23 57q1 3 -1 5q-37 40 -37 104v227q0 63 38.5 104t99.5 41q44 0 76 -21q4 -1 6 2l22 57q3 10 13 5l7 -4q8 -5 5 -13l-26 -66
q-1 -3 1 -5zM110 68q1 -2 2.5 -1.5t2.5 2.5l152 385q1 3 -2 5q-27 22 -66 22q-48 0 -78 -32.5t-30 -84.5v-227q0 -39 19 -69zM292 429q-1 2 -2.5 2t-2.5 -3l-152 -384q-1 -3 2 -5q27 -19 62 -19q48 0 78.5 32.5t30.5 84.5v227q0 36 -16 65zM169 572.5q-2 3.5 1 8.5l62 112
q3 7 12 7h9q6 0 8 -3.5t-1 -8.5l-65 -112q-5 -7 -12 -7h-6q-6 0 -8 3.5z" />
    <glyph glyph-name="uni0218" unicode="&#x218;" horiz-adv-x="400" 
d="M90.5 39.5q-41.5 47.5 -41.5 125.5v19q0 10 10 10h9q10 0 10 -10v-18q0 -66 33.5 -106.5t86.5 -40.5t87.5 39t34.5 102q0 42 -16 71.5t-39.5 50.5t-76.5 61q-51 39 -78.5 64.5t-44.5 60t-17 81.5q0 74 40.5 116.5t104.5 42.5q68 0 109.5 -48t41.5 -126v-25q0 -10 -10 -10
h-10q-10 0 -10 10v24q0 67 -33.5 107.5t-87.5 40.5q-51 0 -83 -35t-32 -99q0 -37 13 -64.5t38.5 -51t74.5 -60.5q59 -44 87.5 -70.5t43.5 -57.5t15 -76q0 -79 -42 -127t-109 -48t-108.5 47.5zM175 -204.5q-2 3.5 1 8.5l62 112q3 7 12 7h9q6 0 8 -3.5t-1 -8.5l-65 -112
q-5 -7 -12 -7h-6q-6 0 -8 3.5z" />
    <glyph glyph-name="uni0219" unicode="&#x219;" horiz-adv-x="352" 
d="M89 30.5q-37 34.5 -37 86.5v5q0 10 10 10h9q10 0 10 -10v-4q0 -41 28.5 -68.5t76.5 -27.5q45 0 72.5 28t27.5 74q0 33 -15 54t-36.5 33.5t-59.5 28.5q-40 17 -64 31t-40.5 40t-16.5 66q0 58 35.5 93t94.5 35q58 0 93.5 -35.5t35.5 -91.5v-3q0 -10 -10 -10h-8
q-10 0 -10 10v3q0 43 -28.5 71.5t-73.5 28.5t-72 -28t-27 -73q0 -30 13.5 -50.5t34 -32.5t55.5 -27q43 -18 68 -32.5t43 -41.5t18 -69q0 -58 -36 -93t-95 -35t-96 34.5zM162 -200.5q-2 3.5 1 8.5l62 112q3 7 12 7h9q6 0 8 -3.5t-1 -8.5l-65 -112q-5 -7 -12 -7h-6
q-6 0 -8 3.5z" />
    <glyph glyph-name="uni021A" unicode="&#x21a;" horiz-adv-x="396" 
d="M357 690v-8q0 -10 -10 -10h-134q-4 0 -4 -4v-658q0 -10 -10 -10h-10q-10 0 -10 10v658q0 4 -4 4h-126q-10 0 -10 10v8q0 10 10 10h298q10 0 10 -10zM105 -200.5q-2 3.5 1 8.5l62 112q3 7 12 7h9q6 0 8 -3.5t-1 -8.5l-65 -112q-5 -7 -12 -7h-6q-6 0 -8 3.5z" />
    <glyph glyph-name="uni021B" unicode="&#x21b;" horiz-adv-x="253" 
d="M209 475h-85q-4 0 -4 -4v-345q0 -55 18.5 -76.5t58.5 -21.5h11q10 0 10 -10v-8q0 -10 -10 -10h-15q-51 0 -77.5 26.5t-26.5 97.5v347q0 4 -4 4h-41q-10 0 -10 10v6q0 10 10 10h41q4 0 4 4v112q0 10 10 10h11q10 0 10 -10v-112q0 -4 4 -4h85q10 0 10 -10v-6q0 -10 -10 -10
zM128 -183.5q-2 3.5 1 8.5l62 112q3 7 12 7h9q6 0 8 -3.5t-1 -8.5l-65 -112q-5 -7 -12 -7h-6q-6 0 -8 3.5z" />
    <glyph glyph-name="uni021F" unicode="&#x21f;" horiz-adv-x="411" 
d="M310 468q33 -40 33 -111v-347q0 -10 -10 -10h-10q-10 0 -10 10v343q0 60 -26.5 93.5t-75.5 33.5t-78 -36t-29 -99v-335q0 -10 -10 -10h-10q-10 0 -10 10v680q0 10 10 10h10q10 0 10 -10v-247q0 -3 2 -3t3 3q16 31 44.5 48t64.5 17q59 0 92 -40zM126 890q0 6 8 6h15
q7 0 12 -7l51 -82q1 -1 3 -1t3 1l51 82q5 7 12 7h14q6 0 8 -3.5t-1 -8.5l-67 -101q-4 -6 -12 -6h-18q-7 0 -12 7l-65 100q-2 4 -2 6z" />
    <glyph glyph-name="uni0228" unicode="&#x228;" horiz-adv-x="424" 
d="M366 672h-244q-4 0 -4 -4v-300q0 -4 4 -4h160q10 0 10 -10v-7q0 -10 -10 -10h-160q-4 0 -4 -4v-301q0 -4 4 -4h244q10 0 10 -10v-8q0 -10 -10 -10h-115q-5 0 -2 -5q42 -42 42 -93q0 -42 -20.5 -60.5t-51.5 -18.5q-15 0 -22 2q-9 1 -7 12l1 4q1 10 12 7q5 -1 14 -1
q21 0 34.5 13t13.5 42q0 44 -46 96q-2 2 -5 2h-116q-10 0 -10 10v680q0 10 10 10h268q10 0 10 -10v-8q0 -10 -10 -10z" />
    <glyph glyph-name="uni0229" unicode="&#x229;" horiz-adv-x="391" 
d="M327 244h-232q-4 0 -4 -4v-103q0 -52 30 -84.5t78 -32.5q39 0 67 23t37 61q3 9 11 9h10q5 0 7.5 -3.5t1.5 -8.5q-8 -43 -37 -71t-72 -36q-6 -1 -2 -5q35 -39 35 -86q0 -42 -20.5 -61t-50.5 -19q-15 0 -22 2q-10 1 -8 12l1 4q3 10 13 7q5 -1 14 -1q21 0 34 13t13 41
q0 43 -39 89q-2 2 -5 2q-56 4 -91 44t-35 101v227q0 63 38.5 104t99.5 41t99.5 -41t38.5 -104v-110q0 -10 -10 -10zM121 448.5q-30 -32.5 -30 -84.5v-90q0 -4 4 -4h208q4 0 4 4v90q0 52 -30 84.5t-78 32.5t-78 -32.5z" />
    <glyph glyph-name="uni0237" unicode="&#x237;" horiz-adv-x="186" 
d="M-14 -201v8q0 10 10 10q38 4 58 33.5t20 80.5v560q0 10 10 10h10q10 0 10 -10v-560q0 -65 -27 -101.5t-81 -40.5q-10 0 -10 10z" />
    <glyph glyph-name="uni0259" unicode="&#x259;" horiz-adv-x="391" 
d="M292 468.5q38 -40.5 38 -104.5v-227q0 -63 -38.5 -104t-98.5 -41q-62 0 -100.5 41t-38.5 104v110q0 10 10 10h232q4 0 4 4v103q0 52 -30 84.5t-77 32.5q-39 0 -67.5 -23t-37.5 -61q-3 -9 -11 -9h-10q-5 0 -7.5 3.5t-1.5 7.5q10 50 46 80t89 30q61 0 99 -40.5zM270 52.5
q30 32.5 30 84.5v90q0 4 -4 4h-208q-4 0 -4 -4v-90q0 -52 30 -84.5t79 -32.5q47 0 77 32.5z" />
    <glyph glyph-name="uni0292" unicode="&#x292;" horiz-adv-x="453" 
d="M143 228q132 2 195.5 -55.5t63.5 -157.5q0 -78 -35 -129.5t-90.5 -75.5t-117.5 -24q-46 0 -90 14q-7 3 -7 12v7q0 11 12 8q39 -12 83 -12q54 0 103 19t80.5 63.5t31.5 115.5q0 82 -51 135.5t-181 53.5q-22 0 -34 -1h-2q-7 0 -9 9l-1 5v3q0 4 4 10l227 240q3 5 -2 5h-218
q-10 0 -10 10v8q0 10 10 10h252q10 0 10 -10v-11q0 -5 -5 -12l-221 -235q-3 -5 2 -5z" />
    <glyph glyph-name="uni02BB" unicode="&#x2bb;" horiz-adv-x="85" 
d="M3 693q0 7 9 7h12q9 0 11 -9l47 -172l1 -3q0 -8 -10 -8h-4q-9 0 -12 8l-53 173z" />
    <glyph glyph-name="uni02BC" unicode="&#x2bc;" horiz-adv-x="85" 
d="M81 689l-53 -173q-3 -8 -12 -8h-4q-5 0 -7.5 3t-1.5 8l48 173q2 8 11 8h11q11 0 8 -11z" />
    <glyph glyph-name="circumflex" unicode="&#x2c6;" horiz-adv-x="190" 
d="M33.5 584.5q-1.5 3.5 1.5 8.5l65 100q5 7 12 7h18q7 0 12 -6l67 -101l2 -5q0 -7 -9 -7h-14q-7 0 -12 7l-51 81q-1 2 -3 2t-3 -2l-51 -81q-5 -7 -12 -7h-15q-6 0 -7.5 3.5z" />
    <glyph glyph-name="caron" unicode="&#x2c7;" horiz-adv-x="244" 
d="M33 694q0 6 8 6h15q7 0 12 -7l51 -82q1 -1 3 -1t3 1l51 82q5 7 12 7h14q6 0 8 -3.5t-1 -8.5l-67 -101q-4 -6 -12 -6h-18q-7 0 -12 7l-65 100q-2 4 -2 6z" />
    <glyph glyph-name="uni02C9" unicode="&#x2c9;" horiz-adv-x="193" 
d="M0 684v6q0 10 10 10h173q10 0 10 -10v-6q0 -10 -10 -10h-173q-10 0 -10 10z" />
    <glyph glyph-name="breve" unicode="&#x2d8;" horiz-adv-x="246" 
d="M58.5 588q-27.5 25 -30.5 63v2q0 8 9 8h5q10 0 11 -10q3 -28 23 -46t47 -18t47 18t23 46q1 10 11 10h5q5 0 7.5 -3t1.5 -7q-3 -38 -30 -63t-65 -25q-37 0 -64.5 25z" />
    <glyph glyph-name="dotaccent" unicode="&#x2d9;" horiz-adv-x="139" 
d="M39 625q-12 12 -12 31q0 18 12 30t31 12t31 -12t12 -30q0 -19 -12 -31t-31 -12t-31 12z" />
    <glyph glyph-name="ring" unicode="&#x2da;" horiz-adv-x="246" 
d="M55 617q-28 29 -28 70t28 70t68 29t68 -29t28 -70t-28 -70t-68 -29t-68 29zM173 634.5q21 21.5 21 52.5t-21 52.5t-50 21.5q-30 0 -51 -21.5t-21 -52.5t21 -52.5t51 -21.5q29 0 50 21.5z" />
    <glyph glyph-name="ogonek" unicode="&#x2db;" horiz-adv-x="103" 
d="M100 -171q0 -8 -7 -9q-11 -3 -23 -3q-30 0 -50.5 18.5t-20.5 60.5q0 56 47 97l4 4q3 3 10 3h3q6 0 7.5 -4t-2.5 -8q-42 -47 -42 -92q0 -29 13.5 -42t34.5 -13q9 0 13 1l4 1q6 0 7 -6l2 -4v-1v-3z" />
    <glyph glyph-name="tilde" unicode="&#x2dc;" horiz-adv-x="302" 
d="M173 627.5q-12 6.5 -26 17.5q-2 2 -11.5 9t-17.5 10t-17 3q-16 0 -27 -5.5t-22 -22.5q-6 -9 -14 -3l-3 2q-8 5 -2 14q26 41 67 41q15 0 26.5 -6t28.5 -17q18 -12 27 -17t20 -5q14 0 25 6.5t22 24.5q2 4 6 5t8 -1l3 -2q5 -3 5 -9t-4 -11q-14 -21 -32 -30.5t-35 -9.5
q-15 0 -27 6.5z" />
    <glyph glyph-name="hungarumlaut" unicode="&#x2dd;" horiz-adv-x="263" 
d="M33 580.5q-2 3.5 1 8.5l62 112q3 7 12 7h9q6 0 8 -3.5t-1 -8.5l-65 -112q-5 -7 -12 -7h-6q-6 0 -8 3.5zM139 580.5q-2 3.5 1 8.5l62 112q3 7 12 7h9q6 0 8 -3.5t-1 -8.5l-65 -112q-5 -7 -12 -7h-6q-6 0 -8 3.5z" />
    <glyph glyph-name="gravecomb" unicode="&#x300;" 
d="M-5 575q0 -6 -8 -6h-6q-7 0 -12 7l-66 112q-2 4 -2 6q0 6 9 6h9q8 0 12 -7l62 -112q2 -4 2 -6z" />
    <glyph glyph-name="acutecomb" unicode="&#x301;" 
d="M-98 572.5q-2 3.5 1 8.5l62 112q3 7 12 7h9q6 0 8 -3.5t-1 -8.5l-65 -112q-5 -7 -12 -7h-6q-6 0 -8 3.5z" />
    <glyph glyph-name="uni0302" unicode="&#x302;" 
d="M-210.5 584.5q-1.5 3.5 1.5 8.5l65 100q5 7 12 7h18q7 0 12 -6l67 -101l2 -5q0 -7 -9 -7h-14q-7 0 -12 7l-51 81q-1 2 -3 2t-3 -2l-51 -81q-5 -7 -12 -7h-15q-6 0 -7.5 3.5z" />
    <glyph glyph-name="tildecomb" unicode="&#x303;" 
d="M-102 627.5q-12 6.5 -26 17.5q-2 2 -11.5 9t-17.5 10t-17 3q-16 0 -27 -5.5t-22 -22.5q-6 -9 -14 -3l-3 2q-8 5 -2 14q26 41 67 41q15 0 26.5 -6t28.5 -17q18 -12 27 -17t20 -5q14 0 25 6.5t22 24.5q2 4 6 5t8 -1l3 -2q5 -3 5 -9t-4 -11q-14 -21 -32 -30.5t-35 -9.5
q-15 0 -27 6.5z" />
    <glyph glyph-name="uni0304" unicode="&#x304;" 
d="M-193 647v6q0 10 10 10h173q10 0 10 -10v-6q0 -10 -10 -10h-173q-10 0 -10 10z" />
    <glyph glyph-name="uni0306" unicode="&#x306;" 
d="M-187 613.5q-27 25.5 -31 63.5v2q0 8 9 8h5q10 0 11 -10q3 -28 23 -46.5t47 -18.5t47 18.5t23 46.5q1 10 11 10h5q10 0 10 -10q-4 -38 -31 -63.5t-65 -25.5q-37 0 -64 25.5z" />
    <glyph glyph-name="uni0307" unicode="&#x307;" 
d="M-76 625q-12 12 -12 31q0 18 12 30t31 12t31 -12t12 -30q0 -19 -12 -31t-31 -12t-31 12z" />
    <glyph glyph-name="uni0308" unicode="&#x308;" 
d="M-74 625q-12 12 -12 31q0 18 12 30t31 12t31 -12t12 -30q0 -19 -12 -31t-31 -12t-31 12zM-204 625q-12 12 -12 31q0 18 12 30t31 12t31 -12t12 -30q0 -19 -12 -31t-31 -12t-31 12z" />
    <glyph glyph-name="hookabovecomb" unicode="&#x309;" 
d="M-327.5 550.5q-1.5 3.5 0.5 7.5q10 23 34 45q15 14 21.5 24t6.5 26q0 17 -14.5 29.5t-35.5 12.5t-32.5 -8t-25.5 -29q-6 -9 -14 -3l-3 2q-8 5 -3 14q17 26 33 37t46 11q32 0 53 -19t21 -47q0 -22 -9.5 -36.5t-29.5 -34.5q-19 -17 -26 -30l-2 -4q-4 -7 -11 -4l-3 1
q-5 2 -6.5 5.5z" />
    <glyph glyph-name="uni030A" unicode="&#x30a;" 
d="M-163 617q-28 29 -28 70t28 70t68 29t68 -29t28 -70t-28 -70t-68 -29t-68 29zM-45 634.5q21 21.5 21 52.5t-21 52.5t-50 21.5q-30 0 -51 -21.5t-21 -52.5t21 -52.5t51 -21.5q29 0 50 21.5z" />
    <glyph glyph-name="uni030B" unicode="&#x30b;" 
d="M-229 572.5q-2 3.5 1 8.5l61 112q3 7 12 7h9q6 0 8 -3.5t-1 -8.5l-64 -112q-5 -7 -12 -7h-6q-6 0 -8 3.5zM-123 572.5q-2 3.5 1 8.5l61 112q3 7 12 7h8q6 0 8 -3.5t-1 -8.5l-63 -112q-5 -7 -12 -7h-6q-6 0 -8 3.5z" />
    <glyph glyph-name="uni030C" unicode="&#x30c;" 
d="M-211 694q0 6 8 6h15q7 0 12 -7l51 -82q1 -1 3 -1t3 1l51 82q5 7 12 7h14q6 0 8 -3.5t-1 -8.5l-67 -101q-4 -6 -12 -6h-18q-7 0 -12 7l-65 100q-2 4 -2 6z" />
    <glyph glyph-name="uni0312" unicode="&#x312;" 
d="M-33 696.5q2 -3.5 -1 -8.5l-62 -112q-4 -7 -12 -7h-8q-6 0 -8 3.5t1 8.5l65 112q5 7 12 7h6q5 0 7 -3.5z" />
    <glyph glyph-name="uni0313" unicode="&#x313;" 
d="M-98 572.5q-2 3.5 1 8.5l62 112q3 7 12 7h9q6 0 8 -3.5t-1 -8.5l-65 -112q-5 -7 -12 -7h-6q-6 0 -8 3.5z" />
    <glyph glyph-name="uni031B" unicode="&#x31b;" 
d="M-115 478q-8 0 -8 9v4q0 10 10 11q24 3 41.5 21t19.5 45q1 10 11 10h5q10 0 10 -11q-4 -36 -28 -60.5t-59 -28.5h-2z" />
    <glyph glyph-name="dotbelowcomb" unicode="&#x323;" 
d="M-73.5 -151q-11.5 12 -11.5 29t11.5 28.5t28.5 11.5q18 0 29.5 -11.5t11.5 -28.5t-12 -29t-29 -12t-28.5 12z" />
    <glyph glyph-name="uni0326" unicode="&#x326;" 
d="M-125 -196.5q-2 3.5 1 8.5l62 112q3 7 12 7h9q6 0 8 -3.5t-1 -8.5l-65 -112q-5 -7 -12 -7h-6q-6 0 -8 3.5z" />
    <glyph glyph-name="uni0327" unicode="&#x327;" 
d="M-100 -168v1l2 4q3 8 11 5q5 -1 14 -1q21 0 34 13.5t13 42.5q0 44 -42 91q-5 4 -4 8t6 4h6q7 0 10 -3l4 -4q46 -41 46 -95q0 -8 -2 -22q-4 -31 -23 -45t-45 -14q-12 0 -23 3q-10 1 -7 12z" />
    <glyph glyph-name="uni0328" unicode="&#x328;" 
d="M-3 -171q0 -8 -7 -9q-11 -3 -23 -3q-29 0 -49.5 19t-20.5 60q0 58 45 97l4 4q4 3 10 3h3q6 0 8 -4t-2 -8q-42 -45 -42 -92q0 -29 13.5 -42t34.5 -13q9 0 13 1q2 1 5 1q4 0 6 -6l2 -4v-1v-3z" />
    <glyph glyph-name="uni0335" unicode="&#x335;" 
d="M-246 600h235q10 0 10 -10v-5q0 -10 -10 -10h-235q-10 0 -10 10v5q0 10 10 10z" />
    <glyph glyph-name="uni0336" unicode="&#x336;" 
d="M-387 529v6q0 10 10 10h367q10 0 10 -10v-6q0 -10 -10 -10h-367q-10 0 -10 10z" />
    <glyph glyph-name="uni0337" unicode="&#x337;" 
d="M-258 145q-5 0 -8 4l-4 7q-2 4 -2 6q0 5 4 8l320 212q2 2 6 2t7 -4l4 -7q2 -4 2 -6q0 -5 -4 -8l-319 -212q-2 -2 -6 -2z" />
    <glyph glyph-name="uni0338" unicode="&#x338;" 
d="M-332 -27.5q-2 3.5 0 8.5l300 751q3 8 11 8h9q5 0 7 -3.5t0 -8.5l-300 -751q-3 -8 -11 -8h-9q-5 0 -7 3.5z" />
    <glyph glyph-name="uni0394" unicode="&#x394;" horiz-adv-x="475" 
d="M10 10v12q0 4 2 12l209 658q3 8 12 8h9q9 0 12 -8l209 -659q2 -8 2 -12v-11q0 -10 -10 -10h-435q-10 0 -10 10zM41.5 28.5q1.5 -1.5 3.5 -1.5h385q2 0 3.5 1.5t0.5 3.5l-194 623q-1 2 -3 2t-3 -2l-193 -623q-1 -2 0.5 -3.5z" />
    <glyph glyph-name="uni03A9" unicode="&#x3a9;" horiz-adv-x="473" 
d="M68 10v8q0 10 10 10h64q2 0 3 1.5t-1 3.5q-29 21 -45.5 54.5t-16.5 76.5v382q0 72 43.5 117t111.5 45q69 0 112.5 -45t43.5 -117v-382q0 -43 -16.5 -77t-46.5 -54q-2 -2 -1.5 -3.5t3.5 -1.5h63q10 0 10 -10v-8q0 -10 -10 -10h-120q-10 0 -10 10v9q0 9 9 10q37 8 63 43.5
t26 86.5v389q0 58 -35 95t-91 37q-55 0 -90 -36.5t-35 -95.5v-389q0 -51 25.5 -86.5t62.5 -43.5q9 -1 9 -10v-9q0 -10 -10 -10h-121q-10 0 -10 10z" />
    <glyph glyph-name="uni03BC" unicode="&#x3bc;" horiz-adv-x="417" 
d="M323 501h10q10 0 10 -10v-481q0 -10 -10 -10h-10q-10 0 -10 10v41q0 3 -2 3.5t-3 -2.5q-16 -29 -42.5 -44t-62.5 -15q-61 0 -94 36q-5 3 -5 -2v-217q0 -10 -10 -10h-10q-10 0 -10 10v681q0 10 10 10h10q10 0 10 -10v-346q0 -61 26.5 -92.5t75.5 -31.5q50 0 78.5 36
t28.5 99v335q0 10 10 10z" />
    <glyph glyph-name="pi" unicode="&#x3c0;" horiz-adv-x="490" 
d="M443 474h-52q-4 0 -4 -4v-404q0 -20 11.5 -27.5t37.5 -7.5q10 0 10 -10v-11q0 -10 -10 -10q-40 2 -60 15t-19 46v409q0 4 -4 4h-209q-4 0 -4 -4v-460q0 -10 -10 -10h-10q-10 0 -10 10v460q0 4 -4 4h-59q-10 0 -10 10v7q0 10 10 10h396q10 0 10 -10v-7q0 -10 -10 -10z" />
    <glyph glyph-name="Wgrave" unicode="&#x1e80;" horiz-adv-x="584" 
d="M163 9l-129 680v2q0 9 9 9h11q10 0 11 -9l114 -619q1 -2 2 -2t2 2l96 619q2 9 10 9h12q9 0 10 -9l99 -619q1 -2 2 -2t2 2l105 619q2 9 11 9h12q5 0 7.5 -3t1.5 -8l-123 -680q-1 -9 -11 -9h-12q-8 0 -10 9l-97 616q-1 2 -2 2t-2 -2l-98 -616q-1 -9 -10 -9h-12q-9 0 -11 9z
M305 774q0 -6 -8 -6h-6q-7 0 -12 7l-66 112q-2 4 -2 6q0 6 9 6h9q8 0 12 -7l62 -112q2 -4 2 -6z" />
    <glyph glyph-name="wgrave" unicode="&#x1e81;" horiz-adv-x="520" 
d="M133 9l-104 481v2q0 9 9 9h10q10 0 11 -9l89 -441q1 -3 2 -3t2 3l90 441q2 9 11 9h11q10 0 11 -9l91 -441q1 -3 2 -3t2 3l91 441q2 9 11 9h10q5 0 7.5 -3t1.5 -8l-106 -481q-1 -9 -11 -9h-12q-9 0 -11 9l-91 429q-1 3 -2 3t-2 -3l-88 -429q-1 -9 -11 -9h-13q-9 0 -11 9z
M269 575q0 -6 -8 -6h-6q-7 0 -12 7l-66 112q-2 4 -2 6q0 6 9 6h9q8 0 12 -7l62 -112q2 -4 2 -6z" />
    <glyph glyph-name="Wacute" unicode="&#x1e82;" horiz-adv-x="584" 
d="M163 9l-129 680v2q0 9 9 9h11q10 0 11 -9l114 -619q1 -2 2 -2t2 2l96 619q2 9 10 9h12q9 0 10 -9l99 -619q1 -2 2 -2t2 2l105 619q2 9 11 9h12q5 0 7.5 -3t1.5 -8l-123 -680q-1 -9 -11 -9h-12q-8 0 -10 9l-97 616q-1 2 -2 2t-2 -2l-98 -616q-1 -9 -10 -9h-12q-9 0 -11 9z
M265 771.5q-2 3.5 1 8.5l62 112q3 7 12 7h9q6 0 8 -3.5t-1 -8.5l-65 -112q-5 -7 -12 -7h-6q-6 0 -8 3.5z" />
    <glyph glyph-name="wacute" unicode="&#x1e83;" horiz-adv-x="520" 
d="M133 9l-104 481v2q0 9 9 9h10q10 0 11 -9l89 -441q1 -3 2 -3t2 3l90 441q2 9 11 9h11q10 0 11 -9l91 -441q1 -3 2 -3t2 3l91 441q2 9 11 9h10q5 0 7.5 -3t1.5 -8l-106 -481q-1 -9 -11 -9h-12q-9 0 -11 9l-91 429q-1 3 -2 3t-2 -3l-88 -429q-1 -9 -11 -9h-13q-9 0 -11 9z
M229 572.5q-2 3.5 1 8.5l62 112q3 7 12 7h9q6 0 8 -3.5t-1 -8.5l-65 -112q-5 -7 -12 -7h-6q-6 0 -8 3.5z" />
    <glyph glyph-name="Wdieresis" unicode="&#x1e84;" horiz-adv-x="584" 
d="M163 9l-129 680v2q0 9 9 9h11q10 0 11 -9l114 -619q1 -2 2 -2t2 2l96 619q2 9 10 9h12q9 0 10 -9l99 -619q1 -2 2 -2t2 2l105 619q2 9 11 9h12q5 0 7.5 -3t1.5 -8l-123 -680q-1 -9 -11 -9h-12q-8 0 -10 9l-97 616q-1 2 -2 2t-2 -2l-98 -616q-1 -9 -10 -9h-12q-9 0 -11 9z
M329 824q-12 12 -12 31q0 18 12 30t31 12t31 -12t12 -30q0 -19 -12 -31t-31 -12t-31 12zM199 824q-12 12 -12 31q0 18 12 30t31 12t31 -12t12 -30q0 -19 -12 -31t-31 -12t-31 12z" />
    <glyph glyph-name="wdieresis" unicode="&#x1e85;" horiz-adv-x="520" 
d="M133 9l-104 481v2q0 9 9 9h10q10 0 11 -9l89 -441q1 -3 2 -3t2 3l90 441q2 9 11 9h11q10 0 11 -9l91 -441q1 -3 2 -3t2 3l91 441q2 9 11 9h10q5 0 7.5 -3t1.5 -8l-106 -481q-1 -9 -11 -9h-12q-9 0 -11 9l-91 429q-1 3 -2 3t-2 -3l-88 -429q-1 -9 -11 -9h-13q-9 0 -11 9z
M292 625q-12 12 -12 31q0 18 12 30t31 12t31 -12t12 -30q0 -19 -12 -31t-31 -12t-31 12zM162 625q-12 12 -12 31q0 18 12 30t31 12t31 -12t12 -30q0 -19 -12 -31t-31 -12t-31 12z" />
    <glyph glyph-name="uni1EA0" unicode="&#x1ea0;" horiz-adv-x="367" 
d="M325 9l-30 139q0 2 -1.5 3t-3.5 1h-213q-2 0 -3.5 -1t-1.5 -3l-30 -139q-1 -9 -11 -9h-10q-5 0 -7.5 3t-1.5 8l153 680q2 9 11 9h14q9 0 11 -9l154 -680v-2q0 -9 -9 -9h-10q-9 0 -11 9zM80.5 180.5q1.5 -1.5 3.5 -1.5h199q2 0 3.5 1.5t0.5 2.5l-102 461q-1 3 -2 3t-2 -3
l-101 -461q-1 -1 0.5 -2.5zM155.5 -151q-11.5 12 -11.5 29t11.5 28.5t28.5 11.5q18 0 29.5 -11.5t11.5 -28.5t-12 -29t-29 -12t-28.5 12z" />
    <glyph glyph-name="uni1EA1" unicode="&#x1ea1;" horiz-adv-x="392" 
d="M296 464q35 -45 35 -121v-333q0 -10 -10 -10h-10q-10 0 -10 10v45q0 3 -2 3.5t-3 -2.5q-19 -32 -51 -48t-71 -16q-52 0 -88 30.5t-36 105.5q0 80 43 119t115 39h89q4 0 4 4v55q0 62 -27 99t-78 37q-40 0 -70 -24.5t-34 -63.5q0 -9 -10 -9l-11 1q-5 0 -7.5 3t-1.5 8
q6 51 44.5 82t90.5 31q64 0 99 -45zM264.5 52q36.5 32 36.5 92v111q0 4 -4 4h-88q-59 0 -94 -33t-35 -97q0 -55 27 -82t71 -27q50 0 86.5 32zM167.5 -151q-11.5 12 -11.5 29t11.5 28.5t28.5 11.5q18 0 29.5 -11.5t11.5 -28.5t-12 -29t-29 -12t-28.5 12z" />
    <glyph glyph-name="uni1EA2" unicode="&#x1ea2;" horiz-adv-x="367" 
d="M325 9l-30 139q0 2 -1.5 3t-3.5 1h-213q-2 0 -3.5 -1t-1.5 -3l-30 -139q-1 -9 -11 -9h-10q-5 0 -7.5 3t-1.5 8l153 680q2 9 11 9h14q9 0 11 -9l154 -680v-2q0 -9 -9 -9h-10q-9 0 -11 9zM80.5 180.5q1.5 -1.5 3.5 -1.5h199q2 0 3.5 1.5t0.5 2.5l-102 461q-1 3 -2 3t-2 -3
l-101 -461q-1 -1 0.5 -2.5zM174.5 749.5q-1.5 3.5 0.5 7.5q10 23 34 45q15 14 21.5 24t6.5 26q0 17 -14.5 29.5t-35.5 12.5t-32.5 -8t-25.5 -29q-6 -9 -14 -3l-3 2q-8 5 -3 14q17 26 33 37t46 11q32 0 53 -19t21 -47q0 -22 -9.5 -36.5t-29.5 -34.5q-19 -17 -26 -30l-2 -4
q-4 -7 -11 -4l-3 1q-5 2 -6.5 5.5z" />
    <glyph glyph-name="uni1EA3" unicode="&#x1ea3;" horiz-adv-x="392" 
d="M296 464q35 -45 35 -121v-333q0 -10 -10 -10h-10q-10 0 -10 10v45q0 3 -2 3.5t-3 -2.5q-19 -32 -51 -48t-71 -16q-52 0 -88 30.5t-36 105.5q0 80 43 119t115 39h89q4 0 4 4v55q0 62 -27 99t-78 37q-40 0 -70 -24.5t-34 -63.5q0 -9 -10 -9l-11 1q-5 0 -7.5 3t-1.5 8
q6 51 44.5 82t90.5 31q64 0 99 -45zM264.5 52q36.5 32 36.5 92v111q0 4 -4 4h-88q-59 0 -94 -33t-35 -97q0 -55 27 -82t71 -27q50 0 86.5 32zM186.5 550.5q-1.5 3.5 0.5 7.5q10 23 34 45q15 14 21.5 24t6.5 26q0 17 -14.5 29.5t-35.5 12.5t-32.5 -8t-25.5 -29q-6 -9 -14 -3
l-3 2q-8 5 -3 14q17 26 33 37t46 11q32 0 53 -19t21 -47q0 -22 -9.5 -36.5t-29.5 -34.5q-19 -17 -26 -30l-2 -4q-4 -7 -11 -4l-3 1q-5 2 -6.5 5.5z" />
    <glyph glyph-name="uni1EA4" unicode="&#x1ea4;" horiz-adv-x="367" 
d="M325 9l-30 139q0 2 -1.5 3t-3.5 1h-213q-2 0 -3.5 -1t-1.5 -3l-30 -139q-1 -9 -11 -9h-10q-5 0 -7.5 3t-1.5 8l153 680q2 9 11 9h14q9 0 11 -9l154 -680v-2q0 -9 -9 -9h-10q-9 0 -11 9zM80.5 180.5q1.5 -1.5 3.5 -1.5h199q2 0 3.5 1.5t0.5 2.5l-102 461q-1 3 -2 3t-2 -3
l-101 -461q-1 -1 0.5 -2.5zM94.5 783.5q-1.5 3.5 1.5 8.5l65 100q5 7 12 7h18q7 0 12 -6l67 -101l2 -5q0 -7 -9 -7h-14q-7 0 -12 7l-51 81q-1 2 -3 2t-3 -2l-51 -81q-5 -7 -12 -7h-15q-6 0 -7.5 3.5zM279 846.5q-2 3.5 1 8.5l62 112q3 7 12 7h9q6 0 8 -3.5t-1 -8.5l-65 -112
q-5 -7 -12 -7h-6q-6 0 -8 3.5z" />
    <glyph glyph-name="uni1EA5" unicode="&#x1ea5;" horiz-adv-x="392" 
d="M296 464q35 -45 35 -121v-333q0 -10 -10 -10h-10q-10 0 -10 10v45q0 3 -2 3.5t-3 -2.5q-19 -32 -51 -48t-71 -16q-52 0 -88 30.5t-36 105.5q0 80 43 119t115 39h89q4 0 4 4v55q0 62 -27 99t-78 37q-40 0 -70 -24.5t-34 -63.5q0 -9 -10 -9l-11 1q-5 0 -7.5 3t-1.5 8
q6 51 44.5 82t90.5 31q64 0 99 -45zM264.5 52q36.5 32 36.5 92v111q0 4 -4 4h-88q-59 0 -94 -33t-35 -97q0 -55 27 -82t71 -27q50 0 86.5 32zM107.5 584.5q-1.5 3.5 1.5 8.5l65 100q5 7 12 7h18q7 0 12 -6l67 -101l2 -5q0 -7 -9 -7h-14q-7 0 -12 7l-51 81q-1 2 -3 2t-3 -2
l-51 -81q-5 -7 -12 -7h-15q-6 0 -7.5 3.5zM292 647.5q-2 3.5 1 8.5l62 112q3 7 12 7h9q6 0 8 -3.5t-1 -8.5l-65 -112q-5 -7 -12 -7h-6q-6 0 -8 3.5z" />
    <glyph glyph-name="uni1EA6" unicode="&#x1ea6;" horiz-adv-x="367" 
d="M325 9l-30 139q0 2 -1.5 3t-3.5 1h-213q-2 0 -3.5 -1t-1.5 -3l-30 -139q-1 -9 -11 -9h-10q-5 0 -7.5 3t-1.5 8l153 680q2 9 11 9h14q9 0 11 -9l154 -680v-2q0 -9 -9 -9h-10q-9 0 -11 9zM80.5 180.5q1.5 -1.5 3.5 -1.5h199q2 0 3.5 1.5t0.5 2.5l-102 461q-1 3 -2 3t-2 -3
l-101 -461q-1 -1 0.5 -2.5zM94.5 783.5q-1.5 3.5 1.5 8.5l65 100q5 7 12 7h18q7 0 12 -6l67 -101l2 -5q0 -7 -9 -7h-14q-7 0 -12 7l-51 81q-1 2 -3 2t-3 -2l-51 -81q-5 -7 -12 -7h-15q-6 0 -7.5 3.5zM321 895q0 -6 -8 -6h-6q-7 0 -12 7l-66 112q-2 4 -2 6q0 6 9 6h9
q8 0 12 -7l62 -112q2 -4 2 -6z" />
    <glyph glyph-name="uni1EA7" unicode="&#x1ea7;" horiz-adv-x="392" 
d="M296 464q35 -45 35 -121v-333q0 -10 -10 -10h-10q-10 0 -10 10v45q0 3 -2 3.5t-3 -2.5q-19 -32 -51 -48t-71 -16q-52 0 -88 30.5t-36 105.5q0 80 43 119t115 39h89q4 0 4 4v55q0 62 -27 99t-78 37q-40 0 -70 -24.5t-34 -63.5q0 -9 -10 -9l-11 1q-5 0 -7.5 3t-1.5 8
q6 51 44.5 82t90.5 31q64 0 99 -45zM264.5 52q36.5 32 36.5 92v111q0 4 -4 4h-88q-59 0 -94 -33t-35 -97q0 -55 27 -82t71 -27q50 0 86.5 32zM107.5 584.5q-1.5 3.5 1.5 8.5l65 100q5 7 12 7h18q7 0 12 -6l67 -101l2 -5q0 -7 -9 -7h-14q-7 0 -12 7l-51 81q-1 2 -3 2t-3 -2
l-51 -81q-5 -7 -12 -7h-15q-6 0 -7.5 3.5zM334 696q0 -6 -8 -6h-6q-7 0 -12 7l-66 112q-2 4 -2 6q0 6 9 6h9q8 0 12 -7l62 -112q2 -4 2 -6z" />
    <glyph glyph-name="uni1EA8" unicode="&#x1ea8;" horiz-adv-x="367" 
d="M325 9l-30 139q0 2 -1.5 3t-3.5 1h-213q-2 0 -3.5 -1t-1.5 -3l-30 -139q-1 -9 -11 -9h-10q-5 0 -7.5 3t-1.5 8l153 680q2 9 11 9h14q9 0 11 -9l154 -680v-2q0 -9 -9 -9h-10q-9 0 -11 9zM80.5 180.5q1.5 -1.5 3.5 -1.5h199q2 0 3.5 1.5t0.5 2.5l-102 461q-1 3 -2 3t-2 -3
l-101 -461q-1 -1 0.5 -2.5zM277.5 872.5q-1.5 3.5 0.5 7.5q10 22 34 44q14 13 21 23.5t7 26.5q0 17 -14.5 30t-34.5 13q-21 0 -32.5 -8.5t-25.5 -29.5q-7 -10 -14 -4l-4 3q-7 6 -3 13q18 27 34 38.5t45 11.5q31 0 52.5 -19t21.5 -48q0 -22 -10 -37t-29 -33q-3 -4 -12 -13.5
t-14 -18.5q-4 -9 -13 -6l-3 1q-5 2 -6.5 5.5zM94.5 783.5q-1.5 3.5 1.5 8.5l65 100q5 7 12 7h18q7 0 12 -6l67 -101l2 -5q0 -7 -9 -7h-14q-7 0 -12 7l-51 81q-1 2 -3 2t-3 -2l-51 -81q-5 -7 -12 -7h-15q-6 0 -7.5 3.5z" />
    <glyph glyph-name="uni1EA9" unicode="&#x1ea9;" horiz-adv-x="392" 
d="M296 464q35 -45 35 -121v-333q0 -10 -10 -10h-10q-10 0 -10 10v45q0 3 -2 3.5t-3 -2.5q-19 -32 -51 -48t-71 -16q-52 0 -88 30.5t-36 105.5q0 80 43 119t115 39h89q4 0 4 4v55q0 62 -27 99t-78 37q-40 0 -70 -24.5t-34 -63.5q0 -9 -10 -9l-11 1q-5 0 -7.5 3t-1.5 8
q6 51 44.5 82t90.5 31q64 0 99 -45zM264.5 52q36.5 32 36.5 92v111q0 4 -4 4h-88q-59 0 -94 -33t-35 -97q0 -55 27 -82t71 -27q50 0 86.5 32zM290.5 673.5q-1.5 3.5 0.5 7.5q10 22 34 44q14 13 21 23.5t7 26.5q0 17 -14.5 30t-34.5 13q-21 0 -32.5 -8.5t-25.5 -29.5
q-7 -10 -14 -4l-4 3q-7 6 -3 13q18 27 34 38.5t45 11.5q31 0 52.5 -19t21.5 -48q0 -22 -10 -37t-29 -33q-3 -4 -12 -13.5t-14 -18.5q-4 -9 -13 -6l-3 1q-5 2 -6.5 5.5zM107.5 584.5q-1.5 3.5 1.5 8.5l65 100q5 7 12 7h18q7 0 12 -6l67 -101l2 -5q0 -7 -9 -7h-14q-7 0 -12 7
l-51 81q-1 2 -3 2t-3 -2l-51 -81q-5 -7 -12 -7h-15q-6 0 -7.5 3.5z" />
    <glyph glyph-name="uni1EAA" unicode="&#x1eaa;" horiz-adv-x="367" 
d="M325 9l-30 139q0 2 -1.5 3t-3.5 1h-213q-2 0 -3.5 -1t-1.5 -3l-30 -139q-1 -9 -11 -9h-10q-5 0 -7.5 3t-1.5 8l153 680q2 9 11 9h14q9 0 11 -9l154 -680v-2q0 -9 -9 -9h-10q-9 0 -11 9zM80.5 180.5q1.5 -1.5 3.5 -1.5h199q2 0 3.5 1.5t0.5 2.5l-102 461q-1 3 -2 3t-2 -3
l-101 -461q-1 -1 0.5 -2.5zM94.5 783.5q-1.5 3.5 1.5 8.5l65 100q5 7 12 7h18q7 0 12 -6l67 -101l2 -5q0 -7 -9 -7h-14q-7 0 -12 7l-51 81q-1 2 -3 2t-3 -2l-51 -81q-5 -7 -12 -7h-15q-6 0 -7.5 3.5zM214 933.5q-12 6.5 -26 17.5q-2 2 -11.5 9t-17.5 10t-17 3
q-16 0 -27 -5.5t-22 -22.5q-6 -9 -14 -3l-3 2q-8 5 -2 14q26 41 67 41q15 0 26.5 -6t28.5 -17q18 -12 27 -17t20 -5q14 0 25 6.5t22 24.5q2 4 6 5t8 -1l3 -2q5 -3 5 -9t-4 -11q-14 -21 -32 -30.5t-35 -9.5q-15 0 -27 6.5z" />
    <glyph glyph-name="uni1EAB" unicode="&#x1eab;" horiz-adv-x="392" 
d="M296 464q35 -45 35 -121v-333q0 -10 -10 -10h-10q-10 0 -10 10v45q0 3 -2 3.5t-3 -2.5q-19 -32 -51 -48t-71 -16q-52 0 -88 30.5t-36 105.5q0 80 43 119t115 39h89q4 0 4 4v55q0 62 -27 99t-78 37q-40 0 -70 -24.5t-34 -63.5q0 -9 -10 -9l-11 1q-5 0 -7.5 3t-1.5 8
q6 51 44.5 82t90.5 31q64 0 99 -45zM264.5 52q36.5 32 36.5 92v111q0 4 -4 4h-88q-59 0 -94 -33t-35 -97q0 -55 27 -82t71 -27q50 0 86.5 32zM107.5 584.5q-1.5 3.5 1.5 8.5l65 100q5 7 12 7h18q7 0 12 -6l67 -101l2 -5q0 -7 -9 -7h-14q-7 0 -12 7l-51 81q-1 2 -3 2t-3 -2
l-51 -81q-5 -7 -12 -7h-15q-6 0 -7.5 3.5zM227 734.5q-12 6.5 -26 17.5q-2 2 -11.5 9t-17.5 10t-17 3q-16 0 -27 -5.5t-22 -22.5q-6 -9 -14 -3l-3 2q-8 5 -2 14q26 41 67 41q15 0 26.5 -6t28.5 -17q18 -12 27 -17t20 -5q14 0 25 6.5t22 24.5q2 4 6 5t8 -1l3 -2q5 -3 5 -9
t-4 -11q-14 -21 -32 -30.5t-35 -9.5q-15 0 -27 6.5z" />
    <glyph glyph-name="uni1EAC" unicode="&#x1eac;" horiz-adv-x="367" 
d="M325 9l-30 139q0 2 -1.5 3t-3.5 1h-213q-2 0 -3.5 -1t-1.5 -3l-30 -139q-1 -9 -11 -9h-10q-5 0 -7.5 3t-1.5 8l153 680q2 9 11 9h14q9 0 11 -9l154 -680v-2q0 -9 -9 -9h-10q-9 0 -11 9zM80.5 180.5q1.5 -1.5 3.5 -1.5h199q2 0 3.5 1.5t0.5 2.5l-102 461q-1 3 -2 3t-2 -3
l-101 -461q-1 -1 0.5 -2.5zM155.5 -151q-11.5 12 -11.5 29t11.5 28.5t28.5 11.5q18 0 29.5 -11.5t11.5 -28.5t-12 -29t-29 -12t-28.5 12zM94.5 783.5q-1.5 3.5 1.5 8.5l65 100q5 7 12 7h18q7 0 12 -6l67 -101l2 -5q0 -7 -9 -7h-14q-7 0 -12 7l-51 81q-1 2 -3 2t-3 -2
l-51 -81q-5 -7 -12 -7h-15q-6 0 -7.5 3.5z" />
    <glyph glyph-name="uni1EAD" unicode="&#x1ead;" horiz-adv-x="392" 
d="M296 464q35 -45 35 -121v-333q0 -10 -10 -10h-10q-10 0 -10 10v45q0 3 -2 3.5t-3 -2.5q-19 -32 -51 -48t-71 -16q-52 0 -88 30.5t-36 105.5q0 80 43 119t115 39h89q4 0 4 4v55q0 62 -27 99t-78 37q-40 0 -70 -24.5t-34 -63.5q0 -9 -10 -9l-11 1q-5 0 -7.5 3t-1.5 8
q6 51 44.5 82t90.5 31q64 0 99 -45zM264.5 52q36.5 32 36.5 92v111q0 4 -4 4h-88q-59 0 -94 -33t-35 -97q0 -55 27 -82t71 -27q50 0 86.5 32zM167.5 -151q-11.5 12 -11.5 29t11.5 28.5t28.5 11.5q18 0 29.5 -11.5t11.5 -28.5t-12 -29t-29 -12t-28.5 12zM107.5 584.5
q-1.5 3.5 1.5 8.5l65 100q5 7 12 7h18q7 0 12 -6l67 -101l2 -5q0 -7 -9 -7h-14q-7 0 -12 7l-51 81q-1 2 -3 2t-3 -2l-51 -81q-5 -7 -12 -7h-15q-6 0 -7.5 3.5z" />
    <glyph glyph-name="uni1EAE" unicode="&#x1eae;" horiz-adv-x="367" 
d="M325 9l-30 139q0 2 -1.5 3t-3.5 1h-213q-2 0 -3.5 -1t-1.5 -3l-30 -139q-1 -9 -11 -9h-10q-5 0 -7.5 3t-1.5 8l153 680q2 9 11 9h14q9 0 11 -9l154 -680v-2q0 -9 -9 -9h-10q-9 0 -11 9zM80.5 180.5q1.5 -1.5 3.5 -1.5h199q2 0 3.5 1.5t0.5 2.5l-102 461q-1 3 -2 3t-2 -3
l-101 -461q-1 -1 0.5 -2.5zM119 812.5q-27 25.5 -31 63.5v2q0 8 9 8h5q10 0 11 -10q3 -28 23 -46.5t47 -18.5t47 18.5t23 46.5q1 10 11 10h5q10 0 10 -10q-4 -38 -31 -63.5t-65 -25.5q-37 0 -64 25.5zM153 929.5q-2 3.5 1 8.5l62 112q3 7 12 7h9q6 0 8 -3.5t-1 -8.5
l-65 -112q-5 -7 -12 -7h-6q-6 0 -8 3.5z" />
    <glyph glyph-name="uni1EAF" unicode="&#x1eaf;" horiz-adv-x="392" 
d="M296 464q35 -45 35 -121v-333q0 -10 -10 -10h-10q-10 0 -10 10v45q0 3 -2 3.5t-3 -2.5q-19 -32 -51 -48t-71 -16q-52 0 -88 30.5t-36 105.5q0 80 43 119t115 39h89q4 0 4 4v55q0 62 -27 99t-78 37q-40 0 -70 -24.5t-34 -63.5q0 -9 -10 -9l-11 1q-5 0 -7.5 3t-1.5 8
q6 51 44.5 82t90.5 31q64 0 99 -45zM264.5 52q36.5 32 36.5 92v111q0 4 -4 4h-88q-59 0 -94 -33t-35 -97q0 -55 27 -82t71 -27q50 0 86.5 32zM132 613.5q-27 25.5 -31 63.5v2q0 8 9 8h5q10 0 11 -10q3 -28 23 -46.5t47 -18.5t47 18.5t23 46.5q1 10 11 10h5q10 0 10 -10
q-4 -38 -31 -63.5t-65 -25.5q-37 0 -64 25.5zM166 730.5q-2 3.5 1 8.5l62 112q3 7 12 7h9q6 0 8 -3.5t-1 -8.5l-65 -112q-5 -7 -12 -7h-6q-6 0 -8 3.5z" />
    <glyph glyph-name="uni1EB0" unicode="&#x1eb0;" horiz-adv-x="367" 
d="M325 9l-30 139q0 2 -1.5 3t-3.5 1h-213q-2 0 -3.5 -1t-1.5 -3l-30 -139q-1 -9 -11 -9h-10q-5 0 -7.5 3t-1.5 8l153 680q2 9 11 9h14q9 0 11 -9l154 -680v-2q0 -9 -9 -9h-10q-9 0 -11 9zM80.5 180.5q1.5 -1.5 3.5 -1.5h199q2 0 3.5 1.5t0.5 2.5l-102 461q-1 3 -2 3t-2 -3
l-101 -461q-1 -1 0.5 -2.5zM119 812.5q-27 25.5 -31 63.5v2q0 8 9 8h5q10 0 11 -10q3 -28 23 -46.5t47 -18.5t47 18.5t23 46.5q1 10 11 10h5q10 0 10 -10q-4 -38 -31 -63.5t-65 -25.5q-37 0 -64 25.5zM193 932q0 -6 -8 -6h-6q-7 0 -12 7l-66 112q-2 4 -2 6q0 6 9 6h9
q8 0 12 -7l62 -112q2 -4 2 -6z" />
    <glyph glyph-name="uni1EB1" unicode="&#x1eb1;" horiz-adv-x="392" 
d="M296 464q35 -45 35 -121v-333q0 -10 -10 -10h-10q-10 0 -10 10v45q0 3 -2 3.5t-3 -2.5q-19 -32 -51 -48t-71 -16q-52 0 -88 30.5t-36 105.5q0 80 43 119t115 39h89q4 0 4 4v55q0 62 -27 99t-78 37q-40 0 -70 -24.5t-34 -63.5q0 -9 -10 -9l-11 1q-5 0 -7.5 3t-1.5 8
q6 51 44.5 82t90.5 31q64 0 99 -45zM264.5 52q36.5 32 36.5 92v111q0 4 -4 4h-88q-59 0 -94 -33t-35 -97q0 -55 27 -82t71 -27q50 0 86.5 32zM132 613.5q-27 25.5 -31 63.5v2q0 8 9 8h5q10 0 11 -10q3 -28 23 -46.5t47 -18.5t47 18.5t23 46.5q1 10 11 10h5q10 0 10 -10
q-4 -38 -31 -63.5t-65 -25.5q-37 0 -64 25.5zM206 733q0 -6 -8 -6h-6q-7 0 -12 7l-66 112q-2 4 -2 6q0 6 9 6h9q8 0 12 -7l62 -112q2 -4 2 -6z" />
    <glyph glyph-name="uni1EB2" unicode="&#x1eb2;" horiz-adv-x="367" 
d="M325 9l-30 139q0 2 -1.5 3t-3.5 1h-213q-2 0 -3.5 -1t-1.5 -3l-30 -139q-1 -9 -11 -9h-10q-5 0 -7.5 3t-1.5 8l153 680q2 9 11 9h14q9 0 11 -9l154 -680v-2q0 -9 -9 -9h-10q-9 0 -11 9zM80.5 180.5q1.5 -1.5 3.5 -1.5h199q2 0 3.5 1.5t0.5 2.5l-102 461q-1 3 -2 3t-2 -3
l-101 -461q-1 -1 0.5 -2.5zM173.5 907.5q-1.5 3.5 0.5 7.5q10 22 34 44q15 14 21.5 24t6.5 26q0 17 -14.5 29.5t-34.5 12.5q-21 0 -32.5 -8t-25.5 -29q-6 -9 -14 -3l-3 2q-8 5 -3 14q17 26 33 37t45 11q32 0 53 -19t21 -47q0 -21 -9.5 -36t-28.5 -34q-20 -18 -27 -32
q-3 -9 -12 -6l-4 1q-5 2 -6.5 5.5zM118.5 812.5q-27.5 25.5 -30.5 63.5v2q0 8 9 8h5q10 0 11 -10q3 -28 23 -46.5t47 -18.5t47 18.5t23 46.5q1 10 11 10h5q5 0 7.5 -3t1.5 -7q-3 -38 -30 -63.5t-65 -25.5q-37 0 -64.5 25.5z" />
    <glyph glyph-name="uni1EB3" unicode="&#x1eb3;" horiz-adv-x="392" 
d="M296 464q35 -45 35 -121v-333q0 -10 -10 -10h-10q-10 0 -10 10v45q0 3 -2 3.5t-3 -2.5q-19 -32 -51 -48t-71 -16q-52 0 -88 30.5t-36 105.5q0 80 43 119t115 39h89q4 0 4 4v55q0 62 -27 99t-78 37q-40 0 -70 -24.5t-34 -63.5q0 -9 -10 -9l-11 1q-5 0 -7.5 3t-1.5 8
q6 51 44.5 82t90.5 31q64 0 99 -45zM264.5 52q36.5 32 36.5 92v111q0 4 -4 4h-88q-59 0 -94 -33t-35 -97q0 -55 27 -82t71 -27q50 0 86.5 32zM186.5 708.5q-1.5 3.5 0.5 7.5q10 22 34 44q15 14 21.5 24t6.5 26q0 17 -14.5 29.5t-34.5 12.5q-21 0 -32.5 -8t-25.5 -29
q-6 -9 -14 -3l-3 2q-8 5 -3 14q17 26 33 37t45 11q32 0 53 -19t21 -47q0 -21 -9.5 -36t-28.5 -34q-20 -18 -27 -32q-3 -9 -12 -6l-4 1q-5 2 -6.5 5.5zM131.5 613.5q-27.5 25.5 -30.5 63.5v2q0 8 9 8h5q10 0 11 -10q3 -28 23 -46.5t47 -18.5t47 18.5t23 46.5q1 10 11 10h5
q5 0 7.5 -3t1.5 -7q-3 -38 -30 -63.5t-65 -25.5q-37 0 -64.5 25.5z" />
    <glyph glyph-name="uni1EB4" unicode="&#x1eb4;" horiz-adv-x="367" 
d="M325 9l-30 139q0 2 -1.5 3t-3.5 1h-213q-2 0 -3.5 -1t-1.5 -3l-30 -139q-1 -9 -11 -9h-10q-5 0 -7.5 3t-1.5 8l153 680q2 9 11 9h14q9 0 11 -9l154 -680v-2q0 -9 -9 -9h-10q-9 0 -11 9zM80.5 180.5q1.5 -1.5 3.5 -1.5h199q2 0 3.5 1.5t0.5 2.5l-102 461q-1 3 -2 3t-2 -3
l-101 -461q-1 -1 0.5 -2.5zM119 812.5q-27 25.5 -31 63.5v2q0 8 9 8h5q10 0 11 -10q3 -28 23 -46.5t47 -18.5t47 18.5t23 46.5q1 10 11 10h5q10 0 10 -10q-4 -38 -31 -63.5t-65 -25.5q-37 0 -64 25.5zM201 932.5q-12 6.5 -26 17.5q-2 2 -11.5 9t-17.5 10t-17 3
q-16 0 -27 -5.5t-22 -22.5q-6 -9 -14 -3l-3 2q-8 5 -2 14q26 41 67 41q15 0 26.5 -6t28.5 -17q18 -12 27 -17t20 -5q14 0 25 6.5t22 24.5q2 4 6 5t8 -1l3 -2q5 -3 5 -9t-4 -11q-14 -21 -32 -30.5t-35 -9.5q-15 0 -27 6.5z" />
    <glyph glyph-name="uni1EB5" unicode="&#x1eb5;" horiz-adv-x="392" 
d="M296 464q35 -45 35 -121v-333q0 -10 -10 -10h-10q-10 0 -10 10v45q0 3 -2 3.5t-3 -2.5q-19 -32 -51 -48t-71 -16q-52 0 -88 30.5t-36 105.5q0 80 43 119t115 39h89q4 0 4 4v55q0 62 -27 99t-78 37q-40 0 -70 -24.5t-34 -63.5q0 -9 -10 -9l-11 1q-5 0 -7.5 3t-1.5 8
q6 51 44.5 82t90.5 31q64 0 99 -45zM264.5 52q36.5 32 36.5 92v111q0 4 -4 4h-88q-59 0 -94 -33t-35 -97q0 -55 27 -82t71 -27q50 0 86.5 32zM132 613.5q-27 25.5 -31 63.5v2q0 8 9 8h5q10 0 11 -10q3 -28 23 -46.5t47 -18.5t47 18.5t23 46.5q1 10 11 10h5q10 0 10 -10
q-4 -38 -31 -63.5t-65 -25.5q-37 0 -64 25.5zM214 733.5q-12 6.5 -26 17.5q-2 2 -11.5 9t-17.5 10t-17 3q-16 0 -27 -5.5t-22 -22.5q-6 -9 -14 -3l-3 2q-8 5 -2 14q26 41 67 41q15 0 26.5 -6t28.5 -17q18 -12 27 -17t20 -5q14 0 25 6.5t22 24.5q2 4 6 5t8 -1l3 -2q5 -3 5 -9
t-4 -11q-14 -21 -32 -30.5t-35 -9.5q-15 0 -27 6.5z" />
    <glyph glyph-name="uni1EB6" unicode="&#x1eb6;" horiz-adv-x="367" 
d="M325 9l-30 139q0 2 -1.5 3t-3.5 1h-213q-2 0 -3.5 -1t-1.5 -3l-30 -139q-1 -9 -11 -9h-10q-5 0 -7.5 3t-1.5 8l153 680q2 9 11 9h14q9 0 11 -9l154 -680v-2q0 -9 -9 -9h-10q-9 0 -11 9zM80.5 180.5q1.5 -1.5 3.5 -1.5h199q2 0 3.5 1.5t0.5 2.5l-102 461q-1 3 -2 3t-2 -3
l-101 -461q-1 -1 0.5 -2.5zM155.5 -151q-11.5 12 -11.5 29t11.5 28.5t28.5 11.5q18 0 29.5 -11.5t11.5 -28.5t-12 -29t-29 -12t-28.5 12zM119 812.5q-27 25.5 -31 63.5v2q0 8 9 8h5q10 0 11 -10q3 -28 23 -46.5t47 -18.5t47 18.5t23 46.5q1 10 11 10h5q10 0 10 -10
q-4 -38 -31 -63.5t-65 -25.5q-37 0 -64 25.5z" />
    <glyph glyph-name="uni1EB7" unicode="&#x1eb7;" horiz-adv-x="392" 
d="M296 464q35 -45 35 -121v-333q0 -10 -10 -10h-10q-10 0 -10 10v45q0 3 -2 3.5t-3 -2.5q-19 -32 -51 -48t-71 -16q-52 0 -88 30.5t-36 105.5q0 80 43 119t115 39h89q4 0 4 4v55q0 62 -27 99t-78 37q-40 0 -70 -24.5t-34 -63.5q0 -9 -10 -9l-11 1q-5 0 -7.5 3t-1.5 8
q6 51 44.5 82t90.5 31q64 0 99 -45zM264.5 52q36.5 32 36.5 92v111q0 4 -4 4h-88q-59 0 -94 -33t-35 -97q0 -55 27 -82t71 -27q50 0 86.5 32zM167.5 -151q-11.5 12 -11.5 29t11.5 28.5t28.5 11.5q18 0 29.5 -11.5t11.5 -28.5t-12 -29t-29 -12t-28.5 12zM132 613.5
q-27 25.5 -31 63.5v2q0 8 9 8h5q10 0 11 -10q3 -28 23 -46.5t47 -18.5t47 18.5t23 46.5q1 10 11 10h5q10 0 10 -10q-4 -38 -31 -63.5t-65 -25.5q-37 0 -64 25.5z" />
    <glyph glyph-name="uni1EB8" unicode="&#x1eb8;" horiz-adv-x="424" 
d="M366 672h-244q-4 0 -4 -4v-300q0 -4 4 -4h160q10 0 10 -10v-7q0 -10 -10 -10h-160q-4 0 -4 -4v-301q0 -4 4 -4h244q10 0 10 -10v-8q0 -10 -10 -10h-268q-10 0 -10 10v680q0 10 10 10h268q10 0 10 -10v-8q0 -10 -10 -10zM200.5 -151q-11.5 12 -11.5 29t11.5 28.5
t28.5 11.5q18 0 29.5 -11.5t11.5 -28.5t-12 -29t-29 -12t-28.5 12z" />
    <glyph glyph-name="uni1EB9" unicode="&#x1eb9;" horiz-adv-x="391" 
d="M327 244h-232q-4 0 -4 -4v-103q0 -52 30 -84.5t78 -32.5q39 0 67 23t37 61q3 9 11 9h10q5 0 7.5 -3.5t1.5 -8.5q-9 -49 -45.5 -79t-88.5 -30q-61 0 -99.5 40.5t-38.5 104.5v227q0 63 38.5 104t99.5 41t99.5 -41t38.5 -104v-110q0 -10 -10 -10zM121 448.5
q-30 -32.5 -30 -84.5v-90q0 -4 4 -4h208q4 0 4 4v90q0 52 -30 84.5t-78 32.5t-78 -32.5zM167.5 -151q-11.5 12 -11.5 29t11.5 28.5t28.5 11.5q18 0 29.5 -11.5t11.5 -28.5t-12 -29t-29 -12t-28.5 12z" />
    <glyph glyph-name="uni1EBA" unicode="&#x1eba;" horiz-adv-x="424" 
d="M366 672h-244q-4 0 -4 -4v-300q0 -4 4 -4h160q10 0 10 -10v-7q0 -10 -10 -10h-160q-4 0 -4 -4v-301q0 -4 4 -4h244q10 0 10 -10v-8q0 -10 -10 -10h-268q-10 0 -10 10v680q0 10 10 10h268q10 0 10 -10v-8q0 -10 -10 -10zM222.5 749.5q-1.5 3.5 0.5 7.5q10 23 34 45
q15 14 21.5 24t6.5 26q0 17 -14.5 29.5t-35.5 12.5t-32.5 -8t-25.5 -29q-6 -9 -14 -3l-3 2q-8 5 -3 14q17 26 33 37t46 11q32 0 53 -19t21 -47q0 -22 -9.5 -36.5t-29.5 -34.5q-19 -17 -26 -30l-2 -4q-4 -7 -11 -4l-3 1q-5 2 -6.5 5.5z" />
    <glyph glyph-name="uni1EBB" unicode="&#x1ebb;" horiz-adv-x="391" 
d="M327 244h-232q-4 0 -4 -4v-103q0 -52 30 -84.5t78 -32.5q39 0 67 23t37 61q3 9 11 9h10q5 0 7.5 -3.5t1.5 -8.5q-9 -49 -45.5 -79t-88.5 -30q-61 0 -99.5 40.5t-38.5 104.5v227q0 63 38.5 104t99.5 41t99.5 -41t38.5 -104v-110q0 -10 -10 -10zM121 448.5
q-30 -32.5 -30 -84.5v-90q0 -4 4 -4h208q4 0 4 4v90q0 52 -30 84.5t-78 32.5t-78 -32.5zM186.5 550.5q-1.5 3.5 0.5 7.5q10 23 34 45q15 14 21.5 24t6.5 26q0 17 -14.5 29.5t-35.5 12.5t-32.5 -8t-25.5 -29q-6 -9 -14 -3l-3 2q-8 5 -3 14q17 26 33 37t46 11q32 0 53 -19
t21 -47q0 -22 -9.5 -36.5t-29.5 -34.5q-19 -17 -26 -30l-2 -4q-4 -7 -11 -4l-3 1q-5 2 -6.5 5.5z" />
    <glyph glyph-name="uni1EBC" unicode="&#x1ebc;" horiz-adv-x="424" 
d="M366 672h-244q-4 0 -4 -4v-300q0 -4 4 -4h160q10 0 10 -10v-7q0 -10 -10 -10h-160q-4 0 -4 -4v-301q0 -4 4 -4h244q10 0 10 -10v-8q0 -10 -10 -10h-268q-10 0 -10 10v680q0 10 10 10h268q10 0 10 -10v-8q0 -10 -10 -10zM263 826.5q-12 6.5 -26 17.5q-2 2 -11.5 9
t-17.5 10t-17 3q-16 0 -27 -5.5t-22 -22.5q-6 -9 -14 -3l-3 2q-8 5 -2 14q26 41 67 41q15 0 26.5 -6t28.5 -17q18 -12 27 -17t20 -5q14 0 25 6.5t22 24.5q2 4 6 5t8 -1l3 -2q5 -3 5 -9t-4 -11q-14 -21 -32 -30.5t-35 -9.5q-15 0 -27 6.5z" />
    <glyph glyph-name="uni1EBD" unicode="&#x1ebd;" horiz-adv-x="391" 
d="M327 244h-232q-4 0 -4 -4v-103q0 -52 30 -84.5t78 -32.5q39 0 67 23t37 61q3 9 11 9h10q5 0 7.5 -3.5t1.5 -8.5q-9 -49 -45.5 -79t-88.5 -30q-61 0 -99.5 40.5t-38.5 104.5v227q0 63 38.5 104t99.5 41t99.5 -41t38.5 -104v-110q0 -10 -10 -10zM121 448.5
q-30 -32.5 -30 -84.5v-90q0 -4 4 -4h208q4 0 4 4v90q0 52 -30 84.5t-78 32.5t-78 -32.5zM227 627.5q-12 6.5 -26 17.5q-2 2 -11.5 9t-17.5 10t-17 3q-16 0 -27 -5.5t-22 -22.5q-6 -9 -14 -3l-3 2q-8 5 -2 14q26 41 67 41q15 0 26.5 -6t28.5 -17q18 -12 27 -17t20 -5
q14 0 25 6.5t22 24.5q2 4 6 5t8 -1l3 -2q5 -3 5 -9t-4 -11q-14 -21 -32 -30.5t-35 -9.5q-15 0 -27 6.5z" />
    <glyph glyph-name="uni1EBE" unicode="&#x1ebe;" horiz-adv-x="424" 
d="M366 672h-244q-4 0 -4 -4v-300q0 -4 4 -4h160q10 0 10 -10v-7q0 -10 -10 -10h-160q-4 0 -4 -4v-301q0 -4 4 -4h244q10 0 10 -10v-8q0 -10 -10 -10h-268q-10 0 -10 10v680q0 10 10 10h268q10 0 10 -10v-8q0 -10 -10 -10zM143.5 783.5q-1.5 3.5 1.5 8.5l65 100q5 7 12 7h18
q7 0 12 -6l67 -101l2 -5q0 -7 -9 -7h-14q-7 0 -12 7l-51 81q-1 2 -3 2t-3 -2l-51 -81q-5 -7 -12 -7h-15q-6 0 -7.5 3.5zM328 846.5q-2 3.5 1 8.5l62 112q3 7 12 7h9q6 0 8 -3.5t-1 -8.5l-65 -112q-5 -7 -12 -7h-6q-6 0 -8 3.5z" />
    <glyph glyph-name="uni1EBF" unicode="&#x1ebf;" horiz-adv-x="391" 
d="M327 244h-232q-4 0 -4 -4v-103q0 -52 30 -84.5t78 -32.5q39 0 67 23t37 61q3 9 11 9h10q5 0 7.5 -3.5t1.5 -8.5q-9 -49 -45.5 -79t-88.5 -30q-61 0 -99.5 40.5t-38.5 104.5v227q0 63 38.5 104t99.5 41t99.5 -41t38.5 -104v-110q0 -10 -10 -10zM121 448.5
q-30 -32.5 -30 -84.5v-90q0 -4 4 -4h208q4 0 4 4v90q0 52 -30 84.5t-78 32.5t-78 -32.5zM107.5 584.5q-1.5 3.5 1.5 8.5l65 100q5 7 12 7h18q7 0 12 -6l67 -101l2 -5q0 -7 -9 -7h-14q-7 0 -12 7l-51 81q-1 2 -3 2t-3 -2l-51 -81q-5 -7 -12 -7h-15q-6 0 -7.5 3.5zM292 647.5
q-2 3.5 1 8.5l62 112q3 7 12 7h9q6 0 8 -3.5t-1 -8.5l-65 -112q-5 -7 -12 -7h-6q-6 0 -8 3.5z" />
    <glyph glyph-name="uni1EC0" unicode="&#x1ec0;" horiz-adv-x="424" 
d="M366 672h-244q-4 0 -4 -4v-300q0 -4 4 -4h160q10 0 10 -10v-7q0 -10 -10 -10h-160q-4 0 -4 -4v-301q0 -4 4 -4h244q10 0 10 -10v-8q0 -10 -10 -10h-268q-10 0 -10 10v680q0 10 10 10h268q10 0 10 -10v-8q0 -10 -10 -10zM143.5 783.5q-1.5 3.5 1.5 8.5l65 100q5 7 12 7h18
q7 0 12 -6l67 -101l2 -5q0 -7 -9 -7h-14q-7 0 -12 7l-51 81q-1 2 -3 2t-3 -2l-51 -81q-5 -7 -12 -7h-15q-6 0 -7.5 3.5zM370 895q0 -6 -8 -6h-6q-7 0 -12 7l-66 112q-2 4 -2 6q0 6 9 6h9q8 0 12 -7l62 -112q2 -4 2 -6z" />
    <glyph glyph-name="uni1EC1" unicode="&#x1ec1;" horiz-adv-x="391" 
d="M327 244h-232q-4 0 -4 -4v-103q0 -52 30 -84.5t78 -32.5q39 0 67 23t37 61q3 9 11 9h10q5 0 7.5 -3.5t1.5 -8.5q-9 -49 -45.5 -79t-88.5 -30q-61 0 -99.5 40.5t-38.5 104.5v227q0 63 38.5 104t99.5 41t99.5 -41t38.5 -104v-110q0 -10 -10 -10zM121 448.5
q-30 -32.5 -30 -84.5v-90q0 -4 4 -4h208q4 0 4 4v90q0 52 -30 84.5t-78 32.5t-78 -32.5zM106.5 584.5q-1.5 3.5 1.5 8.5l65 100q5 7 12 7h18q7 0 12 -6l67 -101l2 -5q0 -7 -9 -7h-14q-7 0 -12 7l-51 81q-1 2 -3 2t-3 -2l-51 -81q-5 -7 -12 -7h-15q-6 0 -7.5 3.5zM333 696
q0 -6 -8 -6h-6q-7 0 -12 7l-66 112q-2 4 -2 6q0 6 9 6h9q8 0 12 -7l62 -112q2 -4 2 -6z" />
    <glyph glyph-name="uni1EC2" unicode="&#x1ec2;" horiz-adv-x="424" 
d="M366 672h-244q-4 0 -4 -4v-300q0 -4 4 -4h160q10 0 10 -10v-7q0 -10 -10 -10h-160q-4 0 -4 -4v-301q0 -4 4 -4h244q10 0 10 -10v-8q0 -10 -10 -10h-268q-10 0 -10 10v680q0 10 10 10h268q10 0 10 -10v-8q0 -10 -10 -10zM326.5 872.5q-1.5 3.5 0.5 7.5q10 22 34 44
q14 13 21 23.5t7 26.5q0 17 -14.5 30t-34.5 13q-21 0 -32.5 -8.5t-25.5 -29.5q-7 -10 -14 -4l-4 3q-7 6 -3 13q18 27 34 38.5t45 11.5q31 0 52.5 -19t21.5 -48q0 -22 -10 -37t-29 -33q-3 -4 -12 -13.5t-14 -18.5q-4 -9 -13 -6l-3 1q-5 2 -6.5 5.5zM143.5 783.5
q-1.5 3.5 1.5 8.5l65 100q5 7 12 7h18q7 0 12 -6l67 -101l2 -5q0 -7 -9 -7h-14q-7 0 -12 7l-51 81q-1 2 -3 2t-3 -2l-51 -81q-5 -7 -12 -7h-15q-6 0 -7.5 3.5z" />
    <glyph glyph-name="uni1EC3" unicode="&#x1ec3;" horiz-adv-x="391" 
d="M327 244h-232q-4 0 -4 -4v-103q0 -52 30 -84.5t78 -32.5q39 0 67 23t37 61q3 9 11 9h10q5 0 7.5 -3.5t1.5 -8.5q-9 -49 -45.5 -79t-88.5 -30q-61 0 -99.5 40.5t-38.5 104.5v227q0 63 38.5 104t99.5 41t99.5 -41t38.5 -104v-110q0 -10 -10 -10zM121 448.5
q-30 -32.5 -30 -84.5v-90q0 -4 4 -4h208q4 0 4 4v90q0 52 -30 84.5t-78 32.5t-78 -32.5zM289.5 673.5q-1.5 3.5 0.5 7.5q10 22 34 44q14 13 21 23.5t7 26.5q0 17 -14.5 30t-34.5 13q-21 0 -32.5 -8.5t-25.5 -29.5q-7 -10 -14 -4l-4 3q-7 6 -3 13q18 27 34 38.5t45 11.5
q31 0 52.5 -19t21.5 -48q0 -22 -10 -37t-29 -33q-3 -4 -12 -13.5t-14 -18.5q-4 -9 -13 -6l-3 1q-5 2 -6.5 5.5zM106.5 584.5q-1.5 3.5 1.5 8.5l65 100q5 7 12 7h18q7 0 12 -6l67 -101l2 -5q0 -7 -9 -7h-14q-7 0 -12 7l-51 81q-1 2 -3 2t-3 -2l-51 -81q-5 -7 -12 -7h-15
q-6 0 -7.5 3.5z" />
    <glyph glyph-name="uni1EC4" unicode="&#x1ec4;" horiz-adv-x="424" 
d="M366 672h-244q-4 0 -4 -4v-300q0 -4 4 -4h160q10 0 10 -10v-7q0 -10 -10 -10h-160q-4 0 -4 -4v-301q0 -4 4 -4h244q10 0 10 -10v-8q0 -10 -10 -10h-268q-10 0 -10 10v680q0 10 10 10h268q10 0 10 -10v-8q0 -10 -10 -10zM143.5 783.5q-1.5 3.5 1.5 8.5l65 100q5 7 12 7h18
q7 0 12 -6l67 -101l2 -5q0 -7 -9 -7h-14q-7 0 -12 7l-51 81q-1 2 -3 2t-3 -2l-51 -81q-5 -7 -12 -7h-15q-6 0 -7.5 3.5zM263 933.5q-12 6.5 -26 17.5q-2 2 -11.5 9t-17.5 10t-17 3q-16 0 -27 -5.5t-22 -22.5q-6 -9 -14 -3l-3 2q-8 5 -2 14q26 41 67 41q15 0 26.5 -6
t28.5 -17q18 -12 27 -17t20 -5q14 0 25 6.5t22 24.5q2 4 6 5t8 -1l3 -2q5 -3 5 -9t-4 -11q-14 -21 -32 -30.5t-35 -9.5q-15 0 -27 6.5z" />
    <glyph glyph-name="uni1EC5" unicode="&#x1ec5;" horiz-adv-x="391" 
d="M327 244h-232q-4 0 -4 -4v-103q0 -52 30 -84.5t78 -32.5q39 0 67 23t37 61q3 9 11 9h10q5 0 7.5 -3.5t1.5 -8.5q-9 -49 -45.5 -79t-88.5 -30q-61 0 -99.5 40.5t-38.5 104.5v227q0 63 38.5 104t99.5 41t99.5 -41t38.5 -104v-110q0 -10 -10 -10zM121 448.5
q-30 -32.5 -30 -84.5v-90q0 -4 4 -4h208q4 0 4 4v90q0 52 -30 84.5t-78 32.5t-78 -32.5zM106.5 584.5q-1.5 3.5 1.5 8.5l65 100q5 7 12 7h18q7 0 12 -6l67 -101l2 -5q0 -7 -9 -7h-14q-7 0 -12 7l-51 81q-1 2 -3 2t-3 -2l-51 -81q-5 -7 -12 -7h-15q-6 0 -7.5 3.5zM226 734.5
q-12 6.5 -26 17.5q-2 2 -11.5 9t-17.5 10t-17 3q-16 0 -27 -5.5t-22 -22.5q-6 -9 -14 -3l-3 2q-8 5 -2 14q26 41 67 41q15 0 26.5 -6t28.5 -17q18 -12 27 -17t20 -5q14 0 25 6.5t22 24.5q2 4 6 5t8 -1l3 -2q5 -3 5 -9t-4 -11q-14 -21 -32 -30.5t-35 -9.5q-15 0 -27 6.5z" />
    <glyph glyph-name="uni1EC6" unicode="&#x1ec6;" horiz-adv-x="424" 
d="M366 672h-244q-4 0 -4 -4v-300q0 -4 4 -4h160q10 0 10 -10v-7q0 -10 -10 -10h-160q-4 0 -4 -4v-301q0 -4 4 -4h244q10 0 10 -10v-8q0 -10 -10 -10h-268q-10 0 -10 10v680q0 10 10 10h268q10 0 10 -10v-8q0 -10 -10 -10zM200.5 -151q-11.5 12 -11.5 29t11.5 28.5
t28.5 11.5q18 0 29.5 -11.5t11.5 -28.5t-12 -29t-29 -12t-28.5 12zM143.5 783.5q-1.5 3.5 1.5 8.5l65 100q5 7 12 7h18q7 0 12 -6l67 -101l2 -5q0 -7 -9 -7h-14q-7 0 -12 7l-51 81q-1 2 -3 2t-3 -2l-51 -81q-5 -7 -12 -7h-15q-6 0 -7.5 3.5z" />
    <glyph glyph-name="uni1EC7" unicode="&#x1ec7;" horiz-adv-x="391" 
d="M327 244h-232q-4 0 -4 -4v-103q0 -52 30 -84.5t78 -32.5q39 0 67 23t37 61q3 9 11 9h10q5 0 7.5 -3.5t1.5 -8.5q-9 -49 -45.5 -79t-88.5 -30q-61 0 -99.5 40.5t-38.5 104.5v227q0 63 38.5 104t99.5 41t99.5 -41t38.5 -104v-110q0 -10 -10 -10zM121 448.5
q-30 -32.5 -30 -84.5v-90q0 -4 4 -4h208q4 0 4 4v90q0 52 -30 84.5t-78 32.5t-78 -32.5zM167.5 -151q-11.5 12 -11.5 29t11.5 28.5t28.5 11.5q18 0 29.5 -11.5t11.5 -28.5t-12 -29t-29 -12t-28.5 12zM107.5 584.5q-1.5 3.5 1.5 8.5l65 100q5 7 12 7h18q7 0 12 -6l67 -101
l2 -5q0 -7 -9 -7h-14q-7 0 -12 7l-51 81q-1 2 -3 2t-3 -2l-51 -81q-5 -7 -12 -7h-15q-6 0 -7.5 3.5z" />
    <glyph glyph-name="uni1EC8" unicode="&#x1ec8;" horiz-adv-x="206" 
d="M88 10v680q0 10 10 10h10q10 0 10 -10v-680q0 -10 -10 -10h-10q-10 0 -10 10zM93.5 749.5q-1.5 3.5 0.5 7.5q10 23 34 45q15 14 21.5 24t6.5 26q0 17 -14.5 29.5t-35.5 12.5t-32.5 -8t-25.5 -29q-6 -9 -14 -3l-3 2q-8 5 -3 14q17 26 33 37t46 11q32 0 53 -19t21 -47
q0 -22 -9.5 -36.5t-29.5 -34.5q-19 -17 -26 -30l-2 -4q-4 -7 -11 -4l-3 1q-5 2 -6.5 5.5z" />
    <glyph glyph-name="uni1EC9" unicode="&#x1ec9;" horiz-adv-x="156" 
d="M63 10v481q0 10 10 10h10q10 0 10 -10v-481q0 -10 -10 -10h-10q-10 0 -10 10zM69.5 550.5q-1.5 3.5 0.5 7.5q10 23 34 45q15 14 21.5 24t6.5 26q0 17 -14.5 29.5t-35.5 12.5t-32.5 -8t-25.5 -29q-6 -9 -14 -3l-3 2q-8 5 -3 14q17 26 33 37t46 11q32 0 53 -19t21 -47
q0 -22 -9.5 -36.5t-29.5 -34.5q-19 -17 -26 -30l-2 -4q-4 -7 -11 -4l-3 1q-5 2 -6.5 5.5z" />
    <glyph glyph-name="uni1ECA" unicode="&#x1eca;" horiz-adv-x="206" 
d="M88 10v680q0 10 10 10h10q10 0 10 -10v-680q0 -10 -10 -10h-10q-10 0 -10 10zM74.5 -151q-11.5 12 -11.5 29t11.5 28.5t28.5 11.5q18 0 29.5 -11.5t11.5 -28.5t-12 -29t-29 -12t-28.5 12z" />
    <glyph glyph-name="uni1ECB" unicode="&#x1ecb;" horiz-adv-x="201" 
d="M70 625q-12 12 -12 31q0 18 12 30t31 12q18 0 30 -12t12 -30q0 -19 -12 -31t-30 -12q-19 0 -31 12zM86 10v481q0 10 10 10h10q10 0 10 -10v-481q0 -10 -10 -10h-10q-10 0 -10 10zM72.5 -151q-11.5 12 -11.5 29t11.5 28.5t28.5 11.5q18 0 29.5 -11.5t11.5 -28.5t-12 -29
t-29 -12t-28.5 12z" />
    <glyph glyph-name="uni1ECC" unicode="&#x1ecc;" horiz-adv-x="446" 
d="M111 36.5q-43 44.5 -43 116.5v393q0 72 43 117t111 45q69 0 112.5 -45t43.5 -117v-393q0 -72 -43.5 -116.5t-112.5 -44.5q-68 0 -111 44.5zM313 56.5q35 36.5 35 94.5v397q0 58 -35 95t-91 37q-55 0 -89.5 -37t-34.5 -95v-397q0 -58 34.5 -94.5t89.5 -36.5q56 0 91 36.5z
M194.5 -151q-11.5 12 -11.5 29t11.5 28.5t28.5 11.5q18 0 29.5 -11.5t11.5 -28.5t-12 -29t-29 -12t-28.5 12z" />
    <glyph glyph-name="uni1ECD" unicode="&#x1ecd;" horiz-adv-x="398" 
d="M99.5 32.5q-38.5 40.5 -38.5 104.5v227q0 63 38.5 104t99.5 41t99.5 -41t38.5 -104v-227q0 -64 -38.5 -104.5t-99.5 -40.5t-99.5 40.5zM277 52.5q30 32.5 30 84.5v227q0 52 -30 84.5t-78 32.5t-78 -32.5t-30 -84.5v-227q0 -52 30 -84.5t78 -32.5t78 32.5zM171.5 -151
q-11.5 12 -11.5 29t11.5 28.5t28.5 11.5q18 0 29.5 -11.5t11.5 -28.5t-12 -29t-29 -12t-28.5 12z" />
    <glyph glyph-name="uni1ECE" unicode="&#x1ece;" horiz-adv-x="446" 
d="M111 36.5q-43 44.5 -43 116.5v393q0 72 43 117t111 45q69 0 112.5 -45t43.5 -117v-393q0 -72 -43.5 -116.5t-112.5 -44.5q-68 0 -111 44.5zM313 56.5q35 36.5 35 94.5v397q0 58 -35 95t-91 37q-55 0 -89.5 -37t-34.5 -95v-397q0 -58 34.5 -94.5t89.5 -36.5q56 0 91 36.5z
M212.5 748.5q-1.5 3.5 0.5 7.5q10 23 34 45q15 14 21.5 24t6.5 26q0 17 -14.5 29.5t-35.5 12.5t-32.5 -8t-25.5 -29q-6 -9 -14 -3l-3 2q-8 5 -3 14q17 26 33 37t46 11q32 0 53 -19t21 -47q0 -22 -9.5 -36.5t-29.5 -34.5q-19 -17 -26 -30l-2 -4q-4 -7 -11 -4l-3 1
q-5 2 -6.5 5.5z" />
    <glyph glyph-name="uni1ECF" unicode="&#x1ecf;" horiz-adv-x="398" 
d="M99.5 32.5q-38.5 40.5 -38.5 104.5v227q0 63 38.5 104t99.5 41t99.5 -41t38.5 -104v-227q0 -64 -38.5 -104.5t-99.5 -40.5t-99.5 40.5zM277 52.5q30 32.5 30 84.5v227q0 52 -30 84.5t-78 32.5t-78 -32.5t-30 -84.5v-227q0 -52 30 -84.5t78 -32.5t78 32.5zM189.5 550.5
q-1.5 3.5 0.5 7.5q10 23 34 45q15 14 21.5 24t6.5 26q0 17 -14.5 29.5t-35.5 12.5t-32.5 -8t-25.5 -29q-6 -9 -14 -3l-3 2q-8 5 -3 14q17 26 33 37t46 11q32 0 53 -19t21 -47q0 -22 -9.5 -36.5t-29.5 -34.5q-19 -17 -26 -30l-2 -4q-4 -7 -11 -4l-3 1q-5 2 -6.5 5.5z" />
    <glyph glyph-name="uni1ED0" unicode="&#x1ed0;" horiz-adv-x="446" 
d="M111 36.5q-43 44.5 -43 116.5v393q0 72 43 117t111 45q69 0 112.5 -45t43.5 -117v-393q0 -72 -43.5 -116.5t-112.5 -44.5q-68 0 -111 44.5zM313 56.5q35 36.5 35 94.5v397q0 58 -35 95t-91 37q-55 0 -89.5 -37t-34.5 -95v-397q0 -58 34.5 -94.5t89.5 -36.5q56 0 91 36.5z
M133.5 782.5q-1.5 3.5 1.5 8.5l65 100q5 7 12 7h18q7 0 12 -6l67 -101l2 -5q0 -7 -9 -7h-14q-7 0 -12 7l-51 81q-1 2 -3 2t-3 -2l-51 -81q-5 -7 -12 -7h-15q-6 0 -7.5 3.5zM318 845.5q-2 3.5 1 8.5l62 112q3 7 12 7h9q6 0 8 -3.5t-1 -8.5l-65 -112q-5 -7 -12 -7h-6
q-6 0 -8 3.5z" />
    <glyph glyph-name="uni1ED1" unicode="&#x1ed1;" horiz-adv-x="398" 
d="M99.5 32.5q-38.5 40.5 -38.5 104.5v227q0 63 38.5 104t99.5 41t99.5 -41t38.5 -104v-227q0 -64 -38.5 -104.5t-99.5 -40.5t-99.5 40.5zM277 52.5q30 32.5 30 84.5v227q0 52 -30 84.5t-78 32.5t-78 -32.5t-30 -84.5v-227q0 -52 30 -84.5t78 -32.5t78 32.5zM110.5 584.5
q-1.5 3.5 1.5 8.5l65 100q5 7 12 7h18q7 0 12 -6l67 -101l2 -5q0 -7 -9 -7h-14q-7 0 -12 7l-51 81q-1 2 -3 2t-3 -2l-51 -81q-5 -7 -12 -7h-15q-6 0 -7.5 3.5zM295 647.5q-2 3.5 1 8.5l62 112q3 7 12 7h9q6 0 8 -3.5t-1 -8.5l-65 -112q-5 -7 -12 -7h-6q-6 0 -8 3.5z" />
    <glyph glyph-name="uni1ED2" unicode="&#x1ed2;" horiz-adv-x="446" 
d="M111 36.5q-43 44.5 -43 116.5v393q0 72 43 117t111 45q69 0 112.5 -45t43.5 -117v-393q0 -72 -43.5 -116.5t-112.5 -44.5q-68 0 -111 44.5zM313 56.5q35 36.5 35 94.5v397q0 58 -35 95t-91 37q-55 0 -89.5 -37t-34.5 -95v-397q0 -58 34.5 -94.5t89.5 -36.5q56 0 91 36.5z
M133.5 782.5q-1.5 3.5 1.5 8.5l65 100q5 7 12 7h18q7 0 12 -6l67 -101l2 -5q0 -7 -9 -7h-14q-7 0 -12 7l-51 81q-1 2 -3 2t-3 -2l-51 -81q-5 -7 -12 -7h-15q-6 0 -7.5 3.5zM360 894q0 -6 -8 -6h-6q-7 0 -12 7l-66 112q-2 4 -2 6q0 6 9 6h9q8 0 12 -7l62 -112q2 -4 2 -6z" />
    <glyph glyph-name="uni1ED3" unicode="&#x1ed3;" horiz-adv-x="398" 
d="M99.5 32.5q-38.5 40.5 -38.5 104.5v227q0 63 38.5 104t99.5 41t99.5 -41t38.5 -104v-227q0 -64 -38.5 -104.5t-99.5 -40.5t-99.5 40.5zM277 52.5q30 32.5 30 84.5v227q0 52 -30 84.5t-78 32.5t-78 -32.5t-30 -84.5v-227q0 -52 30 -84.5t78 -32.5t78 32.5zM109.5 584.5
q-1.5 3.5 1.5 8.5l65 100q5 7 12 7h18q7 0 12 -6l67 -101l2 -5q0 -7 -9 -7h-14q-7 0 -12 7l-51 81q-1 2 -3 2t-3 -2l-51 -81q-5 -7 -12 -7h-15q-6 0 -7.5 3.5zM336 696q0 -6 -8 -6h-6q-7 0 -12 7l-66 112q-2 4 -2 6q0 6 9 6h9q8 0 12 -7l62 -112q2 -4 2 -6z" />
    <glyph glyph-name="uni1ED4" unicode="&#x1ed4;" horiz-adv-x="446" 
d="M111 36.5q-43 44.5 -43 116.5v393q0 72 43 117t111 45q69 0 112.5 -45t43.5 -117v-393q0 -72 -43.5 -116.5t-112.5 -44.5q-68 0 -111 44.5zM313 56.5q35 36.5 35 94.5v397q0 58 -35 95t-91 37q-55 0 -89.5 -37t-34.5 -95v-397q0 -58 34.5 -94.5t89.5 -36.5q56 0 91 36.5z
M316.5 871.5q-1.5 3.5 0.5 7.5q10 22 34 44q14 13 21 23.5t7 26.5q0 17 -14.5 30t-34.5 13q-21 0 -32.5 -8.5t-25.5 -29.5q-7 -10 -14 -4l-4 3q-7 6 -3 13q18 27 34 38.5t45 11.5q31 0 52.5 -19t21.5 -48q0 -22 -10 -37t-29 -33q-3 -4 -12 -13.5t-14 -18.5q-4 -9 -13 -6
l-3 1q-5 2 -6.5 5.5zM133.5 782.5q-1.5 3.5 1.5 8.5l65 100q5 7 12 7h18q7 0 12 -6l67 -101l2 -5q0 -7 -9 -7h-14q-7 0 -12 7l-51 81q-1 2 -3 2t-3 -2l-51 -81q-5 -7 -12 -7h-15q-6 0 -7.5 3.5z" />
    <glyph glyph-name="uni1ED5" unicode="&#x1ed5;" horiz-adv-x="398" 
d="M99.5 32.5q-38.5 40.5 -38.5 104.5v227q0 63 38.5 104t99.5 41t99.5 -41t38.5 -104v-227q0 -64 -38.5 -104.5t-99.5 -40.5t-99.5 40.5zM277 52.5q30 32.5 30 84.5v227q0 52 -30 84.5t-78 32.5t-78 -32.5t-30 -84.5v-227q0 -52 30 -84.5t78 -32.5t78 32.5zM292.5 673.5
q-1.5 3.5 0.5 7.5q10 22 34 44q14 13 21 23.5t7 26.5q0 17 -14.5 30t-34.5 13q-21 0 -32.5 -8.5t-25.5 -29.5q-7 -10 -14 -4l-4 3q-7 6 -3 13q18 27 34 38.5t45 11.5q31 0 52.5 -19t21.5 -48q0 -22 -10 -37t-29 -33q-3 -4 -12 -13.5t-14 -18.5q-4 -9 -13 -6l-3 1
q-5 2 -6.5 5.5zM109.5 584.5q-1.5 3.5 1.5 8.5l65 100q5 7 12 7h18q7 0 12 -6l67 -101l2 -5q0 -7 -9 -7h-14q-7 0 -12 7l-51 81q-1 2 -3 2t-3 -2l-51 -81q-5 -7 -12 -7h-15q-6 0 -7.5 3.5z" />
    <glyph glyph-name="uni1ED6" unicode="&#x1ed6;" horiz-adv-x="446" 
d="M111 36.5q-43 44.5 -43 116.5v393q0 72 43 117t111 45q69 0 112.5 -45t43.5 -117v-393q0 -72 -43.5 -116.5t-112.5 -44.5q-68 0 -111 44.5zM313 56.5q35 36.5 35 94.5v397q0 58 -35 95t-91 37q-55 0 -89.5 -37t-34.5 -95v-397q0 -58 34.5 -94.5t89.5 -36.5q56 0 91 36.5z
M133.5 782.5q-1.5 3.5 1.5 8.5l65 100q5 7 12 7h18q7 0 12 -6l67 -101l2 -5q0 -7 -9 -7h-14q-7 0 -12 7l-51 81q-1 2 -3 2t-3 -2l-51 -81q-5 -7 -12 -7h-15q-6 0 -7.5 3.5zM253 932.5q-12 6.5 -26 17.5q-2 2 -11.5 9t-17.5 10t-17 3q-16 0 -27 -5.5t-22 -22.5q-6 -9 -14 -3
l-3 2q-8 5 -2 14q26 41 67 41q15 0 26.5 -6t28.5 -17q18 -12 27 -17t20 -5q14 0 25 6.5t22 24.5q2 4 6 5t8 -1l3 -2q5 -3 5 -9t-4 -11q-14 -21 -32 -30.5t-35 -9.5q-15 0 -27 6.5z" />
    <glyph glyph-name="uni1ED7" unicode="&#x1ed7;" horiz-adv-x="398" 
d="M99.5 32.5q-38.5 40.5 -38.5 104.5v227q0 63 38.5 104t99.5 41t99.5 -41t38.5 -104v-227q0 -64 -38.5 -104.5t-99.5 -40.5t-99.5 40.5zM277 52.5q30 32.5 30 84.5v227q0 52 -30 84.5t-78 32.5t-78 -32.5t-30 -84.5v-227q0 -52 30 -84.5t78 -32.5t78 32.5zM109.5 584.5
q-1.5 3.5 1.5 8.5l65 100q5 7 12 7h18q7 0 12 -6l67 -101l2 -5q0 -7 -9 -7h-14q-7 0 -12 7l-51 81q-1 2 -3 2t-3 -2l-51 -81q-5 -7 -12 -7h-15q-6 0 -7.5 3.5zM229 734.5q-12 6.5 -26 17.5q-2 2 -11.5 9t-17.5 10t-17 3q-16 0 -27 -5.5t-22 -22.5q-6 -9 -14 -3l-3 2
q-8 5 -2 14q26 41 67 41q15 0 26.5 -6t28.5 -17q18 -12 27 -17t20 -5q14 0 25 6.5t22 24.5q2 4 6 5t8 -1l3 -2q5 -3 5 -9t-4 -11q-14 -21 -32 -30.5t-35 -9.5q-15 0 -27 6.5z" />
    <glyph glyph-name="uni1ED8" unicode="&#x1ed8;" horiz-adv-x="446" 
d="M111 36.5q-43 44.5 -43 116.5v393q0 72 43 117t111 45q69 0 112.5 -45t43.5 -117v-393q0 -72 -43.5 -116.5t-112.5 -44.5q-68 0 -111 44.5zM313 56.5q35 36.5 35 94.5v397q0 58 -35 95t-91 37q-55 0 -89.5 -37t-34.5 -95v-397q0 -58 34.5 -94.5t89.5 -36.5q56 0 91 36.5z
M194.5 -151q-11.5 12 -11.5 29t11.5 28.5t28.5 11.5q18 0 29.5 -11.5t11.5 -28.5t-12 -29t-29 -12t-28.5 12zM133.5 782.5q-1.5 3.5 1.5 8.5l65 100q5 7 12 7h18q7 0 12 -6l67 -101l2 -5q0 -7 -9 -7h-14q-7 0 -12 7l-51 81q-1 2 -3 2t-3 -2l-51 -81q-5 -7 -12 -7h-15
q-6 0 -7.5 3.5z" />
    <glyph glyph-name="uni1ED9" unicode="&#x1ed9;" horiz-adv-x="398" 
d="M99.5 32.5q-38.5 40.5 -38.5 104.5v227q0 63 38.5 104t99.5 41t99.5 -41t38.5 -104v-227q0 -64 -38.5 -104.5t-99.5 -40.5t-99.5 40.5zM277 52.5q30 32.5 30 84.5v227q0 52 -30 84.5t-78 32.5t-78 -32.5t-30 -84.5v-227q0 -52 30 -84.5t78 -32.5t78 32.5zM171.5 -151
q-11.5 12 -11.5 29t11.5 28.5t28.5 11.5q18 0 29.5 -11.5t11.5 -28.5t-12 -29t-29 -12t-28.5 12zM110.5 584.5q-1.5 3.5 1.5 8.5l65 100q5 7 12 7h18q7 0 12 -6l67 -101l2 -5q0 -7 -9 -7h-14q-7 0 -12 7l-51 81q-1 2 -3 2t-3 -2l-51 -81q-5 -7 -12 -7h-15q-6 0 -7.5 3.5z
" />
    <glyph glyph-name="uni1EDA" unicode="&#x1eda;" horiz-adv-x="446" 
d="M313 681q31 -21 48 -56t17 -79v-393q0 -72 -43.5 -116.5t-112.5 -44.5q-68 0 -111 44.5t-43 116.5v393q0 72 43 117t111 45q22 0 50 -7q1 -1 5 -1q25 2 43.5 20.5t21.5 46.5q1 10 11 10h5q5 0 7.5 -3t1.5 -8q-2 -26 -16.5 -47t-36.5 -33q-4 -1 -1 -5zM348 548
q0 58 -35 95t-91 37q-55 0 -89.5 -37t-34.5 -95v-397q0 -58 34.5 -94.5t89.5 -36.5q56 0 91 36.5t35 94.5v397zM192 770.5q-2 3.5 1 8.5l62 112q3 7 12 7h9q6 0 8 -3.5t-1 -8.5l-65 -112q-5 -7 -12 -7h-6q-6 0 -8 3.5z" />
    <glyph glyph-name="uni1EDB" unicode="&#x1edb;" horiz-adv-x="398" 
d="M285 481q25 -20 38.5 -50t13.5 -67v-227q0 -64 -38.5 -104.5t-99.5 -40.5t-99.5 40.5t-38.5 104.5v227q0 63 38.5 104t99.5 41q21 0 47 -7q1 -1 5 -1q25 2 44 20.5t22 46.5q1 10 11 10h4q11 0 9 -12q-3 -27 -17.5 -48t-37.5 -32q-4 -1 -1 -5zM277 448.5
q-30 32.5 -78 32.5t-78 -32.5t-30 -84.5v-227q0 -52 30 -84.5t78 -32.5t78 32.5t30 84.5v227q0 52 -30 84.5zM169 572.5q-2 3.5 1 8.5l62 112q3 7 12 7h9q6 0 8 -3.5t-1 -8.5l-65 -112q-5 -7 -12 -7h-6q-6 0 -8 3.5z" />
    <glyph glyph-name="uni1EDC" unicode="&#x1edc;" horiz-adv-x="446" 
d="M313 681q31 -21 48 -56t17 -79v-393q0 -72 -43.5 -116.5t-112.5 -44.5q-68 0 -111 44.5t-43 116.5v393q0 72 43 117t111 45q22 0 50 -7q1 -1 5 -1q25 2 43.5 20.5t21.5 46.5q1 10 11 10h5q5 0 7.5 -3t1.5 -8q-2 -26 -16.5 -47t-36.5 -33q-4 -1 -1 -5zM348 548
q0 58 -35 95t-91 37q-55 0 -89.5 -37t-34.5 -95v-397q0 -58 34.5 -94.5t89.5 -36.5q56 0 91 36.5t35 94.5v397zM232 773q0 -6 -8 -6h-6q-7 0 -12 7l-66 112q-2 4 -2 6q0 6 9 6h9q8 0 12 -7l62 -112q2 -4 2 -6z" />
    <glyph glyph-name="uni1EDD" unicode="&#x1edd;" horiz-adv-x="398" 
d="M285 481q25 -20 38.5 -50t13.5 -67v-227q0 -64 -38.5 -104.5t-99.5 -40.5t-99.5 40.5t-38.5 104.5v227q0 63 38.5 104t99.5 41q21 0 47 -7q1 -1 5 -1q25 2 44 20.5t22 46.5q1 10 11 10h4q11 0 9 -12q-3 -27 -17.5 -48t-37.5 -32q-4 -1 -1 -5zM277 448.5
q-30 32.5 -78 32.5t-78 -32.5t-30 -84.5v-227q0 -52 30 -84.5t78 -32.5t78 32.5t30 84.5v227q0 52 -30 84.5zM209 575q0 -6 -8 -6h-6q-7 0 -12 7l-66 112q-2 4 -2 6q0 6 9 6h9q8 0 12 -7l62 -112q2 -4 2 -6z" />
    <glyph glyph-name="uni1EDE" unicode="&#x1ede;" horiz-adv-x="446" 
d="M313 681q31 -21 48 -56t17 -79v-393q0 -72 -43.5 -116.5t-112.5 -44.5q-68 0 -111 44.5t-43 116.5v393q0 72 43 117t111 45q22 0 50 -7q1 -1 5 -1q25 2 43.5 20.5t21.5 46.5q1 10 11 10h5q5 0 7.5 -3t1.5 -8q-2 -26 -16.5 -47t-36.5 -33q-4 -1 -1 -5zM348 548
q0 58 -35 95t-91 37q-55 0 -89.5 -37t-34.5 -95v-397q0 -58 34.5 -94.5t89.5 -36.5q56 0 91 36.5t35 94.5v397zM212.5 748.5q-1.5 3.5 0.5 7.5q10 23 34 45q15 14 21.5 24t6.5 26q0 17 -14.5 29.5t-35.5 12.5t-32.5 -8t-25.5 -29q-6 -9 -14 -3l-3 2q-8 5 -3 14q17 26 33 37
t46 11q32 0 53 -19t21 -47q0 -22 -9.5 -36.5t-29.5 -34.5q-19 -17 -26 -30l-2 -4q-4 -7 -11 -4l-3 1q-5 2 -6.5 5.5z" />
    <glyph glyph-name="uni1EDF" unicode="&#x1edf;" horiz-adv-x="398" 
d="M285 481q25 -20 38.5 -50t13.5 -67v-227q0 -64 -38.5 -104.5t-99.5 -40.5t-99.5 40.5t-38.5 104.5v227q0 63 38.5 104t99.5 41q21 0 47 -7q1 -1 5 -1q25 2 44 20.5t22 46.5q1 10 11 10h4q11 0 9 -12q-3 -27 -17.5 -48t-37.5 -32q-4 -1 -1 -5zM277 448.5
q-30 32.5 -78 32.5t-78 -32.5t-30 -84.5v-227q0 -52 30 -84.5t78 -32.5t78 32.5t30 84.5v227q0 52 -30 84.5zM189.5 550.5q-1.5 3.5 0.5 7.5q10 23 34 45q15 14 21.5 24t6.5 26q0 17 -14.5 29.5t-35.5 12.5t-32.5 -8t-25.5 -29q-6 -9 -14 -3l-3 2q-8 5 -3 14q17 26 33 37
t46 11q32 0 53 -19t21 -47q0 -22 -9.5 -36.5t-29.5 -34.5q-19 -17 -26 -30l-2 -4q-4 -7 -11 -4l-3 1q-5 2 -6.5 5.5z" />
    <glyph glyph-name="uni1EE0" unicode="&#x1ee0;" horiz-adv-x="446" 
d="M313 681q31 -21 48 -56t17 -79v-393q0 -72 -43.5 -116.5t-112.5 -44.5q-68 0 -111 44.5t-43 116.5v393q0 72 43 117t111 45q22 0 50 -7q1 -1 5 -1q25 2 43.5 20.5t21.5 46.5q1 10 11 10h5q5 0 7.5 -3t1.5 -8q-2 -26 -16.5 -47t-36.5 -33q-4 -1 -1 -5zM348 548
q0 58 -35 95t-91 37q-55 0 -89.5 -37t-34.5 -95v-397q0 -58 34.5 -94.5t89.5 -36.5q56 0 91 36.5t35 94.5v397zM253 825.5q-12 6.5 -26 17.5q-2 2 -11.5 9t-17.5 10t-17 3q-16 0 -27 -5.5t-22 -22.5q-6 -9 -14 -3l-3 2q-8 5 -2 14q26 41 67 41q15 0 26.5 -6t28.5 -17
q18 -12 27 -17t20 -5q14 0 25 6.5t22 24.5q2 4 6 5t8 -1l3 -2q5 -3 5 -9t-4 -11q-14 -21 -32 -30.5t-35 -9.5q-15 0 -27 6.5z" />
    <glyph glyph-name="uni1EE1" unicode="&#x1ee1;" horiz-adv-x="398" 
d="M285 481q25 -20 38.5 -50t13.5 -67v-227q0 -64 -38.5 -104.5t-99.5 -40.5t-99.5 40.5t-38.5 104.5v227q0 63 38.5 104t99.5 41q21 0 47 -7q1 -1 5 -1q25 2 44 20.5t22 46.5q1 10 11 10h4q11 0 9 -12q-3 -27 -17.5 -48t-37.5 -32q-4 -1 -1 -5zM277 448.5
q-30 32.5 -78 32.5t-78 -32.5t-30 -84.5v-227q0 -52 30 -84.5t78 -32.5t78 32.5t30 84.5v227q0 52 -30 84.5zM228 628.5q-12 6.5 -26 17.5q-2 2 -11.5 9t-17.5 10t-17 3q-16 0 -27 -5.5t-22 -22.5q-6 -9 -14 -3l-3 2q-8 5 -2 14q26 41 67 41q15 0 26.5 -6t28.5 -17
q18 -12 27 -17t20 -5q14 0 25 6.5t22 24.5q2 4 6 5t8 -1l3 -2q5 -3 5 -9t-4 -11q-14 -21 -32 -30.5t-35 -9.5q-15 0 -27 6.5z" />
    <glyph glyph-name="uni1EE2" unicode="&#x1ee2;" horiz-adv-x="446" 
d="M313 681q31 -21 48 -56t17 -79v-393q0 -72 -43.5 -116.5t-112.5 -44.5q-68 0 -111 44.5t-43 116.5v393q0 72 43 117t111 45q22 0 50 -7q1 -1 5 -1q25 2 43.5 20.5t21.5 46.5q1 10 11 10h5q5 0 7.5 -3t1.5 -8q-2 -26 -16.5 -47t-36.5 -33q-4 -1 -1 -5zM348 548
q0 58 -35 95t-91 37q-55 0 -89.5 -37t-34.5 -95v-397q0 -58 34.5 -94.5t89.5 -36.5q56 0 91 36.5t35 94.5v397zM194.5 -151q-11.5 12 -11.5 29t11.5 28.5t28.5 11.5q18 0 29.5 -11.5t11.5 -28.5t-12 -29t-29 -12t-28.5 12z" />
    <glyph glyph-name="uni1EE3" unicode="&#x1ee3;" horiz-adv-x="398" 
d="M285 481q25 -20 38.5 -50t13.5 -67v-227q0 -64 -38.5 -104.5t-99.5 -40.5t-99.5 40.5t-38.5 104.5v227q0 63 38.5 104t99.5 41q21 0 47 -7q1 -1 5 -1q25 2 44 20.5t22 46.5q1 10 11 10h4q11 0 9 -12q-3 -27 -17.5 -48t-37.5 -32q-4 -1 -1 -5zM277 448.5
q-30 32.5 -78 32.5t-78 -32.5t-30 -84.5v-227q0 -52 30 -84.5t78 -32.5t78 32.5t30 84.5v227q0 52 -30 84.5zM171.5 -151q-11.5 12 -11.5 29t11.5 28.5t28.5 11.5q18 0 29.5 -11.5t11.5 -28.5t-12 -29t-29 -12t-28.5 12z" />
    <glyph glyph-name="uni1EE4" unicode="&#x1ee4;" horiz-adv-x="474" 
d="M123.5 43q-42.5 51 -42.5 134v513q0 10 10 10h10q10 0 10 -10v-517q0 -69 34.5 -111t90.5 -42q57 0 92 42t35 111v517q0 10 10 10h10q10 0 10 -10v-513q0 -83 -43 -134t-114 -51q-70 0 -112.5 51zM209.5 -151q-11.5 12 -11.5 29t11.5 28.5t28.5 11.5q18 0 29.5 -11.5
t11.5 -28.5t-12 -29t-29 -12t-28.5 12z" />
    <glyph glyph-name="uni1EE5" unicode="&#x1ee5;" horiz-adv-x="411" 
d="M316 501h10q10 0 10 -10v-481q0 -10 -10 -10h-10q-10 0 -10 10v40q0 3 -2 3.5t-3 -2.5q-31 -58 -105 -58q-60 0 -94 36.5t-34 108.5v353q0 10 10 10h10q10 0 10 -10v-346q0 -62 26.5 -93t75.5 -31t77.5 36t28.5 99v335q0 10 10 10zM174.5 -151q-11.5 12 -11.5 29
t11.5 28.5t28.5 11.5q18 0 29.5 -11.5t11.5 -28.5t-12 -29t-29 -12t-28.5 12z" />
    <glyph glyph-name="uni1EE6" unicode="&#x1ee6;" horiz-adv-x="474" 
d="M123.5 43q-42.5 51 -42.5 134v513q0 10 10 10h10q10 0 10 -10v-517q0 -69 34.5 -111t90.5 -42q57 0 92 42t35 111v517q0 10 10 10h10q10 0 10 -10v-513q0 -83 -43 -134t-114 -51q-70 0 -112.5 51zM227.5 749.5q-1.5 3.5 0.5 7.5q10 23 34 45q15 14 21.5 24t6.5 26
q0 17 -14.5 29.5t-35.5 12.5t-32.5 -8t-25.5 -29q-6 -9 -14 -3l-3 2q-8 5 -3 14q17 26 33 37t46 11q32 0 53 -19t21 -47q0 -22 -9.5 -36.5t-29.5 -34.5q-19 -17 -26 -30l-2 -4q-4 -7 -11 -4l-3 1q-5 2 -6.5 5.5z" />
    <glyph glyph-name="uni1EE7" unicode="&#x1ee7;" horiz-adv-x="411" 
d="M316 501h10q10 0 10 -10v-481q0 -10 -10 -10h-10q-10 0 -10 10v40q0 3 -2 3.5t-3 -2.5q-31 -58 -105 -58q-60 0 -94 36.5t-34 108.5v353q0 10 10 10h10q10 0 10 -10v-346q0 -62 26.5 -93t75.5 -31t77.5 36t28.5 99v335q0 10 10 10zM192.5 550.5q-1.5 3.5 0.5 7.5
q10 23 34 45q15 14 21.5 24t6.5 26q0 17 -14.5 29.5t-35.5 12.5t-32.5 -8t-25.5 -29q-6 -9 -14 -3l-3 2q-8 5 -3 14q17 26 33 37t46 11q32 0 53 -19t21 -47q0 -22 -9.5 -36.5t-29.5 -34.5q-19 -17 -26 -30l-2 -4q-4 -7 -11 -4l-3 1q-5 2 -6.5 5.5z" />
    <glyph glyph-name="uni1EE8" unicode="&#x1ee8;" horiz-adv-x="474" 
d="M471 767q-4 -34 -24 -58t-50 -30q-4 -1 -4 -5v-497q0 -83 -43 -134t-114 -51q-70 0 -112.5 51t-42.5 134v513q0 10 10 10h10q10 0 10 -10v-517q0 -69 34.5 -111t90.5 -42q57 0 92 42t35 111v517q0 10 10 10h2q27 0 47.5 18.5t23.5 48.5q1 10 11 10h4q10 0 10 -10z
M207 771.5q-2 3.5 1 8.5l62 112q3 7 12 7h9q6 0 8 -3.5t-1 -8.5l-65 -112q-5 -7 -12 -7h-6q-6 0 -8 3.5z" />
    <glyph glyph-name="uni1EE9" unicode="&#x1ee9;" horiz-adv-x="411" 
d="M411 568q-3 -33 -22.5 -56.5t-49.5 -31.5q-3 -1 -3 -5v-465q0 -10 -10 -10h-10q-10 0 -10 10v40q0 3 -2 3.5t-3 -2.5q-31 -58 -105 -58q-60 0 -94 36.5t-34 108.5v353q0 10 10 10h10q10 0 10 -10v-346q0 -62 26.5 -93t75.5 -31t77.5 36t28.5 99v335q0 10 9 10
q27 0 47.5 18.5t23.5 48.5q1 10 11 10h4q10 0 10 -10zM172 572.5q-2 3.5 1 8.5l62 112q3 7 12 7h9q6 0 8 -3.5t-1 -8.5l-65 -112q-5 -7 -12 -7h-6q-6 0 -8 3.5z" />
    <glyph glyph-name="uni1EEA" unicode="&#x1eea;" horiz-adv-x="474" 
d="M471 767q-4 -34 -24 -58t-50 -30q-4 -1 -4 -5v-497q0 -83 -43 -134t-114 -51q-70 0 -112.5 51t-42.5 134v513q0 10 10 10h10q10 0 10 -10v-517q0 -69 34.5 -111t90.5 -42q57 0 92 42t35 111v517q0 10 10 10h2q27 0 47.5 18.5t23.5 48.5q1 10 11 10h4q10 0 10 -10z
M246 774q0 -6 -8 -6h-6q-7 0 -12 7l-66 112q-2 4 -2 6q0 6 9 6h9q8 0 12 -7l62 -112q2 -4 2 -6z" />
    <glyph glyph-name="uni1EEB" unicode="&#x1eeb;" horiz-adv-x="411" 
d="M411 568q-3 -33 -22.5 -56.5t-49.5 -31.5q-3 -1 -3 -5v-465q0 -10 -10 -10h-10q-10 0 -10 10v40q0 3 -2 3.5t-3 -2.5q-31 -58 -105 -58q-60 0 -94 36.5t-34 108.5v353q0 10 10 10h10q10 0 10 -10v-346q0 -62 26.5 -93t75.5 -31t77.5 36t28.5 99v335q0 10 9 10
q27 0 47.5 18.5t23.5 48.5q1 10 11 10h4q10 0 10 -10zM212 575q0 -6 -8 -6h-6q-7 0 -12 7l-66 112q-2 4 -2 6q0 6 9 6h9q8 0 12 -7l62 -112q2 -4 2 -6z" />
    <glyph glyph-name="uni1EEC" unicode="&#x1eec;" horiz-adv-x="474" 
d="M471 767q-4 -34 -24 -58t-50 -30q-4 -1 -4 -5v-497q0 -83 -43 -134t-114 -51q-70 0 -112.5 51t-42.5 134v513q0 10 10 10h10q10 0 10 -10v-517q0 -69 34.5 -111t90.5 -42q57 0 92 42t35 111v517q0 10 10 10h2q27 0 47.5 18.5t23.5 48.5q1 10 11 10h4q10 0 10 -10z
M227.5 749.5q-1.5 3.5 0.5 7.5q10 23 34 45q15 14 21.5 24t6.5 26q0 17 -14.5 29.5t-35.5 12.5t-32.5 -8t-25.5 -29q-6 -9 -14 -3l-3 2q-8 5 -3 14q17 26 33 37t46 11q32 0 53 -19t21 -47q0 -22 -9.5 -36.5t-29.5 -34.5q-19 -17 -26 -30l-2 -4q-4 -7 -11 -4l-3 1
q-5 2 -6.5 5.5z" />
    </font>
</defs>
</svg>
