<?xml version="1.0" standalone="no"?>
<!DOCTYPE svg PUBLIC "-//W3C//DTD SVG 1.1//EN" "http://www.w3.org/Graphics/SVG/1.1/DTD/svg11.dtd" >
<svg xmlns="http://www.w3.org/2000/svg" xmlns:xlink="http://www.w3.org/1999/xlink" version="1.1">
<metadata>
Created by FontForge 20201107 at Wed Nov  7 06:09:02 2018
 By 
Copyright 2017 The Barlow Project Authors (https://github.com/jpt/barlow)
</metadata>
<defs>
<font id="BarlowCondensed-SemiBoldItalic" horiz-adv-x="420" >
  <font-face 
    font-family="Barlow Condensed SemiBold"
    font-weight="600"
    font-style="italic"
    font-stretch="condensed"
    units-per-em="1000"
    panose-1="0 0 7 6 0 0 0 0 0 0"
    ascent="800"
    descent="-200"
    x-height="511"
    cap-height="700"
    bbox="-507 -223 984 1072"
    underline-thickness="50"
    underline-position="-100"
    slope="-7"
    unicode-range="U+000D-FB02"
  />
<missing-glyph horiz-adv-x="370" 
d="M-15 0h360q4 0 6 5l85 690q0 5 -5 5h-360q-5 0 -5 -5l-85 -690q0 -5 4 -5zM151 254l4 26q5 34 20.5 55t44.5 45q28 24 41 42.5t13 48.5q0 23 -10 36.5t-29 13.5q-22 0 -37.5 -17.5t-19.5 -46.5l-1 -11q-1 -11 -13 -11l-57 3q-5 0 -8 3.5t-2 8.5l1 7q7 62 48 100.5
t100 38.5q51 0 80.5 -30.5t29.5 -82.5q0 -14 -1 -21q-6 -45 -24 -70t-50 -53q-23 -19 -33.5 -32t-12.5 -32l-3 -21q-1 -5 -4.5 -8.5t-8.5 -3.5h-57q-11 0 -11 12zM140.5 101q-12.5 12 -12.5 31q0 25 16 41.5t40 16.5q19 0 31 -12t12 -32q0 -24 -16 -40.5t-39 -16.5
q-19 0 -31.5 12z" />
    <glyph glyph-name="fi" unicode="fi" horiz-adv-x="489" 
d="M297 507.5q3 -3.5 2 -8.5l-7 -59q-1 -5 -4.5 -8.5t-8.5 -3.5h-61q-2 0 -3.5 -1.5t-1.5 -3.5l-51 -411q0 -5 -4 -8.5t-9 -3.5h-88q-5 0 -8 3.5t-2 8.5l50 411q2 5 -4 5h-31q-5 0 -8 3.5t-2 8.5l7 59q1 5 4.5 8.5t8.5 3.5h31q4 0 6 5l3 25q11 90 55 127t132 36h8
q5 0 8 -3.5t2 -8.5l-11 -68q0 -5 -4 -8.5t-9 -3.5h-5q-29 -1 -45 -19.5t-20 -56.5l-3 -20q0 -5 5 -5h60q5 0 8 -3.5zM392.5 598q-16.5 17 -16.5 44q0 35 22.5 58t55.5 23q27 0 43.5 -16.5t16.5 -42.5q0 -35 -22.5 -59t-54.5 -24q-28 0 -44.5 17zM314 3.5q-3 3.5 -2 8.5
l59 487q1 5 4.5 8.5t8.5 3.5h90q5 0 8 -3.5t2 -8.5l-60 -487q-1 -5 -4.5 -8.5t-8.5 -3.5h-89q-5 0 -8 3.5z" />
    <glyph glyph-name="fl" unicode="fl" horiz-adv-x="474" 
d="M297 507.5q3 -3.5 2 -8.5l-7 -59q-1 -5 -4.5 -8.5t-8.5 -3.5h-61q-2 0 -3.5 -1.5t-1.5 -3.5l-51 -411q0 -5 -4 -8.5t-9 -3.5h-88q-5 0 -8 3.5t-2 8.5l50 411q2 5 -4 5h-31q-5 0 -8 3.5t-2 8.5l7 59q1 5 4.5 8.5t8.5 3.5h31q4 0 6 5l3 25q11 90 55 127t132 36h8
q5 0 8 -3.5t2 -8.5l-11 -68q0 -5 -4 -8.5t-9 -3.5h-5q-29 -1 -45 -19.5t-20 -56.5l-3 -20q0 -5 5 -5h60q5 0 8 -3.5zM306 3.5q-3 3.5 -2 8.5l83 676q1 5 4.5 8.5t8.5 3.5h89q5 0 8 -3.5t2 -8.5l-83 -676q-1 -5 -4.5 -8.5t-8.5 -3.5h-89q-5 0 -8 3.5z" />
    <glyph glyph-name="I_J.liga" unicode="IJ" horiz-adv-x="647" 
d="M34 12l83 676q1 5 5 8.5t9 3.5h89q5 0 8 -3.5t2 -8.5l-83 -676q-1 -5 -4.5 -8.5t-8.5 -3.5h-89q-11 0 -11 12zM277 33.5q-43 41.5 -43 111.5q0 10 2 28l9 74q1 5 5 8.5t9 3.5h89q5 0 8 -3.5t2 -8.5l-9 -76q-1 -5 -1 -14q0 -29 15.5 -47t42.5 -18q31 0 52 22t25 57l64 517
q1 5 4.5 8.5t8.5 3.5h89q5 0 8 -3.5t2 -8.5l-63 -515q-10 -81 -65.5 -131t-136.5 -50q-74 0 -117 41.5z" />
    <glyph glyph-name="f_f_i.liga" unicode="ffi" horiz-adv-x="747" 
d="M650.5 598q-16.5 17 -16.5 43q0 36 22.5 59t55.5 23q27 0 44 -16.5t17 -44.5q0 -34 -23 -57.5t-56 -23.5q-27 0 -43.5 17zM481 516q0 -5 5 -5h59q5 0 8 -3.5t2 -8.5l-7 -58q-1 -5 -4.5 -8.5t-8.5 -3.5h-59q-6 0 -6 -5l-50 -412q-1 -5 -5 -8.5t-9 -3.5h-89q-5 0 -8 3.5
t-2 8.5l51 412q0 5 -5 5h-133q-6 0 -6 -5l-51 -412q0 -5 -4 -8.5t-9 -3.5h-89q-5 0 -8 3.5t-2 8.5l51 412q0 5 -5 5h-31q-5 0 -8 3.5t-2 8.5l7 58q1 5 4.5 8.5t8.5 3.5h31q4 0 6 5l4 37q11 85 55.5 119.5t130.5 31.5h4q5 0 8 -3.5t2 -8.5l-7 -56q-1 -5 -4.5 -8.5t-8.5 -3.5
h-3q-31 -1 -45.5 -21t-19.5 -59l-4 -28q0 -5 5 -5h133q6 0 6 5l4 37q11 85 56 119.5t131 31.5h3q5 0 8 -3.5t2 -8.5l-7 -56q-1 -5 -4.5 -8.5t-8.5 -3.5h-3q-31 -1 -45.5 -21t-19.5 -59zM571 3.5q-3 3.5 -2 8.5l60 487q1 5 4.5 8.5t8.5 3.5h89q5 0 8 -3.5t2 -8.5l-60 -487
q0 -5 -4 -8.5t-9 -3.5h-89q-5 0 -8 3.5z" />
    <glyph glyph-name="f_f_l.liga" unicode="ffl" horiz-adv-x="735" 
d="M485 516q0 -5 5 -5h59q5 0 8 -3.5t2 -8.5l-7 -58q-1 -5 -4.5 -8.5t-8.5 -3.5h-60q-2 0 -3.5 -1.5t-1.5 -3.5l-51 -412q0 -5 -4 -8.5t-9 -3.5h-89q-5 0 -8 3.5t-2 8.5l50 412q2 5 -4 5h-137q-6 0 -6 -5l-51 -412q0 -5 -4 -8.5t-9 -3.5h-89q-5 0 -8 3.5t-2 8.5l51 412
q0 5 -5 5h-31q-5 0 -8 3.5t-2 8.5l7 58q1 5 4.5 8.5t8.5 3.5h31q4 0 6 5l4 37q11 85 55.5 119.5t130.5 31.5h4q5 0 8 -3.5t2 -8.5l-7 -56q-1 -5 -4.5 -8.5t-8.5 -3.5h-3q-31 -1 -45.5 -21t-19.5 -59l-4 -28q0 -5 5 -5h137q4 0 6 5l4 37q11 85 56 119.5t131 31.5h3
q5 0 8 -3.5t2 -8.5l-7 -56q-1 -5 -4.5 -8.5t-8.5 -3.5h-3q-31 -1 -45.5 -21t-19.5 -59zM651.5 696.5q3.5 3.5 8.5 3.5h89q11 0 11 -12l-83 -676q-1 -5 -5 -8.5t-9 -3.5h-89q-5 0 -8 3.5t-2 8.5l83 676q1 5 4.5 8.5z" />
    <glyph glyph-name="g_j.liga" unicode="gj" horiz-adv-x="622" 
d="M526.5 598q-16.5 17 -16.5 44q0 35 23 58t55 23q28 0 44.5 -16.5t16.5 -44.5q0 -34 -23 -57.5t-55 -23.5q-28 0 -44.5 17zM303 473.5q2 0.5 3 3.5l3 22q0 5 4 8.5t9 3.5h89q5 0 8 -3.5t2 -8.5l-59 -480q-13 -108 -68 -166.5t-177 -58.5q-21 0 -32 1q-10 1 -10 13l10 77
q2 13 14 11q55 -1 86 14t45.5 44t20.5 76l1 11q1 3 -1 3.5t-4 -2.5q-38 -43 -97 -43q-57 0 -86 33.5t-29 94.5q0 10 2 34l24 196q10 77 49.5 119.5t103.5 42.5q26 0 49 -10t37 -33q1 -3 3 -2.5zM505 499q0 5 4 8.5t9 3.5h88q5 0 8 -3.5t2 -8.5l-63 -515q-8 -65 -26.5 -105.5
t-58.5 -62.5t-109 -21q-12 0 -10 12l12 75q2 12 12 12q29 1 46 24.5t22 65.5zM245.5 118.5q18.5 19.5 22.5 50.5l22 179q1 4 1 13q0 26 -13.5 42t-36.5 16q-26 0 -45 -20t-23 -51l-22 -179q-1 -4 -1 -12q0 -26 14 -42t37 -16q26 0 44.5 19.5z" />
    <glyph glyph-name="i_j.liga" unicode="ij" horiz-adv-x="408" 
d="M111.5 598q-16.5 17 -16.5 44q0 35 22.5 58t55.5 23q27 0 43.5 -16.5t16.5 -42.5q0 -35 -22.5 -59t-54.5 -24q-28 0 -44.5 17zM311.5 598q-16.5 17 -16.5 44q0 35 22.5 58t55.5 23q28 0 44.5 -16.5t16.5 -44.5q0 -34 -23 -57.5t-55 -23.5q-28 0 -44.5 17zM32 3.5
q-3 3.5 -2 8.5l59 487q1 5 5 8.5t9 3.5h89q5 0 8 -3.5t2 -8.5l-60 -487q-1 -5 -4.5 -8.5t-8.5 -3.5h-89q-5 0 -8 3.5zM114 -193l9 75q2 12 14 12q42 0 62.5 23.5t26.5 66.5l63 515q1 5 4.5 8.5t8.5 3.5h90q5 0 8 -3.5t2 -8.5l-63 -515q-9 -68 -26.5 -107.5t-61.5 -61
t-127 -20.5q-12 0 -10 12z" />
    <glyph glyph-name="hyphen_hyphen.liga" unicode="&#x2d;&#x2d;" horiz-adv-x="575" 
d="M41 250.5q-3 3.5 -2 8.5l9 76q1 5 4.5 8.5t8.5 3.5h500q5 0 8 -3.5t2 -8.5l-9 -76q-1 -5 -4.5 -8.5t-8.5 -3.5h-500q-5 0 -8 3.5z" />
    <glyph glyph-name=".notdef" horiz-adv-x="370" 
d="M-15 0h360q4 0 6 5l85 690q0 5 -5 5h-360q-5 0 -5 -5l-85 -690q0 -5 4 -5zM151 254l4 26q5 34 20.5 55t44.5 45q28 24 41 42.5t13 48.5q0 23 -10 36.5t-29 13.5q-22 0 -37.5 -17.5t-19.5 -46.5l-1 -11q-1 -11 -13 -11l-57 3q-5 0 -8 3.5t-2 8.5l1 7q7 62 48 100.5
t100 38.5q51 0 80.5 -30.5t29.5 -82.5q0 -14 -1 -21q-6 -45 -24 -70t-50 -53q-23 -19 -33.5 -32t-12.5 -32l-3 -21q-1 -5 -4.5 -8.5t-8.5 -3.5h-57q-11 0 -11 12zM140.5 101q-12.5 12 -12.5 31q0 25 16 41.5t40 16.5q19 0 31 -12t12 -32q0 -24 -16 -40.5t-39 -16.5
q-19 0 -31.5 12z" />
    <glyph glyph-name=".null" horiz-adv-x="0" 
 />
    <glyph glyph-name="nonmarkingreturn" unicode="&#xd;" horiz-adv-x="194" 
 />
    <glyph glyph-name="NULL" horiz-adv-x="0" 
 />
    <glyph glyph-name="NULL" horiz-adv-x="0" 
 />
    <glyph glyph-name="space" unicode=" " horiz-adv-x="194" 
 />
    <glyph glyph-name="exclam" unicode="!" horiz-adv-x="261" 
d="M96 248l43 440q1 5 4.5 8.5t8.5 3.5h89q5 0 8 -3.5t2 -8.5l-64 -440q-1 -5 -4.5 -8.5t-8.5 -3.5h-67q-11 0 -11 12zM67.5 19q-16.5 17 -16.5 44q0 34 22.5 57t55.5 23q27 0 43.5 -16.5t16.5 -42.5q0 -35 -22.5 -58.5t-54.5 -23.5q-28 0 -44.5 17z" />
    <glyph glyph-name="quotedbl" unicode="&#x22;" horiz-adv-x="297" 
d="M70.5 480.5q-3.5 3.5 -2.5 8.5l14 196q2 12 12 12h85q11 0 9 -12l-34 -196q-1 -5 -5 -8.5t-9 -3.5h-61q-5 0 -8.5 3.5zM225.5 480.5q-3.5 3.5 -2.5 8.5l14 196q2 12 13 12h84q11 0 9 -12l-34 -196q-1 -5 -5 -8.5t-9 -3.5h-61q-5 0 -8.5 3.5z" />
    <glyph glyph-name="numbersign" unicode="#" horiz-adv-x="588" 
d="M576.5 416.5q-3.5 -3.5 -8.5 -3.5h-59q-2 0 -4.5 -1.5t-2.5 -3.5l-31 -120q0 -5 3 -5h45q5 0 8 -3.5t2 -8.5l-9 -75q-1 -5 -4.5 -8.5t-8.5 -3.5h-60q-2 0 -4 -1.5t-2 -3.5l-38 -145q-3 -11 -14 -11l-89 1q-12 0 -9 13l37 142q2 5 -3 5h-102q-6 0 -6 -5l-38 -145
q-3 -11 -14 -11l-89 1q-12 0 -9 13l37 142q2 5 -3 5h-45q-11 0 -11 12l10 75q0 5 4 8.5t9 3.5h60q6 0 6 5l32 120q0 5 -4 5h-45q-5 0 -8 3.5t-2 8.5l9 76q1 5 4.5 8.5t8.5 3.5h60q5 0 7 5l38 145q3 11 14 11l89 -1q12 0 9 -13l-38 -142q0 -5 3 -5h102q5 0 7 5l38 145
q3 11 14 11l89 -1q12 0 9 -13l-38 -142q0 -5 3 -5h45q5 0 8 -3.5t2 -8.5l-9 -76q-1 -5 -4.5 -8.5zM358 288l32 120q0 5 -4 5h-102q-2 0 -4 -1.5t-2 -3.5l-31 -120q-2 -5 3 -5h102q6 0 6 5z" />
    <glyph glyph-name="dollar" unicode="$" horiz-adv-x="421" 
d="M343.5 58.5q-42.5 -48.5 -105.5 -61.5q-5 -2 -5 -6l-7 -60q-1 -5 -4.5 -8.5t-8.5 -3.5h-61q-5 0 -8 3.5t-2 8.5l8 60q2 4 -3 6q-54 12 -84 51.5t-30 97.5q0 9 2 27l3 26q1 5 4.5 8.5t8.5 3.5h88q11 0 11 -12l-3 -20q-1 -5 -1 -16q0 -33 16 -52t42 -19q33 0 56.5 27
t23.5 69q0 30 -18.5 52t-69.5 64q-40 33 -64.5 58t-41 59t-16.5 78q0 8 2 28q9 71 51 118t105 59q5 2 6 6l7 66q1 5 4.5 8.5t8.5 3.5h60q5 0 8 -3.5t2 -8.5l-10 -67q0 -5 4 -6q52 -13 81.5 -53t29.5 -99q0 -9 -2 -31l-2 -24q-1 -5 -5 -8.5t-9 -3.5h-87q-5 0 -8 3.5t-2 8.5
l3 26q1 6 1 17q0 32 -16 50.5t-43 18.5q-32 0 -54.5 -25.5t-22.5 -69.5q0 -29 18 -52.5t65 -63.5q48 -40 74 -66t40 -55.5t14 -66.5q0 -9 -2 -29q-9 -73 -51.5 -121.5z" />
    <glyph glyph-name="percent" unicode="%" horiz-adv-x="748" 
d="M136.5 442.5q-36.5 38.5 -36.5 95.5q0 45 23 84.5t61.5 63t81.5 23.5q54 0 90 -37.5t36 -93.5q0 -46 -22.5 -86.5t-60.5 -64t-81 -23.5q-55 0 -91.5 38.5zM137.5 4q-1.5 4 1.5 10l437 678q4 8 15 8h57q6 0 7.5 -4t-1.5 -10l-437 -678q-4 -8 -15 -8h-56q-7 0 -8.5 4z
M302 497q28 31 28 72q0 33 -20.5 55.5t-51.5 22.5q-39 0 -67.5 -30t-28.5 -72q0 -34 21 -56.5t53 -22.5q38 0 66 31zM439.5 28.5q-35.5 37.5 -35.5 94.5q0 46 22.5 85.5t60.5 63.5t81 24q55 0 91 -38t36 -95q0 -46 -23 -85.5t-61 -63t-81 -23.5q-55 0 -90.5 37.5zM605 84
q29 31 29 72q0 33 -21 55.5t-53 22.5q-38 0 -66.5 -30t-28.5 -72q0 -34 21 -56.5t52 -22.5q38 0 67 31z" />
    <glyph glyph-name="ampersand" unicode="&#x26;" horiz-adv-x="564" 
d="M507 8q0 -8 -10 -8h-96q-10 0 -14 7l-23 39q-3 3 -7 1q-77 -56 -167 -56q-76 0 -118 36.5t-42 105.5q0 8 2 30q8 66 42.5 112.5t90.5 87.5q4 2 2 7q-32 56 -43.5 86t-11.5 57q0 16 1 24q10 78 61 124.5t125 46.5q68 0 110.5 -40t42.5 -106q0 -72 -37.5 -122t-101.5 -96
q-5 -3 -2 -7q15 -27 31 -52l41 -71q2 -2 4 -2t3 2q30 38 54 76q8 11 17 5l61 -39q9 -6 3 -16q-44 -67 -83 -113q-3 -4 -1 -7q24 -37 64 -105q2 -4 2 -7zM242.5 579q-18.5 -24 -18.5 -62q0 -15 6.5 -33t25.5 -51q2 -5 7 -2q36 28 55.5 55.5t19.5 60.5q0 25 -13.5 40.5
t-35.5 15.5q-28 0 -46.5 -24zM307 130q4 2 2 7l-14 23l-16 25l-56 90q-3 4 -7 1q-34 -27 -53 -55t-19 -61q0 -30 17.5 -49.5t50.5 -19.5q45 0 95 39z" />
    <glyph glyph-name="quotesingle" unicode="'" horiz-adv-x="147" 
d="M70.5 483.5q-3.5 3.5 -2.5 8.5l14 195q2 12 13 12h90q11 0 9 -12l-35 -195q-1 -5 -5 -8.5t-9 -3.5h-66q-5 0 -8.5 3.5z" />
    <glyph glyph-name="parenleft" unicode="(" horiz-adv-x="271" 
d="M69 -88q-26 56 -41 130t-15 161q0 55 8 127q16 129 57 238t95 184q4 8 14 8h88q6 0 8.5 -4t-1.5 -10q-46 -82 -83 -188t-52 -228q-8 -61 -8 -131q0 -155 42 -281v-3q0 -11 -11 -11h-89q-9 0 -12 8z" />
    <glyph glyph-name="parenright" unicode=")" horiz-adv-x="271" 
d="M245 752q26 -56 41 -130.5t15 -161.5q0 -55 -8 -125q-16 -129 -57 -238t-95 -185q-5 -8 -15 -8h-87q-7 0 -8.5 4t1.5 10q46 84 82.5 189.5t51.5 226.5q8 63 8 133q0 150 -41 279l-1 4q0 4 3.5 7t8.5 3h88q9 0 13 -8z" />
    <glyph glyph-name="asterisk" unicode="*" horiz-adv-x="350" 
d="M175 398.5q-3 3.5 -2 8.5l12 95q0 6 -6 3l-84 -48q-4 -2 -6 -2q-6 0 -9 7l-16 39q-1 2 -1 5q0 6 7 11l89 50q5 3 1 7l-77 49q-7 6 -2 16l26 41q3 5 8 6.5t9 -1.5l71 -49q5 -4 7 3l11 95q1 5 4.5 8.5t8.5 3.5h43q5 0 8 -3.5t2 -8.5l-12 -95q-1 -3 1 -4t4 1l84 49q4 2 6 2
q7 0 10 -7l15 -41q1 -1 1 -4q0 -8 -7 -12l-87 -49q-3 -1 -3 -3t2 -4l75 -50q9 -7 3 -16l-26 -41q-4 -5 -8.5 -6t-8.5 2l-72 49q-2 2 -4 1t-2 -4l-11 -95q-1 -5 -4.5 -8.5t-8.5 -3.5h-43q-5 0 -8 3.5z" />
    <glyph glyph-name="plus" unicode="+" horiz-adv-x="426" 
d="M422 354.5q3 -3.5 2 -8.5l-8 -64q-1 -5 -4.5 -8.5t-8.5 -3.5h-128q-4 0 -6 -5l-16 -132q-1 -5 -4.5 -8.5t-8.5 -3.5h-62q-5 0 -8 3.5t-2 8.5l16 132q0 5 -4 5h-128q-11 0 -11 12l8 64q1 5 4.5 8.5t8.5 3.5h128q6 0 6 5l16 132q1 5 4.5 8.5t8.5 3.5h62q5 0 8 -3.5t2 -8.5
l-16 -132q0 -5 4 -5h129q5 0 8 -3.5z" />
    <glyph glyph-name="comma" unicode="," horiz-adv-x="193" 
d="M4.5 -87.5q-2.5 3.5 -1.5 9.5l53 224q3 11 13 11h77q12 0 8 -13l-75 -224q-1 -5 -5 -8t-9 -3h-52q-6 0 -8.5 3.5z" />
    <glyph glyph-name="hyphen" unicode="-" horiz-adv-x="315" 
d="M41 254.5q-3 3.5 -2 8.5l9 76q1 5 5 8.5t9 3.5h239q5 0 8 -3.5t2 -8.5l-9 -76q-1 -5 -4.5 -8.5t-8.5 -3.5h-240q-5 0 -8 3.5z" />
    <glyph glyph-name="period" unicode="." horiz-adv-x="205" 
d="M39 15q-17 17 -17 44q0 35 23 58t56 23q27 0 43.5 -16.5t16.5 -43.5q0 -35 -23 -58.5t-54 -23.5q-28 0 -45 17z" />
    <glyph glyph-name="slash" unicode="/" horiz-adv-x="375" 
d="M3 4q-2 4 0 10l282 676q3 10 13 10h90q5 0 7.5 -4t0.5 -10l-282 -676q-5 -10 -14 -10h-89q-6 0 -8 4z" />
    <glyph glyph-name="zero" unicode="0" horiz-adv-x="436" 
d="M80.5 33q-42.5 44 -42.5 118q0 10 2 32l41 334q11 87 67 140.5t137 53.5q75 0 118 -44t43 -119q0 -9 -2 -31l-41 -334q-11 -87 -67.5 -140.5t-138.5 -53.5q-74 0 -116.5 44zM262.5 113.5q21.5 23.5 26.5 62.5l43 348q1 5 1 16q0 32 -16 51t-44 19q-31 0 -52.5 -23.5
t-26.5 -62.5l-42 -348q-1 -6 -1 -18q0 -32 15.5 -50t42.5 -18q32 0 53.5 23.5z" />
    <glyph glyph-name="one" unicode="1" horiz-adv-x="266" 
d="M185 700h93q5 0 8 -3.5t2 -8.5l-83 -676q-1 -5 -4.5 -8.5t-8.5 -3.5h-89q-5 0 -8 3.5t-2 8.5l69 564q0 6 -4 5l-82 -16h-3q-10 0 -9 11l5 67q1 10 10 14l91 40q8 3 15 3z" />
    <glyph glyph-name="two" unicode="2" horiz-adv-x="413" 
d="M157.5 102q0.5 -2 3.5 -2h212q5 0 8 -3.5t2 -8.5l-9 -76q-1 -5 -4.5 -8.5t-8.5 -3.5h-339q-5 0 -8 3.5t-2 8.5l10 80q2 9 6 15l32 38q120 143 174 218q38 55 57.5 98t19.5 79q0 32 -14 50t-39 18q-28 0 -47 -22.5t-23 -59.5l-5 -39q-1 -5 -4.5 -8.5t-8.5 -3.5h-91
q-5 0 -8 3.5t-2 8.5l5 43q14 80 69 129t132 49q69 0 109.5 -42.5t40.5 -113.5q0 -9 -2 -31q-6 -50 -28.5 -99t-65.5 -105q-32 -44 -113 -142l-57 -69q-2 -2 -1.5 -4z" />
    <glyph glyph-name="three" unicode="3" horiz-adv-x="413" 
d="M386 272q0 -25 -3 -54q-7 -53 -17 -84q-20 -68 -66 -105t-117 -37q-72 0 -113 38.5t-41 105.5q0 19 4 71q2 12 13 12h90q5 0 8 -3t2 -9q-2 -17 -2.5 -30t-0.5 -21q2 -30 15.5 -47t37.5 -17q23 0 40.5 15.5t25.5 44.5q8 28 15 78q4 29 4 60q0 17 -1 25q-2 26 -15 40
t-35 14q-14 0 -28 -9q-10 -7 -16 0l-40 48q-3 5 -3 7q0 4 4 10l142 170q2 2 1 4t-4 2h-184q-5 0 -8 3.5t-2 8.5l9 75q1 5 4.5 8.5t8.5 3.5h314q11 0 11 -12l-10 -79q-1 -8 -7 -15l-130 -156q-4 -5 1 -7q40 -5 64.5 -39t27.5 -85q1 -11 1 -35z" />
    <glyph glyph-name="four" unicode="4" horiz-adv-x="446" 
d="M442 283.5q3 -3.5 2 -8.5l-10 -81q-1 -5 -4.5 -8.5t-8.5 -3.5h-29q-4 0 -6 -5l-20 -165q-1 -5 -4.5 -8.5t-8.5 -3.5h-89q-5 0 -8 3.5t-2 8.5l20 165q0 5 -4 5h-239q-5 0 -8 3.5t-2 8.5l8 65q2 12 4 15l186 416q3 10 13 10h97q6 0 8.5 -3.5t-0.5 -10.5l-172 -393
q-1 -6 3 -6h115q2 0 3.5 1.5t1.5 3.5l15 120q1 5 4.5 8.5t8.5 3.5h89q5 0 8 -3.5t2 -8.5l-14 -120q-2 -5 4 -5h29q5 0 8 -3.5z" />
    <glyph glyph-name="five" unicode="5" horiz-adv-x="415" 
d="M399 268q0 -27 -4 -52q-4 -36 -12 -70q-14 -74 -64.5 -114t-126.5 -40q-72 0 -111.5 38t-40.5 114l1 28q2 12 13 12h89q11 0 11 -12v-18q3 -62 50 -62q24 0 41 15.5t26 45.5q8 29 12 64q4 31 2 64q-2 26 -15.5 40.5t-35.5 14.5q-46 0 -66 -46q-3 -11 -13 -11h-91
q-5 0 -8 3.5t-2 8.5l49 397q1 5 4.5 8.5t8.5 3.5h316q5 0 8 -3.5t2 -8.5l-9 -76q-1 -5 -4.5 -8.5t-8.5 -3.5h-211q-2 0 -3.5 -1.5t-1.5 -3.5l-24 -195q0 -6 6 -2q18 18 43 28.5t52 10.5q58 0 88.5 -38.5t28.5 -108.5q1 -7 1 -22z" />
    <glyph glyph-name="six" unicode="6" horiz-adv-x="416" 
d="M396 216q-5 -40 -10 -65q-14 -76 -65 -117.5t-127 -41.5q-72 0 -112 38.5t-39 113.5q-1 6 -1 20q0 21 3 43l39 325q10 81 63.5 128.5t132.5 47.5q67 0 107 -40t40 -108q0 -8 -2 -28l-3 -25q-1 -5 -4.5 -8.5t-8.5 -3.5h-89q-5 0 -8 3.5t-2 8.5l2 19q1 5 1 15
q0 29 -13 46.5t-33 17.5q-28 0 -47 -22t-23 -57l-13 -103q-1 -3 1 -4t4 1q32 27 73 27q67 0 103.5 -44t34.5 -117q0 -35 -4 -70zM284 224q3 32 3 71q-5 58 -50 58q-23 0 -40 -15.5t-25 -45.5q-7 -31 -13 -68q-4 -39 -5 -67q2 -32 14.5 -49t36.5 -17t42 18t26 51q5 24 11 64z
" />
    <glyph glyph-name="seven" unicode="7" horiz-adv-x="381" 
d="M69 13l232 581q2 6 -3 6h-131q-4 0 -6 -5l-4 -36q-1 -5 -4.5 -8.5t-8.5 -3.5h-69q-5 0 -8 3.5t-2 8.5l17 129q0 5 4 8.5t9 3.5h329q5 0 8 -3.5t2 -8.5l-10 -81q-2 -8 -4 -14l-234 -583q-1 -4 -5 -7t-9 -3h-94q-13 0 -9 13z" />
    <glyph glyph-name="eight" unicode="8" horiz-adv-x="421" 
d="M340 364q31 -18 42 -58q9 -30 9 -68q0 -25 -2 -38q-6 -52 -27 -93q-26 -54 -71 -84.5t-102 -30.5q-56 0 -94 30t-50 84q-5 21 -5 54q0 26 2 40q8 59 30 101q19 40 59 62q4 3 1 6q-30 21 -43 58q-9 28 -9 63q0 22 2 33q6 57 31 97q25 43 68.5 67.5t96.5 24.5
q52 0 89.5 -23.5t52.5 -67.5q11 -30 11 -66q0 -10 -2 -32q-7 -55 -31 -94q-22 -37 -57 -58q-5 -4 -1 -7zM204 559q-10 -18 -13 -46q-1 -7 -1 -21q0 -21 4 -36q4 -21 16 -33t31 -12q40 0 61 48q12 29 14 54q2 16 2 23q0 17 -5 32q-4 21 -16.5 32.5t-31.5 11.5q-35 0 -55 -39z
M278 206q3 18 3 33q0 17 -3 32q-3 24 -15.5 37.5t-32.5 13.5q-21 0 -36.5 -14t-24.5 -40q-12 -28 -15 -60q-4 -27 -2 -57q2 -28 15 -43.5t34 -15.5q23 0 40.5 16.5t25.5 44.5q8 26 11 53z" />
    <glyph glyph-name="nine" unicode="9" horiz-adv-x="411" 
d="M374 168q-10 -81 -64 -128.5t-133 -47.5q-67 0 -107 40t-40 108q0 8 2 28l3 25q1 5 4.5 8.5t8.5 3.5h90q5 0 8 -3.5t2 -8.5l-2 -19q-1 -5 -1 -16q0 -28 12.5 -45.5t32.5 -17.5q28 0 47 22t24 57l12 102q1 3 -1 4t-4 -1q-31 -26 -73 -26q-67 0 -103 44t-34 117q-2 31 3 70
q3 23 11 65q14 76 65 117.5t127 41.5q72 0 112 -38.5t40 -113.5q0 -39 -3 -63zM298 476q4 39 5 67q-1 32 -13.5 49t-36.5 17q-49 0 -68 -69q-7 -33 -10 -64q-5 -37 -4 -71q1 -28 14 -43t36 -15t40 15.5t25 45.5q9 39 12 68z" />
    <glyph glyph-name="colon" unicode=":" horiz-adv-x="245" 
d="M101 350q-17 17 -17 44q0 35 23 58t56 23q27 0 43.5 -16.5t16.5 -43.5q0 -35 -23 -58.5t-54 -23.5q-28 0 -45 17zM60 19q-17 17 -17 44q0 35 23 58t56 23q27 0 43.5 -16.5t16.5 -43.5q0 -35 -23 -58.5t-54 -23.5q-28 0 -45 17z" />
    <glyph glyph-name="semicolon" unicode=";" horiz-adv-x="212" 
d="M80.5 344q-17.5 19 -17.5 49q0 34 25.5 60t56.5 26q28 0 47.5 -22.5t15.5 -53.5q-5 -33 -28 -55.5t-54 -22.5q-28 0 -45.5 19zM11.5 -85.5q-2.5 3.5 -1.5 9.5l45 219q3 11 13 11h79q12 0 8 -13l-69 -219q-1 -11 -14 -11h-52q-6 0 -8.5 3.5z" />
    <glyph glyph-name="less" unicode="&#x3c;" horiz-adv-x="426" 
d="M384 58.5q-4 -2.5 -9 0.5l-331 170q-9 4 -7 14l10 81q0 9 10 14l373 171q4 2 6 2q9 0 7 -11l-11 -85q-2 -10 -10 -14l-266 -114q-6 -3 0 -6l237 -114q8 -5 7 -14l-10 -85q-2 -7 -6 -9.5z" />
    <glyph glyph-name="equal" unicode="=" horiz-adv-x="426" 
d="M56 375.5q-3 3.5 -2 8.5l8 64q1 5 4.5 8.5t8.5 3.5h351q5 0 8 -3.5t2 -8.5l-7 -64q-1 -5 -5 -8.5t-9 -3.5h-351q-5 0 -8 3.5zM32 184.5q-3 3.5 -2 8.5l8 64q1 5 4.5 8.5t8.5 3.5h351q5 0 8 -3.5t2 -8.5l-7 -64q-1 -5 -5 -8.5t-9 -3.5h-351q-5 0 -8 3.5z" />
    <glyph glyph-name="greater" unicode="&#x3e;" horiz-adv-x="426" 
d="M22 57q-9 0 -7 11l11 85q0 9 10 14l265 114q7 3 1 6l-237 114q-9 4 -7 14l10 85q1 7 5.5 9.5t9.5 -0.5l331 -171q8 -5 7 -14l-10 -81q-2 -10 -10 -14l-373 -170q-4 -2 -6 -2z" />
    <glyph glyph-name="question" unicode="?" horiz-adv-x="401" 
d="M141 217.5q-3 3.5 -2 8.5l5 41q6 47 27.5 76t62.5 64q39 32 58 58.5t19 69.5q0 32 -14.5 50.5t-39.5 18.5q-32 0 -53.5 -24.5t-26.5 -64.5l-3 -21q-1 -11 -13 -11l-89 4q-4 0 -7 4t-3 9l2 15q7 57 35.5 101.5t73.5 69t99 24.5q72 0 113 -42t41 -114q0 -10 -2 -32
q-8 -63 -34 -99t-70 -73q-31 -26 -46 -44.5t-18 -45.5l-4 -34q-1 -5 -4.5 -8.5t-8.5 -3.5h-90q-5 0 -8 3.5zM124.5 15.5q-16.5 16.5 -16.5 42.5q0 36 22 59t55 23q28 0 44.5 -16t16.5 -44q0 -34 -23 -57.5t-55 -23.5q-27 0 -43.5 16.5z" />
    <glyph glyph-name="at" unicode="@" horiz-adv-x="736" 
d="M605.5 611q58.5 -30 90 -86t31.5 -130q0 -44 -12 -94q-25 -97 -81 -151.5t-129 -54.5q-62 0 -90 40q-3 3 -7 -1q-17 -21 -39.5 -30.5t-43.5 -9.5q-45 0 -70 24.5t-25 65.5q0 7 2 23q3 17 11 47l7 29q6 32 16 64q31 114 127 114q12 0 26 -5t24 -16q6 -4 7 2v2q3 11 14 11
h55q12 0 9 -13l-46 -184q-4 -16 -4 -33q0 -27 13 -41t35 -14q36 0 64 36.5t43 96.5q10 40 10 79q0 85 -51.5 135t-139.5 50q-70 0 -136 -37.5t-114.5 -104t-68.5 -150.5q-11 -43 -11 -85q0 -61 24.5 -104.5t66 -66t90.5 -22.5q74 0 136 42q4 3 9 3q4 0 7 -6l21 -42
q1 -2 1 -6q0 -7 -7 -11q-38 -25 -86.5 -40t-103.5 -15q-70 0 -124 30t-84 86t-30 133q0 54 14 109q25 104 87.5 186.5t148.5 128.5t177 46q78 0 136.5 -30zM373.5 175q14.5 14 21.5 37l5 21l2 10l20 83l4 17q2 6 2 17q0 15 -8.5 24t-23.5 9q-19 0 -34 -14t-20 -36
q-1 -9 -6 -21q-2 -9 -5 -20t-6 -26l-16 -64q-1 -5 -1 -14q0 -17 8 -27t24 -10q19 0 33.5 14z" />
    <glyph glyph-name="A" unicode="A" horiz-adv-x="443" 
d="M297 11l-5 105q0 5 -6 5h-141q-5 0 -7 -5l-31 -105q-3 -11 -14 -11h-88q-13 0 -9 13l226 676q3 11 14 11h103q11 0 11 -11l61 -676v-2q0 -11 -12 -11h-91q-11 0 -11 11zM173 212h107q6 0 6 5l-18 316q0 3 -2 3t-4 -3l-94 -316q-1 -5 5 -5z" />
    <glyph glyph-name="B" unicode="B" horiz-adv-x="448" 
d="M358 50.5q-58 -50.5 -143 -50.5h-170q-11 0 -11 12l83 676q1 5 5 8.5t9 3.5h153q83 0 129.5 -39t46.5 -116q0 -11 -2 -33q-13 -103 -89 -147q-6 -3 -3 -6q62 -46 62 -134q0 -9 -2 -31q-10 -93 -68 -143.5zM219 595l-23 -186q-2 -5 4 -5h49q40 0 65.5 25t31.5 71q1 7 1 20
q0 38 -19 59t-55 21h-49q-5 0 -5 -5zM283.5 129q25.5 28 32.5 79q1 8 1 23q0 41 -18.5 64.5t-52.5 23.5h-56q-6 0 -6 -5l-25 -208q-2 -5 4 -5h56q39 0 64.5 28z" />
    <glyph glyph-name="C" unicode="C" horiz-adv-x="444" 
d="M84.5 34.5q-43.5 42.5 -43.5 115.5q0 10 2 30l42 341q10 86 66.5 136.5t139.5 50.5q75 0 119 -42t44 -115q0 -10 -2 -30l-2 -12q0 -5 -4 -9t-9 -4l-90 -4q-12 0 -11 12l3 25q1 5 1 14q0 30 -16.5 47.5t-45.5 17.5q-31 0 -52.5 -22t-26.5 -57l-44 -358q-1 -5 -1 -14
q0 -30 16.5 -47.5t44.5 -17.5q32 0 54 22t27 57l3 25q0 5 4 8.5t9 3.5l89 -4q11 0 11 -12l-2 -12q-10 -85 -67 -136.5t-140 -51.5q-75 0 -118.5 42.5z" />
    <glyph glyph-name="D" unicode="D" horiz-adv-x="458" 
d="M34 12l83 676q1 5 5 8.5t9 3.5h165q75 0 118.5 -42.5t43.5 -115.5q0 -11 -2 -33l-39 -318q-11 -87 -67 -139t-140 -52h-165q-11 0 -11 12zM163 100l58 1q32 0 55 26.5t30 70.5l37 304q1 7 1 20q0 37 -16.5 57.5t-46.5 20.5h-57q-5 0 -5 -5l-61 -490q0 -5 5 -5z" />
    <glyph glyph-name="E" unicode="E" horiz-adv-x="422" 
d="M442.5 603.5q-3.5 -3.5 -8.5 -3.5h-210q-5 0 -5 -5l-24 -189q0 -5 5 -5h124q5 0 8 -3.5t2 -8.5l-10 -77q0 -5 -4 -8.5t-9 -3.5h-124q-5 0 -5 -5l-24 -190q0 -5 5 -5h209q5 0 8 -3.5t2 -8.5l-9 -76q-1 -5 -4.5 -8.5t-8.5 -3.5h-315q-11 0 -11 12l83 676q1 5 5 8.5t9 3.5
h315q5 0 8 -3.5t2 -8.5l-9 -76q-1 -5 -4.5 -8.5z" />
    <glyph glyph-name="F" unicode="F" horiz-adv-x="402" 
d="M441.5 603.5q-3.5 -3.5 -8.5 -3.5h-209q-5 0 -5 -5l-24 -189q0 -5 5 -5h123q5 0 8 -3.5t2 -8.5l-10 -77q0 -5 -4 -8.5t-9 -3.5h-123q-5 0 -5 -5l-35 -283q-1 -5 -4.5 -8.5t-8.5 -3.5h-89q-11 0 -11 12l83 676q1 5 5 8.5t9 3.5h314q5 0 8 -3.5t2 -8.5l-9 -76
q-1 -5 -4.5 -8.5z" />
    <glyph glyph-name="G" unicode="G" horiz-adv-x="448" 
d="M84.5 33q-43.5 41 -43.5 111q0 9 2 29l43 354q10 82 66 131.5t139 49.5q75 0 119.5 -42t44.5 -113q0 -9 -2 -27l-5 -39q-1 -5 -4.5 -8.5t-8.5 -3.5h-90q-5 0 -8 3.5t-2 8.5l5 41q1 5 1 14q0 30 -17 48t-46 18q-31 0 -53 -22t-27 -58l-44 -356q-1 -5 -1 -14
q0 -30 16.5 -48t45.5 -18q32 0 55 22t27 58l11 96q2 5 -4 5h-59q-5 0 -8 3.5t-2 8.5l9 73q1 5 4.5 8.5t8.5 3.5h165q5 0 8 -3.5t2 -8.5l-23 -185q-10 -82 -67 -131.5t-139 -49.5q-75 0 -118.5 41z" />
    <glyph glyph-name="H" unicode="H" horiz-adv-x="463" 
d="M367.5 696.5q3.5 3.5 8.5 3.5h89q5 0 8 -3.5t2 -8.5l-83 -676q0 -5 -4 -8.5t-9 -3.5h-89q-5 0 -8 3.5t-2 8.5l35 283q0 5 -5 5h-123q-5 0 -5 -5l-35 -283q-1 -5 -4.5 -8.5t-8.5 -3.5h-89q-11 0 -11 12l83 676q1 5 5 8.5t9 3.5h89q5 0 8 -3.5t2 -8.5l-35 -282q0 -5 5 -5
h123q5 0 5 5l35 282q1 5 4.5 8.5z" />
    <glyph glyph-name="I" unicode="I" horiz-adv-x="218" 
d="M34 12l83 676q1 5 5 8.5t9 3.5h89q5 0 8 -3.5t2 -8.5l-83 -676q-1 -5 -4.5 -8.5t-8.5 -3.5h-89q-11 0 -11 12z" />
    <glyph glyph-name="J" unicode="J" horiz-adv-x="429" 
d="M59 33.5q-43 41.5 -43 111.5q0 10 2 28l9 74q1 5 5 8.5t9 3.5h89q5 0 8 -3.5t2 -8.5l-9 -76q-1 -5 -1 -14q0 -29 15.5 -47t42.5 -18q31 0 52 22t25 57l64 517q1 5 4.5 8.5t8.5 3.5h89q5 0 8 -3.5t2 -8.5l-63 -515q-10 -81 -65.5 -131t-136.5 -50q-74 0 -117 41.5z" />
    <glyph glyph-name="K" unicode="K" horiz-adv-x="463" 
d="M34 12l83 676q1 5 5 8.5t9 3.5h89q5 0 8 -3.5t2 -8.5l-34 -276q-1 -4 1.5 -4.5t4.5 2.5l180 281q5 9 15 9h96q9 0 9 -6q0 -3 -3 -8l-180 -281q-1 -4 -1 -6l110 -385v-3q0 -11 -11 -11h-96q-10 0 -12 9l-79 289q-1 3 -3 2.5t-4 -2.5l-47 -67q-1 -1 -2 -2.5t-1 -3.5
l-26 -213q-1 -5 -4.5 -8.5t-8.5 -3.5h-89q-11 0 -11 12z" />
    <glyph glyph-name="L" unicode="L" horiz-adv-x="403" 
d="M34 12l83 676q1 5 5 8.5t9 3.5h89q5 0 8 -3.5t2 -8.5l-72 -583q0 -5 5 -5h209q5 0 8 -3.5t2 -8.5l-9 -76q-1 -5 -4.5 -8.5t-8.5 -3.5h-315q-11 0 -11 12z" />
    <glyph glyph-name="M" unicode="M" horiz-adv-x="522" 
d="M438 700h89q5 0 8 -3.5t2 -8.5l-83 -676q0 -5 -4 -8.5t-9 -3.5h-89q-5 0 -8 3.5t-2 8.5l58 472q1 4 -1.5 4t-4.5 -3l-104 -158q-5 -8 -9 -8q-2 0 -4.5 2t-3.5 6l-65 158q-1 3 -3 3t-3 -4l-58 -472q-1 -5 -4.5 -8.5t-8.5 -3.5h-89q-5 0 -8 3.5t-2 8.5l83 676q0 5 4 8.5
t9 3.5h89q10 0 13 -8l74 -171q2 -5 5 0l114 171q5 8 15 8z" />
    <glyph glyph-name="N" unicode="N" horiz-adv-x="492" 
d="M397.5 696.5q3.5 3.5 8.5 3.5h88q5 0 8 -3.5t2 -8.5l-83 -676q0 -5 -4 -8.5t-9 -3.5h-101q-10 0 -12 10l-92 424q-1 3 -3.5 2.5t-2.5 -3.5l-51 -421q-1 -5 -4.5 -8.5t-8.5 -3.5h-88q-11 0 -11 12l83 676q1 5 5 8.5t9 3.5h99q10 0 12 -10l94 -421q0 -3 2.5 -2.5t3.5 3.5
l51 418q1 5 4.5 8.5z" />
    <glyph glyph-name="O" unicode="O" horiz-adv-x="453" 
d="M86 35q-44 43 -44 117q0 8 2 30l41 336q10 86 67.5 138t141.5 52q76 0 120 -42.5t44 -115.5q0 -10 -2 -32l-41 -336q-10 -86 -67.5 -138t-141.5 -52q-76 0 -120 43zM274 115.5q23 23.5 28 61.5l43 346q1 5 1 14q0 33 -17.5 52t-47.5 19q-33 0 -55.5 -23.5t-27.5 -61.5
l-42 -346q-1 -6 -1 -17q0 -31 16.5 -49.5t46.5 -18.5q33 0 56 23.5z" />
    <glyph glyph-name="P" unicode="P" horiz-adv-x="443" 
d="M421.5 654.5q40.5 -46.5 40.5 -122.5q0 -24 -2 -37q-10 -90 -63.5 -145t-128.5 -55h-82q-4 0 -6 -5l-34 -278q-1 -5 -4.5 -8.5t-8.5 -3.5h-89q-11 0 -11 12l84 677q0 5 4 8.5t9 3.5h182q69 0 109.5 -46.5zM316 414.5q25 28.5 32 77.5q1 8 1 23q0 40 -18 63t-50 23h-58
q-5 0 -5 -5l-25 -205q-2 -5 4 -5h58q36 0 61 28.5z" />
    <glyph glyph-name="Q" unicode="Q" horiz-adv-x="441" 
d="M403.5 663.5q42.5 -44.5 42.5 -118.5q0 -10 -2 -32l-40 -326q-8 -69 -46.5 -118.5t-96.5 -67.5q-4 -1 -4 -5l-11 -88q-1 -5 -4.5 -8.5t-8.5 -3.5h-90q-5 0 -8 3.5t-2 8.5l11 88q0 4 -3 5q-47 16 -73 57t-26 98q0 9 2 31l40 326q11 87 67 141t137 54q73 0 115.5 -44.5z
M333 525q1 5 1 15q0 31 -16 49.5t-43 18.5q-29 0 -51 -23t-26 -60l-43 -350q-1 -5 -1 -15q0 -31 15.5 -49.5t42.5 -18.5q31 0 52 23t26 60z" />
    <glyph glyph-name="R" unicode="R" horiz-adv-x="448" 
d="M290 10l-47 287q0 1 -1 2.5t-3 1.5h-52q-5 0 -5 -5l-35 -284q-1 -5 -4.5 -8.5t-8.5 -3.5h-89q-11 0 -11 12l83 676q1 5 5 8.5t9 3.5h182q70 0 110.5 -46.5t40.5 -123.5q0 -10 -2 -34q-8 -62 -37 -107t-73 -68q-4 -1 -4 -6l58 -301v-4q0 -10 -11 -10h-93q-10 0 -12 10z
M219 595l-25 -199q0 -5 4 -5h60q39 0 65.5 34.5t26.5 91.5q0 39 -18 61t-49 22h-59q-5 0 -5 -5z" />
    <glyph glyph-name="S" unicode="S" horiz-adv-x="421" 
d="M76 34q-43 42 -43 111q0 10 2 28l3 26q1 5 4.5 8.5t8.5 3.5h88q11 0 11 -12l-3 -20q-1 -5 -1 -16q0 -33 16 -52t42 -19q33 0 56.5 27t23.5 69q0 30 -18.5 52t-69.5 64q-40 33 -64.5 58t-41 59t-16.5 78q0 8 2 28q10 83 65 132t134 49q73 0 115.5 -42.5t42.5 -114.5
q0 -9 -2 -31l-2 -24q-1 -5 -5 -8.5t-9 -3.5h-87q-5 0 -8 3.5t-2 8.5l3 26q1 6 1 17q0 32 -16 50.5t-43 18.5q-32 0 -54.5 -25.5t-22.5 -69.5q0 -29 18 -52.5t65 -63.5q48 -40 74 -66t40 -55.5t14 -66.5q0 -9 -2 -29q-11 -86 -67 -137t-136 -51q-73 0 -116 42z" />
    <glyph glyph-name="T" unicode="T" horiz-adv-x="439" 
d="M475 696.5q3 -3.5 2 -8.5l-9 -76q-1 -5 -4.5 -8.5t-8.5 -3.5h-123q-4 0 -6 -5l-71 -583q-1 -5 -4.5 -8.5t-8.5 -3.5h-90q-5 0 -8 3.5t-2 8.5l72 583q0 5 -5 5h-116q-5 0 -8 3.5t-2 8.5l9 76q1 5 4.5 8.5t8.5 3.5h362q5 0 8 -3.5z" />
    <glyph glyph-name="U" unicode="U" horiz-adv-x="464" 
d="M94 37q-43 45 -43 122q0 11 2 35l61 494q0 5 4 8.5t9 3.5h89q5 0 8 -3.5t2 -8.5l-62 -506q-1 -6 -1 -18q0 -33 16.5 -52.5t44.5 -19.5q31 0 54 25t28 65l62 506q1 5 4.5 8.5t8.5 3.5h89q5 0 8 -3.5t2 -8.5l-60 -494q-11 -91 -68.5 -146.5t-140.5 -55.5q-74 0 -117 45z
" />
    <glyph glyph-name="V" unicode="V" horiz-adv-x="457" 
d="M148 11l-56 676v2q0 11 11 11h98q12 0 12 -11l21 -481q1 -3 3 -3t3 3l138 481q1 11 13 11h96q12 0 8 -13l-223 -676q-3 -11 -14 -11h-99q-11 0 -11 11z" />
    <glyph glyph-name="W" unicode="W" horiz-adv-x="645" 
d="M134 11l-46 676v2q0 11 12 11h93q11 0 11 -11l17 -417q0 -3 2 -3t3 3l113 417q3 11 14 11h77q12 0 12 -11l14 -417q1 -3 3 -3t3 3l112 417q3 11 14 11h91q5 0 7.5 -3.5t1.5 -9.5l-206 -676q-3 -11 -14 -11h-83q-11 0 -11 11l-13 425q0 4 -2 4t-4 -4l-112 -425
q-3 -11 -14 -11h-83q-12 0 -12 11z" />
    <glyph glyph-name="X" unicode="X" horiz-adv-x="447" 
d="M11 4q-2 4 1 10l174 333q2 3 1 6l-92 333l-1 4q0 10 11 10h92q11 0 12 -10l51 -217q0 -3 2.5 -3t3.5 3l103 217q5 10 14 10h91q7 0 8.5 -4t-1.5 -10l-174 -333l-1 -6l92 -333l1 -4q0 -10 -11 -10h-90q-10 0 -13 10l-50 216q0 3 -2 3t-3 -3l-105 -216q-3 -10 -14 -10h-92
q-6 0 -8 4z" />
    <glyph glyph-name="Y" unicode="Y" horiz-adv-x="443" 
d="M149 4.5q-3 3.5 -2 8.5l34 273l-1 6l-86 394v3q0 5 3 8t8 3h93q11 0 13 -10l41 -257q0 -3 2.5 -3t3.5 3l104 257q5 10 15 10h93q6 0 8.5 -3.5t-0.5 -10.5l-183 -394l-2 -6l-33 -273q-1 -5 -4.5 -8.5t-8.5 -3.5h-90q-5 0 -8 3.5z" />
    <glyph glyph-name="Z" unicode="Z" horiz-adv-x="394" 
d="M8 3.5q-3 3.5 -2 8.5l10 80q2 10 5 15l277 487q2 6 -2 6h-206q-5 0 -8 3.5t-2 8.5l9 76q1 5 4.5 8.5t8.5 3.5h319q5 0 8 -3.5t2 -8.5l-10 -80q-2 -10 -5 -15l-277 -487q-2 -6 2 -6h206q5 0 8 -3.5t2 -8.5l-9 -76q-1 -5 -4.5 -8.5t-8.5 -3.5h-319q-5 0 -8 3.5z" />
    <glyph glyph-name="bracketleft" unicode="[" horiz-adv-x="320" 
d="M-7 -134.5q-3 3.5 -2 8.5l111 905q1 5 5 8.5t9 3.5h180q5 0 8 -3.5t2 -8.5l-9 -76q-1 -5 -4.5 -8.5t-8.5 -3.5h-75q-5 0 -5 -5l-89 -718q0 -5 5 -5h74q5 0 8 -3.5t2 -8.5l-9 -77q-1 -5 -4.5 -8.5t-8.5 -3.5h-181q-5 0 -8 3.5z" />
    <glyph glyph-name="backslash" unicode="\" horiz-adv-x="375" 
d="M337 12q0 -12 -11 -12h-89q-9 0 -12 10l-116 676v2q0 5 3.5 8.5t8.5 3.5h89q9 0 11 -10l116 -676v-2z" />
    <glyph glyph-name="bracketright" unicode="]" horiz-adv-x="320" 
d="M253.5 -134.5q-3.5 -3.5 -8.5 -3.5h-179q-5 0 -8.5 3.5t-2.5 8.5l10 77q1 5 4.5 8.5t8.5 3.5h74q5 0 5 5l88 718q2 5 -4 5h-74q-5 0 -8 3.5t-2 8.5l9 76q1 5 5 8.5t9 3.5h179q5 0 8 -3.5t2 -8.5l-111 -905q-1 -5 -4.5 -8.5z" />
    <glyph glyph-name="asciicircum" unicode="^" horiz-adv-x="401" 
d="M48.5 305q-2.5 4 0.5 10l166 375q3 10 14 10h75q9 0 12 -10l74 -375v-3q0 -11 -12 -11h-71q-10 0 -12 10l-41 255q-1 3 -3 3.5t-3 -3.5l-105 -255q-5 -10 -14 -10h-72q-6 0 -8.5 4z" />
    <glyph glyph-name="underscore" unicode="_" horiz-adv-x="393" 
d="M1 3.5q-3 3.5 -2 8.5l8 65q0 5 4 8.5t9 3.5h336q5 0 8 -3.5t2 -8.5l-8 -65q0 -5 -4 -8.5t-9 -3.5h-336q-5 0 -8 3.5z" />
    <glyph glyph-name="grave" unicode="`" horiz-adv-x="199" 
d="M230 584q0 -9 -12 -9h-56q-9 0 -12 8l-59 102q-2 4 -2 6q0 4 3.5 6.5t8.5 2.5h70q10 0 13 -8l45 -103q1 -2 1 -5z" />
    <glyph glyph-name="a" unicode="a" horiz-adv-x="424" 
d="M313 507.5q4 3.5 9 3.5h89q5 0 8 -3.5t2 -8.5l-60 -487q-1 -5 -4.5 -8.5t-8.5 -3.5h-89q-5 0 -8 3.5t-2 8.5l4 30q0 4 -2 4t-4 -3q-38 -51 -100 -51q-56 0 -84.5 33.5t-28.5 93.5q0 24 2 36l25 202q10 77 48.5 119.5t102.5 42.5q27 0 50.5 -12t36.5 -39q2 -3 3.5 -3
t2.5 4l4 30q0 5 4 8.5zM244.5 111.5q18.5 19.5 22.5 51.5l23 185q1 4 1 13q0 26 -13.5 42t-36.5 16q-27 0 -45.5 -19.5t-22.5 -51.5l-23 -185q-1 -4 -1 -12q0 -27 14 -43t37 -16q26 0 44.5 19.5z" />
    <glyph glyph-name="b" unicode="b" horiz-adv-x="424" 
d="M382 485.5q31 -33.5 31 -94.5q0 -22 -2 -34l-24 -203q-9 -74 -50.5 -118t-106.5 -44q-52 0 -83 35q-2 2 -4 1t-2 -4l-2 -12q-1 -5 -4.5 -8.5t-8.5 -3.5h-89q-5 0 -8 3.5t-2 8.5l83 676q1 5 4.5 8.5t8.5 3.5h89q5 0 8 -3.5t2 -8.5l-25 -202q0 -3 2.5 -3.5t6.5 3.5
q38 33 89 33q56 0 87 -33.5zM300 360q0 26 -14.5 42.5t-38.5 16.5q-23 0 -40.5 -15.5t-24.5 -41.5l-26 -213q1 -26 14.5 -41.5t36.5 -15.5q27 0 46 19.5t23 51.5l23 185z" />
    <glyph glyph-name="c" unicode="c" horiz-adv-x="410" 
d="M74.5 28.5q-40.5 36.5 -40.5 100.5q0 8 2 26l25 202q9 73 61 117.5t131 44.5q73 0 114 -37t41 -97q0 -13 -1 -20l-2 -14q-1 -5 -4.5 -8.5t-8.5 -3.5l-90 -4q-11 0 -10 12l1 10q3 25 -11.5 43.5t-40.5 18.5t-45 -20t-23 -51l-23 -185l-1 -12q0 -26 14 -42.5t37 -16.5
q26 0 45.5 18.5t22.5 44.5l2 10q0 5 4 8.5t9 3.5l89 -1q5 0 8 -3.5t2 -8.5l-2 -18q-8 -69 -60 -111.5t-132 -42.5q-73 0 -113.5 36.5z" />
    <glyph glyph-name="d" unicode="d" horiz-adv-x="424" 
d="M336.5 696.5q3.5 3.5 8.5 3.5h89q5 0 8 -3.5t2 -8.5l-83 -676q-1 -5 -4.5 -8.5t-8.5 -3.5h-89q-5 0 -8 3.5t-2 8.5l1 12q1 3 -1 4t-4 -1q-40 -35 -92 -35q-57 0 -88 35t-31 95q0 10 2 32l25 203q10 76 51.5 119t105.5 43q22 0 44.5 -8.5t38.5 -27.5q2 -2 4 -1t2 4l25 202
q1 5 4.5 8.5zM241 107.5q18 15.5 25 41.5l26 213q-1 26 -14.5 41.5t-36.5 15.5q-27 0 -46 -19.5t-23 -51.5l-23 -185l-1 -12q0 -26 14 -42.5t38 -16.5q23 0 41 15.5z" />
    <glyph glyph-name="e" unicode="e" horiz-adv-x="413" 
d="M384 216.5q-4 -3.5 -9 -3.5h-214q-5 0 -5 -5l-6 -45l-1 -12q0 -26 14 -42.5t37 -16.5q22 0 39.5 14.5t26.5 37.5q4 10 14 10l86 -4q5 0 7.5 -3.5t1.5 -9.5q-15 -70 -63 -107.5t-124 -37.5q-73 0 -113.5 36.5t-40.5 100.5q0 7 2 25l25 203q9 73 61 117.5t131 44.5
q73 0 113 -37.5t40 -100.5q0 -16 -1 -24l-17 -132q0 -5 -4 -8.5zM196 399q-19 -20 -23 -51l-6 -45q0 -5 4 -5h110q5 0 5 5l6 45l1 12q0 26 -14 42.5t-38 16.5q-26 0 -45 -20z" />
    <glyph glyph-name="f" unicode="f" horiz-adv-x="282" 
d="M297 507.5q3 -3.5 2 -8.5l-7 -59q-1 -5 -4.5 -8.5t-8.5 -3.5h-61q-2 0 -3.5 -1.5t-1.5 -3.5l-51 -411q0 -5 -4 -8.5t-9 -3.5h-88q-5 0 -8 3.5t-2 8.5l50 411q2 5 -4 5h-31q-5 0 -8 3.5t-2 8.5l7 59q1 5 4.5 8.5t8.5 3.5h31q4 0 6 5l3 25q11 90 55 127t132 36h8
q5 0 8 -3.5t2 -8.5l-11 -68q0 -5 -4 -8.5t-9 -3.5h-5q-29 -1 -45 -19.5t-20 -56.5l-3 -20q0 -5 5 -5h60q5 0 8 -3.5z" />
    <glyph glyph-name="g" unicode="g" horiz-adv-x="418" 
d="M313 507.5q4 3.5 9 3.5h89q5 0 8 -3.5t2 -8.5l-59 -480q-13 -108 -68 -166.5t-177 -58.5q-21 0 -32 1q-10 1 -10 13l10 77q2 13 14 11q55 -1 86 14t45.5 44t20.5 76l1 11q1 3 -1 3.5t-4 -2.5q-38 -43 -97 -43q-57 0 -86 33.5t-29 94.5q0 10 2 34l24 196q10 77 49.5 119.5
t103.5 42.5q26 0 49 -10t37 -33q1 -3 3 -2.5t3 3.5l3 22q0 5 4 8.5zM245.5 118.5q18.5 19.5 22.5 50.5l22 179q1 4 1 13q0 26 -13.5 42t-36.5 16q-26 0 -45 -20t-23 -51l-22 -179q-1 -4 -1 -12q0 -26 14 -42t37 -16q26 0 44.5 19.5z" />
    <glyph glyph-name="h" unicode="h" horiz-adv-x="425" 
d="M384 486q28 -33 28 -95q0 -18 -3 -39l-42 -340q-1 -5 -4.5 -8.5t-8.5 -3.5h-89q-5 0 -8 3.5t-2 8.5l40 331q1 6 1 18q0 28 -12.5 43t-35.5 15q-28 0 -46 -20.5t-23 -58.5l-40 -328q-1 -5 -4.5 -8.5t-8.5 -3.5h-89q-5 0 -8 3.5t-2 8.5l83 676q1 5 4.5 8.5t8.5 3.5h89
q5 0 8 -3.5t2 -8.5l-25 -209q-1 -3 1.5 -3.5t5.5 3.5q37 40 97 40q55 0 83 -33z" />
    <glyph glyph-name="i" unicode="i" horiz-adv-x="208" 
d="M111.5 598q-16.5 17 -16.5 44q0 35 22.5 58t55.5 23q27 0 43.5 -16.5t16.5 -42.5q0 -35 -22.5 -59t-54.5 -24q-28 0 -44.5 17zM33 3.5q-3 3.5 -2 8.5l59 487q1 5 4.5 8.5t8.5 3.5h90q5 0 8 -3.5t2 -8.5l-60 -487q-1 -5 -4.5 -8.5t-8.5 -3.5h-89q-5 0 -8 3.5z" />
    <glyph glyph-name="j" unicode="j" horiz-adv-x="204" 
d="M108.5 598q-16.5 17 -16.5 44q0 35 22.5 58t55.5 23q27 0 43.5 -16.5t16.5 -42.5q0 -35 -22.5 -59t-54.5 -24q-28 0 -44.5 17zM-87 -201.5q-3 3.5 -2 8.5l10 75q0 5 3.5 8.5t9.5 3.5q42 1 63 24t26 66l63 515q1 5 5 8.5t9 3.5h89q5 0 8 -3.5t2 -8.5l-63 -515
q-9 -68 -26.5 -107.5t-61.5 -61t-127 -20.5q-5 0 -8 3.5z" />
    <glyph glyph-name="k" unicode="k" 
d="M29 3.5q-3 3.5 -2 8.5l83 676q1 5 4.5 8.5t8.5 3.5h89q5 0 8 -3.5t2 -8.5l-43 -356q-1 -4 1 -4t4 3l127 172q5 8 15 8h93q8 0 8 -7q0 -3 -3 -8l-120 -157q-4 -4 -2 -7l77 -318v-4q0 -10 -11 -10h-93q-9 0 -11 10l-44 226q0 3 -2 3.5t-4 -2.5l-54 -70q-2 -4 -2 -6
l-19 -149q-1 -5 -4.5 -8.5t-8.5 -3.5h-89q-5 0 -8 3.5z" />
    <glyph glyph-name="l" unicode="l" horiz-adv-x="193" 
d="M25 3.5q-3 3.5 -2 8.5l83 676q1 5 4.5 8.5t8.5 3.5h89q5 0 8 -3.5t2 -8.5l-83 -676q-1 -5 -4.5 -8.5t-8.5 -3.5h-89q-5 0 -8 3.5z" />
    <glyph glyph-name="m" unicode="m" horiz-adv-x="645" 
d="M603.5 485q27.5 -34 27.5 -97q0 -20 -3 -41l-42 -335q0 -5 -4 -8.5t-9 -3.5h-88q-5 0 -8 3.5t-2 8.5l40 327q1 7 1 18q0 30 -12 46t-34 16q-27 0 -45 -21t-22 -58l-41 -328q-1 -5 -4.5 -8.5t-8.5 -3.5h-88q-5 0 -8 3.5t-2 8.5l40 327q1 6 1 18q0 30 -12.5 46t-33.5 16
q-27 0 -45 -21t-22 -58l-41 -328q-1 -5 -4.5 -8.5t-8.5 -3.5h-88q-5 0 -8 3.5t-2 8.5l59 487q1 5 5 8.5t9 3.5h88q5 0 8 -3.5t2 -8.5l-2 -16q0 -3 1.5 -4t4.5 2q22 20 47 29t48 9q73 0 98 -63q3 -4 9 3q24 32 55.5 46t61.5 14q55 0 82.5 -34z" />
    <glyph glyph-name="n" unicode="n" horiz-adv-x="425" 
d="M384 486q28 -33 28 -95q0 -18 -3 -39l-42 -340q-1 -5 -4.5 -8.5t-8.5 -3.5h-89q-5 0 -8 3.5t-2 8.5l40 331q1 6 1 18q0 28 -12.5 43t-35.5 15q-28 0 -46 -20.5t-23 -58.5l-40 -328q-1 -5 -4.5 -8.5t-8.5 -3.5h-89q-5 0 -8 3.5t-2 8.5l59 487q1 5 5 8.5t9 3.5h89
q5 0 8 -3.5t2 -8.5l-2 -20q-1 -3 1.5 -3.5t5.5 3.5q37 40 97 40q55 0 83 -33z" />
    <glyph glyph-name="o" unicode="o" horiz-adv-x="419" 
d="M75 28.5q-41 36.5 -41 100.5q0 8 2 26l25 201q9 74 61 118.5t132 44.5q73 0 114 -37.5t41 -100.5q0 -7 -2 -25l-24 -201q-9 -75 -61 -119t-133 -44q-73 0 -114 36.5zM248 112.5q19 19.5 23 51.5l23 184l1 12q0 26 -14.5 42.5t-38.5 16.5q-27 0 -46 -19.5t-23 -51.5
l-23 -184l-1 -12q0 -27 14.5 -43t38.5 -16q27 0 46 19.5z" />
    <glyph glyph-name="p" unicode="p" horiz-adv-x="428" 
d="M386.5 484.5q30.5 -34.5 30.5 -94.5q0 -11 -2 -33l-24 -202q-10 -77 -51.5 -120t-105.5 -43q-22 0 -44.5 8.5t-38.5 27.5q-2 2 -4 1t-2 -4l-25 -202q-1 -5 -4.5 -8.5t-8.5 -3.5h-89q-11 0 -11 12l83 676q1 5 4.5 8.5t8.5 3.5h90q5 0 8 -3.5t2 -8.5l-2 -12q0 -3 2.5 -3.5
t6.5 3.5q37 32 88 32q58 0 88.5 -34.5zM304 360q0 27 -14.5 43.5t-38.5 16.5q-26 0 -44 -20t-23 -52l-22 -185q-1 -5 -1 -14q0 -26 13.5 -41.5t36.5 -15.5q27 0 46 19.5t23 51.5l23 185z" />
    <glyph glyph-name="q" unicode="q" horiz-adv-x="428" 
d="M313 507.5q4 3.5 9 3.5h89q5 0 8 -3.5t2 -8.5l-83 -676q-1 -5 -4.5 -8.5t-8.5 -3.5h-89q-5 0 -8 3.5t-2 8.5l24 202q1 3 -1 4t-4 -1q-21 -19 -45.5 -27.5t-46.5 -8.5q-57 0 -88 34.5t-31 96.5q0 10 2 32l25 202q9 75 50.5 118.5t106.5 43.5q52 0 83 -35q2 -2 4 -1t2 4
l2 12q0 5 4 8.5zM241 107.5q18 15.5 25 41.5l26 213q-1 27 -14.5 42.5t-36.5 15.5q-27 0 -46 -20t-23 -52l-23 -185l-1 -12q0 -26 14 -42.5t38 -16.5q23 0 41 15.5z" />
    <glyph glyph-name="r" unicode="r" horiz-adv-x="304" 
d="M331 507q7 -6 4 -15l-27 -93q-3 -12 -15 -7q-14 4 -24 4q-12 0 -22 -3q-27 -4 -47.5 -31.5t-25.5 -65.5l-35 -283q-1 -5 -4.5 -8.5t-8.5 -3.5h-89q-5 0 -8 3.5t-2 8.5l59 486q1 5 5 8.5t9 3.5h89q5 0 8 -3.5t2 -8.5l-6 -46q0 -4 2 -4.5t3 3.5q34 65 93 65q27 0 40 -10z
" />
    <glyph glyph-name="s" unicode="s" horiz-adv-x="386" 
d="M65.5 27q-40.5 33 -40.5 89q0 13 1 19l1 7q1 5 4.5 8.5t8.5 3.5h84q5 0 8 -3.5t2 -8.5l-1 -5q-3 -24 13 -40t42 -16q27 0 44.5 17.5t17.5 43.5q0 22 -17 35t-38 22l-28 12q-48 20 -78.5 49t-30.5 84q0 80 50 126.5t130 46.5q69 0 108 -34.5t39 -94.5q0 -8 -2 -24
q-1 -5 -4.5 -8.5t-8.5 -3.5h-81q-11 0 -11 12l1 6q3 24 -10.5 40t-38.5 16q-28 0 -45 -19.5t-17 -43.5t17.5 -36.5t59.5 -31.5q35 -15 59 -30t42 -41.5t18 -64.5q0 -75 -52 -120t-135 -45q-71 0 -111.5 33z" />
    <glyph glyph-name="t" unicode="t" horiz-adv-x="274" 
d="M282.5 432.5q-3.5 -3.5 -8.5 -3.5h-60q-4 0 -6 -5l-32 -262q-1 -7 -1 -18q0 -24 11 -34t33 -9h7q5 0 8 -3.5t2 -8.5l-9 -77q-1 -5 -5 -8.5t-9 -3.5h-33q-59 0 -89.5 19.5t-30.5 72.5q0 7 2 27l38 305q0 5 -5 5h-34q-5 0 -8 3.5t-2 8.5l7 58q1 5 4.5 8.5t8.5 3.5h34
q6 0 6 5l13 110q1 5 5 8.5t9 3.5h85q5 0 8 -3.5t2 -8.5l-13 -110q-2 -5 4 -5h60q5 0 8 -3.5t2 -8.5l-7 -58q-1 -5 -4.5 -8.5z" />
    <glyph glyph-name="u" unicode="u" horiz-adv-x="425" 
d="M315 507.5q4 3.5 9 3.5h89q5 0 8 -3.5t2 -8.5l-60 -487q-1 -5 -4.5 -8.5t-8.5 -3.5h-89q-5 0 -8 3.5t-2 8.5l2 22q1 3 -1 4t-4 -2q-34 -43 -96 -43q-52 0 -83.5 29t-31.5 90q0 8 2 30l44 357q0 5 4 8.5t9 3.5h89q5 0 8 -3.5t2 -8.5l-41 -332q-1 -7 -1 -18q0 -57 48 -57
q28 0 46.5 21.5t22.5 58.5l41 327q0 5 4 8.5z" />
    <glyph glyph-name="v" unicode="v" horiz-adv-x="403" 
d="M119 10l-59 489v2q0 11 13 11h99q11 0 11 -11l20 -311q0 -3 2.5 -3t3.5 3l95 311q3 11 14 11l99 -2q6 0 8.5 -3.5t0.5 -9.5l-177 -487q-4 -10 -15 -10h-103q-11 0 -12 10z" />
    <glyph glyph-name="w" unicode="w" horiz-adv-x="575" 
d="M107 3q-3 3 -3 8l-44 488v2q0 11 13 11h85q11 0 11 -11l12 -311q1 -3 3 -3t3 3l92 311q3 11 14 11h75q12 0 12 -11l16 -312q0 -3 2.5 -3t3.5 3l89 312q3 11 14 11l84 -2q12 0 8 -13l-163 -486q-3 -11 -14 -11h-87q-12 0 -12 11l-15 292q-1 3 -2.5 3t-3.5 -3l-86 -292
q-3 -11 -14 -11h-85q-5 0 -8 3z" />
    <glyph glyph-name="x" unicode="x" horiz-adv-x="404" 
d="M0 3.5q-2 3.5 2 10.5l142 239q1 3 0 6l-83 238q-1 2 -1 5q0 9 11 9h97q10 0 13 -9l43 -136q3 -6 6 0l78 136q5 9 15 9h97q6 0 8.5 -3.5t-1.5 -10.5l-142 -238l-1 -6l83 -239q1 -2 1 -5q0 -9 -11 -9h-97q-9 0 -13 9l-44 139q-1 5 -6 -1l-77 -138q-4 -9 -14 -9h-97
q-7 0 -9 3.5z" />
    <glyph glyph-name="y" unicode="y" horiz-adv-x="391" 
d="M-8.5 -195.5q-1.5 3.5 -0.5 8.5l8 72q1 5 4.5 8.5t7.5 3.5q32 1 51.5 8.5t33 29t23.5 62.5q0 1 -0.5 2.5t0.5 3.5l-62 496q0 13 13 13h95q11 0 11 -11l19 -331q0 -3 2 -3t3 3l98 331q3 11 14 11l96 -2q13 0 9 -13l-194 -525q-28 -71 -52.5 -106t-63 -50t-107.5 -15h-5
q-2 0 -3.5 3.5z" />
    <glyph glyph-name="z" unicode="z" horiz-adv-x="357" 
d="M7.5 3.5q-3.5 3.5 -2.5 8.5l11 85q0 8 6 15l202 288q3 6 -2 6h-153q-5 0 -8 3.5t-2 8.5l10 81q1 5 4.5 8.5t8.5 3.5h280q11 0 11 -12l-11 -85q0 -7 -6 -15l-207 -288q-3 -6 3 -6h165q11 0 11 -12l-10 -81q-1 -5 -4.5 -8.5t-8.5 -3.5h-289q-5 0 -8.5 3.5z" />
    <glyph glyph-name="braceleft" unicode="{" horiz-adv-x="309" 
d="M92 -114q-25 24 -25 71q0 7 2 25l26 211q1 8 1 23q0 60 -44 67q-10 2 -9 12l8 69q2 11 13 13q54 9 64 88l25 206q8 59 40 89.5t86 30.5h69q11 0 11 -12l-10 -76q-1 -5 -4.5 -8.5t-8.5 -3.5h-19q-22 0 -37.5 -18t-19.5 -49l-21 -173q-12 -91 -66 -118q-5 -3 -1 -6
q39 -24 39 -88q0 -10 -2 -32l-22 -177q-1 -5 -1 -15q0 -25 11 -38.5t30 -13.5h20q5 0 8 -3.5t2 -8.5l-10 -77q0 -5 -4 -8.5t-9 -3.5h-69q-48 0 -73 24z" />
    <glyph glyph-name="bar" unicode="|" horiz-adv-x="166" 
d="M-2 -68l101 816q0 5 4 8.5t9 3.5h89q5 0 8 -3.5t2 -8.5l-100 -816q-1 -5 -4.5 -8.5t-8.5 -3.5h-89q-11 0 -11 12z" />
    <glyph glyph-name="braceright" unicode="}" horiz-adv-x="309" 
d="M1 -138q-5 0 -8 3.5t-2 8.5l10 77q1 5 4.5 8.5t8.5 3.5h19q23 0 38.5 17.5t19.5 49.5l22 177q10 91 65 120q4 3 0 6q-37 23 -37 85q0 21 2 33l21 173q1 5 1 15q0 25 -11 38.5t-31 13.5h-20q-5 0 -8 3.5t-2 8.5l9 76q1 5 5 8.5t9 3.5h69q48 0 73.5 -24.5t25.5 -70.5
q0 -7 -2 -25l-25 -206q-2 -18 -2 -25q0 -55 43 -63q11 -2 10 -12l-9 -70q-1 -10 -12 -12q-54 -11 -63 -90l-26 -211q-7 -58 -40 -89t-87 -31h-70z" />
    <glyph glyph-name="asciitilde" unicode="~" horiz-adv-x="465" 
d="M282 220q-16 7 -41 22q-21 15 -34.5 22t-29.5 7q-39 0 -70 -38q-3 -5 -7.5 -6t-8.5 2l-44 30q-7 6 -3 16q21 43 57.5 70t78.5 27q21 0 37 -6.5t36 -19.5q24 -16 39.5 -24t35.5 -8q17 0 30.5 9.5t27.5 26.5q9 10 17 4l47 -33q8 -7 2 -16q-26 -40 -59.5 -66t-70.5 -26
q-24 0 -40 7z" />
    <glyph glyph-name="uni00A0" unicode="&#xa0;" horiz-adv-x="194" 
 />
    <glyph glyph-name="exclamdown" unicode="&#xa1;" horiz-adv-x="261" 
d="M242 691q17 -17 17 -44q0 -34 -22.5 -57t-55.5 -23q-28 0 -44.5 16.5t-16.5 43.5q0 34 23 57.5t55 23.5q27 0 44 -17zM127.5 470.5q3.5 3.5 8.5 3.5h67q5 0 8 -3.5t2 -8.5l-43 -440q-1 -5 -5 -8.5t-9 -3.5h-89q-5 0 -8 3.5t-2 8.5l66 440q1 5 4.5 8.5z" />
    <glyph glyph-name="cent" unicode="&#xa2;" horiz-adv-x="410" 
d="M411.5 432.5q-3.5 -3.5 -8.5 -3.5l-90 -4q-11 0 -10 12l1 10q3 26 -11.5 44t-40.5 18t-45 -20t-23 -51l-23 -185l-1 -12q0 -26 14 -42.5t37 -16.5q26 0 45.5 18.5t22.5 44.5l2 10q0 5 4 8.5t9 3.5l89 -1q5 0 8 -3.5t2 -8.5l-2 -18q-8 -58 -45 -97.5t-97 -51.5
q-5 -2 -5 -6l-6 -68q-1 -5 -4.5 -8.5t-8.5 -3.5h-72q-5 0 -8 3.5t-2 8.5l11 68q1 4 -3 6q-50 10 -77.5 44.5t-27.5 86.5q0 9 2 27l24 202q8 60 45.5 102t96.5 55q5 2 5 6l6 68q1 5 4.5 8.5t8.5 3.5h72q5 0 8 -3.5t2 -8.5l-11 -68q-1 -4 3 -6q51 -11 79 -45t28 -83
q0 -14 -1 -21l-2 -14q-1 -5 -4.5 -8.5z" />
    <glyph glyph-name="sterling" unicode="&#xa3;" horiz-adv-x="496" 
d="M199 102q1 -2 3 -2h252q5 0 8 -3.5t2 -8.5l-10 -76q0 -5 -4 -8.5t-9 -3.5h-366q-5 0 -8 3.5t-2 8.5l9 79q1 9 9 15q35 32 44 103l9 81q2 5 -4 5h-51q-5 0 -8 3.5t-2 8.5l8 70q1 5 4.5 8.5t8.5 3.5h52q5 0 5 5l13 104q12 99 65.5 154.5t135.5 55.5q67 0 104.5 -39.5
t44.5 -114.5v-3q0 -10 -10 -11l-88 -11h-2q-10 0 -10 11q-3 35 -16 51.5t-37 16.5q-63 0 -75 -105l-13 -109q-2 -5 4 -5h130q5 0 8 -3.5t2 -8.5l-8 -70q-1 -5 -5 -8.5t-9 -3.5h-129q-6 0 -6 -5l-10 -80q-9 -68 -38 -104q-2 -2 -1 -4z" />
    <glyph glyph-name="currency" unicode="&#xa4;" horiz-adv-x="530" 
d="M476.5 259.5q-11.5 -34.5 -31.5 -63.5q-2 -5 0 -7l54 -64q4 -4 4 -7q0 -5 -6 -10l-61 -50q-4 -4 -9 -4t-8 4l-52 61q-2 3 -7 1q-49 -29 -106 -29q-55 0 -96 26q-4 2 -7 -1l-64 -58q-4 -4 -9 -4t-8 4l-49 50q-3 3 -3 7q0 5 5 10l66 59q3 3 1 7q-20 38 -20 86q0 70 44 132
q3 4 0 7l-53 64q-3 3 -3 8t5 9l60 49q4 4 9 4t8 -4l51 -60q1 -3 6 -1q52 29 109 29q60 0 103 -32q4 -1 7 1l69 63q4 4 9 4t8 -4l49 -49q3 -3 3 -7q0 -5 -5 -10l-75 -68q-2 -2 -1 -7q15 -38 15 -76q0 -35 -11.5 -69.5zM197 217.5q28 -28.5 69 -28.5q32 0 60.5 17.5t46 47
t17.5 63.5q0 42 -27.5 70.5t-68.5 28.5q-32 0 -61 -17.5t-46.5 -47t-17.5 -63.5q0 -42 28 -70.5z" />
    <glyph glyph-name="yen" unicode="&#xa5;" horiz-adv-x="512" 
d="M511.5 696.5q2.5 -3.5 -0.5 -10.5l-159 -343q-3 -6 3 -6h101q5 0 8 -3.5t2 -8.5l-5 -42q-1 -5 -5 -8.5t-9 -3.5h-118q-5 0 -5 -5l-6 -47q0 -5 4 -5h118q11 0 11 -12l-6 -42q0 -5 -4 -8.5t-9 -3.5h-118q-5 0 -5 -5l-16 -130q-1 -5 -5 -8.5t-9 -3.5h-89q-5 0 -8 3.5t-2 8.5
l16 130q0 5 -4 5h-118q-5 0 -8 3.5t-2 8.5l5 42q1 5 5 8.5t9 3.5h117q5 0 5 5l6 47q2 5 -4 5h-117q-11 0 -11 12l6 42q0 5 4 8.5t9 3.5h100q2 0 3.5 1.5t0.5 4.5l-75 343v3q0 5 3 8t8 3h93q11 0 13 -10l41 -257q0 -3 2.5 -3t3.5 3l104 257q5 10 15 10h93q6 0 8.5 -3.5z" />
    <glyph glyph-name="brokenbar" unicode="&#xa6;" horiz-adv-x="166" 
d="M58 388.5q-3 3.5 -2 8.5l43 351q0 5 4 8.5t9 3.5h89q5 0 8 -3.5t2 -8.5l-43 -351q-1 -5 -4.5 -8.5t-8.5 -3.5h-89q-5 0 -8 3.5zM-2 -68l43 347q1 5 4.5 8.5t8.5 3.5h89q11 0 11 -12l-43 -347q-1 -5 -4.5 -8.5t-8.5 -3.5h-89q-11 0 -11 12z" />
    <glyph glyph-name="section" unicode="&#xa7;" horiz-adv-x="407" 
d="M50.5 -166.5q-40.5 37.5 -40.5 100.5q0 8 2 24l2 15q1 5 4.5 8.5t8.5 3.5h89q5 0 8.5 -3.5t2.5 -8.5l-1 -7q-1 -4 -1 -13q0 -26 13 -41.5t35 -15.5q26 0 45.5 23t19.5 54q0 22 -13.5 39.5t-30 28.5t-50.5 30q-40 23 -62.5 45t-32.5 55q-6 23 -6 47q0 38 9 66.5t30 54.5
q26 34 59 50q6 4 1 7q-63 54 -63 127q0 52 25 94t68.5 66.5t97.5 24.5q68 0 108.5 -38.5t40.5 -103.5q0 -8 -2 -26l-1 -11q-1 -5 -4.5 -8.5t-8.5 -3.5h-89q-5 0 -8 3.5t-2 8.5v6q1 4 1 13q0 27 -13 43.5t-34 16.5q-29 0 -47.5 -24.5t-18.5 -58.5q0 -30 18.5 -49.5
t59.5 -42.5q44 -24 67 -40.5t38 -41.5q17 -31 17 -66q0 -31 -8.5 -60.5t-23.5 -52.5q-28 -46 -69 -63q-6 -4 -1 -7q29 -23 45 -51t16 -66q0 -55 -25 -98t-69 -67t-98 -24q-68 0 -108.5 37.5zM237.5 178.5q12.5 7.5 23.5 24.5q12 22 15 49q1 6 1 16q0 24 -10 38
q-6 11 -17 17.5t-24 6.5q-16 0 -30 -9.5t-22 -22.5q-12 -21 -15 -48q-1 -5 -1 -17q0 -18 5 -31q10 -31 44 -31q18 0 30.5 7.5z" />
    <glyph glyph-name="dieresis" unicode="&#xa8;" horiz-adv-x="336" 
d="M259 598q-17 17 -17 44q0 35 23 58t56 23q27 0 43.5 -16.5t16.5 -43.5q0 -35 -23 -58.5t-54 -23.5q-28 0 -45 17zM92 598q-17 17 -17 44q0 35 23 58t56 23q27 0 43.5 -16.5t16.5 -43.5q0 -35 -23 -58.5t-54 -23.5q-28 0 -45 17z" />
    <glyph glyph-name="copyright" unicode="&#xa9;" horiz-adv-x="782" 
d="M210 31.5q-70 39.5 -109 110t-39 159.5q0 26 3 51q12 100 67.5 181t141 128t184.5 47q91 0 162 -39.5t110 -110t39 -158.5q0 -24 -3 -48q-12 -101 -68 -183.5t-142 -129.5t-185 -47q-91 0 -161 39.5zM529 96.5q70 38.5 115.5 106t55.5 149.5q2 13 2 39q0 71 -32 128.5
t-89 90t-131 32.5q-81 0 -150.5 -38t-114.5 -104.5t-55 -147.5q-3 -21 -3 -41q0 -73 32 -130.5t89 -90t131 -32.5q80 0 150 38.5zM335.5 200.5q-21.5 20.5 -21.5 55.5q0 10 1 15l19 155q4 41 32.5 65.5t69.5 24.5q38 0 60.5 -20.5t22.5 -55.5q0 -9 -1 -14v-1q-1 -5 -4.5 -9
t-8.5 -4l-38 -2q-11 0 -10 12l1 9q2 13 -6 22t-23 9q-13 0 -23 -9t-12 -22l-20 -165q-1 -14 6 -22.5t21 -8.5q16 0 25.5 8.5t11.5 22.5l1 8q1 5 4.5 8.5t8.5 3.5l37 -2q5 0 8 -3.5t2 -8.5v-1q-5 -41 -34 -66t-70 -25q-38 0 -59.5 20.5z" />
    <glyph glyph-name="ordfeminine" unicode="&#xaa;" horiz-adv-x="278" 
d="M220 565q5 0 5 5l3 21q2 24 -6 38t-27 14q-13 0 -24 -7.5t-16 -20.5q-4 -10 -14 -10l-52 2q-5 0 -7.5 3.5t-1.5 9.5q9 39 42.5 63.5t78.5 24.5q48 0 75.5 -24.5t27.5 -67.5q0 -12 -1 -18l-27 -220q-1 -5 -4.5 -8.5t-8.5 -3.5h-51q-11 0 -11 11l1 2q0 3 -1.5 4t-4.5 -2
q-21 -20 -58 -20q-35 0 -60.5 17.5t-25.5 62.5q0 14 1 21q7 58 42 80.5t94 22.5h31zM195 435q15 12 18 34l3 30q2 5 -4 5h-31q-24 0 -39 -13t-15 -37q0 -31 34 -31q19 0 34 12zM38 313.5q4 3.5 9 3.5h220q5 0 8 -3.5t2 -8.5l-5 -39q-1 -5 -4.5 -8.5t-8.5 -3.5h-220
q-5 0 -8 3.5t-2 8.5l5 39q0 5 4 8.5z" />
    <glyph glyph-name="guillemotleft" unicode="&#xab;" horiz-adv-x="450" 
d="M234 116q0 -9 -11 -9h-78q-9 0 -14 8l-64 158q-2 4 -2 7q0 5 3 9l104 158q6 8 16 8h77q10 0 10 -6q0 -3 -3 -8l-106 -157q-2 -4 -1 -6l68 -157q1 -2 1 -5zM386 115q0 -8 -11 -8h-78q-4 0 -8 2t-5 6l-65 158q-2 4 -2 6q0 4 4 10l104 158q5 8 15 8h78q6 0 8.5 -4t-1.5 -10
l-107 -157q-1 -2 -1 -6l68 -157q1 -2 1 -6z" />
    <glyph glyph-name="logicalnot" unicode="&#xac;" horiz-adv-x="426" 
d="M421 352.5q3 -3.5 2 -8.5l-8 -69l-1 -7h-1l-11 -88q-1 -5 -4.5 -8.5t-8.5 -3.5h-63q-5 0 -8 3.5t-2 8.5l10 83q2 5 -4 5h-271q-5 0 -8 3.5t-2 8.5l8 64q1 5 4.5 8.5t8.5 3.5h351q5 0 8 -3.5z" />
    <glyph glyph-name="uni00AD" unicode="&#xad;" horiz-adv-x="315" 
d="M41 254.5q-3 3.5 -2 8.5l9 76q1 5 5 8.5t9 3.5h239q5 0 8 -3.5t2 -8.5l-9 -76q-1 -5 -4.5 -8.5t-8.5 -3.5h-240q-5 0 -8 3.5z" />
    <glyph glyph-name="registered" unicode="&#xae;" horiz-adv-x="422" 
d="M368.5 689q39.5 -22 61.5 -60.5t22 -86.5q0 -63 -30.5 -116t-81.5 -83t-110 -30q-50 0 -89 22.5t-61 62t-22 89.5q0 61 30.5 112.5t81 81.5t109.5 30q50 0 89.5 -22zM312.5 383.5q35.5 19.5 59 54t28.5 77.5q1 6 1 19q0 55 -35.5 91t-92.5 36q-44 0 -81.5 -23
t-59.5 -61.5t-22 -83.5q0 -57 35 -93t92 -36q40 0 75.5 19.5zM295 501q-3 -2 -2 -6l15 -59v-3q0 -11 -12 -11h-18q-9 0 -12 10l-14 58q0 4 -4 4h-6q-5 0 -5 -5l-7 -55q-1 -5 -4.5 -8.5t-8.5 -3.5h-17q-5 0 -8 3.5t-2 8.5l20 159q0 5 4 8.5t9 3.5h54q23 0 36 -13.5t13 -34.5
q0 -40 -31 -56zM246 565l-4 -35q-2 -5 4 -5h15q10 0 16.5 6.5t7.5 15.5v5q0 18 -18 18h-16q-5 0 -5 -5z" />
    <glyph glyph-name="macron" unicode="&#xaf;" horiz-adv-x="379" 
d="M139 598l7 56q1 5 4.5 8.5t8.5 3.5h185q5 0 8 -3.5t2 -8.5l-7 -56q-1 -5 -4.5 -8.5t-8.5 -3.5h-184q-11 0 -11 12z" />
    <glyph glyph-name="degree" unicode="&#xb0;" horiz-adv-x="348" 
d="M114 519q-39 41 -39 103q0 50 24.5 93t65.5 68t88 25q61 0 100.5 -40t39.5 -101q0 -50 -25 -93.5t-66.5 -69.5t-88.5 -26q-60 0 -99 41zM289.5 584.5q28.5 29.5 28.5 71.5q0 33 -21 55t-53 22q-38 0 -66.5 -29.5t-28.5 -71.5q0 -33 21 -55t52 -22q39 0 67.5 29.5z" />
    <glyph glyph-name="plusminus" unicode="&#xb1;" horiz-adv-x="426" 
d="M429 415.5q3 -3.5 2 -8.5l-8 -64q-1 -5 -4.5 -8.5t-8.5 -3.5h-128q-4 0 -6 -5l-16 -132q-1 -5 -4.5 -8.5t-8.5 -3.5h-62q-5 0 -8 3.5t-2 8.5l16 132q0 5 -4 5h-128q-11 0 -11 12l8 64q1 5 4.5 8.5t8.5 3.5h128q6 0 6 5l16 132q1 5 4.5 8.5t8.5 3.5h62q5 0 8 -3.5t2 -8.5
l-16 -132q0 -5 4 -5h129q5 0 8 -3.5zM12 21.5q-3 3.5 -2 8.5l8 64q1 5 4.5 8.5t8.5 3.5h351q5 0 8 -3.5t2 -8.5l-7 -64q-1 -5 -5 -8.5t-9 -3.5h-351q-5 0 -8 3.5z" />
    <glyph glyph-name="uni00B2" unicode="&#xb2;" horiz-adv-x="251" 
d="M53 428.5q-3 3.5 -2 8.5l5 46q2 10 7 15l34 40q62 72 88 107q22 32 33 56.5t11 45.5q0 18 -8 27.5t-21 9.5q-15 0 -25.5 -12.5t-13.5 -32.5l-2 -19q-1 -5 -4.5 -8.5t-8.5 -3.5h-51q-5 0 -8.5 3.5t-2.5 8.5l3 22q8 51 41 79.5t82 28.5q43 0 68.5 -23.5t25.5 -71.5
q0 -37 -11.5 -68t-35.5 -66q-27 -39 -94 -124q-2 -2 -1.5 -4t3.5 -2h104q5 0 8 -3.5t2 -8.5l-5 -42q-1 -5 -4.5 -8.5t-8.5 -3.5h-200q-5 0 -8 3.5z" />
    <glyph glyph-name="uni00B3" unicode="&#xb3;" horiz-adv-x="267" 
d="M291 557q-3 -28 -11 -51q-9 -40 -39 -63t-73 -23q-46 0 -72.5 27t-24.5 71q0 9 2 27q2 12 14 12h50q10 0 10 -10l-1 -17q0 -44 30 -44q24 0 37 33q8 23 10 46q3 26 2 41q-2 37 -30 37q-8 0 -13 -4q-5 -3 -9 -3t-7 4l-21 27q-3 5 -3 8q0 5 4 9l81 89q2 2 1 4t-4 2h-104
q-11 0 -11 12l6 42q0 5 4 8.5t9 3.5h184q5 0 8 -3.5t2 -8.5l-5 -46q-1 -7 -7 -15l-66 -76q-3 -5 1 -6q23 -6 36 -31.5t13 -57.5q0 -18 -3 -44z" />
    <glyph glyph-name="acute" unicode="&#xb4;" horiz-adv-x="199" 
d="M75 581q0 4 3 8l69 103q5 8 16 8h70q9 0 9 -7q0 -3 -3 -8l-85 -103q-5 -7 -14 -7h-55q-10 0 -10 6z" />
    <glyph glyph-name="uni00B5" unicode="&#xb5;" horiz-adv-x="429" 
d="M319 507.5q4 3.5 9 3.5h89q5 0 8 -3.5t2 -8.5l-60 -487q-1 -5 -4.5 -8.5t-8.5 -3.5h-89q-5 0 -8 3.5t-2 8.5l2 22q1 3 -1 4t-4 -2q-34 -43 -96 -43h-14q-4 1 -6 -4l-21 -177q-1 -5 -4.5 -8.5t-8.5 -3.5h-90q-5 0 -8 3.5t-2 8.5l84 687q1 5 5 8.5t9 3.5h89q5 0 8 -3.5
t2 -8.5l-41 -332q-1 -7 -1 -19q0 -56 48 -56q28 0 46.5 21.5t22.5 58.5l40 327q1 5 5 8.5z" />
    <glyph glyph-name="paragraph" unicode="&#xb6;" horiz-adv-x="484" 
d="M486 700q5 0 8 -3.5t2 -8.5l-108 -876q-1 -5 -4.5 -8.5t-8.5 -3.5h-71q-5 0 -8 3.5t-2 8.5l97 788q0 5 -4 5h-56q-5 0 -5 -5l-97 -788q-1 -5 -4.5 -8.5t-8.5 -3.5h-72q-5 0 -8 3.5t-2 8.5l53 435q1 4 -3 6q-58 11 -90.5 59.5t-32.5 121.5q0 27 2 41q8 64 36.5 115.5
t73.5 80.5t99 29h214z" />
    <glyph glyph-name="periodcentered" unicode="&#xb7;" horiz-adv-x="208" 
d="M67 232q-17 17 -17 44q0 35 23 58t56 23q27 0 43.5 -16.5t16.5 -43.5q0 -35 -23 -58.5t-54 -23.5q-28 0 -45 17z" />
    <glyph glyph-name="cedilla" unicode="&#xb8;" horiz-adv-x="136" 
d="M-34 -169l9 36q3 11 15 9q14 -2 25 4.5t16 23.5q2 10 2 16q0 31 -29 65q-4 6 -4 8q0 7 11 7h47q10 0 14 -6q33 -39 33 -83q0 -20 -6 -39q-12 -33 -35.5 -47t-52.5 -14q-18 0 -38 6q-10 3 -7 14z" />
    <glyph glyph-name="uni00B9" unicode="&#xb9;" horiz-adv-x="148" 
d="M143 845h56q5 0 8 -3.5t2 -8.5l-49 -396q-1 -5 -4.5 -8.5t-8.5 -3.5h-51q-11 0 -11 12l41 334q1 2 -0.5 4t-3.5 1l-19 -4h-3q-10 0 -8 11l4 33q2 10 11 14l21 11q10 4 15 4z" />
    <glyph glyph-name="ordmasculine" unicode="&#xba;" horiz-adv-x="281" 
d="M88 384q-27 24 -27 67q0 11 1 17l17 133q5 48 40 77.5t88 29.5q49 0 76 -25t27 -67q0 -10 -1 -15l-17 -133q-6 -50 -40 -79t-88 -29q-49 0 -76 24zM203.5 439.5q13.5 13.5 15.5 33.5l15 121q2 21 -8 34.5t-27 13.5t-30.5 -13.5t-16.5 -34.5l-14 -121q-3 -20 7 -33.5
t28 -13.5q17 0 30.5 13.5zM34 258.5q-3 3.5 -2 8.5l5 39q0 5 4 8.5t9 3.5h220q5 0 8 -3.5t2 -8.5l-5 -39q-1 -5 -4.5 -8.5t-8.5 -3.5h-220q-5 0 -8 3.5z" />
    <glyph glyph-name="guillemotright" unicode="&#xbb;" horiz-adv-x="450" 
d="M53 113q0 4 3 8l105 157q2 4 1 6l-67 157q-1 2 -1 5q0 9 11 9h77q9 0 14 -8l65 -158q1 -2 1 -6q0 -5 -3 -10l-104 -158q-6 -8 -16 -8h-76q-10 0 -10 6zM205 113q0 4 3 8l105 157q2 4 1 6l-67 157q-1 2 -1 5q0 9 11 9h77q9 0 14 -8l65 -158q1 -2 1 -6q0 -5 -3 -10
l-104 -158q-6 -8 -16 -8h-76q-10 0 -10 6z" />
    <glyph glyph-name="onequarter" unicode="&#xbc;" horiz-adv-x="676" 
d="M125 700h56q5 0 8 -3.5t2 -8.5l-49 -396q-1 -5 -4.5 -8.5t-8.5 -3.5h-51q-11 0 -11 12l41 334q1 2 -0.5 4t-3.5 1l-19 -4h-3q-10 0 -8 11l4 33q2 10 11 14l21 11q10 4 15 4zM43 6q0 4 3 8l485 678q5 8 15 8h57q9 0 9 -6q0 -3 -3 -8l-486 -678q-4 -8 -14 -8h-57q-9 0 -9 6
zM666 173.5q3 -3.5 2 -8.5l-6 -45q-1 -5 -4.5 -8.5t-8.5 -3.5h-11q-6 0 -6 -5l-11 -91q-1 -5 -4.5 -8.5t-8.5 -3.5h-51q-5 0 -8 3.5t-2 8.5l11 91q2 5 -4 5h-134q-5 0 -8 3.5t-2 8.5l4 36l4 15l107 239q5 10 14 10h55q6 0 8.5 -3.5t-0.5 -10.5l-96 -223q-1 -6 3 -6h54
q2 0 3.5 1.5t1.5 3.5l8 61q0 5 4 8.5t9 3.5h50q5 0 8 -3.5t2 -8.5l-7 -61q-2 -5 4 -5h12q5 0 8 -3.5z" />
    <glyph glyph-name="onehalf" unicode="&#xbd;" horiz-adv-x="661" 
d="M125 700h56q5 0 8 -3.5t2 -8.5l-49 -396q-1 -5 -4.5 -8.5t-8.5 -3.5h-51q-11 0 -11 12l41 334q1 2 -0.5 4t-3.5 1l-19 -4h-3q-10 0 -8 11l4 33q2 10 11 14l21 11q10 4 15 4zM43 6q0 4 3 8l485 678q5 8 15 8h57q9 0 9 -6q0 -3 -3 -8l-486 -678q-4 -8 -14 -8h-57q-9 0 -9 6
zM412 3.5q-3 3.5 -2 8.5l5 46q2 10 7 15l34 40q62 72 88 107q22 32 33 56.5t11 45.5q0 18 -8 27.5t-21 9.5q-15 0 -25.5 -12.5t-13.5 -32.5l-2 -19q-1 -5 -4.5 -8.5t-8.5 -3.5h-51q-5 0 -8.5 3.5t-2.5 8.5l3 22q8 51 41 79.5t82 28.5q43 0 68.5 -23.5t25.5 -71.5
q0 -37 -11.5 -68t-35.5 -66q-27 -39 -94 -124q-2 -2 -1.5 -4t3.5 -2h104q5 0 8 -3.5t2 -8.5l-5 -42q-1 -5 -4.5 -8.5t-8.5 -3.5h-200q-5 0 -8 3.5z" />
    <glyph glyph-name="threequarters" unicode="&#xbe;" horiz-adv-x="748" 
d="M273 411q-3 -28 -11 -51q-9 -40 -39 -63t-73 -23q-46 0 -72.5 27t-24.5 71q0 9 2 27q2 12 14 12h50q10 0 10 -10l-1 -17q0 -44 30 -44q24 0 37 33q8 23 10 46q3 26 2 41q-2 37 -30 37q-8 0 -13 -4q-5 -3 -9 -3t-7 4l-21 27q-3 5 -3 8q0 5 4 9l81 89q2 2 1 4t-4 2h-104
q-11 0 -11 12l6 42q0 5 4 8.5t9 3.5h184q5 0 8 -3.5t2 -8.5l-5 -46q-1 -7 -7 -15l-66 -76q-3 -5 1 -6q23 -6 36 -31.5t13 -57.5q0 -18 -3 -44zM115 6q0 4 3 8l485 678q5 8 15 8h57q9 0 9 -6q0 -3 -3 -8l-486 -678q-4 -8 -14 -8h-57q-9 0 -9 6zM738 173.5q3 -3.5 2 -8.5
l-6 -45q-1 -5 -4.5 -8.5t-8.5 -3.5h-11q-6 0 -6 -5l-11 -91q-1 -5 -4.5 -8.5t-8.5 -3.5h-51q-5 0 -8 3.5t-2 8.5l11 91q2 5 -4 5h-134q-5 0 -8 3.5t-2 8.5l4 36l4 15l107 239q5 10 14 10h55q6 0 8.5 -3.5t-0.5 -10.5l-96 -223q-1 -6 3 -6h54q2 0 3.5 1.5t1.5 3.5l8 61
q0 5 4 8.5t9 3.5h50q5 0 8 -3.5t2 -8.5l-7 -61q-2 -5 4 -5h12q5 0 8 -3.5z" />
    <glyph glyph-name="questiondown" unicode="&#xbf;" horiz-adv-x="401" 
d="M299.5 484q16.5 -17 16.5 -44q0 -35 -22.5 -57.5t-55.5 -22.5q-28 0 -44.5 16t-16.5 44q0 34 23 57.5t56 23.5q27 0 43.5 -17zM282 282.5q3 -3.5 2 -8.5l-5 -41q-6 -47 -27.5 -76t-62.5 -64q-39 -32 -58 -58.5t-19 -68.5q0 -32 15 -51t40 -19q31 0 52.5 25t26.5 64l3 21
q1 11 13 11l89 -4q5 0 8 -4t2 -9l-2 -15q-7 -57 -35.5 -101.5t-73.5 -69t-99 -24.5q-72 0 -113 42t-41 114q0 10 2 32q8 63 34 99t70 73q31 26 46 44.5t18 45.5l4 34q1 5 4.5 8.5t8.5 3.5h90q5 0 8 -3.5z" />
    <glyph glyph-name="Agrave" unicode="&#xc0;" horiz-adv-x="443" 
d="M297 11l-5 105q0 5 -6 5h-141q-5 0 -7 -5l-31 -105q-3 -11 -14 -11h-88q-13 0 -9 13l226 676q3 11 14 11h103q11 0 11 -11l61 -676v-2q0 -11 -12 -11h-91q-11 0 -11 11zM173 212h107q6 0 6 5l-18 316q0 3 -2 3t-4 -3l-94 -316q-1 -5 5 -5zM333 773q0 -9 -12 -9h-56
q-9 0 -12 8l-59 102q-2 4 -2 6q0 4 3.5 6.5t8.5 2.5h70q10 0 13 -8l45 -103q1 -2 1 -5z" />
    <glyph glyph-name="Aacute" unicode="&#xc1;" horiz-adv-x="443" 
d="M297 11l-5 105q0 5 -6 5h-141q-5 0 -7 -5l-31 -105q-3 -11 -14 -11h-88q-13 0 -9 13l226 676q3 11 14 11h103q11 0 11 -11l61 -676v-2q0 -11 -12 -11h-91q-11 0 -11 11zM173 212h107q6 0 6 5l-18 316q0 3 -2 3t-4 -3l-94 -316q-1 -5 5 -5zM242 770q0 4 3 8l69 103
q5 8 16 8h70q9 0 9 -7q0 -3 -3 -8l-85 -103q-5 -7 -14 -7h-55q-10 0 -10 6z" />
    <glyph glyph-name="Acircumflex" unicode="&#xc2;" horiz-adv-x="443" 
d="M297 11l-5 105q0 5 -6 5h-141q-5 0 -7 -5l-31 -105q-3 -11 -14 -11h-88q-13 0 -9 13l226 676q3 11 14 11h103q11 0 11 -11l61 -676v-2q0 -11 -12 -11h-91q-11 0 -11 11zM173 212h107q6 0 6 5l-18 316q0 3 -2 3t-4 -3l-94 -316q-1 -5 5 -5zM167 770q0 4 3 8l74 103
q5 8 14 8h100q10 0 13 -8l51 -103q2 -4 2 -6q0 -8 -11 -8h-68q-9 0 -14 8l-25 63q-2 5 -6 0l-41 -63q-6 -8 -16 -8h-67q-9 0 -9 6z" />
    <glyph glyph-name="Atilde" unicode="&#xc3;" horiz-adv-x="443" 
d="M297 11l-5 105q0 5 -6 5h-141q-5 0 -7 -5l-31 -105q-3 -11 -14 -11h-88q-13 0 -9 13l226 676q3 11 14 11h103q11 0 11 -11l61 -676v-2q0 -11 -12 -11h-91q-11 0 -11 11zM173 212h107q6 0 6 5l-18 316q0 3 -2 3t-4 -3l-94 -316q-1 -5 5 -5zM337 787.5q-11 4.5 -26 14.5
q-7 4 -14 9t-12.5 7.5t-13.5 2.5q-21 0 -39 -23q-9 -10 -17 -4l-29 23q-7 6 -3 16q17 32 40.5 47.5t48.5 15.5q16 0 28.5 -6t28.5 -17q4 -3 11 -8t13.5 -8t14.5 -3q23 0 40 22q7 12 16 5l29 -22q3 -3 3 -8q0 -6 -6 -15q-19 -28 -43 -40.5t-46 -12.5q-13 0 -24 4.5z" />
    <glyph glyph-name="Adieresis" unicode="&#xc4;" horiz-adv-x="443" 
d="M297 11l-5 105q0 5 -6 5h-141q-5 0 -7 -5l-31 -105q-3 -11 -14 -11h-88q-13 0 -9 13l226 676q3 11 14 11h103q11 0 11 -11l61 -676v-2q0 -11 -12 -11h-91q-11 0 -11 11zM173 212h107q6 0 6 5l-18 316q0 3 -2 3t-4 -3l-94 -316q-1 -5 5 -5zM335 787q-17 17 -17 44
q0 35 23 58t56 23q27 0 43.5 -16.5t16.5 -43.5q0 -35 -23 -58.5t-54 -23.5q-28 0 -45 17zM168 787q-17 17 -17 44q0 35 23 58t56 23q27 0 43.5 -16.5t16.5 -43.5q0 -35 -23 -58.5t-54 -23.5q-28 0 -45 17z" />
    <glyph glyph-name="Aring" unicode="&#xc5;" horiz-adv-x="443" 
d="M297 11l-5 105q0 5 -6 5h-141q-5 0 -7 -5l-31 -105q-3 -11 -14 -11h-88q-13 0 -9 13l226 676q3 11 14 11h103q11 0 11 -11l61 -676v-2q0 -11 -12 -11h-91q-11 0 -11 11zM173 212h107q6 0 6 5l-18 316q0 3 -2 3t-4 -3l-94 -316q-1 -5 5 -5zM222 786q-28 29 -28 74
q0 36 18 67t47.5 49t64.5 18q44 0 72 -29t28 -73q0 -37 -18 -68t-47.5 -49t-63.5 -18q-45 0 -73 29zM344 839q18 19 18 45q0 21 -12.5 34.5t-32.5 13.5q-24 0 -42.5 -18t-18.5 -44q0 -21 13.5 -35.5t33.5 -14.5q23 0 41 19z" />
    <glyph glyph-name="AE" unicode="&#xc6;" horiz-adv-x="713" 
d="M733.5 603.5q-3.5 -3.5 -8.5 -3.5h-209q-5 0 -5 -5l-24 -189q0 -5 5 -5h123q5 0 8 -3.5t2 -8.5l-10 -77q0 -5 -4 -8.5t-9 -3.5h-123q-5 0 -5 -5l-24 -190q0 -5 5 -5h208q5 0 8 -3.5t2 -8.5l-9 -76q-1 -5 -4.5 -8.5t-8.5 -3.5h-315q-11 0 -11 12l13 104q2 5 -4 5h-158
q-4 0 -6 -4l-55 -108q-4 -9 -15 -9h-94q-7 0 -8.5 4t1.5 10l360 677q5 9 15 9h363q5 0 8 -3.5t2 -8.5l-9 -76q-1 -5 -4.5 -8.5zM221 214q1 -2 3 -2h121q5 0 6 5l40 319q0 4 -2 4t-4 -3l-164 -319q-1 -2 0 -4z" />
    <glyph glyph-name="Ccedilla" unicode="&#xc7;" horiz-adv-x="444" 
d="M446 500q-4 -4 -9 -4l-90 -4q-12 0 -11 12l3 25q1 5 1 14q0 30 -16.5 47.5t-45.5 17.5q-31 0 -52.5 -22t-26.5 -57l-44 -358q-1 -5 -1 -14q0 -30 16.5 -47.5t44.5 -17.5q32 0 54 22t27 57l3 25q0 5 4 8.5t9 3.5l89 -4q11 0 11 -12l-2 -12q-9 -73 -53 -122t-110 -62
q-6 -2 -3 -6q26 -36 26 -75q0 -20 -6 -39q-11 -33 -35 -47t-53 -14q-19 0 -39 6q-9 3 -6 14l9 35q3 12 15 10q14 -2 25 4.5t16 23.5q2 5 2 16q0 34 -32 69l-5 3q-57 11 -88.5 51.5t-31.5 102.5q0 10 2 30l42 341q10 86 66.5 136.5t139.5 50.5q75 0 119 -42t44 -115
q0 -10 -2 -30l-2 -12q0 -5 -4 -9z" />
    <glyph glyph-name="Egrave" unicode="&#xc8;" horiz-adv-x="422" 
d="M442.5 603.5q-3.5 -3.5 -8.5 -3.5h-210q-5 0 -5 -5l-24 -189q0 -5 5 -5h124q5 0 8 -3.5t2 -8.5l-10 -77q0 -5 -4 -8.5t-9 -3.5h-124q-5 0 -5 -5l-24 -190q0 -5 5 -5h209q5 0 8 -3.5t2 -8.5l-9 -76q-1 -5 -4.5 -8.5t-8.5 -3.5h-315q-11 0 -11 12l83 676q1 5 5 8.5t9 3.5
h315q5 0 8 -3.5t2 -8.5l-9 -76q-1 -5 -4.5 -8.5zM334 773q0 -9 -12 -9h-56q-9 0 -12 8l-59 102q-2 4 -2 6q0 4 3.5 6.5t8.5 2.5h70q10 0 13 -8l45 -103q1 -2 1 -5z" />
    <glyph glyph-name="Eacute" unicode="&#xc9;" horiz-adv-x="422" 
d="M442.5 603.5q-3.5 -3.5 -8.5 -3.5h-210q-5 0 -5 -5l-24 -189q0 -5 5 -5h124q5 0 8 -3.5t2 -8.5l-10 -77q0 -5 -4 -8.5t-9 -3.5h-124q-5 0 -5 -5l-24 -190q0 -5 5 -5h209q5 0 8 -3.5t2 -8.5l-9 -76q-1 -5 -4.5 -8.5t-8.5 -3.5h-315q-11 0 -11 12l83 676q1 5 5 8.5t9 3.5
h315q5 0 8 -3.5t2 -8.5l-9 -76q-1 -5 -4.5 -8.5zM243 770q0 4 3 8l69 103q5 8 16 8h70q9 0 9 -7q0 -3 -3 -8l-85 -103q-5 -7 -14 -7h-55q-10 0 -10 6z" />
    <glyph glyph-name="Ecircumflex" unicode="&#xca;" horiz-adv-x="422" 
d="M442.5 603.5q-3.5 -3.5 -8.5 -3.5h-210q-5 0 -5 -5l-24 -189q0 -5 5 -5h124q5 0 8 -3.5t2 -8.5l-10 -77q0 -5 -4 -8.5t-9 -3.5h-124q-5 0 -5 -5l-24 -190q0 -5 5 -5h209q5 0 8 -3.5t2 -8.5l-9 -76q-1 -5 -4.5 -8.5t-8.5 -3.5h-315q-11 0 -11 12l83 676q1 5 5 8.5t9 3.5
h315q5 0 8 -3.5t2 -8.5l-9 -76q-1 -5 -4.5 -8.5zM168 770q0 4 3 8l74 103q5 8 14 8h100q10 0 13 -8l51 -103q2 -4 2 -6q0 -8 -11 -8h-68q-9 0 -14 8l-25 63q-2 5 -6 0l-41 -63q-6 -8 -16 -8h-67q-9 0 -9 6z" />
    <glyph glyph-name="Edieresis" unicode="&#xcb;" horiz-adv-x="422" 
d="M442.5 603.5q-3.5 -3.5 -8.5 -3.5h-210q-5 0 -5 -5l-24 -189q0 -5 5 -5h124q5 0 8 -3.5t2 -8.5l-10 -77q0 -5 -4 -8.5t-9 -3.5h-124q-5 0 -5 -5l-24 -190q0 -5 5 -5h209q5 0 8 -3.5t2 -8.5l-9 -76q-1 -5 -4.5 -8.5t-8.5 -3.5h-315q-11 0 -11 12l83 676q1 5 5 8.5t9 3.5
h315q5 0 8 -3.5t2 -8.5l-9 -76q-1 -5 -4.5 -8.5zM336 787q-17 17 -17 44q0 35 23 58t56 23q27 0 43.5 -16.5t16.5 -43.5q0 -35 -23 -58.5t-54 -23.5q-28 0 -45 17zM169 787q-17 17 -17 44q0 35 23 58t56 23q27 0 43.5 -16.5t16.5 -43.5q0 -35 -23 -58.5t-54 -23.5
q-28 0 -45 17z" />
    <glyph glyph-name="Igrave" unicode="&#xcc;" horiz-adv-x="218" 
d="M34 12l83 676q1 5 5 8.5t9 3.5h89q5 0 8 -3.5t2 -8.5l-83 -676q-1 -5 -4.5 -8.5t-8.5 -3.5h-89q-11 0 -11 12zM220 773q0 -9 -12 -9h-56q-9 0 -12 8l-59 102q-2 4 -2 6q0 4 3.5 6.5t8.5 2.5h70q10 0 13 -8l45 -103q1 -2 1 -5z" />
    <glyph glyph-name="Iacute" unicode="&#xcd;" horiz-adv-x="218" 
d="M34 12l83 676q1 5 5 8.5t9 3.5h89q5 0 8 -3.5t2 -8.5l-83 -676q-1 -5 -4.5 -8.5t-8.5 -3.5h-89q-11 0 -11 12zM129 770q0 4 3 8l69 103q5 8 16 8h70q9 0 9 -7q0 -3 -3 -8l-85 -103q-5 -7 -14 -7h-55q-10 0 -10 6z" />
    <glyph glyph-name="Icircumflex" unicode="&#xce;" horiz-adv-x="218" 
d="M34 12l83 676q1 5 5 8.5t9 3.5h89q5 0 8 -3.5t2 -8.5l-83 -676q-1 -5 -4.5 -8.5t-8.5 -3.5h-89q-11 0 -11 12zM55 770q0 4 3 8l74 103q5 8 14 8h100q10 0 13 -8l51 -103q2 -4 2 -6q0 -8 -11 -8h-68q-9 0 -14 8l-25 63q-2 5 -6 0l-41 -63q-6 -8 -16 -8h-67q-9 0 -9 6z" />
    <glyph glyph-name="Idieresis" unicode="&#xcf;" horiz-adv-x="218" 
d="M34 12l83 676q1 5 5 8.5t9 3.5h89q5 0 8 -3.5t2 -8.5l-83 -676q-1 -5 -4.5 -8.5t-8.5 -3.5h-89q-11 0 -11 12zM223 787q-17 17 -17 44q0 35 23 58t56 23q27 0 43.5 -16.5t16.5 -43.5q0 -35 -23 -58.5t-54 -23.5q-28 0 -45 17zM56 787q-17 17 -17 44q0 35 23 58t56 23
q27 0 43.5 -16.5t16.5 -43.5q0 -35 -23 -58.5t-54 -23.5q-28 0 -45 17z" />
    <glyph glyph-name="Eth" unicode="&#xd0;" horiz-adv-x="492" 
d="M448.5 657.5q43.5 -42.5 43.5 -115.5q0 -11 -2 -33l-39 -318q-11 -87 -67 -139t-140 -52h-165q-11 0 -11 12l39 315q0 5 -4 5h-18q-5 0 -8 3.5t-2 8.5l6 44q0 5 4 8.5t9 3.5h17q4 0 6 5l34 283q1 5 5 8.5t9 3.5h165q75 0 118.5 -42.5zM377 502q1 7 1 20q0 37 -16.5 57.5
t-46.5 20.5h-57q-5 0 -5 -5l-24 -190q0 -5 4 -5h49q5 0 8 -3.5t2 -8.5l-5 -44q-1 -5 -4.5 -8.5t-8.5 -3.5h-49q-5 0 -5 -5l-28 -222q0 -5 5 -5l58 1q32 0 55 26.5t30 70.5z" />
    <glyph glyph-name="Ntilde" unicode="&#xd1;" horiz-adv-x="492" 
d="M397.5 696.5q3.5 3.5 8.5 3.5h88q5 0 8 -3.5t2 -8.5l-83 -676q0 -5 -4 -8.5t-9 -3.5h-101q-10 0 -12 10l-92 424q-1 3 -3.5 2.5t-2.5 -3.5l-51 -421q-1 -5 -4.5 -8.5t-8.5 -3.5h-88q-11 0 -11 12l83 676q1 5 5 8.5t9 3.5h99q10 0 12 -10l94 -421q0 -3 2.5 -2.5t3.5 3.5
l51 418q1 5 4.5 8.5zM361 791.5q-11 4.5 -26 14.5q-7 4 -14 9t-12.5 7.5t-13.5 2.5q-21 0 -39 -23q-9 -10 -17 -4l-29 23q-7 6 -3 16q17 32 40.5 47.5t48.5 15.5q16 0 28.5 -6t28.5 -17q4 -3 11 -8t13.5 -8t14.5 -3q23 0 40 22q7 12 16 5l29 -22q3 -3 3 -8q0 -6 -6 -15
q-19 -28 -43 -40.5t-46 -12.5q-13 0 -24 4.5z" />
    <glyph glyph-name="Ograve" unicode="&#xd2;" horiz-adv-x="453" 
d="M86 35q-44 43 -44 117q0 8 2 30l41 336q10 86 67.5 138t141.5 52q76 0 120 -42.5t44 -115.5q0 -10 -2 -32l-41 -336q-10 -86 -67.5 -138t-141.5 -52q-76 0 -120 43zM274 115.5q23 23.5 28 61.5l43 346q1 5 1 14q0 33 -17.5 52t-47.5 19q-33 0 -55.5 -23.5t-27.5 -61.5
l-42 -346q-1 -6 -1 -17q0 -31 16.5 -49.5t46.5 -18.5q33 0 56 23.5zM337 772q0 -9 -12 -9h-56q-9 0 -12 8l-59 102q-2 4 -2 6q0 4 3.5 6.5t8.5 2.5h70q10 0 13 -8l45 -103q1 -2 1 -5z" />
    <glyph glyph-name="Oacute" unicode="&#xd3;" horiz-adv-x="453" 
d="M86 35q-44 43 -44 117q0 8 2 30l41 336q10 86 67.5 138t141.5 52q76 0 120 -42.5t44 -115.5q0 -10 -2 -32l-41 -336q-10 -86 -67.5 -138t-141.5 -52q-76 0 -120 43zM274 115.5q23 23.5 28 61.5l43 346q1 5 1 14q0 33 -17.5 52t-47.5 19q-33 0 -55.5 -23.5t-27.5 -61.5
l-42 -346q-1 -6 -1 -17q0 -31 16.5 -49.5t46.5 -18.5q33 0 56 23.5zM246 769q0 4 3 8l69 103q5 8 16 8h70q9 0 9 -7q0 -3 -3 -8l-85 -103q-5 -7 -14 -7h-55q-10 0 -10 6z" />
    <glyph glyph-name="Ocircumflex" unicode="&#xd4;" horiz-adv-x="453" 
d="M86 35q-44 43 -44 117q0 8 2 30l41 336q10 86 67.5 138t141.5 52q76 0 120 -42.5t44 -115.5q0 -10 -2 -32l-41 -336q-10 -86 -67.5 -138t-141.5 -52q-76 0 -120 43zM274 115.5q23 23.5 28 61.5l43 346q1 5 1 14q0 33 -17.5 52t-47.5 19q-33 0 -55.5 -23.5t-27.5 -61.5
l-42 -346q-1 -6 -1 -17q0 -31 16.5 -49.5t46.5 -18.5q33 0 56 23.5zM172 769q0 4 3 8l74 103q5 8 14 8h100q10 0 13 -8l51 -103q2 -4 2 -6q0 -8 -11 -8h-68q-9 0 -14 8l-25 63q-2 5 -6 0l-41 -63q-6 -8 -16 -8h-67q-9 0 -9 6z" />
    <glyph glyph-name="Otilde" unicode="&#xd5;" horiz-adv-x="453" 
d="M86 35q-44 43 -44 117q0 8 2 30l41 336q10 86 67.5 138t141.5 52q76 0 120 -42.5t44 -115.5q0 -10 -2 -32l-41 -336q-10 -86 -67.5 -138t-141.5 -52q-76 0 -120 43zM274 115.5q23 23.5 28 61.5l43 346q1 5 1 14q0 33 -17.5 52t-47.5 19q-33 0 -55.5 -23.5t-27.5 -61.5
l-42 -346q-1 -6 -1 -17q0 -31 16.5 -49.5t46.5 -18.5q33 0 56 23.5zM342 786.5q-11 4.5 -26 14.5q-7 4 -14 9t-12.5 7.5t-13.5 2.5q-21 0 -39 -23q-9 -10 -17 -4l-29 23q-7 6 -3 16q17 32 40.5 47.5t48.5 15.5q16 0 28.5 -6t28.5 -17q4 -3 11 -8t13.5 -8t14.5 -3q23 0 40 22
q7 12 16 5l29 -22q3 -3 3 -8q0 -6 -6 -15q-19 -28 -43 -40.5t-46 -12.5q-13 0 -24 4.5z" />
    <glyph glyph-name="Odieresis" unicode="&#xd6;" horiz-adv-x="453" 
d="M86 35q-44 43 -44 117q0 8 2 30l41 336q10 86 67.5 138t141.5 52q76 0 120 -42.5t44 -115.5q0 -10 -2 -32l-41 -336q-10 -86 -67.5 -138t-141.5 -52q-76 0 -120 43zM274 115.5q23 23.5 28 61.5l43 346q1 5 1 14q0 33 -17.5 52t-47.5 19q-33 0 -55.5 -23.5t-27.5 -61.5
l-42 -346q-1 -6 -1 -17q0 -31 16.5 -49.5t46.5 -18.5q33 0 56 23.5zM340 786q-17 17 -17 44q0 35 23 58t56 23q27 0 43.5 -16.5t16.5 -43.5q0 -35 -23 -58.5t-54 -23.5q-28 0 -45 17zM173 786q-17 17 -17 44q0 35 23 58t56 23q27 0 43.5 -16.5t16.5 -43.5q0 -35 -23 -58.5
t-54 -23.5q-28 0 -45 17z" />
    <glyph glyph-name="multiply" unicode="&#xd7;" horiz-adv-x="377" 
d="M378 417q0 -5 -5 -10l-101 -92q-3 -3 -1 -8l79 -93q3 -4 3 -7q0 -5 -6 -10l-50 -46q-6 -4 -8 -4t-8 4l-78 93q-2 2 -4 2t-4 -2l-102 -93q-4 -4 -8 -4q-5 0 -8 4l-39 46q-3 3 -3 7t5 9l102 94q5 4 1 8l-78 92q-4 4 -4 7q0 6 6 10l50 46q4 4 8 4t7 -4l79 -93q2 -2 4 -2t4 2
l102 93q4 4 8 4t7 -4l39 -46q3 -3 3 -7z" />
    <glyph glyph-name="Oslash" unicode="&#xd8;" horiz-adv-x="579" 
d="M488 695l-39 -72l-1 -6q12 -30 12 -68q0 -9 -2 -31l-41 -336q-10 -86 -67.5 -138t-141.5 -52q-57 0 -95 23q-3 3 -7 -2l-28 -50q-5 -10 -16 -5l-47 26q-5 3 -5 8q0 3 3 8l42 77q2 5 1 6q-12 30 -12 68q0 9 2 31l41 336q10 86 67.5 138t140.5 52q59 0 96 -24q3 -3 7 2
l28 50q7 12 16 5l43 -30q9 -7 3 -16zM172 295q-1 -4 1.5 -4t4.5 3l157 281q3 3 1 7q-19 26 -53 26q-32 0 -55 -23.5t-28 -61.5zM332 405q1 4 -1.5 4t-4.5 -3l-157 -281q-3 -3 -1 -7q20 -26 52 -26q33 0 56 23.5t28 61.5z" />
    <glyph glyph-name="Ugrave" unicode="&#xd9;" horiz-adv-x="464" 
d="M94 37q-43 45 -43 122q0 11 2 35l61 494q0 5 4 8.5t9 3.5h89q5 0 8 -3.5t2 -8.5l-62 -506q-1 -6 -1 -18q0 -33 16.5 -52.5t44.5 -19.5q31 0 54 25t28 65l62 506q1 5 4.5 8.5t8.5 3.5h89q5 0 8 -3.5t2 -8.5l-60 -494q-11 -91 -68.5 -146.5t-140.5 -55.5q-74 0 -117 45z
M343 773q0 -9 -12 -9h-56q-9 0 -12 8l-59 102q-2 4 -2 6q0 4 3.5 6.5t8.5 2.5h70q10 0 13 -8l45 -103q1 -2 1 -5z" />
    <glyph glyph-name="Uacute" unicode="&#xda;" horiz-adv-x="464" 
d="M94 37q-43 45 -43 122q0 11 2 35l61 494q0 5 4 8.5t9 3.5h89q5 0 8 -3.5t2 -8.5l-62 -506q-1 -6 -1 -18q0 -33 16.5 -52.5t44.5 -19.5q31 0 54 25t28 65l62 506q1 5 4.5 8.5t8.5 3.5h89q5 0 8 -3.5t2 -8.5l-60 -494q-11 -91 -68.5 -146.5t-140.5 -55.5q-74 0 -117 45z
M252 770q0 4 3 8l69 103q5 8 16 8h70q9 0 9 -7q0 -3 -3 -8l-85 -103q-5 -7 -14 -7h-55q-10 0 -10 6z" />
    <glyph glyph-name="Ucircumflex" unicode="&#xdb;" horiz-adv-x="464" 
d="M94 37q-43 45 -43 122q0 11 2 35l61 494q0 5 4 8.5t9 3.5h89q5 0 8 -3.5t2 -8.5l-62 -506q-1 -6 -1 -18q0 -33 16.5 -52.5t44.5 -19.5q31 0 54 25t28 65l62 506q1 5 4.5 8.5t8.5 3.5h89q5 0 8 -3.5t2 -8.5l-60 -494q-11 -91 -68.5 -146.5t-140.5 -55.5q-74 0 -117 45z
M178 770q0 4 3 8l74 103q5 8 14 8h100q10 0 13 -8l51 -103q2 -4 2 -6q0 -8 -11 -8h-68q-9 0 -14 8l-25 63q-2 5 -6 0l-41 -63q-6 -8 -16 -8h-67q-9 0 -9 6z" />
    <glyph glyph-name="Udieresis" unicode="&#xdc;" horiz-adv-x="464" 
d="M94 37q-43 45 -43 122q0 11 2 35l61 494q0 5 4 8.5t9 3.5h89q5 0 8 -3.5t2 -8.5l-62 -506q-1 -6 -1 -18q0 -33 16.5 -52.5t44.5 -19.5q31 0 54 25t28 65l62 506q1 5 4.5 8.5t8.5 3.5h89q5 0 8 -3.5t2 -8.5l-60 -494q-11 -91 -68.5 -146.5t-140.5 -55.5q-74 0 -117 45z
M346 787q-17 17 -17 44q0 35 23 58t56 23q27 0 43.5 -16.5t16.5 -43.5q0 -35 -23 -58.5t-54 -23.5q-28 0 -45 17zM179 787q-17 17 -17 44q0 35 23 58t56 23q27 0 43.5 -16.5t16.5 -43.5q0 -35 -23 -58.5t-54 -23.5q-28 0 -45 17z" />
    <glyph glyph-name="Yacute" unicode="&#xdd;" horiz-adv-x="443" 
d="M149 4.5q-3 3.5 -2 8.5l34 273l-1 6l-86 394v3q0 5 3 8t8 3h93q11 0 13 -10l41 -257q0 -3 2.5 -3t3.5 3l104 257q5 10 15 10h93q6 0 8.5 -3.5t-0.5 -10.5l-183 -394l-2 -6l-33 -273q-1 -5 -4.5 -8.5t-8.5 -3.5h-90q-5 0 -8 3.5zM242 770q0 4 3 8l69 103q5 8 16 8h70
q9 0 9 -7q0 -3 -3 -8l-85 -103q-5 -7 -14 -7h-55q-10 0 -10 6z" />
    <glyph glyph-name="Thorn" unicode="&#xde;" horiz-adv-x="443" 
d="M403.5 508.5q40.5 -46.5 40.5 -124.5q0 -23 -2 -36q-10 -91 -63.5 -146t-129.5 -55h-82q-2 0 -3.5 -1.5t-1.5 -3.5l-16 -130q-1 -5 -4.5 -8.5t-8.5 -3.5h-89q-11 0 -11 12l83 676q1 5 5 8.5t9 3.5h89q5 0 8 -3.5t2 -8.5l-16 -128q0 -5 5 -5h76q69 0 109.5 -46.5zM298 268
q25 28 32 78q1 8 1 22q0 41 -18 63.5t-50 22.5h-58q-5 0 -5 -5l-25 -204q-2 -5 4 -5h58q36 0 61 28z" />
    <glyph glyph-name="germandbls" unicode="&#xdf;" horiz-adv-x="436" 
d="M29 4.5q-3 3.5 -2 8.5l59 480q13 103 64 159t132 56q74 0 114.5 -41.5t40.5 -114.5q0 -9 -2 -31q-11 -101 -80 -142q-6 -3 -1 -6q26 -19 40 -52.5t14 -79.5q0 -19 -3 -40q-12 -95 -67.5 -148t-144.5 -53h-12q-5 0 -8 3.5t-2 8.5l9 75q1 5 5 8.5t9 3.5l11 1q37 0 61 29.5
t31 83.5q2 22 2 30q0 40 -15 61.5t-42 23.5h-14q-5 0 -8 3.5t-2 8.5l9 67q0 5 4 8.5t9 3.5h11q33 0 53.5 30.5t20.5 83.5q0 37 -14 56.5t-40 19.5q-28 0 -46.5 -25.5t-24.5 -72.5l-61 -499q-1 -5 -4.5 -8.5t-8.5 -3.5l-89 1q-5 0 -8 3.5z" />
    <glyph glyph-name="agrave" unicode="&#xe0;" 
d="M313 507.5q4 3.5 9 3.5h89q5 0 8 -3.5t2 -8.5l-60 -487q-1 -5 -4.5 -8.5t-8.5 -3.5h-89q-5 0 -8 3.5t-2 8.5l4 30q0 4 -2 4t-4 -3q-38 -51 -100 -51q-56 0 -84.5 33.5t-28.5 93.5q0 24 2 36l25 202q10 77 48.5 119.5t102.5 42.5q27 0 50.5 -12t36.5 -39q2 -3 3.5 -3
t2.5 4l4 30q0 5 4 8.5zM244.5 111.5q18.5 19.5 22.5 51.5l23 185q1 4 1 13q0 26 -13.5 42t-36.5 16q-27 0 -45.5 -19.5t-22.5 -51.5l-23 -185q-1 -4 -1 -12q0 -27 14 -43t37 -16q26 0 44.5 19.5zM298 584q0 -9 -12 -9h-56q-9 0 -12 8l-59 102q-2 4 -2 6q0 4 3.5 6.5t8.5 2.5
h70q10 0 13 -8l45 -103q1 -2 1 -5z" />
    <glyph glyph-name="aacute" unicode="&#xe1;" 
d="M313 507.5q4 3.5 9 3.5h89q5 0 8 -3.5t2 -8.5l-60 -487q-1 -5 -4.5 -8.5t-8.5 -3.5h-89q-5 0 -8 3.5t-2 8.5l4 30q0 4 -2 4t-4 -3q-38 -51 -100 -51q-56 0 -84.5 33.5t-28.5 93.5q0 24 2 36l25 202q10 77 48.5 119.5t102.5 42.5q27 0 50.5 -12t36.5 -39q2 -3 3.5 -3
t2.5 4l4 30q0 5 4 8.5zM244.5 111.5q18.5 19.5 22.5 51.5l23 185q1 4 1 13q0 26 -13.5 42t-36.5 16q-27 0 -45.5 -19.5t-22.5 -51.5l-23 -185q-1 -4 -1 -12q0 -27 14 -43t37 -16q26 0 44.5 19.5zM208 581q0 4 3 8l69 103q5 8 16 8h70q9 0 9 -7q0 -3 -3 -8l-85 -103
q-5 -7 -14 -7h-55q-10 0 -10 6z" />
    <glyph glyph-name="acircumflex" unicode="&#xe2;" 
d="M313 507.5q4 3.5 9 3.5h89q5 0 8 -3.5t2 -8.5l-60 -487q-1 -5 -4.5 -8.5t-8.5 -3.5h-89q-5 0 -8 3.5t-2 8.5l4 30q0 4 -2 4t-4 -3q-38 -51 -100 -51q-56 0 -84.5 33.5t-28.5 93.5q0 24 2 36l25 202q10 77 48.5 119.5t102.5 42.5q27 0 50.5 -12t36.5 -39q2 -3 3.5 -3
t2.5 4l4 30q0 5 4 8.5zM244.5 111.5q18.5 19.5 22.5 51.5l23 185q1 4 1 13q0 26 -13.5 42t-36.5 16q-27 0 -45.5 -19.5t-22.5 -51.5l-23 -185q-1 -4 -1 -12q0 -27 14 -43t37 -16q26 0 44.5 19.5zM133 581q0 4 3 8l74 103q5 8 14 8h100q10 0 13 -8l51 -103q2 -4 2 -6
q0 -8 -11 -8h-68q-9 0 -14 8l-25 63q-2 5 -6 0l-41 -63q-6 -8 -16 -8h-67q-9 0 -9 6z" />
    <glyph glyph-name="atilde" unicode="&#xe3;" 
d="M313 507.5q4 3.5 9 3.5h89q5 0 8 -3.5t2 -8.5l-60 -487q-1 -5 -4.5 -8.5t-8.5 -3.5h-89q-5 0 -8 3.5t-2 8.5l4 30q0 4 -2 4t-4 -3q-38 -51 -100 -51q-56 0 -84.5 33.5t-28.5 93.5q0 24 2 36l25 202q10 77 48.5 119.5t102.5 42.5q27 0 50.5 -12t36.5 -39q2 -3 3.5 -3
t2.5 4l4 30q0 5 4 8.5zM244.5 111.5q18.5 19.5 22.5 51.5l23 185q1 4 1 13q0 26 -13.5 42t-36.5 16q-27 0 -45.5 -19.5t-22.5 -51.5l-23 -185q-1 -4 -1 -12q0 -27 14 -43t37 -16q26 0 44.5 19.5zM303 598.5q-11 4.5 -26 14.5q-7 4 -14 9t-12.5 7.5t-13.5 2.5q-21 0 -39 -23
q-9 -10 -17 -4l-29 23q-7 6 -3 16q17 32 40.5 47.5t48.5 15.5q16 0 28.5 -6t28.5 -17q4 -3 11 -8t13.5 -8t14.5 -3q23 0 40 22q7 12 16 5l29 -22q3 -3 3 -8q0 -6 -6 -15q-19 -28 -43 -40.5t-46 -12.5q-13 0 -24 4.5z" />
    <glyph glyph-name="adieresis" unicode="&#xe4;" 
d="M313 507.5q4 3.5 9 3.5h89q5 0 8 -3.5t2 -8.5l-60 -487q-1 -5 -4.5 -8.5t-8.5 -3.5h-89q-5 0 -8 3.5t-2 8.5l4 30q0 4 -2 4t-4 -3q-38 -51 -100 -51q-56 0 -84.5 33.5t-28.5 93.5q0 24 2 36l25 202q10 77 48.5 119.5t102.5 42.5q27 0 50.5 -12t36.5 -39q2 -3 3.5 -3
t2.5 4l4 30q0 5 4 8.5zM244.5 111.5q18.5 19.5 22.5 51.5l23 185q1 4 1 13q0 26 -13.5 42t-36.5 16q-27 0 -45.5 -19.5t-22.5 -51.5l-23 -185q-1 -4 -1 -12q0 -27 14 -43t37 -16q26 0 44.5 19.5zM301 598q-17 17 -17 44q0 35 23 58t56 23q27 0 43.5 -16.5t16.5 -43.5
q0 -35 -23 -58.5t-54 -23.5q-28 0 -45 17zM134 598q-17 17 -17 44q0 35 23 58t56 23q27 0 43.5 -16.5t16.5 -43.5q0 -35 -23 -58.5t-54 -23.5q-28 0 -45 17z" />
    <glyph glyph-name="aring" unicode="&#xe5;" 
d="M313 507.5q4 3.5 9 3.5h89q5 0 8 -3.5t2 -8.5l-60 -487q-1 -5 -4.5 -8.5t-8.5 -3.5h-89q-5 0 -8 3.5t-2 8.5l4 30q0 4 -2 4t-4 -3q-38 -51 -100 -51q-56 0 -84.5 33.5t-28.5 93.5q0 24 2 36l25 202q10 77 48.5 119.5t102.5 42.5q27 0 50.5 -12t36.5 -39q2 -3 3.5 -3
t2.5 4l4 30q0 5 4 8.5zM244.5 111.5q18.5 19.5 22.5 51.5l23 185q1 4 1 13q0 26 -13.5 42t-36.5 16q-27 0 -45.5 -19.5t-22.5 -51.5l-23 -185q-1 -4 -1 -12q0 -27 14 -43t37 -16q26 0 44.5 19.5zM188 597q-28 29 -28 74q0 36 18 67t47.5 49t64.5 18q44 0 72 -29t28 -73
q0 -37 -18 -68t-47.5 -49t-63.5 -18q-45 0 -73 29zM310 650q18 19 18 45q0 21 -12.5 34.5t-32.5 13.5q-24 0 -42.5 -18t-18.5 -44q0 -21 13.5 -35.5t33.5 -14.5q23 0 41 19z" />
    <glyph glyph-name="ae" unicode="&#xe6;" horiz-adv-x="654" 
d="M24 110q0 8 2 32q11 87 61.5 122t137.5 35h58q4 0 6 5l4 36q1 6 1 17q0 29 -13.5 45.5t-38.5 16.5q-23 0 -41.5 -13.5t-25.5 -35.5q-3 -12 -14 -12l-89 3q-5 0 -7.5 3t-1.5 9q12 67 65 106.5t123 39.5q38 0 64.5 -13.5t44.5 -41.5q3 -3 7 0q23 26 56.5 40.5t73.5 14.5
q69 0 110 -38t41 -100q0 -8 -2 -24l-16 -134q-1 -5 -4.5 -8.5t-8.5 -3.5h-217q-5 0 -5 -5l-5 -43l-1 -10q0 -24 14.5 -40t38.5 -16q21 0 38 14t26 34q5 11 15 10l86 -10q12 -2 9 -13q-17 -67 -63 -103.5t-116 -36.5q-48 0 -81.5 19t-41.5 44q0 2 -0.5 3.5t-1.5 -0.5
q-15 -28 -60 -47t-102 -19q-126 0 -126 118zM411 299h111q5 0 5 5l6 44l1 12q0 26 -14.5 42.5t-38.5 16.5q-27 0 -46 -19.5t-23 -51.5l-5 -44q0 -5 4 -5zM241.5 100q23.5 18 27.5 48l7 57q2 5 -4 5h-49q-37 0 -60 -20.5t-23 -57.5q0 -25 13.5 -37.5t36.5 -12.5q28 0 51.5 18
z" />
    <glyph glyph-name="ccedilla" unicode="&#xe7;" horiz-adv-x="410" 
d="M400.5 342.5q-3.5 -3.5 -8.5 -3.5l-90 -4q-11 0 -10 12l1 10q3 25 -11.5 43.5t-40.5 18.5t-45 -20t-23 -51l-23 -185l-1 -12q0 -26 14 -42.5t37 -16.5q26 0 45.5 18.5t22.5 44.5l2 10q0 5 4 8.5t9 3.5l89 -1q5 0 8 -3.5t2 -8.5l-2 -18q-8 -59 -47 -99t-100 -51
q-6 -2 -3 -6q26 -36 26 -75q0 -20 -6 -39q-12 -33 -35.5 -47t-52.5 -14q-19 0 -39 6q-5 1 -6.5 4.5t0.5 9.5l9 35q3 12 15 9q13 -2 24 5.5t17 23.5q2 5 2 16q0 31 -33 69q0 1 -4 3q-54 10 -83 45t-29 89q0 16 1 25l25 202q9 73 61 117.5t131 44.5q73 0 114 -37t41 -97
q0 -13 -1 -20l-2 -14q-1 -5 -4.5 -8.5z" />
    <glyph glyph-name="egrave" unicode="&#xe8;" horiz-adv-x="413" 
d="M384 216.5q-4 -3.5 -9 -3.5h-214q-5 0 -5 -5l-6 -45l-1 -12q0 -26 14 -42.5t37 -16.5q22 0 39.5 14.5t26.5 37.5q4 10 14 10l86 -4q5 0 7.5 -3.5t1.5 -9.5q-15 -70 -63 -107.5t-124 -37.5q-73 0 -113.5 36.5t-40.5 100.5q0 7 2 25l25 203q9 73 61 117.5t131 44.5
q73 0 113 -37.5t40 -100.5q0 -16 -1 -24l-17 -132q0 -5 -4 -8.5zM196 399q-19 -20 -23 -51l-6 -45q0 -5 4 -5h110q5 0 5 5l6 45l1 12q0 26 -14 42.5t-38 16.5q-26 0 -45 -20zM295 584q0 -9 -12 -9h-56q-9 0 -12 8l-59 102q-2 4 -2 6q0 4 3.5 6.5t8.5 2.5h70q10 0 13 -8
l45 -103q1 -2 1 -5z" />
    <glyph glyph-name="eacute" unicode="&#xe9;" horiz-adv-x="413" 
d="M384 216.5q-4 -3.5 -9 -3.5h-214q-5 0 -5 -5l-6 -45l-1 -12q0 -26 14 -42.5t37 -16.5q22 0 39.5 14.5t26.5 37.5q4 10 14 10l86 -4q5 0 7.5 -3.5t1.5 -9.5q-15 -70 -63 -107.5t-124 -37.5q-73 0 -113.5 36.5t-40.5 100.5q0 7 2 25l25 203q9 73 61 117.5t131 44.5
q73 0 113 -37.5t40 -100.5q0 -16 -1 -24l-17 -132q0 -5 -4 -8.5zM196 399q-19 -20 -23 -51l-6 -45q0 -5 4 -5h110q5 0 5 5l6 45l1 12q0 26 -14 42.5t-38 16.5q-26 0 -45 -20zM204 581q0 4 3 8l69 103q5 8 16 8h70q9 0 9 -7q0 -3 -3 -8l-85 -103q-5 -7 -14 -7h-55
q-10 0 -10 6z" />
    <glyph glyph-name="ecircumflex" unicode="&#xea;" horiz-adv-x="413" 
d="M384 216.5q-4 -3.5 -9 -3.5h-214q-5 0 -5 -5l-6 -45l-1 -12q0 -26 14 -42.5t37 -16.5q22 0 39.5 14.5t26.5 37.5q4 10 14 10l86 -4q5 0 7.5 -3.5t1.5 -9.5q-15 -70 -63 -107.5t-124 -37.5q-73 0 -113.5 36.5t-40.5 100.5q0 7 2 25l25 203q9 73 61 117.5t131 44.5
q73 0 113 -37.5t40 -100.5q0 -16 -1 -24l-17 -132q0 -5 -4 -8.5zM196 399q-19 -20 -23 -51l-6 -45q0 -5 4 -5h110q5 0 5 5l6 45l1 12q0 26 -14 42.5t-38 16.5q-26 0 -45 -20zM130 581q0 4 3 8l74 103q5 8 14 8h100q10 0 13 -8l51 -103q2 -4 2 -6q0 -8 -11 -8h-68q-9 0 -14 8
l-25 63q-2 5 -6 0l-41 -63q-6 -8 -16 -8h-67q-9 0 -9 6z" />
    <glyph glyph-name="edieresis" unicode="&#xeb;" horiz-adv-x="413" 
d="M384 216.5q-4 -3.5 -9 -3.5h-214q-5 0 -5 -5l-6 -45l-1 -12q0 -26 14 -42.5t37 -16.5q22 0 39.5 14.5t26.5 37.5q4 10 14 10l86 -4q5 0 7.5 -3.5t1.5 -9.5q-15 -70 -63 -107.5t-124 -37.5q-73 0 -113.5 36.5t-40.5 100.5q0 7 2 25l25 203q9 73 61 117.5t131 44.5
q73 0 113 -37.5t40 -100.5q0 -16 -1 -24l-17 -132q0 -5 -4 -8.5zM196 399q-19 -20 -23 -51l-6 -45q0 -5 4 -5h110q5 0 5 5l6 45l1 12q0 26 -14 42.5t-38 16.5q-26 0 -45 -20zM298 598q-17 17 -17 44q0 35 23 58t56 23q27 0 43.5 -16.5t16.5 -43.5q0 -35 -23 -58.5t-54 -23.5
q-28 0 -45 17zM131 598q-17 17 -17 44q0 35 23 58t56 23q27 0 43.5 -16.5t16.5 -43.5q0 -35 -23 -58.5t-54 -23.5q-28 0 -45 17z" />
    <glyph glyph-name="igrave" unicode="&#xec;" horiz-adv-x="177" 
d="M16 3.5q-3 3.5 -2 8.5l60 487q1 5 4.5 8.5t8.5 3.5h89q5 0 8 -3.5t2 -8.5l-59 -487q-1 -5 -5 -8.5t-9 -3.5h-89q-5 0 -8 3.5zM177 584q0 -9 -12 -9h-56q-9 0 -12 8l-59 102q-2 4 -2 6q0 4 3.5 6.5t8.5 2.5h70q10 0 13 -8l45 -103q1 -2 1 -5z" />
    <glyph glyph-name="iacute" unicode="&#xed;" horiz-adv-x="177" 
d="M16 3.5q-3 3.5 -2 8.5l60 487q1 5 4.5 8.5t8.5 3.5h89q5 0 8 -3.5t2 -8.5l-59 -487q-1 -5 -5 -8.5t-9 -3.5h-89q-5 0 -8 3.5zM86 581q0 4 3 8l69 103q5 8 16 8h70q9 0 9 -7q0 -3 -3 -8l-85 -103q-5 -7 -14 -7h-55q-10 0 -10 6z" />
    <glyph glyph-name="icircumflex" unicode="&#xee;" horiz-adv-x="177" 
d="M16 3.5q-3 3.5 -2 8.5l60 487q1 5 4.5 8.5t8.5 3.5h89q5 0 8 -3.5t2 -8.5l-59 -487q-1 -5 -5 -8.5t-9 -3.5h-89q-5 0 -8 3.5zM11 581q0 4 3 8l74 103q5 8 14 8h100q10 0 13 -8l51 -103q2 -4 2 -6q0 -8 -11 -8h-68q-9 0 -14 8l-25 63q-2 5 -6 0l-41 -63q-6 -8 -16 -8h-67
q-9 0 -9 6z" />
    <glyph glyph-name="idieresis" unicode="&#xef;" horiz-adv-x="177" 
d="M16 3.5q-3 3.5 -2 8.5l60 487q1 5 4.5 8.5t8.5 3.5h89q5 0 8 -3.5t2 -8.5l-59 -487q-1 -5 -5 -8.5t-9 -3.5h-89q-5 0 -8 3.5zM179 598q-17 17 -17 44q0 35 23 58t56 23q27 0 43.5 -16.5t16.5 -43.5q0 -35 -23 -58.5t-54 -23.5q-28 0 -45 17zM12 598q-17 17 -17 44
q0 35 23 58t56 23q27 0 43.5 -16.5t16.5 -43.5q0 -35 -23 -58.5t-54 -23.5q-28 0 -45 17z" />
    <glyph glyph-name="eth" unicode="&#xf0;" horiz-adv-x="430" 
d="M446 615q0 -9 -10 -12l-58 -16q-7 -2 -4 -6q34 -82 34 -181q0 -31 -3 -66l-22 -179q-9 -75 -61 -119t-133 -44q-73 0 -114 36.5t-41 100.5q0 8 2 26l22 179q6 47 31 84t62.5 58t81.5 21q42 0 63 -23q3 -4 3 1q-4 36 -22 82q-1 4 -6 3l-74 -19l-3 -1q-8 0 -10 10l-4 26v2
q0 9 11 13l57 15q2 1 3 3t0 4q-20 39 -41 72q-3 3 -3 7q0 8 12 8h83q10 0 13 -7l15 -25l18 -30q2 -5 5 -3l77 21l3 1q8 0 10 -10l3 -29v-3zM292 337q0 26 -14.5 42.5t-38.5 16.5q-27 0 -46 -19.5t-23 -51.5l-20 -162l-1 -12q0 -26 14 -42.5t38 -16.5q27 0 46.5 20t23.5 51
l20 162z" />
    <glyph glyph-name="ntilde" unicode="&#xf1;" horiz-adv-x="425" 
d="M208 610q-9 -12 -17 -4l-26 22q-6 6 -2 16q16 32 37.5 47.5t45.5 15.5t51 -23q4 -3 11 -8t13 -8t13 -3q21 0 37 22q3 5 7.5 6.5t8.5 -2.5l25 -21q7 -7 2 -16q-18 -32 -42 -46t-46 -14q-18 0 -46 19q-5 3 -11.5 8.5t-12 8t-12.5 2.5q-19 0 -36 -22zM384 486q28 -33 28 -95
q0 -18 -3 -39l-42 -340q-1 -5 -4.5 -8.5t-8.5 -3.5h-89q-5 0 -8 3.5t-2 8.5l40 331q1 6 1 18q0 28 -12.5 43t-35.5 15q-28 0 -46 -20.5t-23 -58.5l-40 -328q-1 -5 -4.5 -8.5t-8.5 -3.5h-89q-5 0 -8 3.5t-2 8.5l59 487q1 5 5 8.5t9 3.5h89q5 0 8 -3.5t2 -8.5l-2 -20
q-1 -3 1.5 -3.5t5.5 3.5q37 40 97 40q55 0 83 -33z" />
    <glyph glyph-name="ograve" unicode="&#xf2;" horiz-adv-x="419" 
d="M75 28.5q-41 36.5 -41 100.5q0 8 2 26l25 201q9 74 61 118.5t132 44.5q73 0 114 -37.5t41 -100.5q0 -7 -2 -25l-24 -201q-9 -75 -61 -119t-133 -44q-73 0 -114 36.5zM248 112.5q19 19.5 23 51.5l23 184l1 12q0 26 -14.5 42.5t-38.5 16.5q-27 0 -46 -19.5t-23 -51.5
l-23 -184l-1 -12q0 -27 14.5 -43t38.5 -16q27 0 46 19.5zM298 584q0 -9 -12 -9h-56q-9 0 -12 8l-59 102q-2 4 -2 6q0 4 3.5 6.5t8.5 2.5h70q10 0 13 -8l45 -103q1 -2 1 -5z" />
    <glyph glyph-name="oacute" unicode="&#xf3;" horiz-adv-x="419" 
d="M75 28.5q-41 36.5 -41 100.5q0 8 2 26l25 201q9 74 61 118.5t132 44.5q73 0 114 -37.5t41 -100.5q0 -7 -2 -25l-24 -201q-9 -75 -61 -119t-133 -44q-73 0 -114 36.5zM248 112.5q19 19.5 23 51.5l23 184l1 12q0 26 -14.5 42.5t-38.5 16.5q-27 0 -46 -19.5t-23 -51.5
l-23 -184l-1 -12q0 -27 14.5 -43t38.5 -16q27 0 46 19.5zM207 581q0 4 3 8l69 103q5 8 16 8h70q9 0 9 -7q0 -3 -3 -8l-85 -103q-5 -7 -14 -7h-55q-10 0 -10 6z" />
    <glyph glyph-name="ocircumflex" unicode="&#xf4;" horiz-adv-x="419" 
d="M75 28.5q-41 36.5 -41 100.5q0 8 2 26l25 201q9 74 61 118.5t132 44.5q73 0 114 -37.5t41 -100.5q0 -7 -2 -25l-24 -201q-9 -75 -61 -119t-133 -44q-73 0 -114 36.5zM248 112.5q19 19.5 23 51.5l23 184l1 12q0 26 -14.5 42.5t-38.5 16.5q-27 0 -46 -19.5t-23 -51.5
l-23 -184l-1 -12q0 -27 14.5 -43t38.5 -16q27 0 46 19.5zM133 581q0 4 3 8l74 103q5 8 14 8h100q10 0 13 -8l51 -103q2 -4 2 -6q0 -8 -11 -8h-68q-9 0 -14 8l-25 63q-2 5 -6 0l-41 -63q-6 -8 -16 -8h-67q-9 0 -9 6z" />
    <glyph glyph-name="otilde" unicode="&#xf5;" horiz-adv-x="419" 
d="M75 28.5q-41 36.5 -41 100.5q0 8 2 26l25 201q9 74 61 118.5t132 44.5q73 0 114 -37.5t41 -100.5q0 -7 -2 -25l-24 -201q-9 -75 -61 -119t-133 -44q-73 0 -114 36.5zM248 112.5q19 19.5 23 51.5l23 184l1 12q0 26 -14.5 42.5t-38.5 16.5q-27 0 -46 -19.5t-23 -51.5
l-23 -184l-1 -12q0 -27 14.5 -43t38.5 -16q27 0 46 19.5zM302 598.5q-11 4.5 -26 14.5q-7 4 -14 9t-12.5 7.5t-13.5 2.5q-21 0 -39 -23q-9 -10 -17 -4l-29 23q-7 6 -3 16q17 32 40.5 47.5t48.5 15.5q16 0 28.5 -6t28.5 -17q4 -3 11 -8t13.5 -8t14.5 -3q23 0 40 22q7 12 16 5
l29 -22q3 -3 3 -8q0 -6 -6 -15q-19 -28 -43 -40.5t-46 -12.5q-13 0 -24 4.5z" />
    <glyph glyph-name="odieresis" unicode="&#xf6;" horiz-adv-x="419" 
d="M75 28.5q-41 36.5 -41 100.5q0 8 2 26l25 201q9 74 61 118.5t132 44.5q73 0 114 -37.5t41 -100.5q0 -7 -2 -25l-24 -201q-9 -75 -61 -119t-133 -44q-73 0 -114 36.5zM248 112.5q19 19.5 23 51.5l23 184l1 12q0 26 -14.5 42.5t-38.5 16.5q-27 0 -46 -19.5t-23 -51.5
l-23 -184l-1 -12q0 -27 14.5 -43t38.5 -16q27 0 46 19.5zM301 598q-17 17 -17 44q0 35 23 58t56 23q27 0 43.5 -16.5t16.5 -43.5q0 -35 -23 -58.5t-54 -23.5q-28 0 -45 17zM134 598q-17 17 -17 44q0 35 23 58t56 23q27 0 43.5 -16.5t16.5 -43.5q0 -35 -23 -58.5t-54 -23.5
q-28 0 -45 17z" />
    <glyph glyph-name="divide" unicode="&#xf7;" horiz-adv-x="426" 
d="M207 433q-15 16 -15 39q0 28 20.5 49t48.5 21q23 0 38 -16t15 -39q0 -28 -21 -49t-48 -21q-23 0 -38 16zM44 275.5q-3 3.5 -2 8.5l8 64q0 5 4 8.5t9 3.5h351q5 0 8 -3.5t2 -8.5l-8 -64q-1 -5 -4.5 -8.5t-8.5 -3.5h-351q-5 0 -8 3.5zM167 109.5q-15 15.5 -15 39.5
q0 28 21 49t48 21q23 0 38.5 -15.5t15.5 -37.5q0 -29 -21 -50.5t-48 -21.5q-24 0 -39 15.5z" />
    <glyph glyph-name="oslash" unicode="&#xf8;" horiz-adv-x="448" 
d="M435 507l-35 -56q-3 -4 -1 -7q13 -31 13 -63q0 -9 -2 -25l-24 -201q-10 -76 -61.5 -119.5t-132.5 -43.5q-36 0 -65 9q-5 2 -6 -3l-26 -42q-2 -5 -7 -6.5t-10 1.5l-51 36q-9 6 -3 16l30 49q2 4 0 7q-16 29 -16 72q0 16 1 24l25 201q9 74 61 118.5t132 44.5q40 0 71 -12
q5 0 6 3l28 45q3 5 8 6t9 -2l53 -36q8 -7 3 -16zM164 234.5q2 -0.5 4 3.5l103 169q2 5 -1 6q-12 6 -26 6q-26 0 -45 -20t-23 -51l-14 -109q0 -4 2 -4.5zM283.5 258.5q-2.5 0.5 -3.5 -3.5l-96 -153q-2 -6 2 -7q12 -2 18 -2q27 0 46.5 19.5t23.5 51.5l11 90q1 4 -1.5 4.5z" />
    <glyph glyph-name="ugrave" unicode="&#xf9;" horiz-adv-x="425" 
d="M315 507.5q4 3.5 9 3.5h89q5 0 8 -3.5t2 -8.5l-60 -487q-1 -5 -4.5 -8.5t-8.5 -3.5h-89q-5 0 -8 3.5t-2 8.5l2 22q1 3 -1 4t-4 -2q-34 -43 -96 -43q-52 0 -83.5 29t-31.5 90q0 8 2 30l44 357q0 5 4 8.5t9 3.5h89q5 0 8 -3.5t2 -8.5l-41 -332q-1 -7 -1 -18q0 -57 48 -57
q28 0 46.5 21.5t22.5 58.5l41 327q0 5 4 8.5zM298 584q0 -9 -12 -9h-56q-9 0 -12 8l-59 102q-2 4 -2 6q0 4 3.5 6.5t8.5 2.5h70q10 0 13 -8l45 -103q1 -2 1 -5z" />
    <glyph glyph-name="uacute" unicode="&#xfa;" horiz-adv-x="425" 
d="M315 507.5q4 3.5 9 3.5h89q5 0 8 -3.5t2 -8.5l-60 -487q-1 -5 -4.5 -8.5t-8.5 -3.5h-89q-5 0 -8 3.5t-2 8.5l2 22q1 3 -1 4t-4 -2q-34 -43 -96 -43q-52 0 -83.5 29t-31.5 90q0 8 2 30l44 357q0 5 4 8.5t9 3.5h89q5 0 8 -3.5t2 -8.5l-41 -332q-1 -7 -1 -18q0 -57 48 -57
q28 0 46.5 21.5t22.5 58.5l41 327q0 5 4 8.5zM207 581q0 4 3 8l69 103q5 8 16 8h70q9 0 9 -7q0 -3 -3 -8l-85 -103q-5 -7 -14 -7h-55q-10 0 -10 6z" />
    <glyph glyph-name="ucircumflex" unicode="&#xfb;" horiz-adv-x="425" 
d="M315 507.5q4 3.5 9 3.5h89q5 0 8 -3.5t2 -8.5l-60 -487q-1 -5 -4.5 -8.5t-8.5 -3.5h-89q-5 0 -8 3.5t-2 8.5l2 22q1 3 -1 4t-4 -2q-34 -43 -96 -43q-52 0 -83.5 29t-31.5 90q0 8 2 30l44 357q0 5 4 8.5t9 3.5h89q5 0 8 -3.5t2 -8.5l-41 -332q-1 -7 -1 -18q0 -57 48 -57
q28 0 46.5 21.5t22.5 58.5l41 327q0 5 4 8.5zM133 581q0 4 3 8l74 103q5 8 14 8h100q10 0 13 -8l51 -103q2 -4 2 -6q0 -8 -11 -8h-68q-9 0 -14 8l-25 63q-2 5 -6 0l-41 -63q-6 -8 -16 -8h-67q-9 0 -9 6z" />
    <glyph glyph-name="udieresis" unicode="&#xfc;" horiz-adv-x="425" 
d="M315 507.5q4 3.5 9 3.5h89q5 0 8 -3.5t2 -8.5l-60 -487q-1 -5 -4.5 -8.5t-8.5 -3.5h-89q-5 0 -8 3.5t-2 8.5l2 22q1 3 -1 4t-4 -2q-34 -43 -96 -43q-52 0 -83.5 29t-31.5 90q0 8 2 30l44 357q0 5 4 8.5t9 3.5h89q5 0 8 -3.5t2 -8.5l-41 -332q-1 -7 -1 -18q0 -57 48 -57
q28 0 46.5 21.5t22.5 58.5l41 327q0 5 4 8.5zM301 598q-17 17 -17 44q0 35 23 58t56 23q27 0 43.5 -16.5t16.5 -43.5q0 -35 -23 -58.5t-54 -23.5q-28 0 -45 17zM134 598q-17 17 -17 44q0 35 23 58t56 23q27 0 43.5 -16.5t16.5 -43.5q0 -35 -23 -58.5t-54 -23.5q-28 0 -45 17
z" />
    <glyph glyph-name="yacute" unicode="&#xfd;" horiz-adv-x="391" 
d="M-8.5 -195.5q-1.5 3.5 -0.5 8.5l8 72q1 5 4.5 8.5t7.5 3.5q32 1 51.5 8.5t33 29t23.5 62.5q0 1 -0.5 2.5t0.5 3.5l-62 496q0 13 13 13h95q11 0 11 -11l19 -331q0 -3 2 -3t3 3l98 331q3 11 14 11l96 -2q13 0 9 -13l-194 -525q-28 -71 -52.5 -106t-63 -50t-107.5 -15h-5
q-2 0 -3.5 3.5zM193 581q0 4 3 8l69 103q5 8 16 8h70q9 0 9 -7q0 -3 -3 -8l-85 -103q-5 -7 -14 -7h-55q-10 0 -10 6z" />
    <glyph glyph-name="thorn" unicode="&#xfe;" 
d="M382 486q29 -33 29 -94q0 -11 -2 -35l-25 -202q-9 -76 -48 -119.5t-104 -43.5q-27 0 -50.5 12t-36.5 39q-2 3 -3.5 3t-2.5 -4l-28 -230q-1 -5 -4.5 -8.5t-8.5 -3.5h-90q-5 0 -8 3.5t-2 8.5l108 876q1 5 4.5 8.5t8.5 3.5h89q5 0 8 -3.5t2 -8.5l-27 -220q0 -3 2 -3q3 0 6 5
q37 49 98 49q56 0 85 -33zM296 360q0 26 -14 42.5t-38 16.5q-26 0 -44.5 -20t-22.5 -51l-23 -185q-1 -4 -1 -12q0 -27 14 -43t37 -16q26 0 45 20t23 51l23 185z" />
    <glyph glyph-name="ydieresis" unicode="&#xff;" horiz-adv-x="391" 
d="M-8.5 -195.5q-1.5 3.5 -0.5 8.5l8 72q1 5 4.5 8.5t7.5 3.5q32 1 51.5 8.5t33 29t23.5 62.5q0 1 -0.5 2.5t0.5 3.5l-62 496q0 13 13 13h95q11 0 11 -11l19 -331q0 -3 2 -3t3 3l98 331q3 11 14 11l96 -2q13 0 9 -13l-194 -525q-28 -71 -52.5 -106t-63 -50t-107.5 -15h-5
q-2 0 -3.5 3.5zM286 598q-17 17 -17 44q0 35 23 58t56 23q27 0 43.5 -16.5t16.5 -43.5q0 -35 -23 -58.5t-54 -23.5q-28 0 -45 17zM119 598q-17 17 -17 44q0 35 23 58t56 23q27 0 43.5 -16.5t16.5 -43.5q0 -35 -23 -58.5t-54 -23.5q-28 0 -45 17z" />
    <glyph glyph-name="Amacron" unicode="&#x100;" horiz-adv-x="443" 
d="M297 11l-5 105q0 5 -6 5h-141q-5 0 -7 -5l-31 -105q-3 -11 -14 -11h-88q-13 0 -9 13l226 676q3 11 14 11h103q11 0 11 -11l61 -676v-2q0 -11 -12 -11h-91q-11 0 -11 11zM173 212h107q6 0 6 5l-18 316q0 3 -2 3t-4 -3l-94 -316q-1 -5 5 -5zM192 787l7 56q1 5 4.5 8.5
t8.5 3.5h185q5 0 8 -3.5t2 -8.5l-7 -56q-1 -5 -4.5 -8.5t-8.5 -3.5h-184q-11 0 -11 12z" />
    <glyph glyph-name="amacron" unicode="&#x101;" 
d="M313 507.5q4 3.5 9 3.5h89q5 0 8 -3.5t2 -8.5l-60 -487q-1 -5 -4.5 -8.5t-8.5 -3.5h-89q-5 0 -8 3.5t-2 8.5l4 30q0 4 -2 4t-4 -3q-38 -51 -100 -51q-56 0 -84.5 33.5t-28.5 93.5q0 24 2 36l25 202q10 77 48.5 119.5t102.5 42.5q27 0 50.5 -12t36.5 -39q2 -3 3.5 -3
t2.5 4l4 30q0 5 4 8.5zM244.5 111.5q18.5 19.5 22.5 51.5l23 185q1 4 1 13q0 26 -13.5 42t-36.5 16q-27 0 -45.5 -19.5t-22.5 -51.5l-23 -185q-1 -4 -1 -12q0 -27 14 -43t37 -16q26 0 44.5 19.5zM157 598l7 56q1 5 4.5 8.5t8.5 3.5h185q5 0 8 -3.5t2 -8.5l-7 -56
q-1 -5 -4.5 -8.5t-8.5 -3.5h-184q-11 0 -11 12z" />
    <glyph glyph-name="Abreve" unicode="&#x102;" horiz-adv-x="443" 
d="M297 11l-5 105q0 5 -6 5h-141q-5 0 -7 -5l-31 -105q-3 -11 -14 -11h-88q-13 0 -9 13l226 676q3 11 14 11h103q11 0 11 -11l61 -676v-2q0 -11 -12 -11h-91q-11 0 -11 11zM173 212h107q6 0 6 5l-18 316q0 3 -2 3t-4 -3l-94 -316q-1 -5 5 -5zM220 769q-27 28 -25 74
q0 12 13 12h37q11 0 11 -12q1 -22 13 -35.5t31 -13.5t34.5 13.5t20.5 35.5q3 12 14 12h38q12 0 10 -12q-10 -46 -44 -74t-80 -28t-73 28z" />
    <glyph glyph-name="abreve" unicode="&#x103;" 
d="M313 507.5q4 3.5 9 3.5h89q5 0 8 -3.5t2 -8.5l-60 -487q-1 -5 -4.5 -8.5t-8.5 -3.5h-89q-5 0 -8 3.5t-2 8.5l4 30q0 4 -2 4t-4 -3q-38 -51 -100 -51q-56 0 -84.5 33.5t-28.5 93.5q0 24 2 36l25 202q10 77 48.5 119.5t102.5 42.5q27 0 50.5 -12t36.5 -39q2 -3 3.5 -3
t2.5 4l4 30q0 5 4 8.5zM244.5 111.5q18.5 19.5 22.5 51.5l23 185q1 4 1 13q0 26 -13.5 42t-36.5 16q-27 0 -45.5 -19.5t-22.5 -51.5l-23 -185q-1 -4 -1 -12q0 -27 14 -43t37 -16q26 0 44.5 19.5zM185 580q-27 28 -25 74q0 12 13 12h37q11 0 11 -12q1 -22 13 -35.5t31 -13.5
t34.5 13.5t20.5 35.5q3 12 14 12h38q12 0 10 -12q-10 -46 -44 -74t-80 -28t-73 28z" />
    <glyph glyph-name="Aogonek" unicode="&#x104;" horiz-adv-x="443" 
d="M297 11l-5 105q0 5 -6 5h-141q-5 0 -7 -5l-31 -105q-3 -11 -14 -11h-88q-13 0 -9 13l226 676q3 11 14 11h103q11 0 11 -11l61 -676v-2q0 -11 -12 -11h-91q-11 0 -11 11zM173 212h107q6 0 6 5l-18 316q0 3 -2 3t-4 -3l-94 -316q-1 -5 5 -5zM386 -183q-22 -6 -40 -6
q-31 0 -52.5 16.5t-21.5 55.5q0 60 58 111q6 6 15 6h47q9 0 9 -6q0 -4 -5 -9q-23 -20 -35.5 -41t-11.5 -40q1 -16 10.5 -23t23.5 -5h3q9 0 9 -9l1 -36q0 -11 -10 -14z" />
    <glyph glyph-name="aogonek" unicode="&#x105;" horiz-adv-x="434" 
d="M342 -124q9 0 9 -10l1 -35q0 -11 -11 -14q-22 -6 -40 -6q-31 0 -52 16.5t-21 55.5q0 58 56 111q4 2 3 4t-4 2h-16q-5 0 -8 3.5t-2 8.5l3 29q1 4 -1 4.5t-4 -2.5q-38 -51 -99 -51q-57 0 -85.5 33.5t-28.5 93.5q0 24 2 36l25 202q9 77 48.5 119.5t103.5 42.5q27 0 50 -12
t36 -39q1 -3 3 -2.5t3 4.5l3 29q1 5 4.5 8.5t8.5 3.5h90q5 0 8 -3.5t2 -8.5l-60 -490q-1 -9 -9 -15q-57 -49 -56 -90q1 -17 10.5 -23.5t24.5 -4.5h3zM252.5 111.5q18.5 19.5 22.5 51.5l23 185q1 4 1 12q0 27 -14 43t-37 16q-26 0 -44.5 -19.5t-23.5 -51.5l-22 -185
q-1 -4 -1 -12q0 -27 14 -43t37 -16q26 0 44.5 19.5z" />
    <glyph glyph-name="Cacute" unicode="&#x106;" horiz-adv-x="444" 
d="M84.5 34.5q-43.5 42.5 -43.5 115.5q0 10 2 30l42 341q10 86 66.5 136.5t139.5 50.5q75 0 119 -42t44 -115q0 -10 -2 -30l-2 -12q0 -5 -4 -9t-9 -4l-90 -4q-12 0 -11 12l3 25q1 5 1 14q0 30 -16.5 47.5t-45.5 17.5q-31 0 -52.5 -22t-26.5 -57l-44 -358q-1 -5 -1 -14
q0 -30 16.5 -47.5t44.5 -17.5q32 0 54 22t27 57l3 25q0 5 4 8.5t9 3.5l89 -4q11 0 11 -12l-2 -12q-10 -85 -67 -136.5t-140 -51.5q-75 0 -118.5 42.5zM244 770q0 4 3 8l69 103q5 8 16 8h70q9 0 9 -7q0 -3 -3 -8l-85 -103q-5 -7 -14 -7h-55q-10 0 -10 6z" />
    <glyph glyph-name="cacute" unicode="&#x107;" horiz-adv-x="410" 
d="M74.5 28.5q-40.5 36.5 -40.5 100.5q0 8 2 26l25 202q9 73 61 117.5t131 44.5q73 0 114 -37t41 -97q0 -13 -1 -20l-2 -14q-1 -5 -4.5 -8.5t-8.5 -3.5l-90 -4q-11 0 -10 12l1 10q3 25 -11.5 43.5t-40.5 18.5t-45 -20t-23 -51l-23 -185l-1 -12q0 -26 14 -42.5t37 -16.5
q26 0 45.5 18.5t22.5 44.5l2 10q0 5 4 8.5t9 3.5l89 -1q5 0 8 -3.5t2 -8.5l-2 -18q-8 -69 -60 -111.5t-132 -42.5q-73 0 -113.5 36.5zM206 581q0 4 3 8l69 103q5 8 16 8h70q9 0 9 -7q0 -3 -3 -8l-85 -103q-5 -7 -14 -7h-55q-10 0 -10 6z" />
    <glyph glyph-name="Ccircumflex" unicode="&#x108;" horiz-adv-x="444" 
d="M84.5 34.5q-43.5 42.5 -43.5 115.5q0 10 2 30l42 341q10 86 66.5 136.5t139.5 50.5q75 0 119 -42t44 -115q0 -10 -2 -30l-2 -12q0 -5 -4 -9t-9 -4l-90 -4q-12 0 -11 12l3 25q1 5 1 14q0 30 -16.5 47.5t-45.5 17.5q-31 0 -52.5 -22t-26.5 -57l-44 -358q-1 -5 -1 -14
q0 -30 16.5 -47.5t44.5 -17.5q32 0 54 22t27 57l3 25q0 5 4 8.5t9 3.5l89 -4q11 0 11 -12l-2 -12q-10 -85 -67 -136.5t-140 -51.5q-75 0 -118.5 42.5zM169 770q0 4 3 8l74 103q5 8 14 8h100q10 0 13 -8l51 -103q2 -4 2 -6q0 -8 -11 -8h-68q-9 0 -14 8l-25 63q-2 5 -6 0
l-41 -63q-6 -8 -16 -8h-67q-9 0 -9 6z" />
    <glyph glyph-name="ccircumflex" unicode="&#x109;" horiz-adv-x="410" 
d="M74.5 28.5q-40.5 36.5 -40.5 100.5q0 8 2 26l25 202q9 73 61 117.5t131 44.5q73 0 114 -37t41 -97q0 -13 -1 -20l-2 -14q-1 -5 -4.5 -8.5t-8.5 -3.5l-90 -4q-11 0 -10 12l1 10q3 25 -11.5 43.5t-40.5 18.5t-45 -20t-23 -51l-23 -185l-1 -12q0 -26 14 -42.5t37 -16.5
q26 0 45.5 18.5t22.5 44.5l2 10q0 5 4 8.5t9 3.5l89 -1q5 0 8 -3.5t2 -8.5l-2 -18q-8 -69 -60 -111.5t-132 -42.5q-73 0 -113.5 36.5zM131 581q0 4 3 8l74 103q5 8 14 8h100q10 0 13 -8l51 -103q2 -4 2 -6q0 -8 -11 -8h-68q-9 0 -14 8l-25 63q-2 5 -6 0l-41 -63
q-6 -8 -16 -8h-67q-9 0 -9 6z" />
    <glyph glyph-name="Cdotaccent" unicode="&#x10a;" horiz-adv-x="444" 
d="M84.5 34.5q-43.5 42.5 -43.5 115.5q0 10 2 30l42 341q10 86 66.5 136.5t139.5 50.5q75 0 119 -42t44 -115q0 -10 -2 -30l-2 -12q0 -5 -4 -9t-9 -4l-90 -4q-12 0 -11 12l3 25q1 5 1 14q0 30 -16.5 47.5t-45.5 17.5q-31 0 -52.5 -22t-26.5 -57l-44 -358q-1 -5 -1 -14
q0 -30 16.5 -47.5t44.5 -17.5q32 0 54 22t27 57l3 25q0 5 4 8.5t9 3.5l89 -4q11 0 11 -12l-2 -12q-10 -85 -67 -136.5t-140 -51.5q-75 0 -118.5 42.5zM254 787q-17 17 -17 44q0 35 23 58t56 23q27 0 43.5 -16.5t16.5 -43.5q0 -35 -23 -58.5t-54 -23.5q-28 0 -45 17z" />
    <glyph glyph-name="cdotaccent" unicode="&#x10b;" horiz-adv-x="410" 
d="M74.5 28.5q-40.5 36.5 -40.5 100.5q0 8 2 26l25 202q9 73 61 117.5t131 44.5q73 0 114 -37t41 -97q0 -13 -1 -20l-2 -14q-1 -5 -4.5 -8.5t-8.5 -3.5l-90 -4q-11 0 -10 12l1 10q3 25 -11.5 43.5t-40.5 18.5t-45 -20t-23 -51l-23 -185l-1 -12q0 -26 14 -42.5t37 -16.5
q26 0 45.5 18.5t22.5 44.5l2 10q0 5 4 8.5t9 3.5l89 -1q5 0 8 -3.5t2 -8.5l-2 -18q-8 -69 -60 -111.5t-132 -42.5q-73 0 -113.5 36.5zM216 598q-17 17 -17 44q0 35 23 58t56 23q27 0 43.5 -16.5t16.5 -43.5q0 -35 -23 -58.5t-54 -23.5q-28 0 -45 17z" />
    <glyph glyph-name="Ccaron" unicode="&#x10c;" horiz-adv-x="444" 
d="M84.5 34.5q-43.5 42.5 -43.5 115.5q0 10 2 30l42 341q10 86 66.5 136.5t139.5 50.5q75 0 119 -42t44 -115q0 -10 -2 -30l-2 -12q0 -5 -4 -9t-9 -4l-90 -4q-12 0 -11 12l3 25q1 5 1 14q0 30 -16.5 47.5t-45.5 17.5q-31 0 -52.5 -22t-26.5 -57l-44 -358q-1 -5 -1 -14
q0 -30 16.5 -47.5t44.5 -17.5q32 0 54 22t27 57l3 25q0 5 4 8.5t9 3.5l89 -4q11 0 11 -12l-2 -12q-10 -85 -67 -136.5t-140 -51.5q-75 0 -118.5 42.5zM188 881q0 8 11 8h66q11 0 14 -8l26 -62q3 -4 6 0l41 62q5 8 15 8h68q9 0 9 -6q0 -3 -3 -8l-76 -103q-6 -8 -15 -8h-100
q-9 0 -12 8l-49 103q-1 2 -1 6z" />
    <glyph glyph-name="ccaron" unicode="&#x10d;" horiz-adv-x="410" 
d="M74.5 28.5q-40.5 36.5 -40.5 100.5q0 8 2 26l25 202q9 73 61 117.5t131 44.5q73 0 114 -37t41 -97q0 -13 -1 -20l-2 -14q-1 -5 -4.5 -8.5t-8.5 -3.5l-90 -4q-11 0 -10 12l1 10q3 25 -11.5 43.5t-40.5 18.5t-45 -20t-23 -51l-23 -185l-1 -12q0 -26 14 -42.5t37 -16.5
q26 0 45.5 18.5t22.5 44.5l2 10q0 5 4 8.5t9 3.5l89 -1q5 0 8 -3.5t2 -8.5l-2 -18q-8 -69 -60 -111.5t-132 -42.5q-73 0 -113.5 36.5zM150 692q0 8 11 8h66q11 0 14 -8l26 -62q3 -4 6 0l41 62q5 8 15 8h68q9 0 9 -6q0 -3 -3 -8l-76 -103q-6 -8 -15 -8h-100q-9 0 -12 8
l-49 103q-1 2 -1 6z" />
    <glyph glyph-name="Dcaron" unicode="&#x10e;" horiz-adv-x="458" 
d="M34 12l83 676q1 5 5 8.5t9 3.5h165q75 0 118.5 -42.5t43.5 -115.5q0 -11 -2 -33l-39 -318q-11 -87 -67 -139t-140 -52h-165q-11 0 -11 12zM163 100l58 1q32 0 55 26.5t30 70.5l37 304q1 7 1 20q0 37 -16.5 57.5t-46.5 20.5h-57q-5 0 -5 -5l-61 -490q0 -5 5 -5zM187 879
q0 8 11 8h66q11 0 14 -8l26 -62q3 -4 6 0l41 62q5 8 15 8h68q9 0 9 -6q0 -3 -3 -8l-76 -103q-6 -8 -15 -8h-100q-9 0 -12 8l-49 103q-1 2 -1 6z" />
    <glyph glyph-name="dcaron" unicode="&#x10f;" horiz-adv-x="424" 
d="M336.5 696.5q3.5 3.5 8.5 3.5h89q5 0 8 -3.5t2 -8.5l-83 -676q-1 -5 -4.5 -8.5t-8.5 -3.5h-89q-5 0 -8 3.5t-2 8.5l1 12q1 3 -1 4t-4 -1q-40 -35 -92 -35q-57 0 -88 35t-31 95q0 10 2 32l25 203q10 76 51.5 119t105.5 43q22 0 44.5 -8.5t38.5 -27.5q2 -2 4 -1t2 4l25 202
q1 5 4.5 8.5zM241 107.5q18 15.5 25 41.5l26 213q-1 26 -14.5 41.5t-36.5 15.5q-27 0 -46 -19.5t-23 -51.5l-23 -185l-1 -12q0 -26 14 -42.5t38 -16.5q23 0 41 15.5zM478 581q0 4 3 8l69 103q5 8 16 8h70q9 0 9 -7q0 -3 -3 -8l-85 -103q-5 -7 -14 -7h-55q-10 0 -10 6z" />
    <glyph glyph-name="Dcroat" unicode="&#x110;" horiz-adv-x="492" 
d="M448.5 657.5q43.5 -42.5 43.5 -115.5q0 -11 -2 -33l-39 -318q-11 -87 -67 -139t-140 -52h-165q-11 0 -11 12l39 315q0 5 -4 5h-18q-5 0 -8 3.5t-2 8.5l6 44q0 5 4 8.5t9 3.5h17q4 0 6 5l34 283q1 5 5 8.5t9 3.5h165q75 0 118.5 -42.5zM377 502q1 7 1 20q0 37 -16.5 57.5
t-46.5 20.5h-57q-5 0 -5 -5l-24 -190q0 -5 4 -5h49q5 0 8 -3.5t2 -8.5l-5 -44q-1 -5 -4.5 -8.5t-8.5 -3.5h-49q-5 0 -5 -5l-28 -222q0 -5 5 -5l58 1q32 0 55 26.5t30 70.5z" />
    <glyph glyph-name="dcroat" unicode="&#x111;" horiz-adv-x="424" 
d="M478 619l-6 -47q-1 -5 -4.5 -8.5t-8.5 -3.5h-26q-2 0 -3.5 -1.5t-1.5 -3.5l-67 -543q-1 -5 -4.5 -8.5t-8.5 -3.5h-89q-5 0 -8 3.5t-2 8.5l1 12q1 3 -1 4t-4 -1q-40 -35 -92 -35q-57 0 -88 35t-31 95q0 10 2 32l25 203q10 76 51.5 119t105.5 43q22 0 44.5 -8.5t38.5 -27.5
q2 -2 4 -1t2 4l8 69q2 5 -4 5h-100q-5 0 -8 3.5t-2 8.5l6 47q1 5 4.5 8.5t8.5 3.5h100q5 0 5 5l7 52q1 5 4.5 8.5t8.5 3.5h89q5 0 8 -3.5t2 -8.5l-6 -52q0 -5 4 -5h25q11 0 11 -12zM241 107.5q18 15.5 25 41.5l26 213q-1 26 -14.5 41.5t-36.5 15.5q-27 0 -46 -19.5
t-23 -51.5l-23 -185l-1 -12q0 -26 14 -42.5t38 -16.5q23 0 41 15.5z" />
    <glyph glyph-name="Emacron" unicode="&#x112;" horiz-adv-x="422" 
d="M442.5 603.5q-3.5 -3.5 -8.5 -3.5h-210q-5 0 -5 -5l-24 -189q0 -5 5 -5h124q5 0 8 -3.5t2 -8.5l-10 -77q0 -5 -4 -8.5t-9 -3.5h-124q-5 0 -5 -5l-24 -190q0 -5 5 -5h209q5 0 8 -3.5t2 -8.5l-9 -76q-1 -5 -4.5 -8.5t-8.5 -3.5h-315q-11 0 -11 12l83 676q1 5 5 8.5t9 3.5
h315q5 0 8 -3.5t2 -8.5l-9 -76q-1 -5 -4.5 -8.5zM193 787l7 56q1 5 4.5 8.5t8.5 3.5h185q5 0 8 -3.5t2 -8.5l-7 -56q-1 -5 -4.5 -8.5t-8.5 -3.5h-184q-11 0 -11 12z" />
    <glyph glyph-name="emacron" unicode="&#x113;" horiz-adv-x="413" 
d="M384 216.5q-4 -3.5 -9 -3.5h-214q-5 0 -5 -5l-6 -45l-1 -12q0 -26 14 -42.5t37 -16.5q22 0 39.5 14.5t26.5 37.5q4 10 14 10l86 -4q5 0 7.5 -3.5t1.5 -9.5q-15 -70 -63 -107.5t-124 -37.5q-73 0 -113.5 36.5t-40.5 100.5q0 7 2 25l25 203q9 73 61 117.5t131 44.5
q73 0 113 -37.5t40 -100.5q0 -16 -1 -24l-17 -132q0 -5 -4 -8.5zM196 399q-19 -20 -23 -51l-6 -45q0 -5 4 -5h110q5 0 5 5l6 45l1 12q0 26 -14 42.5t-38 16.5q-26 0 -45 -20zM158 606.5q-3 3.5 -2 8.5l7 56q1 5 4.5 8.5t8.5 3.5h184q11 0 11 -12l-7 -56q-1 -5 -4.5 -8.5
t-8.5 -3.5h-185q-5 0 -8 3.5z" />
    <glyph glyph-name="Edotaccent" unicode="&#x116;" horiz-adv-x="422" 
d="M442.5 603.5q-3.5 -3.5 -8.5 -3.5h-210q-5 0 -5 -5l-24 -189q0 -5 5 -5h124q5 0 8 -3.5t2 -8.5l-10 -77q0 -5 -4 -8.5t-9 -3.5h-124q-5 0 -5 -5l-24 -190q0 -5 5 -5h209q5 0 8 -3.5t2 -8.5l-9 -76q-1 -5 -4.5 -8.5t-8.5 -3.5h-315q-11 0 -11 12l83 676q1 5 5 8.5t9 3.5
h315q5 0 8 -3.5t2 -8.5l-9 -76q-1 -5 -4.5 -8.5zM253 787q-17 17 -17 44q0 35 23 58t56 23q27 0 43.5 -16.5t16.5 -43.5q0 -35 -23 -58.5t-54 -23.5q-28 0 -45 17z" />
    <glyph glyph-name="edotaccent" unicode="&#x117;" horiz-adv-x="413" 
d="M384 216.5q-4 -3.5 -9 -3.5h-214q-5 0 -5 -5l-6 -45l-1 -12q0 -26 14 -42.5t37 -16.5q22 0 39.5 14.5t26.5 37.5q4 10 14 10l86 -4q5 0 7.5 -3.5t1.5 -9.5q-15 -70 -63 -107.5t-124 -37.5q-73 0 -113.5 36.5t-40.5 100.5q0 7 2 25l25 203q9 73 61 117.5t131 44.5
q73 0 113 -37.5t40 -100.5q0 -16 -1 -24l-17 -132q0 -5 -4 -8.5zM196 399q-19 -20 -23 -51l-6 -45q0 -5 4 -5h110q5 0 5 5l6 45l1 12q0 26 -14 42.5t-38 16.5q-26 0 -45 -20zM215 598q-17 17 -17 44q0 35 23 58t56 23q27 0 43.5 -16.5t16.5 -43.5q0 -35 -23 -58.5t-54 -23.5
q-28 0 -45 17z" />
    <glyph glyph-name="Eogonek" unicode="&#x118;" horiz-adv-x="422" 
d="M442.5 603.5q-3.5 -3.5 -8.5 -3.5h-210q-5 0 -5 -5l-24 -189q0 -5 5 -5h124q5 0 8 -3.5t2 -8.5l-10 -77q0 -5 -4 -8.5t-9 -3.5h-124q-5 0 -5 -5l-24 -190q0 -5 5 -5h209q5 0 8 -3.5t2 -8.5l-9 -76q-1 -5 -4.5 -8.5t-8.5 -3.5h-119q-3 0 -7 -2q-52 -47 -52 -84
q0 -18 10 -25t25 -5h2q10 0 10 -10l1 -35q0 -11 -11 -14q-22 -6 -40 -6q-31 0 -51.5 16.5t-20.5 54.5q0 57 47 104q3 2 2.5 4t-3.5 2h-108q-11 0 -11 12l83 676q1 5 5 8.5t9 3.5h315q5 0 8 -3.5t2 -8.5l-9 -76q-1 -5 -4.5 -8.5z" />
    <glyph glyph-name="eogonek" unicode="&#x119;" horiz-adv-x="413" 
d="M384 216.5q-4 -3.5 -9 -3.5h-214q-5 0 -5 -5l-6 -45l-1 -12q0 -26 14 -42.5t37 -16.5q22 0 39.5 14.5t26.5 37.5q4 10 14 10l86 -4q5 0 7.5 -3.5t1.5 -9.5q-30 -127 -153 -143q-3 0 -5 -3q-45 -42 -44 -79q1 -17 10 -23.5t24 -4.5h3q9 0 9 -10l1 -35q0 -11 -10 -14
q-22 -6 -40 -6q-31 0 -52 16.5t-21 55.5q0 55 44 100q4 4 -1 6q-50 11 -78 45.5t-28 86.5q0 7 2 25l25 203q9 73 61 117.5t131 44.5q73 0 113 -37.5t40 -100.5q0 -16 -1 -24l-17 -132q0 -5 -4 -8.5zM196 399q-19 -20 -23 -51l-6 -45q0 -5 4 -5h110q5 0 5 5l6 45l1 12
q0 26 -14 42.5t-38 16.5q-26 0 -45 -20z" />
    <glyph glyph-name="Ecaron" unicode="&#x11a;" horiz-adv-x="422" 
d="M442.5 603.5q-3.5 -3.5 -8.5 -3.5h-210q-5 0 -5 -5l-24 -189q0 -5 5 -5h124q5 0 8 -3.5t2 -8.5l-10 -77q0 -5 -4 -8.5t-9 -3.5h-124q-5 0 -5 -5l-24 -190q0 -5 5 -5h209q5 0 8 -3.5t2 -8.5l-9 -76q-1 -5 -4.5 -8.5t-8.5 -3.5h-315q-11 0 -11 12l83 676q1 5 5 8.5t9 3.5
h315q5 0 8 -3.5t2 -8.5l-9 -76q-1 -5 -4.5 -8.5zM186 881q0 8 11 8h66q11 0 14 -8l26 -62q3 -4 6 0l41 62q5 8 15 8h68q9 0 9 -6q0 -3 -3 -8l-76 -103q-6 -8 -15 -8h-100q-9 0 -12 8l-49 103q-1 2 -1 6z" />
    <glyph glyph-name="ecaron" unicode="&#x11b;" horiz-adv-x="413" 
d="M384 216.5q-4 -3.5 -9 -3.5h-214q-5 0 -5 -5l-6 -45l-1 -12q0 -26 14 -42.5t37 -16.5q22 0 39.5 14.5t26.5 37.5q4 10 14 10l86 -4q5 0 7.5 -3.5t1.5 -9.5q-15 -70 -63 -107.5t-124 -37.5q-73 0 -113.5 36.5t-40.5 100.5q0 7 2 25l25 203q9 73 61 117.5t131 44.5
q73 0 113 -37.5t40 -100.5q0 -16 -1 -24l-17 -132q0 -5 -4 -8.5zM196 399q-19 -20 -23 -51l-6 -45q0 -5 4 -5h110q5 0 5 5l6 45l1 12q0 26 -14 42.5t-38 16.5q-26 0 -45 -20zM146 691q0 8 11 8h66q11 0 14 -8l26 -62q3 -4 6 0l41 62q5 8 15 8h68q9 0 9 -6q0 -3 -3 -8
l-76 -103q-6 -8 -15 -8h-100q-9 0 -12 8l-49 103q-1 2 -1 6z" />
    <glyph glyph-name="Gcircumflex" unicode="&#x11c;" horiz-adv-x="447" 
d="M84.5 33q-43.5 41 -43.5 111q0 9 2 29l43 354q10 82 66 131.5t139 49.5q75 0 119.5 -42t44.5 -113q0 -9 -2 -27l-5 -39q-1 -5 -4.5 -8.5t-8.5 -3.5h-90q-5 0 -8 3.5t-2 8.5l5 41q1 5 1 14q0 30 -17 48t-46 18q-31 0 -53 -22t-27 -58l-44 -356q-1 -5 -1 -14
q0 -30 16.5 -48t45.5 -18q32 0 55 22t27 58l11 96q2 5 -4 5h-59q-5 0 -8 3.5t-2 8.5l9 73q1 5 4.5 8.5t8.5 3.5h165q5 0 8 -3.5t2 -8.5l-23 -185q-10 -82 -67 -131.5t-139 -49.5q-75 0 -118.5 41zM169 770q0 4 3 8l74 103q5 8 14 8h100q10 0 13 -8l51 -103q2 -4 2 -6
q0 -8 -11 -8h-68q-9 0 -14 8l-25 63q-2 5 -6 0l-41 -63q-6 -8 -16 -8h-67q-9 0 -9 6z" />
    <glyph glyph-name="gcircumflex" unicode="&#x11d;" horiz-adv-x="418" 
d="M313 507.5q4 3.5 9 3.5h89q5 0 8 -3.5t2 -8.5l-59 -480q-13 -108 -68 -166.5t-177 -58.5q-21 0 -32 1q-10 1 -10 13l10 77q2 13 14 11q55 -1 86 14t45.5 44t20.5 76l1 11q1 3 -1 3.5t-4 -2.5q-38 -43 -97 -43q-57 0 -86 33.5t-29 94.5q0 10 2 34l24 196q10 77 49.5 119.5
t103.5 42.5q26 0 49 -10t37 -33q1 -3 3 -2.5t3 3.5l3 22q0 5 4 8.5zM245.5 118.5q18.5 19.5 22.5 50.5l22 179q1 4 1 13q0 26 -13.5 42t-36.5 16q-26 0 -45 -20t-23 -51l-22 -179q-1 -4 -1 -12q0 -26 14 -42t37 -16q26 0 44.5 19.5zM133 581q0 4 3 8l74 103q5 8 14 8h100
q10 0 13 -8l51 -103q2 -4 2 -6q0 -8 -11 -8h-68q-9 0 -14 8l-25 63q-2 5 -6 0l-41 -63q-6 -8 -16 -8h-67q-9 0 -9 6z" />
    <glyph glyph-name="Gbreve" unicode="&#x11e;" horiz-adv-x="447" 
d="M84.5 33q-43.5 41 -43.5 111q0 9 2 29l43 354q10 82 66 131.5t139 49.5q75 0 119.5 -42t44.5 -113q0 -9 -2 -27l-5 -39q-1 -5 -4.5 -8.5t-8.5 -3.5h-90q-5 0 -8 3.5t-2 8.5l5 41q1 5 1 14q0 30 -17 48t-46 18q-31 0 -53 -22t-27 -58l-44 -356q-1 -5 -1 -14
q0 -30 16.5 -48t45.5 -18q32 0 55 22t27 58l11 96q2 5 -4 5h-59q-5 0 -8 3.5t-2 8.5l9 73q1 5 4.5 8.5t8.5 3.5h165q5 0 8 -3.5t2 -8.5l-23 -185q-10 -82 -67 -131.5t-139 -49.5q-75 0 -118.5 41zM222 769q-27 28 -25 74q0 12 13 12h37q11 0 11 -12q1 -22 13 -35.5t31 -13.5
t34.5 13.5t20.5 35.5q3 12 14 12h38q12 0 10 -12q-10 -46 -44 -74t-80 -28t-73 28z" />
    <glyph glyph-name="gbreve" unicode="&#x11f;" horiz-adv-x="418" 
d="M313 507.5q4 3.5 9 3.5h89q5 0 8 -3.5t2 -8.5l-59 -480q-13 -108 -68 -166.5t-177 -58.5q-21 0 -32 1q-10 1 -10 13l10 77q2 13 14 11q55 -1 86 14t45.5 44t20.5 76l1 11q1 3 -1 3.5t-4 -2.5q-38 -43 -97 -43q-57 0 -86 33.5t-29 94.5q0 10 2 34l24 196q10 77 49.5 119.5
t103.5 42.5q26 0 49 -10t37 -33q1 -3 3 -2.5t3 3.5l3 22q0 5 4 8.5zM245.5 118.5q18.5 19.5 22.5 50.5l22 179q1 4 1 13q0 26 -13.5 42t-36.5 16q-26 0 -45 -20t-23 -51l-22 -179q-1 -4 -1 -12q0 -26 14 -42t37 -16q26 0 44.5 19.5zM186 580q-27 28 -25 74q0 12 13 12h37
q11 0 11 -12q1 -22 13 -35.5t31 -13.5t34.5 13.5t20.5 35.5q3 12 14 12h38q12 0 10 -12q-10 -46 -44 -74t-80 -28t-73 28z" />
    <glyph glyph-name="Gdotaccent" unicode="&#x120;" horiz-adv-x="447" 
d="M84.5 33q-43.5 41 -43.5 111q0 9 2 29l43 354q10 82 66 131.5t139 49.5q75 0 119.5 -42t44.5 -113q0 -9 -2 -27l-5 -39q-1 -5 -4.5 -8.5t-8.5 -3.5h-90q-5 0 -8 3.5t-2 8.5l5 41q1 5 1 14q0 30 -17 48t-46 18q-31 0 -53 -22t-27 -58l-44 -356q-1 -5 -1 -14
q0 -30 16.5 -48t45.5 -18q32 0 55 22t27 58l11 96q2 5 -4 5h-59q-5 0 -8 3.5t-2 8.5l9 73q1 5 4.5 8.5t8.5 3.5h165q5 0 8 -3.5t2 -8.5l-23 -185q-10 -82 -67 -131.5t-139 -49.5q-75 0 -118.5 41zM254 787q-17 17 -17 44q0 35 23 58t56 23q27 0 43.5 -16.5t16.5 -43.5
q0 -35 -23 -58.5t-54 -23.5q-28 0 -45 17z" />
    <glyph glyph-name="gdotaccent" unicode="&#x121;" horiz-adv-x="418" 
d="M313 507.5q4 3.5 9 3.5h89q5 0 8 -3.5t2 -8.5l-59 -480q-13 -108 -68 -166.5t-177 -58.5q-21 0 -32 1q-10 1 -10 13l10 77q2 13 14 11q55 -1 86 14t45.5 44t20.5 76l1 11q1 3 -1 3.5t-4 -2.5q-38 -43 -97 -43q-57 0 -86 33.5t-29 94.5q0 10 2 34l24 196q10 77 49.5 119.5
t103.5 42.5q26 0 49 -10t37 -33q1 -3 3 -2.5t3 3.5l3 22q0 5 4 8.5zM245.5 118.5q18.5 19.5 22.5 50.5l22 179q1 4 1 13q0 26 -13.5 42t-36.5 16q-26 0 -45 -20t-23 -51l-22 -179q-1 -4 -1 -12q0 -26 14 -42t37 -16q26 0 44.5 19.5zM218 598q-17 17 -17 44q0 35 23 58t56 23
q27 0 43.5 -16.5t16.5 -43.5q0 -35 -23 -58.5t-54 -23.5q-28 0 -45 17z" />
    <glyph glyph-name="uni0122" unicode="&#x122;" horiz-adv-x="447" 
d="M84.5 33q-43.5 41 -43.5 111q0 9 2 29l43 354q10 82 66 131.5t139 49.5q75 0 119.5 -42t44.5 -113q0 -9 -2 -27l-5 -39q-1 -5 -4.5 -8.5t-8.5 -3.5h-90q-5 0 -8 3.5t-2 8.5l5 41q1 5 1 14q0 30 -17 48t-46 18q-31 0 -53 -22t-27 -58l-44 -356q-1 -5 -1 -14
q0 -30 16.5 -48t45.5 -18q32 0 55 22t27 58l11 96q2 5 -4 5h-59q-5 0 -8 3.5t-2 8.5l9 73q1 5 4.5 8.5t8.5 3.5h165q5 0 8 -3.5t2 -8.5l-23 -185q-10 -82 -67 -131.5t-139 -49.5q-75 0 -118.5 41zM107 -181q0 4 3 8l69 103q5 8 16 8h70q9 0 9 -7q0 -3 -3 -8l-85 -103
q-5 -7 -14 -7h-55q-10 0 -10 6z" />
    <glyph glyph-name="uni0123" unicode="&#x123;" horiz-adv-x="418" 
d="M348 685q0 -3 -3 -8l-70 -104q-5 -8 -16 -8h-69q-10 0 -10 7q0 4 4 8l84 104q6 7 15 7h55q10 0 10 -6zM313 507.5q4 3.5 9 3.5h89q5 0 8 -3.5t2 -8.5l-59 -480q-13 -108 -68 -166.5t-177 -58.5q-21 0 -32 1q-10 1 -10 13l10 77q2 13 14 11q55 -1 86 14t45.5 44t20.5 76
l1 11q1 3 -1 3.5t-4 -2.5q-38 -43 -97 -43q-57 0 -86 33.5t-29 94.5q0 10 2 34l24 196q10 77 49.5 119.5t103.5 42.5q26 0 49 -10t37 -33q1 -3 3 -2.5t3 3.5l3 22q0 5 4 8.5zM245.5 118.5q18.5 19.5 22.5 50.5l22 179q1 4 1 13q0 26 -13.5 42t-36.5 16q-26 0 -45 -20
t-23 -51l-22 -179q-1 -4 -1 -12q0 -26 14 -42t37 -16q26 0 44.5 19.5z" />
    <glyph glyph-name="Hcircumflex" unicode="&#x124;" horiz-adv-x="463" 
d="M367.5 696.5q3.5 3.5 8.5 3.5h89q5 0 8 -3.5t2 -8.5l-83 -676q0 -5 -4 -8.5t-9 -3.5h-89q-5 0 -8 3.5t-2 8.5l35 283q0 5 -5 5h-123q-5 0 -5 -5l-35 -283q-1 -5 -4.5 -8.5t-8.5 -3.5h-89q-11 0 -11 12l83 676q1 5 5 8.5t9 3.5h89q5 0 8 -3.5t2 -8.5l-35 -282q0 -5 5 -5
h123q5 0 5 5l35 282q1 5 4.5 8.5zM176 771q0 4 3 8l74 103q5 8 14 8h100q10 0 13 -8l51 -103q2 -4 2 -6q0 -8 -11 -8h-68q-9 0 -14 8l-25 63q-2 5 -6 0l-41 -63q-6 -8 -16 -8h-67q-9 0 -9 6z" />
    <glyph glyph-name="hcircumflex" unicode="&#x125;" horiz-adv-x="425" 
d="M384 486q28 -33 28 -95q0 -18 -3 -39l-42 -340q-1 -5 -4.5 -8.5t-8.5 -3.5h-89q-5 0 -8 3.5t-2 8.5l40 331q1 6 1 18q0 28 -12.5 43t-35.5 15q-28 0 -46 -20.5t-23 -58.5l-40 -328q-1 -5 -4.5 -8.5t-8.5 -3.5h-89q-5 0 -8 3.5t-2 8.5l83 676q1 5 4.5 8.5t8.5 3.5h89
q5 0 8 -3.5t2 -8.5l-25 -209q-1 -3 1.5 -3.5t5.5 3.5q37 40 97 40q55 0 83 -33zM168 756q0 4 3 8l74 103q5 8 14 8h100q10 0 13 -8l51 -103q2 -4 2 -6q0 -8 -11 -8h-68q-9 0 -14 8l-25 63q-2 5 -6 0l-41 -63q-6 -8 -16 -8h-67q-9 0 -9 6z" />
    <glyph glyph-name="Hbar" unicode="&#x126;" horiz-adv-x="463" 
d="M506 583.5q3 -3.5 2 -8.5l-7 -56q-1 -5 -4.5 -8.5t-8.5 -3.5h-30q-5 0 -5 -5l-61 -490q0 -5 -4 -8.5t-9 -3.5h-89q-5 0 -8 3.5t-2 8.5l35 283q0 5 -5 5h-123q-5 0 -5 -5l-35 -283q-1 -5 -4.5 -8.5t-8.5 -3.5h-89q-11 0 -11 12l61 490q0 5 -5 5h-29q-5 0 -8 3.5t-2 8.5
l7 56q1 5 4.5 8.5t8.5 3.5h29q4 0 6 5l11 96q1 5 5 8.5t9 3.5h89q5 0 8 -3.5t2 -8.5l-12 -96q0 -5 4 -5h124q5 0 5 5l12 96q1 5 4.5 8.5t8.5 3.5h89q5 0 8 -3.5t2 -8.5l-11 -96q-2 -5 4 -5h30q5 0 8 -3.5zM328 406l12 96q0 5 -4 5h-123q-4 0 -6 -5l-12 -96q0 -5 5 -5h123
q5 0 5 5z" />
    <glyph glyph-name="hbar" unicode="&#x127;" horiz-adv-x="425" 
d="M384 486q28 -33 28 -95q0 -18 -3 -39l-42 -340q-1 -5 -4.5 -8.5t-8.5 -3.5h-89q-5 0 -8 3.5t-2 8.5l40 331q1 6 1 18q0 28 -12.5 43t-35.5 15q-28 0 -46 -20.5t-23 -58.5l-40 -328q-1 -5 -4.5 -8.5t-8.5 -3.5h-89q-5 0 -8 3.5t-2 8.5l65 534q2 5 -4 5h-32q-5 0 -8 3.5
t-2 8.5l6 47q0 5 4 8.5t9 3.5h32q5 0 5 5l8 61q1 5 4.5 8.5t8.5 3.5h89q5 0 8 -3.5t2 -8.5l-7 -61q-2 -5 4 -5h93q5 0 8 -3.5t2 -8.5l-6 -47q0 -5 -4 -8.5t-9 -3.5h-93q-5 0 -5 -5l-8 -67q-1 -3 1.5 -3.5t5.5 3.5q37 40 97 40q55 0 83 -33z" />
    <glyph glyph-name="Itilde" unicode="&#x128;" horiz-adv-x="218" 
d="M34 12l83 676q1 5 5 8.5t9 3.5h89q5 0 8 -3.5t2 -8.5l-83 -676q-1 -5 -4.5 -8.5t-8.5 -3.5h-89q-11 0 -11 12zM225 787.5q-11 4.5 -26 14.5q-7 4 -14 9t-12.5 7.5t-13.5 2.5q-21 0 -39 -23q-9 -10 -17 -4l-29 23q-7 6 -3 16q17 32 40.5 47.5t48.5 15.5q16 0 28.5 -6
t28.5 -17q4 -3 11 -8t13.5 -8t14.5 -3q23 0 40 22q7 12 16 5l29 -22q3 -3 3 -8q0 -6 -6 -15q-19 -28 -43 -40.5t-46 -12.5q-13 0 -24 4.5z" />
    <glyph glyph-name="itilde" unicode="&#x129;" horiz-adv-x="177" 
d="M16 3.5q-3 3.5 -2 8.5l60 487q1 5 4.5 8.5t8.5 3.5h89q5 0 8 -3.5t2 -8.5l-59 -487q-1 -5 -5 -8.5t-9 -3.5h-89q-5 0 -8 3.5zM181 598.5q-11 4.5 -26 14.5q-7 4 -14 9t-12.5 7.5t-13.5 2.5q-21 0 -39 -23q-9 -10 -17 -4l-29 23q-7 6 -3 16q17 32 40.5 47.5t48.5 15.5
q16 0 28.5 -6t28.5 -17q4 -3 11 -8t13.5 -8t14.5 -3q23 0 40 22q7 12 16 5l29 -22q3 -3 3 -8q0 -6 -6 -15q-19 -28 -43 -40.5t-46 -12.5q-13 0 -24 4.5z" />
    <glyph glyph-name="Imacron" unicode="&#x12a;" horiz-adv-x="218" 
d="M34 12l83 676q1 5 5 8.5t9 3.5h89q5 0 8 -3.5t2 -8.5l-83 -676q-1 -5 -4.5 -8.5t-8.5 -3.5h-89q-11 0 -11 12zM79 787l7 56q1 5 4.5 8.5t8.5 3.5h185q5 0 8 -3.5t2 -8.5l-7 -56q-1 -5 -4.5 -8.5t-8.5 -3.5h-184q-11 0 -11 12z" />
    <glyph glyph-name="imacron" unicode="&#x12b;" horiz-adv-x="177" 
d="M16 3.5q-3 3.5 -2 8.5l60 487q1 5 4.5 8.5t8.5 3.5h89q5 0 8 -3.5t2 -8.5l-59 -487q-1 -5 -5 -8.5t-9 -3.5h-89q-5 0 -8 3.5zM36 598l7 56q1 5 4.5 8.5t8.5 3.5h185q5 0 8 -3.5t2 -8.5l-7 -56q-1 -5 -4.5 -8.5t-8.5 -3.5h-184q-11 0 -11 12z" />
    <glyph glyph-name="ibreve" unicode="&#x12d;" horiz-adv-x="177" 
d="M16 3.5q-3 3.5 -2 8.5l60 487q1 5 4.5 8.5t8.5 3.5h89q5 0 8 -3.5t2 -8.5l-59 -487q-1 -5 -5 -8.5t-9 -3.5h-89q-5 0 -8 3.5zM67 598q-27 28 -25 74q0 12 12 12h38q11 0 11 -12q0 -22 12 -35.5t31 -13.5t34.5 13.5t21.5 35.5q3 12 14 12h38q12 0 9 -12q-10 -46 -43.5 -74
t-79.5 -28t-73 28z" />
    <glyph glyph-name="Iogonek" unicode="&#x12e;" horiz-adv-x="201" 
d="M26 12l83 676q1 5 5 8.5t9 3.5h89q5 0 8 -3.5t2 -8.5l-83 -676q-1 -5 -4.5 -8.5t-8.5 -3.5h-89q-11 0 -11 12zM111 -183q-22 -6 -40 -6q-31 0 -52.5 16.5t-21.5 55.5q0 60 58 111q6 6 15 6h46q9 0 9 -6q0 -4 -5 -9q-47 -43 -46 -81q1 -16 10.5 -23t23.5 -5h3q9 0 9 -9
l1 -36q0 -11 -10 -14z" />
    <glyph glyph-name="iogonek" unicode="&#x12f;" horiz-adv-x="218" 
d="M41 3.5q-3 3.5 -2 8.5l60 487q1 5 4.5 8.5t8.5 3.5h89q5 0 8 -3.5t2 -8.5l-59 -487q-1 -5 -5 -8.5t-9 -3.5h-89q-5 0 -8 3.5zM121 598q-17 17 -17 44q0 35 23 58t56 23q27 0 43.5 -16.5t16.5 -43.5q0 -35 -23 -58.5t-54 -23.5q-28 0 -45 17zM125 -183q-22 -6 -40 -6
q-31 0 -52.5 16.5t-21.5 55.5q0 60 58 111q6 6 15 6h46q9 0 9 -6q0 -4 -5 -9q-47 -43 -46 -81q1 -16 10.5 -23t23.5 -5h3q9 0 9 -9l1 -36q0 -11 -10 -14z" />
    <glyph glyph-name="Idotaccent" unicode="&#x130;" horiz-adv-x="218" 
d="M34 12l83 676q1 5 5 8.5t9 3.5h89q5 0 8 -3.5t2 -8.5l-83 -676q-1 -5 -4.5 -8.5t-8.5 -3.5h-89q-11 0 -11 12zM140 787q-17 17 -17 44q0 35 23 58t56 23q27 0 43.5 -16.5t16.5 -43.5q0 -35 -23 -58.5t-54 -23.5q-28 0 -45 17z" />
    <glyph glyph-name="dotlessi" unicode="&#x131;" horiz-adv-x="177" 
d="M16 3.5q-3 3.5 -2 8.5l60 487q1 5 4.5 8.5t8.5 3.5h89q5 0 8 -3.5t2 -8.5l-59 -487q-1 -5 -5 -8.5t-9 -3.5h-89q-5 0 -8 3.5z" />
    <glyph glyph-name="ij" unicode="&#x133;" horiz-adv-x="410" 
d="M111.5 598q-16.5 17 -16.5 44q0 35 22.5 58t55.5 23q27 0 43.5 -16.5t16.5 -42.5q0 -35 -22.5 -59t-54.5 -24q-28 0 -44.5 17zM33 3.5q-3 3.5 -2 8.5l59 487q1 5 4.5 8.5t8.5 3.5h90q5 0 8 -3.5t2 -8.5l-60 -487q-1 -5 -4.5 -8.5t-8.5 -3.5h-89q-5 0 -8 3.5zM314.5 598
q-16.5 17 -16.5 44q0 35 22.5 58t55.5 23q27 0 43.5 -16.5t16.5 -42.5q0 -35 -22.5 -59t-54.5 -24q-28 0 -44.5 17zM119 -201.5q-3 3.5 -2 8.5l10 75q0 5 3.5 8.5t9.5 3.5q42 1 63 24t26 66l63 515q1 5 5 8.5t9 3.5h89q5 0 8 -3.5t2 -8.5l-63 -515q-9 -68 -26.5 -107.5
t-61.5 -61t-127 -20.5q-5 0 -8 3.5z" />
    <glyph glyph-name="Jcircumflex" unicode="&#x134;" horiz-adv-x="429" 
d="M59 33.5q-43 41.5 -43 111.5q0 10 2 28l9 74q1 5 5 8.5t9 3.5h89q5 0 8 -3.5t2 -8.5l-9 -76q-1 -5 -1 -14q0 -29 15.5 -47t42.5 -18q31 0 52 22t25 57l64 517q1 5 4.5 8.5t8.5 3.5h89q5 0 8 -3.5t2 -8.5l-63 -515q-10 -81 -65.5 -131t-136.5 -50q-74 0 -117 41.5z
M264 771q0 4 3 8l74 103q5 8 14 8h100q10 0 13 -8l51 -103q2 -4 2 -6q0 -8 -11 -8h-68q-9 0 -14 8l-25 63q-2 5 -6 0l-41 -63q-6 -8 -16 -8h-67q-9 0 -9 6z" />
    <glyph glyph-name="jcircumflex" unicode="&#x135;" horiz-adv-x="205" 
d="M-87 -201.5q-3 3.5 -2 8.5l10 75q0 5 3.5 8.5t9.5 3.5q42 1 63 24t26 66l63 515q1 5 5 8.5t9 3.5h89q5 0 8 -3.5t2 -8.5l-63 -515q-9 -68 -26.5 -107.5t-61.5 -61t-127 -20.5q-5 0 -8 3.5zM24 581q0 4 3 8l74 103q5 8 14 8h100q10 0 13 -8l51 -103q2 -4 2 -6q0 -8 -11 -8
h-68q-9 0 -14 8l-25 63q-2 5 -6 0l-41 -63q-6 -8 -16 -8h-67q-9 0 -9 6z" />
    <glyph glyph-name="uni0136" unicode="&#x136;" horiz-adv-x="463" 
d="M34 12l83 676q1 5 5 8.5t9 3.5h89q5 0 8 -3.5t2 -8.5l-34 -276q-1 -4 1.5 -4.5t4.5 2.5l180 281q5 9 15 9h96q9 0 9 -6q0 -3 -3 -8l-180 -281q-1 -4 -1 -6l110 -385v-3q0 -11 -11 -11h-96q-10 0 -12 9l-79 289q-1 3 -3 2.5t-4 -2.5l-47 -67q-1 -1 -2 -2.5t-1 -3.5
l-26 -213q-1 -5 -4.5 -8.5t-8.5 -3.5h-89q-11 0 -11 12zM138 -173q0 4 3 8l69 103q5 8 16 8h70q9 0 9 -7q0 -3 -3 -8l-85 -103q-5 -7 -14 -7h-55q-10 0 -10 6z" />
    <glyph glyph-name="uni0137" unicode="&#x137;" 
d="M29 3.5q-3 3.5 -2 8.5l83 676q1 5 4.5 8.5t8.5 3.5h89q5 0 8 -3.5t2 -8.5l-43 -356q-1 -4 1 -4t4 3l127 172q5 8 15 8h93q8 0 8 -7q0 -3 -3 -8l-120 -157q-4 -4 -2 -7l77 -318v-4q0 -10 -11 -10h-93q-9 0 -11 10l-44 226q0 3 -2 3.5t-4 -2.5l-54 -70q-2 -4 -2 -6
l-19 -149q-1 -5 -4.5 -8.5t-8.5 -3.5h-89q-5 0 -8 3.5zM105 -173q0 4 3 8l69 103q5 8 16 8h70q9 0 9 -7q0 -3 -3 -8l-85 -103q-5 -7 -14 -7h-55q-10 0 -10 6z" />
    <glyph glyph-name="Lacute" unicode="&#x139;" horiz-adv-x="403" 
d="M34 12l83 676q1 5 5 8.5t9 3.5h89q5 0 8 -3.5t2 -8.5l-72 -583q0 -5 5 -5h209q5 0 8 -3.5t2 -8.5l-9 -76q-1 -5 -4.5 -8.5t-8.5 -3.5h-315q-11 0 -11 12zM131 770q0 4 3 8l69 103q5 8 16 8h70q9 0 9 -7q0 -3 -3 -8l-85 -103q-5 -7 -14 -7h-55q-10 0 -10 6z" />
    <glyph glyph-name="lacute" unicode="&#x13a;" horiz-adv-x="193" 
d="M25 3.5q-3 3.5 -2 8.5l83 676q1 5 4.5 8.5t8.5 3.5h89q5 0 8 -3.5t2 -8.5l-83 -676q-1 -5 -4.5 -8.5t-8.5 -3.5h-89q-5 0 -8 3.5zM118 770q0 4 3 8l69 103q5 8 16 8h70q9 0 9 -7q0 -3 -3 -8l-85 -103q-5 -7 -14 -7h-55q-10 0 -10 6z" />
    <glyph glyph-name="uni013B" unicode="&#x13b;" horiz-adv-x="403" 
d="M34 12l83 676q1 5 5 8.5t9 3.5h89q5 0 8 -3.5t2 -8.5l-72 -583q0 -5 5 -5h209q5 0 8 -3.5t2 -8.5l-9 -76q-1 -5 -4.5 -8.5t-8.5 -3.5h-315q-11 0 -11 12zM82 -173q0 4 3 8l69 103q5 8 16 8h70q9 0 9 -7q0 -3 -3 -8l-85 -103q-5 -7 -14 -7h-55q-10 0 -10 6z" />
    <glyph glyph-name="uni013C" unicode="&#x13c;" horiz-adv-x="193" 
d="M25 3.5q-3 3.5 -2 8.5l83 676q1 5 4.5 8.5t8.5 3.5h89q5 0 8 -3.5t2 -8.5l-83 -676q-1 -5 -4.5 -8.5t-8.5 -3.5h-89q-5 0 -8 3.5zM-65 -173q0 4 3 8l69 103q5 8 16 8h70q9 0 9 -7q0 -3 -3 -8l-85 -103q-5 -7 -14 -7h-55q-10 0 -10 6z" />
    <glyph glyph-name="Lcaron" unicode="&#x13d;" horiz-adv-x="405" 
d="M34 12l83 676q1 5 5 8.5t9 3.5h89q5 0 8 -3.5t2 -8.5l-72 -583q0 -5 5 -5h209q5 0 8 -3.5t2 -8.5l-9 -76q-1 -5 -4.5 -8.5t-8.5 -3.5h-315q-11 0 -11 12zM255 581q0 4 3 8l69 103q5 8 16 8h70q9 0 9 -7q0 -3 -3 -8l-85 -103q-5 -7 -14 -7h-55q-10 0 -10 6z" />
    <glyph glyph-name="lcaron" unicode="&#x13e;" horiz-adv-x="367" 
d="M25 3.5q-3 3.5 -2 8.5l83 676q1 5 4.5 8.5t8.5 3.5h89q5 0 8 -3.5t2 -8.5l-83 -676q-1 -5 -4.5 -8.5t-8.5 -3.5h-89q-5 0 -8 3.5zM235 582q0 4 3 8l69 103q5 8 16 8h70q9 0 9 -7q0 -3 -3 -8l-85 -103q-5 -7 -14 -7h-55q-10 0 -10 6z" />
    <glyph glyph-name="ldot" unicode="&#x140;" horiz-adv-x="219" 
d="M37 3.5q-3 3.5 -2 8.5l83 676q1 5 4.5 8.5t8.5 3.5h89q5 0 8 -3.5t2 -8.5l-83 -676q-1 -5 -4.5 -8.5t-8.5 -3.5h-89q-5 0 -8 3.5zM141 787q-17 17 -17 44q0 35 23 58t56 23q27 0 43.5 -16.5t16.5 -43.5q0 -35 -23 -58.5t-54 -23.5q-28 0 -45 17z" />
    <glyph glyph-name="Lslash" unicode="&#x141;" horiz-adv-x="453" 
d="M213 100h210q5 0 8 -3.5t2 -8.5l-10 -76q0 -5 -4 -8.5t-9 -3.5h-315q-5 0 -8 3.5t-2 8.5l23 192q1 3 -1 4t-4 -1l-54 -40q-5 -3 -8 -3q-4 0 -9 5l-34 49q-2 2 -2 7q0 6 6 10l118 89q4 2 4 6l44 358q1 5 4.5 8.5t8.5 3.5h89q5 0 8 -3.5t2 -8.5l-32 -262q0 -7 6 -3l138 103
q5 3 8 3q6 0 9 -5l33 -51q3 -4 3 -8t-6 -9l-203 -150q-3 -1 -3 -6l-24 -195q-2 -5 4 -5z" />
    <glyph glyph-name="lslash" unicode="&#x142;" horiz-adv-x="342" 
d="M354 391q0 -7 -7 -11l-102 -55q-4 -2 -4 -6l-38 -307q-1 -5 -4.5 -8.5t-8.5 -3.5h-89q-5 0 -8 3.5t-2 8.5l29 239q1 3 -1 4.5t-4 -0.5l-44 -24q-4 -2 -7 -2q-8 0 -9 7l-21 55l-1 4q0 7 8 12l89 48q2 1 4 6l40 327q1 5 4.5 8.5t8.5 3.5h89q5 0 8 -3.5t2 -8.5l-32 -259
q0 -3 2 -4.5t4 0.5l55 31q4 2 6 2q7 0 10 -7l22 -55q1 -2 1 -5z" />
    <glyph glyph-name="Nacute" unicode="&#x143;" horiz-adv-x="492" 
d="M397.5 696.5q3.5 3.5 8.5 3.5h88q5 0 8 -3.5t2 -8.5l-83 -676q0 -5 -4 -8.5t-9 -3.5h-101q-10 0 -12 10l-92 424q-1 3 -3.5 2.5t-2.5 -3.5l-51 -421q-1 -5 -4.5 -8.5t-8.5 -3.5h-88q-11 0 -11 12l83 676q1 5 5 8.5t9 3.5h99q10 0 12 -10l94 -421q0 -3 2.5 -2.5t3.5 3.5
l51 418q1 5 4.5 8.5zM266 774q0 4 3 8l69 103q5 8 16 8h70q9 0 9 -7q0 -3 -3 -8l-85 -103q-5 -7 -14 -7h-55q-10 0 -10 6z" />
    <glyph glyph-name="nacute" unicode="&#x144;" horiz-adv-x="425" 
d="M384 486q28 -33 28 -95q0 -18 -3 -39l-42 -340q-1 -5 -4.5 -8.5t-8.5 -3.5h-89q-5 0 -8 3.5t-2 8.5l40 331q1 6 1 18q0 28 -12.5 43t-35.5 15q-28 0 -46 -20.5t-23 -58.5l-40 -328q-1 -5 -4.5 -8.5t-8.5 -3.5h-89q-5 0 -8 3.5t-2 8.5l59 487q1 5 5 8.5t9 3.5h89
q5 0 8 -3.5t2 -8.5l-2 -20q-1 -3 1.5 -3.5t5.5 3.5q37 40 97 40q55 0 83 -33zM213 581q0 4 3 8l69 103q5 8 16 8h70q9 0 9 -7q0 -3 -3 -8l-85 -103q-5 -7 -14 -7h-55q-10 0 -10 6z" />
    <glyph glyph-name="uni0145" unicode="&#x145;" horiz-adv-x="492" 
d="M397.5 696.5q3.5 3.5 8.5 3.5h88q5 0 8 -3.5t2 -8.5l-83 -676q0 -5 -4 -8.5t-9 -3.5h-101q-10 0 -12 10l-92 424q-1 3 -3.5 2.5t-2.5 -3.5l-51 -421q-1 -5 -4.5 -8.5t-8.5 -3.5h-88q-11 0 -11 12l83 676q1 5 5 8.5t9 3.5h99q10 0 12 -10l94 -421q0 -3 2.5 -2.5t3.5 3.5
l51 418q1 5 4.5 8.5zM136 -173q0 4 3 8l69 103q5 8 16 8h70q9 0 9 -7q0 -3 -3 -8l-85 -103q-5 -7 -14 -7h-55q-10 0 -10 6z" />
    <glyph glyph-name="uni0146" unicode="&#x146;" horiz-adv-x="425" 
d="M384 486q28 -33 28 -95q0 -18 -3 -39l-42 -340q-1 -5 -4.5 -8.5t-8.5 -3.5h-89q-5 0 -8 3.5t-2 8.5l40 331q1 6 1 18q0 28 -12.5 43t-35.5 15q-28 0 -46 -20.5t-23 -58.5l-40 -328q-1 -5 -4.5 -8.5t-8.5 -3.5h-89q-5 0 -8 3.5t-2 8.5l59 487q1 5 5 8.5t9 3.5h89
q5 0 8 -3.5t2 -8.5l-2 -20q-1 -3 1.5 -3.5t5.5 3.5q37 40 97 40q55 0 83 -33zM104 -173q0 4 3 8l69 103q5 8 16 8h70q9 0 9 -7q0 -3 -3 -8l-85 -103q-5 -7 -14 -7h-55q-10 0 -10 6z" />
    <glyph glyph-name="Ncaron" unicode="&#x147;" horiz-adv-x="492" 
d="M397.5 696.5q3.5 3.5 8.5 3.5h88q5 0 8 -3.5t2 -8.5l-83 -676q0 -5 -4 -8.5t-9 -3.5h-101q-10 0 -12 10l-92 424q-1 3 -3.5 2.5t-2.5 -3.5l-51 -421q-1 -5 -4.5 -8.5t-8.5 -3.5h-88q-11 0 -11 12l83 676q1 5 5 8.5t9 3.5h99q10 0 12 -10l94 -421q0 -3 2.5 -2.5t3.5 3.5
l51 418q1 5 4.5 8.5zM210 885q0 8 11 8h66q11 0 14 -8l26 -62q3 -4 6 0l41 62q5 8 15 8h68q9 0 9 -6q0 -3 -3 -8l-76 -103q-6 -8 -15 -8h-100q-9 0 -12 8l-49 103q-1 2 -1 6z" />
    <glyph glyph-name="ncaron" unicode="&#x148;" horiz-adv-x="425" 
d="M384 486q28 -33 28 -95q0 -18 -3 -39l-42 -340q-1 -5 -4.5 -8.5t-8.5 -3.5h-89q-5 0 -8 3.5t-2 8.5l40 331q1 6 1 18q0 28 -12.5 43t-35.5 15q-28 0 -46 -20.5t-23 -58.5l-40 -328q-1 -5 -4.5 -8.5t-8.5 -3.5h-89q-5 0 -8 3.5t-2 8.5l59 487q1 5 5 8.5t9 3.5h89
q5 0 8 -3.5t2 -8.5l-2 -20q-1 -3 1.5 -3.5t5.5 3.5q37 40 97 40q55 0 83 -33zM157 692q0 8 11 8h66q11 0 14 -8l26 -62q3 -4 6 0l41 62q5 8 15 8h68q9 0 9 -6q0 -3 -3 -8l-76 -103q-6 -8 -15 -8h-100q-9 0 -12 8l-49 103q-1 2 -1 6z" />
    <glyph glyph-name="Eng" unicode="&#x14a;" horiz-adv-x="492" 
d="M397.5 696.5q3.5 3.5 8.5 3.5h88q5 0 8 -3.5t2 -8.5l-84 -688q-8 -67 -22.5 -102.5t-54.5 -55.5t-120 -19q-12 0 -10 12l8 76q2 13 14 11q25 0 37 8.5t16.5 23.5t7.5 43q1 2 0 6l-93 431q-1 3 -3.5 2.5t-2.5 -3.5l-51 -421q-1 -5 -4.5 -8.5t-8.5 -3.5h-88q-11 0 -11 12
l83 676q1 5 5 8.5t9 3.5h99q10 0 12 -10l86 -387q1 -3 3.5 -2.5t2.5 3.5l7 54q2 12 7 12h1q4 0 6 5l38 313q1 5 4.5 8.5z" />
    <glyph glyph-name="eng" unicode="&#x14b;" horiz-adv-x="425" 
d="M384 486q28 -33 28 -95q0 -18 -3 -39l-43 -352q-8 -62 -22.5 -98t-54.5 -58.5t-118 -22.5q-14 0 -13 12l9 74q2 12 14 12q39 1 53.5 22t19.5 65l41 337q1 6 1 18q0 28 -12.5 43t-35.5 15q-28 0 -46 -20.5t-23 -58.5l-40 -328q-1 -5 -4.5 -8.5t-8.5 -3.5h-89q-5 0 -8 3.5
t-2 8.5l59 487q1 5 5 8.5t9 3.5h89q5 0 8 -3.5t2 -8.5l-2 -20q-1 -3 1.5 -3.5t5.5 3.5q37 40 97 40q55 0 83 -33z" />
    <glyph glyph-name="Omacron" unicode="&#x14c;" horiz-adv-x="453" 
d="M86 35q-44 43 -44 117q0 8 2 30l41 336q10 86 67.5 138t141.5 52q76 0 120 -42.5t44 -115.5q0 -10 -2 -32l-41 -336q-10 -86 -67.5 -138t-141.5 -52q-76 0 -120 43zM274 115.5q23 23.5 28 61.5l43 346q1 5 1 14q0 33 -17.5 52t-47.5 19q-33 0 -55.5 -23.5t-27.5 -61.5
l-42 -346q-1 -6 -1 -17q0 -31 16.5 -49.5t46.5 -18.5q33 0 56 23.5zM196 786l7 56q1 5 4.5 8.5t8.5 3.5h185q5 0 8 -3.5t2 -8.5l-7 -56q-1 -5 -4.5 -8.5t-8.5 -3.5h-184q-11 0 -11 12z" />
    <glyph glyph-name="omacron" unicode="&#x14d;" horiz-adv-x="419" 
d="M75 28.5q-41 36.5 -41 100.5q0 8 2 26l25 201q9 74 61 118.5t132 44.5q73 0 114 -37.5t41 -100.5q0 -7 -2 -25l-24 -201q-9 -75 -61 -119t-133 -44q-73 0 -114 36.5zM248 112.5q19 19.5 23 51.5l23 184l1 12q0 26 -14.5 42.5t-38.5 16.5q-27 0 -46 -19.5t-23 -51.5
l-23 -184l-1 -12q0 -27 14.5 -43t38.5 -16q27 0 46 19.5zM157 598l7 56q1 5 4.5 8.5t8.5 3.5h185q5 0 8 -3.5t2 -8.5l-7 -56q-1 -5 -4.5 -8.5t-8.5 -3.5h-184q-11 0 -11 12z" />
    <glyph glyph-name="obreve" unicode="&#x14f;" horiz-adv-x="419" 
d="M75 28.5q-41 36.5 -41 100.5q0 8 2 26l25 201q9 74 61 118.5t132 44.5q73 0 114 -37.5t41 -100.5q0 -7 -2 -25l-24 -201q-9 -75 -61 -119t-133 -44q-73 0 -114 36.5zM248 112.5q19 19.5 23 51.5l23 184l1 12q0 26 -14.5 42.5t-38.5 16.5q-27 0 -46 -19.5t-23 -51.5
l-23 -184l-1 -12q0 -27 14.5 -43t38.5 -16q27 0 46 19.5zM188 598q-27 28 -25 74q0 12 12 12h38q11 0 11 -12q0 -22 12 -35.5t31 -13.5t34.5 13.5t21.5 35.5q3 12 14 12h38q12 0 9 -12q-10 -46 -43.5 -74t-79.5 -28t-73 28z" />
    <glyph glyph-name="Ohungarumlaut" unicode="&#x150;" horiz-adv-x="453" 
d="M86 35q-44 43 -44 117q0 8 2 30l41 336q10 86 67.5 138t141.5 52q76 0 120 -42.5t44 -115.5q0 -10 -2 -32l-41 -336q-10 -86 -67.5 -138t-141.5 -52q-76 0 -120 43zM274 115.5q23 23.5 28 61.5l43 346q1 5 1 14q0 33 -17.5 52t-47.5 19q-33 0 -55.5 -23.5t-27.5 -61.5
l-42 -346q-1 -6 -1 -17q0 -31 16.5 -49.5t46.5 -18.5q33 0 56 23.5zM193 766.5q-2 3.5 2 10.5l61 102q6 9 15 9h73q6 0 8 -4t-2 -10l-65 -102q-6 -9 -16 -9h-67q-7 0 -9 3.5zM335 769q0 4 3 8l65 102q2 4 6.5 6.5t8.5 2.5h68q9 0 9 -6q0 -3 -3 -8l-66 -103q-4 -8 -15 -8h-67
q-9 0 -9 6z" />
    <glyph glyph-name="ohungarumlaut" unicode="&#x151;" horiz-adv-x="419" 
d="M75 28.5q-41 36.5 -41 100.5q0 8 2 26l25 201q9 74 61 118.5t132 44.5q73 0 114 -37.5t41 -100.5q0 -7 -2 -25l-24 -201q-9 -75 -61 -119t-133 -44q-73 0 -114 36.5zM248 112.5q19 19.5 23 51.5l23 184l1 12q0 26 -14.5 42.5t-38.5 16.5q-27 0 -46 -19.5t-23 -51.5
l-23 -184l-1 -12q0 -27 14.5 -43t38.5 -16q27 0 46 19.5zM154 578.5q-2 3.5 2 10.5l61 102q6 9 15 9h73q6 0 8 -4t-2 -10l-65 -102q-6 -9 -16 -9h-67q-7 0 -9 3.5zM296 581q0 4 3 8l65 102q2 4 6.5 6.5t8.5 2.5h68q9 0 9 -6q0 -3 -3 -8l-66 -103q-4 -8 -15 -8h-67q-9 0 -9 6
z" />
    <glyph glyph-name="OE" unicode="&#x152;" horiz-adv-x="669" 
d="M689.5 603.5q-3.5 -3.5 -8.5 -3.5h-210q-5 0 -5 -5l-23 -189q-2 -5 4 -5h124q5 0 8 -3.5t2 -8.5l-9 -77q-1 -5 -4.5 -8.5t-8.5 -3.5h-124q-6 0 -6 -5l-23 -190q-2 -5 4 -5h209q5 0 8.5 -3.5t2.5 -8.5l-10 -76q-1 -5 -4.5 -8.5t-8.5 -3.5h-315q-5 0 -8 3.5t-2 8.5l1 12
q1 3 -1 3.5t-4 -1.5q-43 -34 -100 -34q-58 0 -97 44t-39 115q0 9 2 31l41 336q7 56 34 99t66 67t81 24q57 0 91 -34q2 -2 4 -1.5t2 3.5l2 12q1 5 4.5 8.5t8.5 3.5h315q5 0 8 -3.5t2 -8.5l-9 -76q-1 -5 -4.5 -8.5zM274 115.5q23 23.5 28 61.5l43 346q1 5 1 14q0 33 -17.5 52
t-47.5 19q-33 0 -55.5 -23.5t-27.5 -61.5l-42 -346q-1 -6 -1 -17q0 -31 16.5 -49.5t46.5 -18.5q33 0 56 23.5z" />
    <glyph glyph-name="oe" unicode="&#x153;" horiz-adv-x="658" 
d="M631 221.5q-4 -3.5 -9 -3.5h-215q-5 0 -5 -5l-7 -50l-1 -12q0 -26 14.5 -42.5t38.5 -16.5q22 0 39 15t26 38q3 10 13 10l87 -4q5 0 7.5 -3.5t1.5 -9.5q-15 -70 -62.5 -108t-123.5 -38t-113 57q-1 3 -6 0q-50 -57 -127 -57q-73 0 -114 36.5t-41 100.5q0 8 2 26l25 201
q9 74 61 118.5t132 44.5q75 0 113 -58q3 -4 6 0q53 58 126 58t113.5 -37.5t40.5 -100.5q0 -7 -2 -25l-16 -126q0 -5 -4 -8.5zM295 360q0 26 -14.5 42.5t-38.5 16.5q-27 0 -46 -19.5t-23 -51.5l-23 -185l-1 -12q0 -26 14 -42.5t38 -16.5q28 0 47 19.5t23 51.5l23 185z
M441 399.5q-19 -19.5 -23 -51.5l-6 -47q0 -5 5 -5h110q4 0 6 5l5 47q1 5 1 13q0 26 -14.5 42t-37.5 16q-27 0 -46 -19.5z" />
    <glyph glyph-name="Racute" unicode="&#x154;" horiz-adv-x="448" 
d="M290 10l-47 287q0 1 -1 2.5t-3 1.5h-52q-5 0 -5 -5l-35 -284q-1 -5 -4.5 -8.5t-8.5 -3.5h-89q-11 0 -11 12l83 676q1 5 5 8.5t9 3.5h182q70 0 110.5 -46.5t40.5 -123.5q0 -10 -2 -34q-8 -62 -37 -107t-73 -68q-4 -1 -4 -6l58 -301v-4q0 -10 -11 -10h-93q-10 0 -12 10z
M219 595l-25 -199q0 -5 4 -5h60q39 0 65.5 34.5t26.5 91.5q0 39 -18 61t-49 22h-59q-5 0 -5 -5zM241 770q0 4 3 8l69 103q5 8 16 8h70q9 0 9 -7q0 -3 -3 -8l-85 -103q-5 -7 -14 -7h-55q-10 0 -10 6z" />
    <glyph glyph-name="racute" unicode="&#x155;" horiz-adv-x="304" 
d="M331 507q7 -6 4 -15l-27 -93q-3 -12 -15 -7q-14 4 -24 4q-12 0 -22 -3q-27 -4 -47.5 -31.5t-25.5 -65.5l-35 -283q-1 -5 -4.5 -8.5t-8.5 -3.5h-89q-5 0 -8 3.5t-2 8.5l59 486q1 5 5 8.5t9 3.5h89q5 0 8 -3.5t2 -8.5l-6 -46q0 -4 2 -4.5t3 3.5q34 65 93 65q27 0 40 -10z
M170 581q0 4 3 8l69 103q5 8 16 8h70q9 0 9 -7q0 -3 -3 -8l-85 -103q-5 -7 -14 -7h-55q-10 0 -10 6z" />
    <glyph glyph-name="uni0156" unicode="&#x156;" horiz-adv-x="448" 
d="M290 10l-47 287q0 1 -1 2.5t-3 1.5h-52q-5 0 -5 -5l-35 -284q-1 -5 -4.5 -8.5t-8.5 -3.5h-89q-11 0 -11 12l83 676q1 5 5 8.5t9 3.5h182q70 0 110.5 -46.5t40.5 -123.5q0 -10 -2 -34q-8 -62 -37 -107t-73 -68q-4 -1 -4 -6l58 -301v-4q0 -10 -11 -10h-93q-10 0 -12 10z
M219 595l-25 -199q0 -5 4 -5h60q39 0 65.5 34.5t26.5 91.5q0 39 -18 61t-49 22h-59q-5 0 -5 -5zM118 -173q0 4 3 8l69 103q5 8 16 8h70q9 0 9 -7q0 -3 -3 -8l-85 -103q-5 -7 -14 -7h-55q-10 0 -10 6z" />
    <glyph glyph-name="uni0157" unicode="&#x157;" horiz-adv-x="304" 
d="M331 507q7 -6 4 -15l-27 -93q-3 -12 -15 -7q-14 4 -24 4q-12 0 -22 -3q-27 -4 -47.5 -31.5t-25.5 -65.5l-35 -283q-1 -5 -4.5 -8.5t-8.5 -3.5h-89q-5 0 -8 3.5t-2 8.5l59 486q1 5 5 8.5t9 3.5h89q5 0 8 -3.5t2 -8.5l-6 -46q0 -4 2 -4.5t3 3.5q34 65 93 65q27 0 40 -10z
M-62 -173q0 4 3 8l69 103q5 8 16 8h70q9 0 9 -7q0 -3 -3 -8l-85 -103q-5 -7 -14 -7h-55q-10 0 -10 6z" />
    <glyph glyph-name="Rcaron" unicode="&#x158;" horiz-adv-x="448" 
d="M290 10l-47 287q0 1 -1 2.5t-3 1.5h-52q-5 0 -5 -5l-35 -284q-1 -5 -4.5 -8.5t-8.5 -3.5h-89q-11 0 -11 12l83 676q1 5 5 8.5t9 3.5h182q70 0 110.5 -46.5t40.5 -123.5q0 -10 -2 -34q-8 -62 -37 -107t-73 -68q-4 -1 -4 -6l58 -301v-4q0 -10 -11 -10h-93q-10 0 -12 10z
M219 595l-25 -199q0 -5 4 -5h60q39 0 65.5 34.5t26.5 91.5q0 39 -18 61t-49 22h-59q-5 0 -5 -5zM185 881q0 8 11 8h66q11 0 14 -8l26 -62q3 -4 6 0l41 62q5 8 15 8h68q9 0 9 -6q0 -3 -3 -8l-76 -103q-6 -8 -15 -8h-100q-9 0 -12 8l-49 103q-1 2 -1 6z" />
    <glyph glyph-name="rcaron" unicode="&#x159;" horiz-adv-x="304" 
d="M331 507q7 -6 4 -15l-27 -93q-3 -12 -15 -7q-14 4 -24 4q-12 0 -22 -3q-27 -4 -47.5 -31.5t-25.5 -65.5l-35 -283q-1 -5 -4.5 -8.5t-8.5 -3.5h-89q-5 0 -8 3.5t-2 8.5l59 486q1 5 5 8.5t9 3.5h89q5 0 8 -3.5t2 -8.5l-6 -46q0 -4 2 -4.5t3 3.5q34 65 93 65q27 0 40 -10z
M113 692q0 8 11 8h66q11 0 14 -8l26 -62q3 -4 6 0l41 62q5 8 15 8h68q9 0 9 -6q0 -3 -3 -8l-76 -103q-6 -8 -15 -8h-100q-9 0 -12 8l-49 103q-1 2 -1 6z" />
    <glyph glyph-name="Sacute" unicode="&#x15a;" horiz-adv-x="421" 
d="M76 34q-43 42 -43 111q0 10 2 28l3 26q1 5 4.5 8.5t8.5 3.5h88q11 0 11 -12l-3 -20q-1 -5 -1 -16q0 -33 16 -52t42 -19q33 0 56.5 27t23.5 69q0 30 -18.5 52t-69.5 64q-40 33 -64.5 58t-41 59t-16.5 78q0 8 2 28q10 83 65 132t134 49q73 0 115.5 -42.5t42.5 -114.5
q0 -9 -2 -31l-2 -24q-1 -5 -5 -8.5t-9 -3.5h-87q-5 0 -8 3.5t-2 8.5l3 26q1 6 1 17q0 32 -16 50.5t-43 18.5q-32 0 -54.5 -25.5t-22.5 -69.5q0 -29 18 -52.5t65 -63.5q48 -40 74 -66t40 -55.5t14 -66.5q0 -9 -2 -29q-11 -86 -67 -137t-136 -51q-73 0 -116 42zM228 770
q0 4 3 8l69 103q5 8 16 8h70q9 0 9 -7q0 -3 -3 -8l-85 -103q-5 -7 -14 -7h-55q-10 0 -10 6z" />
    <glyph glyph-name="sacute" unicode="&#x15b;" horiz-adv-x="387" 
d="M65.5 27q-40.5 33 -40.5 89q0 13 1 19l1 7q1 5 4.5 8.5t8.5 3.5h84q5 0 8 -3.5t2 -8.5l-1 -5q-3 -24 13 -40t42 -16q27 0 44.5 17.5t17.5 43.5q0 22 -17 35t-38 22l-28 12q-48 20 -78.5 49t-30.5 84q0 80 50 126.5t130 46.5q69 0 108 -34.5t39 -94.5q0 -8 -2 -24
q-1 -5 -4.5 -8.5t-8.5 -3.5h-81q-11 0 -11 12l1 6q3 24 -10.5 40t-38.5 16q-28 0 -45 -19.5t-17 -43.5t17.5 -36.5t59.5 -31.5q35 -15 59 -30t42 -41.5t18 -64.5q0 -75 -52 -120t-135 -45q-71 0 -111.5 33zM192 581q0 4 3 8l69 103q5 8 16 8h70q9 0 9 -7q0 -3 -3 -8
l-85 -103q-5 -7 -14 -7h-55q-10 0 -10 6z" />
    <glyph glyph-name="Scircumflex" unicode="&#x15c;" horiz-adv-x="421" 
d="M76 34q-43 42 -43 111q0 10 2 28l3 26q1 5 4.5 8.5t8.5 3.5h88q11 0 11 -12l-3 -20q-1 -5 -1 -16q0 -33 16 -52t42 -19q33 0 56.5 27t23.5 69q0 30 -18.5 52t-69.5 64q-40 33 -64.5 58t-41 59t-16.5 78q0 8 2 28q10 83 65 132t134 49q73 0 115.5 -42.5t42.5 -114.5
q0 -9 -2 -31l-2 -24q-1 -5 -5 -8.5t-9 -3.5h-87q-5 0 -8 3.5t-2 8.5l3 26q1 6 1 17q0 32 -16 50.5t-43 18.5q-32 0 -54.5 -25.5t-22.5 -69.5q0 -29 18 -52.5t65 -63.5q48 -40 74 -66t40 -55.5t14 -66.5q0 -9 -2 -29q-11 -86 -67 -137t-136 -51q-73 0 -116 42zM153 770
q0 4 3 8l74 103q5 8 14 8h100q10 0 13 -8l51 -103q2 -4 2 -6q0 -8 -11 -8h-68q-9 0 -14 8l-25 63q-2 5 -6 0l-41 -63q-6 -8 -16 -8h-67q-9 0 -9 6z" />
    <glyph glyph-name="scircumflex" unicode="&#x15d;" horiz-adv-x="387" 
d="M65.5 27q-40.5 33 -40.5 89q0 13 1 19l1 7q1 5 4.5 8.5t8.5 3.5h84q5 0 8 -3.5t2 -8.5l-1 -5q-3 -24 13 -40t42 -16q27 0 44.5 17.5t17.5 43.5q0 22 -17 35t-38 22l-28 12q-48 20 -78.5 49t-30.5 84q0 80 50 126.5t130 46.5q69 0 108 -34.5t39 -94.5q0 -8 -2 -24
q-1 -5 -4.5 -8.5t-8.5 -3.5h-81q-11 0 -11 12l1 6q3 24 -10.5 40t-38.5 16q-28 0 -45 -19.5t-17 -43.5t17.5 -36.5t59.5 -31.5q35 -15 59 -30t42 -41.5t18 -64.5q0 -75 -52 -120t-135 -45q-71 0 -111.5 33zM117 581q0 4 3 8l74 103q5 8 14 8h100q10 0 13 -8l51 -103
q2 -4 2 -6q0 -8 -11 -8h-68q-9 0 -14 8l-25 63q-2 5 -6 0l-41 -63q-6 -8 -16 -8h-67q-9 0 -9 6z" />
    <glyph glyph-name="Scedilla" unicode="&#x15e;" horiz-adv-x="421" 
d="M343 58.5q-43 -48.5 -108 -62.5q-6 -2 -3 -6q27 -36 27 -74q0 -17 -7 -40q-11 -33 -34.5 -47t-52.5 -14q-19 0 -39 6q-10 3 -7 14l10 35q3 12 15 10q14 -2 25 4.5t16 23.5q2 5 2 16q0 34 -33 70q0 1 -4 3q-55 10 -86 50t-31 99q0 9 2 27l3 26q1 5 4.5 8.5t8.5 3.5h88
q11 0 11 -12l-3 -20q-1 -5 -1 -16q0 -33 16 -52t42 -19q33 0 56.5 27t23.5 69q0 30 -18.5 52t-69.5 64q-40 33 -64.5 58t-41 59t-16.5 78q0 8 2 28q10 83 65 132t134 49q73 0 115.5 -42.5t42.5 -114.5q0 -9 -2 -31l-2 -24q-1 -5 -5 -8.5t-9 -3.5h-87q-5 0 -8 3.5t-2 8.5
l3 26q1 6 1 17q0 32 -16 50.5t-43 18.5q-32 0 -54.5 -25.5t-22.5 -69.5q0 -29 18 -52.5t65 -63.5q48 -40 74 -66t40 -55.5t14 -66.5q0 -9 -2 -29q-9 -73 -52 -121.5z" />
    <glyph glyph-name="scedilla" unicode="&#x15f;" horiz-adv-x="387" 
d="M326 52.5q-38 -42.5 -102 -54.5q-6 -2 -3 -6q26 -36 26 -76q0 -20 -6 -38q-11 -33 -35 -47t-53 -14q-21 0 -38 5q-10 3 -7 14l9 36q3 12 15 9q14 -2 25 5t16 24q2 10 2 15q0 31 -31 69l-5 3q-54 8 -84 39t-30 80q0 12 1 19l1 7q1 5 4.5 8.5t8.5 3.5h84q5 0 8 -3.5t2 -8.5
l-1 -5q-3 -24 13 -40t42 -16q27 0 44.5 17.5t17.5 43.5q0 22 -17 35t-38 22l-28 12q-48 20 -78.5 49t-30.5 84q0 80 50 126.5t130 46.5q69 0 108 -34.5t39 -94.5q0 -8 -2 -24q-1 -5 -4.5 -8.5t-8.5 -3.5h-81q-11 0 -11 12l1 6q3 24 -10.5 40t-38.5 16q-28 0 -45 -19.5
t-17 -43.5t17.5 -36.5t59.5 -31.5q35 -15 59 -30t42 -41.5t18 -64.5q0 -64 -38 -106.5z" />
    <glyph glyph-name="Scaron" unicode="&#x160;" horiz-adv-x="421" 
d="M76 34q-43 42 -43 111q0 10 2 28l3 26q1 5 4.5 8.5t8.5 3.5h88q11 0 11 -12l-3 -20q-1 -5 -1 -16q0 -33 16 -52t42 -19q33 0 56.5 27t23.5 69q0 30 -18.5 52t-69.5 64q-40 33 -64.5 58t-41 59t-16.5 78q0 8 2 28q10 83 65 132t134 49q73 0 115.5 -42.5t42.5 -114.5
q0 -9 -2 -31l-2 -24q-1 -5 -5 -8.5t-9 -3.5h-87q-5 0 -8 3.5t-2 8.5l3 26q1 6 1 17q0 32 -16 50.5t-43 18.5q-32 0 -54.5 -25.5t-22.5 -69.5q0 -29 18 -52.5t65 -63.5q48 -40 74 -66t40 -55.5t14 -66.5q0 -9 -2 -29q-11 -86 -67 -137t-136 -51q-73 0 -116 42zM171 881
q0 8 11 8h66q11 0 14 -8l26 -62q3 -4 6 0l41 62q5 8 15 8h68q9 0 9 -6q0 -3 -3 -8l-76 -103q-6 -8 -15 -8h-100q-9 0 -12 8l-49 103q-1 2 -1 6z" />
    <glyph glyph-name="scaron" unicode="&#x161;" horiz-adv-x="387" 
d="M65.5 27q-40.5 33 -40.5 89q0 13 1 19l1 7q1 5 4.5 8.5t8.5 3.5h84q5 0 8 -3.5t2 -8.5l-1 -5q-3 -24 13 -40t42 -16q27 0 44.5 17.5t17.5 43.5q0 22 -17 35t-38 22l-28 12q-48 20 -78.5 49t-30.5 84q0 80 50 126.5t130 46.5q69 0 108 -34.5t39 -94.5q0 -8 -2 -24
q-1 -5 -4.5 -8.5t-8.5 -3.5h-81q-11 0 -11 12l1 6q3 24 -10.5 40t-38.5 16q-28 0 -45 -19.5t-17 -43.5t17.5 -36.5t59.5 -31.5q35 -15 59 -30t42 -41.5t18 -64.5q0 -75 -52 -120t-135 -45q-71 0 -111.5 33zM135 692q0 8 11 8h66q11 0 14 -8l26 -62q3 -4 6 0l41 62q5 8 15 8
h68q9 0 9 -6q0 -3 -3 -8l-76 -103q-6 -8 -15 -8h-100q-9 0 -12 8l-49 103q-1 2 -1 6z" />
    <glyph glyph-name="uni0162" unicode="&#x162;" horiz-adv-x="439" 
d="M475 696.5q3 -3.5 2 -8.5l-9 -76q-1 -5 -4.5 -8.5t-8.5 -3.5h-123q-4 0 -6 -5l-71 -583q-1 -5 -4.5 -8.5t-8.5 -3.5h-90q-5 0 -8 3.5t-2 8.5l72 583q0 5 -5 5h-116q-5 0 -8 3.5t-2 8.5l9 76q1 5 4.5 8.5t8.5 3.5h362q5 0 8 -3.5zM152 -169l9 36q3 11 15 9q14 -2 25 4.5
t16 23.5q2 10 2 16q0 31 -29 65q-4 6 -4 8q0 7 11 7h47q9 0 14 -6q33 -39 33 -83q0 -20 -6 -39q-12 -33 -35.5 -47t-52.5 -14q-18 0 -38 6q-10 3 -7 14z" />
    <glyph glyph-name="uni0163" unicode="&#x163;" horiz-adv-x="274" 
d="M282.5 432.5q-3.5 -3.5 -8.5 -3.5h-60q-4 0 -6 -5l-32 -262q-1 -7 -1 -18q0 -24 11 -34t33 -9h7q5 0 8 -3.5t2 -8.5l-9 -77q-1 -5 -5 -8.5t-9 -3.5h-15q-3 0 -4 -2t0 -4q19 -31 19 -65q0 -20 -6 -38q-12 -33 -36 -47t-53 -14q-18 0 -38 6q-10 3 -7 14l9 36q3 12 15 9
q14 -2 25 4.5t16 23.5q2 5 2 17q0 34 -32 69l-5 3q-43 22 -43 81q0 8 2 26l38 305q0 5 -5 5h-34q-5 0 -8 3.5t-2 8.5l7 58q1 5 4.5 8.5t8.5 3.5h34q6 0 6 5l13 110q1 5 5 8.5t9 3.5h85q5 0 8 -3.5t2 -8.5l-13 -110q-2 -5 4 -5h60q5 0 8 -3.5t2 -8.5l-7 -58q-1 -5 -4.5 -8.5z
" />
    <glyph glyph-name="Tcaron" unicode="&#x164;" horiz-adv-x="439" 
d="M475 696.5q3 -3.5 2 -8.5l-9 -76q-1 -5 -4.5 -8.5t-8.5 -3.5h-123q-4 0 -6 -5l-71 -583q-1 -5 -4.5 -8.5t-8.5 -3.5h-90q-5 0 -8 3.5t-2 8.5l72 583q0 5 -5 5h-116q-5 0 -8 3.5t-2 8.5l9 76q1 5 4.5 8.5t8.5 3.5h362q5 0 8 -3.5zM182 879q0 8 11 8h66q11 0 14 -8l26 -62
q3 -4 6 0l41 62q5 8 15 8h68q9 0 9 -6q0 -3 -3 -8l-76 -103q-6 -8 -15 -8h-100q-9 0 -12 8l-49 103q-1 2 -1 6z" />
    <glyph glyph-name="tcaron" unicode="&#x165;" horiz-adv-x="274" 
d="M282.5 432.5q-3.5 -3.5 -8.5 -3.5h-60q-4 0 -6 -5l-32 -262q-1 -7 -1 -18q0 -24 11 -34t33 -9h7q5 0 8 -3.5t2 -8.5l-9 -77q-1 -5 -5 -8.5t-9 -3.5h-33q-59 0 -89.5 19.5t-30.5 72.5q0 7 2 27l38 305q0 5 -5 5h-34q-5 0 -8 3.5t-2 8.5l7 58q1 5 4.5 8.5t8.5 3.5h34
q6 0 6 5l13 110q1 5 5 8.5t9 3.5h85q5 0 8 -3.5t2 -8.5l-13 -110q-2 -5 4 -5h60q5 0 8 -3.5t2 -8.5l-7 -58q-1 -5 -4.5 -8.5zM248 582q0 4 3 8l69 103q5 8 16 8h70q9 0 9 -7q0 -3 -3 -8l-85 -103q-5 -7 -14 -7h-55q-10 0 -10 6z" />
    <glyph glyph-name="Tbar" unicode="&#x166;" horiz-adv-x="439" 
d="M463.5 603.5q-3.5 -3.5 -8.5 -3.5h-123q-4 0 -6 -5l-22 -178q0 -5 5 -5h56q5 0 8 -3.5t2 -8.5l-6 -47q-1 -5 -4.5 -8.5t-8.5 -3.5h-56q-4 0 -6 -5l-39 -324q-1 -5 -4.5 -8.5t-8.5 -3.5h-90q-5 0 -8 3.5t-2 8.5l40 324q0 5 -4 5h-68q-5 0 -8 3.5t-2 8.5l5 47q1 5 4.5 8.5
t8.5 3.5h68q4 0 6 5l22 178q0 5 -5 5h-116q-5 0 -8 3.5t-2 8.5l9 76q1 5 4.5 8.5t8.5 3.5h362q5 0 8 -3.5t2 -8.5l-9 -76q-1 -5 -4.5 -8.5z" />
    <glyph glyph-name="tbar" unicode="&#x167;" horiz-adv-x="274" 
d="M265.5 283.5q-3.5 -3.5 -8.5 -3.5h-62q-5 0 -5 -5l-14 -113q-1 -7 -1 -18q0 -24 11 -34t33 -9h7q5 0 8 -3.5t2 -8.5l-9 -77q-1 -5 -5 -8.5t-9 -3.5h-33q-59 0 -89.5 19.5t-30.5 72.5q0 7 2 27l19 156q2 5 -4 5h-32q-5 0 -8 3.5t-2 8.5l6 48q1 5 4.5 8.5t8.5 3.5h32
q5 0 5 5l9 67q0 5 -5 5h-34q-5 0 -8 3.5t-2 8.5l7 58q1 5 4.5 8.5t8.5 3.5h34q6 0 6 5l13 110q1 5 5 8.5t9 3.5h85q5 0 8 -3.5t2 -8.5l-13 -110q-2 -5 4 -5h60q5 0 8 -3.5t2 -8.5l-7 -58q-1 -5 -4.5 -8.5t-8.5 -3.5h-60q-4 0 -6 -5l-8 -67q0 -5 4 -5h61q11 0 11 -12l-6 -48
q-1 -5 -4.5 -8.5z" />
    <glyph glyph-name="Utilde" unicode="&#x168;" horiz-adv-x="464" 
d="M94 37q-43 45 -43 122q0 11 2 35l61 494q0 5 4 8.5t9 3.5h89q5 0 8 -3.5t2 -8.5l-62 -506q-1 -6 -1 -18q0 -33 16.5 -52.5t44.5 -19.5q31 0 54 25t28 65l62 506q1 5 4.5 8.5t8.5 3.5h89q5 0 8 -3.5t2 -8.5l-60 -494q-11 -91 -68.5 -146.5t-140.5 -55.5q-74 0 -117 45z
M347 787.5q-11 4.5 -26 14.5q-7 4 -14 9t-12.5 7.5t-13.5 2.5q-21 0 -39 -23q-9 -10 -17 -4l-29 23q-7 6 -3 16q17 32 40.5 47.5t48.5 15.5q16 0 28.5 -6t28.5 -17q4 -3 11 -8t13.5 -8t14.5 -3q23 0 40 22q7 12 16 5l29 -22q3 -3 3 -8q0 -6 -6 -15q-19 -28 -43 -40.5
t-46 -12.5q-13 0 -24 4.5z" />
    <glyph glyph-name="utilde" unicode="&#x169;" horiz-adv-x="425" 
d="M315 507.5q4 3.5 9 3.5h89q5 0 8 -3.5t2 -8.5l-60 -487q-1 -5 -4.5 -8.5t-8.5 -3.5h-89q-5 0 -8 3.5t-2 8.5l2 22q1 3 -1 4t-4 -2q-34 -43 -96 -43q-52 0 -83.5 29t-31.5 90q0 8 2 30l44 357q0 5 4 8.5t9 3.5h89q5 0 8 -3.5t2 -8.5l-41 -332q-1 -7 -1 -18q0 -57 48 -57
q28 0 46.5 21.5t22.5 58.5l41 327q0 5 4 8.5zM302 598.5q-11 4.5 -26 14.5q-7 4 -14 9t-12.5 7.5t-13.5 2.5q-21 0 -39 -23q-9 -10 -17 -4l-29 23q-7 6 -3 16q17 32 40.5 47.5t48.5 15.5q16 0 28.5 -6t28.5 -17q4 -3 11 -8t13.5 -8t14.5 -3q23 0 40 22q7 12 16 5l29 -22
q3 -3 3 -8q0 -6 -6 -15q-19 -28 -43 -40.5t-46 -12.5q-13 0 -24 4.5z" />
    <glyph glyph-name="Umacron" unicode="&#x16a;" horiz-adv-x="464" 
d="M94 37q-43 45 -43 122q0 11 2 35l61 494q0 5 4 8.5t9 3.5h89q5 0 8 -3.5t2 -8.5l-62 -506q-1 -6 -1 -18q0 -33 16.5 -52.5t44.5 -19.5q31 0 54 25t28 65l62 506q1 5 4.5 8.5t8.5 3.5h89q5 0 8 -3.5t2 -8.5l-60 -494q-11 -91 -68.5 -146.5t-140.5 -55.5q-74 0 -117 45z
M202 787l7 56q1 5 4.5 8.5t8.5 3.5h185q5 0 8 -3.5t2 -8.5l-7 -56q-1 -5 -4.5 -8.5t-8.5 -3.5h-184q-11 0 -11 12z" />
    <glyph glyph-name="umacron" unicode="&#x16b;" horiz-adv-x="425" 
d="M315 507.5q4 3.5 9 3.5h89q5 0 8 -3.5t2 -8.5l-60 -487q-1 -5 -4.5 -8.5t-8.5 -3.5h-89q-5 0 -8 3.5t-2 8.5l2 22q1 3 -1 4t-4 -2q-34 -43 -96 -43q-52 0 -83.5 29t-31.5 90q0 8 2 30l44 357q0 5 4 8.5t9 3.5h89q5 0 8 -3.5t2 -8.5l-41 -332q-1 -7 -1 -18q0 -57 48 -57
q28 0 46.5 21.5t22.5 58.5l41 327q0 5 4 8.5zM157 598l7 56q1 5 4.5 8.5t8.5 3.5h185q5 0 8 -3.5t2 -8.5l-7 -56q-1 -5 -4.5 -8.5t-8.5 -3.5h-184q-11 0 -11 12z" />
    <glyph glyph-name="Ubreve" unicode="&#x16c;" horiz-adv-x="464" 
d="M94 37q-43 45 -43 122q0 11 2 35l61 494q0 5 4 8.5t9 3.5h89q5 0 8 -3.5t2 -8.5l-62 -506q-1 -6 -1 -18q0 -33 16.5 -52.5t44.5 -19.5q31 0 54 25t28 65l62 506q1 5 4.5 8.5t8.5 3.5h89q5 0 8 -3.5t2 -8.5l-60 -494q-11 -91 -68.5 -146.5t-140.5 -55.5q-74 0 -117 45z
M233 787q-27 28 -25 74q0 12 12 12h38q11 0 11 -12q0 -22 12 -35.5t31 -13.5t34.5 13.5t21.5 35.5q3 12 14 12h38q12 0 9 -12q-10 -46 -43.5 -74t-79.5 -28t-73 28z" />
    <glyph glyph-name="ubreve" unicode="&#x16d;" horiz-adv-x="425" 
d="M315 507.5q4 3.5 9 3.5h89q5 0 8 -3.5t2 -8.5l-60 -487q-1 -5 -4.5 -8.5t-8.5 -3.5h-89q-5 0 -8 3.5t-2 8.5l2 22q1 3 -1 4t-4 -2q-34 -43 -96 -43q-52 0 -83.5 29t-31.5 90q0 8 2 30l44 357q0 5 4 8.5t9 3.5h89q5 0 8 -3.5t2 -8.5l-41 -332q-1 -7 -1 -18q0 -57 48 -57
q28 0 46.5 21.5t22.5 58.5l41 327q0 5 4 8.5zM188 598q-27 28 -25 74q0 12 12 12h38q11 0 11 -12q0 -22 12 -35.5t31 -13.5t34.5 13.5t21.5 35.5q3 12 14 12h38q12 0 9 -12q-10 -46 -43.5 -74t-79.5 -28t-73 28z" />
    <glyph glyph-name="Uring" unicode="&#x16e;" horiz-adv-x="464" 
d="M94 37q-43 45 -43 122q0 11 2 35l61 494q0 5 4 8.5t9 3.5h89q5 0 8 -3.5t2 -8.5l-62 -506q-1 -6 -1 -18q0 -33 16.5 -52.5t44.5 -19.5q31 0 54 25t28 65l62 506q1 5 4.5 8.5t8.5 3.5h89q5 0 8 -3.5t2 -8.5l-60 -494q-11 -91 -68.5 -146.5t-140.5 -55.5q-74 0 -117 45z
M232 786q-28 29 -28 74q0 36 18 67t47.5 49t64.5 18q44 0 72 -29t28 -73q0 -37 -18 -68t-47.5 -49t-63.5 -18q-45 0 -73 29zM354 839q18 19 18 45q0 21 -12.5 34.5t-32.5 13.5q-24 0 -42.5 -18t-18.5 -44q0 -21 13.5 -35.5t33.5 -14.5q23 0 41 19z" />
    <glyph glyph-name="uring" unicode="&#x16f;" horiz-adv-x="425" 
d="M315 507.5q4 3.5 9 3.5h89q5 0 8 -3.5t2 -8.5l-60 -487q-1 -5 -4.5 -8.5t-8.5 -3.5h-89q-5 0 -8 3.5t-2 8.5l2 22q1 3 -1 4t-4 -2q-34 -43 -96 -43q-52 0 -83.5 29t-31.5 90q0 8 2 30l44 357q0 5 4 8.5t9 3.5h89q5 0 8 -3.5t2 -8.5l-41 -332q-1 -7 -1 -18q0 -57 48 -57
q28 0 46.5 21.5t22.5 58.5l41 327q0 5 4 8.5zM187 597q-28 29 -28 74q0 36 18 67t47.5 49t64.5 18q44 0 72 -29t28 -73q0 -37 -18 -68t-47.5 -49t-63.5 -18q-45 0 -73 29zM309 650q18 19 18 45q0 21 -12.5 34.5t-32.5 13.5q-24 0 -42.5 -18t-18.5 -44q0 -21 13.5 -35.5
t33.5 -14.5q23 0 41 19z" />
    <glyph glyph-name="Uhungarumlaut" unicode="&#x170;" horiz-adv-x="464" 
d="M94 37q-43 45 -43 122q0 11 2 35l61 494q0 5 4 8.5t9 3.5h89q5 0 8 -3.5t2 -8.5l-62 -506q-1 -6 -1 -18q0 -33 16.5 -52.5t44.5 -19.5q31 0 54 25t28 65l62 506q1 5 4.5 8.5t8.5 3.5h89q5 0 8 -3.5t2 -8.5l-60 -494q-11 -91 -68.5 -146.5t-140.5 -55.5q-74 0 -117 45z
M199 767.5q-2 3.5 2 10.5l61 102q6 9 15 9h73q6 0 8 -4t-2 -10l-65 -102q-6 -9 -16 -9h-67q-7 0 -9 3.5zM341 770q0 4 3 8l65 102q2 4 6.5 6.5t8.5 2.5h68q9 0 9 -6q0 -3 -3 -8l-66 -103q-4 -8 -15 -8h-67q-9 0 -9 6z" />
    <glyph glyph-name="uhungarumlaut" unicode="&#x171;" horiz-adv-x="425" 
d="M315 507.5q4 3.5 9 3.5h89q5 0 8 -3.5t2 -8.5l-60 -487q-1 -5 -4.5 -8.5t-8.5 -3.5h-89q-5 0 -8 3.5t-2 8.5l2 22q1 3 -1 4t-4 -2q-34 -43 -96 -43q-52 0 -83.5 29t-31.5 90q0 8 2 30l44 357q0 5 4 8.5t9 3.5h89q5 0 8 -3.5t2 -8.5l-41 -332q-1 -7 -1 -18q0 -57 48 -57
q28 0 46.5 21.5t22.5 58.5l41 327q0 5 4 8.5zM154 578.5q-2 3.5 2 10.5l61 102q6 9 15 9h73q6 0 8 -4t-2 -10l-65 -102q-6 -9 -16 -9h-67q-7 0 -9 3.5zM296 581q0 4 3 8l65 102q2 4 6.5 6.5t8.5 2.5h68q9 0 9 -6q0 -3 -3 -8l-66 -103q-4 -8 -15 -8h-67q-9 0 -9 6z" />
    <glyph glyph-name="Uogonek" unicode="&#x172;" horiz-adv-x="464" 
d="M372.5 696.5q3.5 3.5 8.5 3.5h89q5 0 8 -3.5t2 -8.5l-60 -494q-10 -80 -56 -133t-114 -65l-6 -3q-45 -42 -45 -77q0 -19 9.5 -26.5t24.5 -5.5h3q9 0 9 -10l1 -35q0 -11 -11 -14q-22 -6 -40 -6q-31 0 -52 16.5t-21 54.5q0 53 45 101q2 2 1.5 4t-2.5 2q-54 14 -84.5 56.5
t-30.5 105.5q0 23 2 35l61 494q0 5 4 8.5t9 3.5h89q5 0 8 -3.5t2 -8.5l-62 -506q-1 -6 -1 -18q0 -33 16.5 -52.5t44.5 -19.5q31 0 54 25t28 65l62 506q1 5 4.5 8.5z" />
    <glyph glyph-name="uogonek" unicode="&#x173;" horiz-adv-x="425" 
d="M336 -124q9 0 9 -10l1 -35q0 -11 -11 -14q-22 -6 -40 -6q-31 0 -52 16t-21 54q0 61 56 113q3 2 2 4t-4 2h-15q-5 0 -8 3.5t-2 8.5l2 22q1 3 -1 4t-4 -2q-34 -43 -96 -43q-52 0 -83.5 29t-31.5 90q0 8 2 30l44 357q0 5 4 8.5t9 3.5h89q5 0 8 -3.5t2 -8.5l-41 -332
q-1 -7 -1 -18q0 -57 48 -57q28 0 46.5 21.5t22.5 58.5l41 327q0 5 4 8.5t9 3.5h89q5 0 8 -3.5t2 -8.5l-60 -490q-2 -10 -8 -15q-59 -49 -56 -90q1 -17 10 -23.5t24 -4.5h3z" />
    <glyph glyph-name="Wcircumflex" unicode="&#x174;" horiz-adv-x="638" 
d="M134 11l-46 676v2q0 11 12 11h93q11 0 11 -11l17 -417q0 -3 2 -3t3 3l113 417q3 11 14 11h77q12 0 12 -11l14 -417q1 -3 3 -3t3 3l112 417q3 11 14 11h91q5 0 7.5 -3.5t1.5 -9.5l-206 -676q-3 -11 -14 -11h-83q-11 0 -11 11l-13 425q0 4 -2 4t-4 -4l-112 -425
q-3 -11 -14 -11h-83q-12 0 -12 11zM264 770q0 4 3 8l74 103q5 8 14 8h100q10 0 13 -8l51 -103q2 -4 2 -6q0 -8 -11 -8h-68q-9 0 -14 8l-25 63q-2 5 -6 0l-41 -63q-6 -8 -16 -8h-67q-9 0 -9 6z" />
    <glyph glyph-name="wcircumflex" unicode="&#x175;" horiz-adv-x="575" 
d="M107 3q-3 3 -3 8l-44 488v2q0 11 13 11h85q11 0 11 -11l12 -311q1 -3 3 -3t3 3l92 311q3 11 14 11h75q12 0 12 -11l16 -312q0 -3 2.5 -3t3.5 3l89 312q3 11 14 11l84 -2q12 0 8 -13l-163 -486q-3 -11 -14 -11h-87q-12 0 -12 11l-15 292q-1 3 -2.5 3t-3.5 -3l-86 -292
q-3 -11 -14 -11h-85q-5 0 -8 3zM209 581q0 4 3 8l74 103q5 8 14 8h100q10 0 13 -8l51 -103q2 -4 2 -6q0 -8 -11 -8h-68q-9 0 -14 8l-25 63q-2 5 -6 0l-41 -63q-6 -8 -16 -8h-67q-9 0 -9 6z" />
    <glyph glyph-name="Ycircumflex" unicode="&#x176;" horiz-adv-x="443" 
d="M149 4.5q-3 3.5 -2 8.5l34 273l-1 6l-86 394v3q0 5 3 8t8 3h93q11 0 13 -10l41 -257q0 -3 2.5 -3t3.5 3l104 257q5 10 15 10h93q6 0 8.5 -3.5t-0.5 -10.5l-183 -394l-2 -6l-33 -273q-1 -5 -4.5 -8.5t-8.5 -3.5h-90q-5 0 -8 3.5zM167 770q0 4 3 8l74 103q5 8 14 8h100
q10 0 13 -8l51 -103q2 -4 2 -6q0 -8 -11 -8h-68q-9 0 -14 8l-25 63q-2 5 -6 0l-41 -63q-6 -8 -16 -8h-67q-9 0 -9 6z" />
    <glyph glyph-name="ycircumflex" unicode="&#x177;" horiz-adv-x="391" 
d="M-8.5 -195.5q-1.5 3.5 -0.5 8.5l8 72q1 5 4.5 8.5t7.5 3.5q32 1 51.5 8.5t33 29t23.5 62.5q0 1 -0.5 2.5t0.5 3.5l-62 496q0 13 13 13h95q11 0 11 -11l19 -331q0 -3 2 -3t3 3l98 331q3 11 14 11l96 -2q13 0 9 -13l-194 -525q-28 -71 -52.5 -106t-63 -50t-107.5 -15h-5
q-2 0 -3.5 3.5zM118 581q0 4 3 8l74 103q5 8 14 8h100q10 0 13 -8l51 -103q2 -4 2 -6q0 -8 -11 -8h-68q-9 0 -14 8l-25 63q-2 5 -6 0l-41 -63q-6 -8 -16 -8h-67q-9 0 -9 6z" />
    <glyph glyph-name="Ydieresis" unicode="&#x178;" horiz-adv-x="443" 
d="M149 4.5q-3 3.5 -2 8.5l34 273l-1 6l-86 394v3q0 5 3 8t8 3h93q11 0 13 -10l41 -257q0 -3 2.5 -3t3.5 3l104 257q5 10 15 10h93q6 0 8.5 -3.5t-0.5 -10.5l-183 -394l-2 -6l-33 -273q-1 -5 -4.5 -8.5t-8.5 -3.5h-90q-5 0 -8 3.5zM336 787q-17 17 -17 44q0 35 23 58t56 23
q27 0 43.5 -16.5t16.5 -43.5q0 -35 -23 -58.5t-54 -23.5q-28 0 -45 17zM169 787q-17 17 -17 44q0 35 23 58t56 23q27 0 43.5 -16.5t16.5 -43.5q0 -35 -23 -58.5t-54 -23.5q-28 0 -45 17z" />
    <glyph glyph-name="Zacute" unicode="&#x179;" horiz-adv-x="394" 
d="M8 3.5q-3 3.5 -2 8.5l10 80q2 10 5 15l277 487q2 6 -2 6h-206q-5 0 -8 3.5t-2 8.5l9 76q1 5 4.5 8.5t8.5 3.5h319q5 0 8 -3.5t2 -8.5l-10 -80q-2 -10 -5 -15l-277 -487q-2 -6 2 -6h206q5 0 8 -3.5t2 -8.5l-9 -76q-1 -5 -4.5 -8.5t-8.5 -3.5h-319q-5 0 -8 3.5zM216 770
q0 4 3 8l69 103q5 8 16 8h70q9 0 9 -7q0 -3 -3 -8l-85 -103q-5 -7 -14 -7h-55q-10 0 -10 6z" />
    <glyph glyph-name="zacute" unicode="&#x17a;" horiz-adv-x="357" 
d="M7.5 3.5q-3.5 3.5 -2.5 8.5l11 85q0 8 6 15l202 288q3 6 -2 6h-153q-5 0 -8 3.5t-2 8.5l10 81q1 5 4.5 8.5t8.5 3.5h280q11 0 11 -12l-11 -85q0 -7 -6 -15l-207 -288q-3 -6 3 -6h165q11 0 11 -12l-10 -81q-1 -5 -4.5 -8.5t-8.5 -3.5h-289q-5 0 -8.5 3.5zM177 581q0 4 3 8
l69 103q5 8 16 8h70q9 0 9 -7q0 -3 -3 -8l-85 -103q-5 -7 -14 -7h-55q-10 0 -10 6z" />
    <glyph glyph-name="Zdotaccent" unicode="&#x17b;" horiz-adv-x="394" 
d="M8 3.5q-3 3.5 -2 8.5l10 80q2 10 5 15l277 487q2 6 -2 6h-206q-5 0 -8 3.5t-2 8.5l9 76q1 5 4.5 8.5t8.5 3.5h319q5 0 8 -3.5t2 -8.5l-10 -80q-2 -10 -5 -15l-277 -487q-2 -6 2 -6h206q5 0 8 -3.5t2 -8.5l-9 -76q-1 -5 -4.5 -8.5t-8.5 -3.5h-319q-5 0 -8 3.5zM227 787
q-17 17 -17 44q0 35 23 58t56 23q27 0 43.5 -16.5t16.5 -43.5q0 -35 -23 -58.5t-54 -23.5q-28 0 -45 17z" />
    <glyph glyph-name="zdotaccent" unicode="&#x17c;" horiz-adv-x="357" 
d="M7.5 3.5q-3.5 3.5 -2.5 8.5l11 85q0 8 6 15l202 288q3 6 -2 6h-153q-5 0 -8 3.5t-2 8.5l10 81q1 5 4.5 8.5t8.5 3.5h280q11 0 11 -12l-11 -85q0 -7 -6 -15l-207 -288q-3 -6 3 -6h165q11 0 11 -12l-10 -81q-1 -5 -4.5 -8.5t-8.5 -3.5h-289q-5 0 -8.5 3.5zM188 598
q-17 17 -17 44q0 35 23 58t56 23q27 0 43.5 -16.5t16.5 -43.5q0 -35 -23 -58.5t-54 -23.5q-28 0 -45 17z" />
    <glyph glyph-name="Zcaron" unicode="&#x17d;" horiz-adv-x="394" 
d="M8 3.5q-3 3.5 -2 8.5l10 80q2 10 5 15l277 487q2 6 -2 6h-206q-5 0 -8 3.5t-2 8.5l9 76q1 5 4.5 8.5t8.5 3.5h319q5 0 8 -3.5t2 -8.5l-10 -80q-2 -10 -5 -15l-277 -487q-2 -6 2 -6h206q5 0 8 -3.5t2 -8.5l-9 -76q-1 -5 -4.5 -8.5t-8.5 -3.5h-319q-5 0 -8 3.5zM160 881
q0 8 11 8h66q11 0 14 -8l26 -62q3 -4 6 0l41 62q5 8 15 8h68q9 0 9 -6q0 -3 -3 -8l-76 -103q-6 -8 -15 -8h-100q-9 0 -12 8l-49 103q-1 2 -1 6z" />
    <glyph glyph-name="zcaron" unicode="&#x17e;" horiz-adv-x="357" 
d="M7.5 3.5q-3.5 3.5 -2.5 8.5l11 85q0 8 6 15l202 288q3 6 -2 6h-153q-5 0 -8 3.5t-2 8.5l10 81q1 5 4.5 8.5t8.5 3.5h280q11 0 11 -12l-11 -85q0 -7 -6 -15l-207 -288q-3 -6 3 -6h165q11 0 11 -12l-10 -81q-1 -5 -4.5 -8.5t-8.5 -3.5h-289q-5 0 -8.5 3.5zM121 692
q0 8 11 8h66q11 0 14 -8l26 -62q3 -4 6 0l41 62q5 8 15 8h68q9 0 9 -6q0 -3 -3 -8l-76 -103q-6 -8 -15 -8h-100q-9 0 -12 8l-49 103q-1 2 -1 6z" />
    <glyph glyph-name="uni018F" unicode="&#x18f;" horiz-adv-x="518" 
d="M468 658.5q52 -49.5 52 -133.5q0 -10 -2 -34l-35 -285q-7 -63 -40.5 -112.5t-87 -77t-119.5 -27.5q-92 0 -143.5 50t-51.5 133q0 10 2 34l21 170q0 5 4 8.5t9 3.5h311q4 0 6 5l11 90q1 7 1 20q0 47 -25.5 75.5t-68.5 28.5q-40 0 -69.5 -26t-42.5 -68q-4 -10 -14 -10
l-92 4q-5 0 -7.5 3.5t-1.5 9.5q20 89 82.5 138.5t157.5 49.5q91 0 143 -49.5zM330.5 125q34.5 35 41.5 90l8 67q0 5 -4 5h-207q-5 0 -5 -5l-9 -67q-1 -7 -1 -20q0 -47 26 -76t69 -29q47 0 81.5 35z" />
    <glyph glyph-name="florin" unicode="&#x192;" horiz-adv-x="461" 
d="M332 671q42 36 121 36q11 0 39 -2q12 -1 10 -13l-11 -71q0 -5 -4 -8.5t-9 -3.5h-25q-31 -1 -49 -21.5t-29 -59.5l-33 -119q0 -5 3 -5h61q5 0 8 -3.5t2 -8.5l-8 -62q-1 -5 -4.5 -8.5t-8.5 -3.5h-74q-6 0 -6 -5l-103 -367q-23 -80 -65.5 -116.5t-120.5 -36.5q-10 0 -38 2
q-11 2 -10 12l10 72q1 5 4.5 8.5t8.5 3.5h25q58 1 78 81l95 341q2 5 -3 5h-44q-11 0 -11 12l8 62q1 5 4.5 8.5t8.5 3.5h59q5 0 7 5l40 145q22 81 64 117z" />
    <glyph glyph-name="Ohorn" unicode="&#x1a0;" horiz-adv-x="453" 
d="M417 662q41 -44 41 -113q0 -9 -2 -31l-41 -336q-10 -86 -67.5 -138t-141.5 -52q-76 0 -120 43t-44 117q0 8 2 30l41 336q10 86 67.5 138t141.5 52q25 0 55 -7q2 -1 6 -1q22 2 39.5 19t24.5 52q2 12 13 12h38q5 0 7 -4.5t1 -13.5q-13 -65 -59 -96q-5 -3 -2 -7zM345 523
q1 5 1 14q0 33 -17.5 52t-47.5 19q-33 0 -55.5 -23.5t-27.5 -61.5l-42 -346q-1 -6 -1 -17q0 -31 16.5 -49.5t46.5 -18.5q33 0 56 23.5t28 61.5z" />
    <glyph glyph-name="ohorn" unicode="&#x1a1;" horiz-adv-x="419" 
d="M377 472q32 -35 32 -91q0 -7 -2 -25l-24 -201q-9 -75 -61 -119t-133 -44q-73 0 -114 36.5t-41 100.5q0 8 2 26l25 201q9 74 61 118.5t132 44.5q27 0 57 -7q2 -1 6 -1q22 3 39 20t24 51q2 12 13 12h38q5 0 7.5 -4.5t1.5 -12.5q-14 -67 -61 -98q-4 -2 -2 -7zM295 360
q0 26 -14.5 42.5t-38.5 16.5q-27 0 -46 -19.5t-23 -51.5l-23 -184l-1 -12q0 -27 14.5 -43t38.5 -16q27 0 46 19.5t23 51.5l23 184z" />
    <glyph glyph-name="Uhorn" unicode="&#x1af;" horiz-adv-x="464" 
d="M567 771q-8 -45 -31 -73.5t-56 -41.5q-4 -1 -4 -5l-56 -457q-11 -91 -68.5 -146.5t-140.5 -55.5q-74 0 -117 45t-43 122q0 11 2 35l61 494q0 5 4 8.5t9 3.5h89q5 0 8 -3.5t2 -8.5l-62 -506q-1 -6 -1 -18q0 -33 16.5 -52.5t44.5 -19.5q31 0 54 25t28 65l62 506
q1 5 4.5 8.5t8.5 3.5h54q23 0 43 17t28 54q2 12 13 12h38q12 0 10 -12z" />
    <glyph glyph-name="uhorn" unicode="&#x1b0;" horiz-adv-x="425" 
d="M507 582q-8 -44 -30.5 -72.5t-53.5 -40.5q-4 -3 -4 -6l-56 -451q-1 -5 -4.5 -8.5t-8.5 -3.5h-89q-5 0 -8 3.5t-2 8.5l2 22q1 3 -1 4t-4 -2q-34 -43 -96 -43q-52 0 -83.5 29t-31.5 90q0 8 2 30l44 357q0 5 4 8.5t9 3.5h89q5 0 8 -3.5t2 -8.5l-41 -332q-1 -7 -1 -18
q0 -57 48 -57q28 0 46.5 21.5t22.5 58.5l41 327q0 5 4 8.5t9 3.5h52q23 0 42.5 17t27.5 54q2 12 13 12h38q12 0 10 -12z" />
    <glyph glyph-name="uni01CD" unicode="&#x1cd;" horiz-adv-x="443" 
d="M297 11l-5 105q0 5 -6 5h-141q-5 0 -7 -5l-31 -105q-3 -11 -14 -11h-88q-13 0 -9 13l226 676q3 11 14 11h103q11 0 11 -11l61 -676v-2q0 -11 -12 -11h-91q-11 0 -11 11zM173 212h107q6 0 6 5l-18 316q0 3 -2 3t-4 -3l-94 -316q-1 -5 5 -5zM184 879q0 8 11 8h66
q11 0 14 -8l26 -62q3 -4 6 0l41 62q5 8 15 8h68q9 0 9 -6q0 -3 -3 -8l-76 -103q-6 -8 -15 -8h-100q-9 0 -12 8l-49 103q-1 2 -1 6z" />
    <glyph glyph-name="uni01CE" unicode="&#x1ce;" 
d="M313 507.5q4 3.5 9 3.5h89q5 0 8 -3.5t2 -8.5l-60 -487q-1 -5 -4.5 -8.5t-8.5 -3.5h-89q-5 0 -8 3.5t-2 8.5l4 30q0 4 -2 4t-4 -3q-38 -51 -100 -51q-56 0 -84.5 33.5t-28.5 93.5q0 24 2 36l25 202q10 77 48.5 119.5t102.5 42.5q27 0 50.5 -12t36.5 -39q2 -3 3.5 -3
t2.5 4l4 30q0 5 4 8.5zM244.5 111.5q18.5 19.5 22.5 51.5l23 185q1 4 1 13q0 26 -13.5 42t-36.5 16q-27 0 -45.5 -19.5t-22.5 -51.5l-23 -185q-1 -4 -1 -12q0 -27 14 -43t37 -16q26 0 44.5 19.5zM149 691q0 8 11 8h66q11 0 14 -8l26 -62q3 -4 6 0l41 62q5 8 15 8h68
q9 0 9 -6q0 -3 -3 -8l-76 -103q-6 -8 -15 -8h-100q-9 0 -12 8l-49 103q-1 2 -1 6z" />
    <glyph glyph-name="uni01D4" unicode="&#x1d4;" horiz-adv-x="425" 
d="M315 507.5q4 3.5 9 3.5h89q5 0 8 -3.5t2 -8.5l-60 -487q-1 -5 -4.5 -8.5t-8.5 -3.5h-89q-5 0 -8 3.5t-2 8.5l2 22q1 3 -1 4t-4 -2q-34 -43 -96 -43q-52 0 -83.5 29t-31.5 90q0 8 2 30l44 357q0 5 4 8.5t9 3.5h89q5 0 8 -3.5t2 -8.5l-41 -332q-1 -7 -1 -18q0 -57 48 -57
q28 0 46.5 21.5t22.5 58.5l41 327q0 5 4 8.5zM149 691q0 8 11 8h66q11 0 14 -8l26 -62q3 -4 6 0l41 62q5 8 15 8h68q9 0 9 -6q0 -3 -3 -8l-76 -103q-6 -8 -15 -8h-100q-9 0 -12 8l-49 103q-1 2 -1 6z" />
    <glyph glyph-name="uni01E5" unicode="&#x1e5;" horiz-adv-x="428" 
d="M436 287.5q3 -3.5 2 -8.5l-6 -47q-1 -5 -4.5 -8.5t-8.5 -3.5h-27q-4 0 -6 -5l-24 -196q-13 -108 -68 -166.5t-177 -58.5q-21 0 -32 1q-10 1 -10 13l10 77q2 13 14 11q55 -1 86 14t45.5 44t20.5 76l1 11q1 3 -1 3.5t-4 -2.5q-38 -43 -97 -43q-57 0 -86 33.5t-29 94.5
q0 10 2 34l24 196q10 77 49.5 119.5t103.5 42.5q26 0 49 -10t37 -33q1 -3 3 -2.5t3 3.5l3 22q0 5 4 8.5t9 3.5h89q5 0 8 -3.5t2 -8.5l-25 -203q0 -5 4 -5h28q5 0 8 -3.5zM245.5 118.5q18.5 19.5 22.5 50.5l6 46q0 5 -4 5h-50q-5 0 -8 3.5t-2 8.5l6 47q1 5 4.5 8.5t8.5 3.5
h49q4 0 6 5l6 52q1 4 1 13q0 26 -13.5 42t-36.5 16q-26 0 -45 -20t-23 -51l-22 -179q-1 -4 -1 -12q0 -26 14 -42t37 -16q26 0 44.5 19.5z" />
    <glyph glyph-name="gcaron" unicode="&#x1e7;" horiz-adv-x="418" 
d="M313 507.5q4 3.5 9 3.5h89q5 0 8 -3.5t2 -8.5l-59 -480q-13 -108 -68 -166.5t-177 -58.5q-21 0 -32 1q-10 1 -10 13l10 77q2 13 14 11q55 -1 86 14t45.5 44t20.5 76l1 11q1 3 -1 3.5t-4 -2.5q-38 -43 -97 -43q-57 0 -86 33.5t-29 94.5q0 10 2 34l24 196q10 77 49.5 119.5
t103.5 42.5q26 0 49 -10t37 -33q1 -3 3 -2.5t3 3.5l3 22q0 5 4 8.5zM245.5 118.5q18.5 19.5 22.5 50.5l22 179q1 4 1 13q0 26 -13.5 42t-36.5 16q-26 0 -45 -20t-23 -51l-22 -179q-1 -4 -1 -12q0 -26 14 -42t37 -16q26 0 44.5 19.5zM150 691q0 8 11 8h66q11 0 14 -8l26 -62
q3 -4 6 0l41 62q5 8 15 8h68q9 0 9 -6q0 -3 -3 -8l-76 -103q-6 -8 -15 -8h-100q-9 0 -12 8l-49 103q-1 2 -1 6z" />
    <glyph glyph-name="uni01E9" unicode="&#x1e9;" 
d="M29 3.5q-3 3.5 -2 8.5l83 676q1 5 4.5 8.5t8.5 3.5h89q5 0 8 -3.5t2 -8.5l-43 -356q-1 -4 1 -4t4 3l127 172q5 8 15 8h93q8 0 8 -7q0 -3 -3 -8l-120 -157q-4 -4 -2 -7l77 -318v-4q0 -10 -11 -10h-93q-9 0 -11 10l-44 226q0 3 -2 3.5t-4 -2.5l-54 -70q-2 -4 -2 -6
l-19 -149q-1 -5 -4.5 -8.5t-8.5 -3.5h-89q-5 0 -8 3.5zM174 879q0 8 11 8h66q11 0 14 -8l26 -62q3 -4 6 0l41 62q5 8 15 8h68q9 0 9 -6q0 -3 -3 -8l-76 -103q-6 -8 -15 -8h-100q-9 0 -12 8l-49 103q-1 2 -1 6z" />
    <glyph glyph-name="uni01EF" unicode="&#x1ef;" horiz-adv-x="411" 
d="M221 256q0 -2 3 -2q70 -17 107.5 -68t37.5 -121q0 -11 -2 -33q-9 -70 -48 -123.5t-97.5 -82t-124.5 -28.5q-43 0 -88 14q-9 3 -8 14l12 77q1 6 5 9t9 1q33 -12 68 -12q60 0 106 33t54 106q1 8 1 23q0 48 -25.5 78.5t-78.5 30.5q-22 0 -56 -8l-4 -1q-7 0 -10 8l-17 58
q-1 2 -1 6q0 6 6 10l169 155q3 2 2 4t-4 2h-158q-5 0 -8 3.5t-2 8.5l10 81q1 5 4.5 8.5t8.5 3.5h291q5 0 8 -3.5t2 -8.5l-10 -84q-1 -8 -8 -15l-152 -140q-2 -2 -2 -4zM139 691q0 8 11 8h66q11 0 14 -8l26 -62q3 -4 6 0l41 62q5 8 15 8h68q9 0 9 -6q0 -3 -3 -8l-76 -103
q-6 -8 -15 -8h-100q-9 0 -12 8l-49 103q-1 2 -1 6z" />
    <glyph glyph-name="oslashacute" unicode="&#x1ff;" horiz-adv-x="419" 
d="M435 507l-35 -56q-3 -4 -1 -7q13 -31 13 -63q0 -9 -2 -25l-24 -201q-10 -76 -61.5 -119.5t-132.5 -43.5q-36 0 -65 9q-5 2 -6 -3l-26 -42q-2 -5 -7 -6.5t-10 1.5l-51 36q-9 6 -3 16l30 49q2 4 0 7q-16 29 -16 72q0 16 1 24l25 201q9 74 61 118.5t132 44.5q40 0 71 -12
q5 0 6 3l28 45q3 5 8 6t9 -2l53 -36q8 -7 3 -16zM164 234.5q2 -0.5 4 3.5l103 169q2 5 -1 6q-12 6 -26 6q-26 0 -45 -20t-23 -51l-14 -109q0 -4 2 -4.5zM283.5 258.5q-2.5 0.5 -3.5 -3.5l-96 -153q-2 -6 2 -7q12 -2 18 -2q27 0 46.5 19.5t23.5 51.5l11 90q1 4 -1.5 4.5z
M207 581q0 4 3 8l69 103q5 8 16 8h70q9 0 9 -7q0 -3 -3 -8l-85 -103q-5 -7 -14 -7h-55q-10 0 -10 6z" />
    <glyph glyph-name="uni0218" unicode="&#x218;" horiz-adv-x="421" 
d="M76 34q-43 42 -43 111q0 10 2 28l3 26q1 5 4.5 8.5t8.5 3.5h88q11 0 11 -12l-3 -20q-1 -5 -1 -16q0 -33 16 -52t42 -19q33 0 56.5 27t23.5 69q0 30 -18.5 52t-69.5 64q-40 33 -64.5 58t-41 59t-16.5 78q0 8 2 28q10 83 65 132t134 49q73 0 115.5 -42.5t42.5 -114.5
q0 -9 -2 -31l-2 -24q-1 -5 -5 -8.5t-9 -3.5h-87q-5 0 -8 3.5t-2 8.5l3 26q1 6 1 17q0 32 -16 50.5t-43 18.5q-32 0 -54.5 -25.5t-22.5 -69.5q0 -29 18 -52.5t65 -63.5q48 -40 74 -66t40 -55.5t14 -66.5q0 -9 -2 -29q-11 -86 -67 -137t-136 -51q-73 0 -116 42zM98 -181
q0 4 3 8l69 103q5 8 16 8h70q9 0 9 -7q0 -3 -3 -8l-85 -103q-5 -7 -14 -7h-55q-10 0 -10 6z" />
    <glyph glyph-name="uni0219" unicode="&#x219;" horiz-adv-x="387" 
d="M65.5 27q-40.5 33 -40.5 89q0 13 1 19l1 7q1 5 4.5 8.5t8.5 3.5h84q5 0 8 -3.5t2 -8.5l-1 -5q-3 -24 13 -40t42 -16q27 0 44.5 17.5t17.5 43.5q0 22 -17 35t-38 22l-28 12q-48 20 -78.5 49t-30.5 84q0 80 50 126.5t130 46.5q69 0 108 -34.5t39 -94.5q0 -8 -2 -24
q-1 -5 -4.5 -8.5t-8.5 -3.5h-81q-11 0 -11 12l1 6q3 24 -10.5 40t-38.5 16q-28 0 -45 -19.5t-17 -43.5t17.5 -36.5t59.5 -31.5q35 -15 59 -30t42 -41.5t18 -64.5q0 -75 -52 -120t-135 -45q-71 0 -111.5 33zM86 -179q0 4 3 8l69 103q5 8 16 8h70q9 0 9 -7q0 -3 -3 -8
l-85 -103q-5 -7 -14 -7h-55q-10 0 -10 6z" />
    <glyph glyph-name="uni021A" unicode="&#x21a;" horiz-adv-x="439" 
d="M475 696.5q3 -3.5 2 -8.5l-9 -76q-1 -5 -4.5 -8.5t-8.5 -3.5h-123q-4 0 -6 -5l-71 -583q-1 -5 -4.5 -8.5t-8.5 -3.5h-90q-5 0 -8 3.5t-2 8.5l72 583q0 5 -5 5h-116q-5 0 -8 3.5t-2 8.5l9 76q1 5 4.5 8.5t8.5 3.5h362q5 0 8 -3.5zM49 -175q0 4 3 8l69 103q5 8 16 8h70
q9 0 9 -7q0 -3 -3 -8l-85 -103q-5 -7 -14 -7h-55q-10 0 -10 6z" />
    <glyph glyph-name="uni021B" unicode="&#x21b;" horiz-adv-x="274" 
d="M282.5 432.5q-3.5 -3.5 -8.5 -3.5h-60q-4 0 -6 -5l-32 -262q-1 -7 -1 -18q0 -24 11 -34t33 -9h7q5 0 8 -3.5t2 -8.5l-9 -77q-1 -5 -5 -8.5t-9 -3.5h-33q-59 0 -89.5 19.5t-30.5 72.5q0 7 2 27l38 305q0 5 -5 5h-34q-5 0 -8 3.5t-2 8.5l7 58q1 5 4.5 8.5t8.5 3.5h34
q6 0 6 5l13 110q1 5 5 8.5t9 3.5h85q5 0 8 -3.5t2 -8.5l-13 -110q-2 -5 4 -5h60q5 0 8 -3.5t2 -8.5l-7 -58q-1 -5 -4.5 -8.5zM51 -166q0 4 3 8l69 103q5 8 16 8h70q9 0 9 -7q0 -3 -3 -8l-85 -103q-5 -7 -14 -7h-55q-10 0 -10 6z" />
    <glyph glyph-name="uni021F" unicode="&#x21f;" horiz-adv-x="425" 
d="M384 486q28 -33 28 -95q0 -18 -3 -39l-42 -340q-1 -5 -4.5 -8.5t-8.5 -3.5h-89q-5 0 -8 3.5t-2 8.5l40 331q1 6 1 18q0 28 -12.5 43t-35.5 15q-28 0 -46 -20.5t-23 -58.5l-40 -328q-1 -5 -4.5 -8.5t-8.5 -3.5h-89q-5 0 -8 3.5t-2 8.5l83 676q1 5 4.5 8.5t8.5 3.5h89
q5 0 8 -3.5t2 -8.5l-25 -209q-1 -3 1.5 -3.5t5.5 3.5q37 40 97 40q55 0 83 -33zM181 879q0 8 11 8h66q11 0 14 -8l26 -62q3 -4 6 0l41 62q5 8 15 8h68q9 0 9 -6q0 -3 -3 -8l-76 -103q-6 -8 -15 -8h-100q-9 0 -12 8l-49 103q-1 2 -1 6z" />
    <glyph glyph-name="uni0228" unicode="&#x228;" horiz-adv-x="422" 
d="M442.5 603.5q-3.5 -3.5 -8.5 -3.5h-210q-5 0 -5 -5l-24 -189q0 -5 5 -5h124q5 0 8 -3.5t2 -8.5l-10 -77q0 -5 -4 -8.5t-9 -3.5h-124q-5 0 -5 -5l-24 -190q0 -5 5 -5h209q5 0 8 -3.5t2 -8.5l-9 -76q-1 -5 -4.5 -8.5t-8.5 -3.5h-116q-2 0 -3 -2t0 -4q24 -35 24 -71
q0 -16 -7 -39q-11 -33 -34.5 -47t-52.5 -14q-18 0 -40 6q-9 3 -6 14l9 35q3 12 15 10q14 -2 25 4.5t16 23.5q2 10 2 16q0 31 -28 65q-3 3 -7 3h-112q-11 0 -11 12l83 676q1 5 5 8.5t9 3.5h315q5 0 8 -3.5t2 -8.5l-9 -76q-1 -5 -4.5 -8.5z" />
    <glyph glyph-name="uni0229" unicode="&#x229;" horiz-adv-x="413" 
d="M384 216.5q-4 -3.5 -9 -3.5h-214q-5 0 -5 -5l-6 -45l-1 -12q0 -26 14 -42.5t37 -16.5q22 0 39.5 14.5t26.5 37.5q4 10 14 10l86 -4q5 0 7.5 -3.5t1.5 -9.5q-12 -57 -47.5 -93.5t-90.5 -47.5q-6 -2 -3 -6q21 -31 21 -68q0 -20 -6 -38q-12 -33 -35.5 -47t-52.5 -14
q-19 0 -39 6q-5 1 -6.5 4.5t0.5 9.5l9 35q3 12 15 10q13 -2 24 4.5t17 23.5q2 10 2 15q0 29 -25 60q-1 3 -5 3q-57 10 -87.5 45t-30.5 91q0 16 1 24l25 203q9 73 61 117.5t131 44.5q73 0 113 -37.5t40 -100.5q0 -16 -1 -24l-17 -132q0 -5 -4 -8.5zM196 399q-19 -20 -23 -51
l-6 -45q0 -5 4 -5h110q5 0 5 5l6 45l1 12q0 26 -14 42.5t-38 16.5q-26 0 -45 -20z" />
    <glyph glyph-name="uni0237" unicode="&#x237;" horiz-adv-x="205" 
d="M-87 -201.5q-3 3.5 -2 8.5l10 75q0 5 3.5 8.5t9.5 3.5q42 1 63 24t26 66l63 515q1 5 5 8.5t9 3.5h89q5 0 8 -3.5t2 -8.5l-63 -515q-9 -68 -26.5 -107.5t-61.5 -61t-127 -20.5q-5 0 -8 3.5z" />
    <glyph glyph-name="uni0259" unicode="&#x259;" horiz-adv-x="413" 
d="M362.5 482.5q40.5 -36.5 40.5 -99.5q0 -8 -2 -26l-25 -202q-9 -73 -61 -118t-131 -45q-72 0 -112.5 37.5t-40.5 100.5q0 7 2 25l16 131q1 5 4.5 8.5t8.5 3.5h214q4 0 6 5l5 45q1 4 1 12q0 27 -14 43.5t-37 16.5q-22 0 -39.5 -15t-26.5 -38q-4 -10 -14 -10l-86 4
q-5 0 -7.5 3.5t-1.5 8.5q15 71 62.5 108.5t124.5 37.5q73 0 113.5 -36.5zM241.5 112q18.5 20 22.5 51l6 46q0 5 -4 5h-110q-5 0 -5 -5l-6 -46l-1 -12q0 -26 14.5 -42.5t38.5 -16.5q26 0 44.5 20z" />
    <glyph glyph-name="uni0292" unicode="&#x292;" horiz-adv-x="411" 
d="M221 256q0 -2 3 -2q70 -17 107.5 -68t37.5 -121q0 -11 -2 -33q-9 -70 -48 -123.5t-97.5 -82t-124.5 -28.5q-43 0 -88 14q-9 3 -8 14l12 77q1 6 5 9t9 1q33 -12 68 -12q60 0 106 33t54 106q1 8 1 23q0 48 -25.5 78.5t-78.5 30.5q-22 0 -56 -8l-4 -1q-7 0 -10 8l-17 58
q-1 2 -1 6q0 6 6 10l169 155q3 2 2 4t-4 2h-158q-5 0 -8 3.5t-2 8.5l10 81q1 5 4.5 8.5t8.5 3.5h291q5 0 8 -3.5t2 -8.5l-10 -84q-1 -8 -8 -15l-152 -140q-2 -2 -2 -4z" />
    <glyph glyph-name="uni02BB" unicode="&#x2bb;" horiz-adv-x="160" 
d="M69 690q0 10 11 10h89q12 0 12 -11l18 -194q0 -13 -13 -13h-66q-9 0 -11 10l-39 194z" />
    <glyph glyph-name="uni02BC" unicode="&#x2bc;" horiz-adv-x="160" 
d="M220 686l-87 -194q-5 -10 -14 -10h-67q-12 0 -8 13l65 194q3 11 14 11h90q13 0 7 -14z" />
    <glyph glyph-name="circumflex" unicode="&#x2c6;" horiz-adv-x="269" 
d="M74 581q0 4 3 8l74 103q5 8 14 8h100q10 0 13 -8l51 -103q2 -4 2 -6q0 -8 -11 -8h-68q-9 0 -14 8l-25 63q-2 5 -6 0l-41 -63q-6 -8 -16 -8h-67q-9 0 -9 6z" />
    <glyph glyph-name="caron" unicode="&#x2c7;" horiz-adv-x="302" 
d="M89 692q0 8 11 8h66q11 0 14 -8l26 -62q3 -4 6 0l41 62q5 8 15 8h68q9 0 9 -6q0 -3 -3 -8l-76 -103q-6 -8 -15 -8h-100q-9 0 -12 8l-49 103q-1 2 -1 6z" />
    <glyph glyph-name="uni02C9" unicode="&#x2c9;" horiz-adv-x="207" 
d="M60 623.5q-3 3.5 -2 8.5l7 56q1 5 4.5 8.5t8.5 3.5h184q5 0 8.5 -3.5t2.5 -8.5l-7 -56q-1 -5 -4.5 -8.5t-8.5 -3.5h-185q-5 0 -8 3.5z" />
    <glyph glyph-name="breve" unicode="&#x2d8;" horiz-adv-x="255" 
d="M103 580q-27 28 -25 74q0 12 13 12h37q11 0 11 -12q1 -22 13 -35.5t31 -13.5t34.5 13.5t20.5 35.5q3 12 14 12h38q12 0 10 -12q-10 -46 -44 -74t-80 -28t-73 28z" />
    <glyph glyph-name="dotaccent" unicode="&#x2d9;" horiz-adv-x="169" 
d="M92 598q-17 17 -17 44q0 35 23 58t56 23q27 0 43.5 -16.5t16.5 -43.5q0 -35 -23 -58.5t-54 -23.5q-28 0 -45 17z" />
    <glyph glyph-name="ring" unicode="&#x2da;" horiz-adv-x="260" 
d="M107 597q-28 29 -28 74q0 36 18 67t47.5 49t64.5 18q44 0 72 -29t28 -73q0 -37 -18 -68t-47.5 -49t-63.5 -18q-45 0 -73 29zM229 650q18 19 18 45q0 21 -12.5 34.5t-32.5 13.5q-24 0 -42.5 -18t-18.5 -44q0 -21 13.5 -35.5t33.5 -14.5q23 0 41 19z" />
    <glyph glyph-name="ogonek" unicode="&#x2db;" horiz-adv-x="136" 
d="M80 -183q-22 -6 -40 -6q-31 0 -52.5 16.5t-21.5 55.5q0 60 58 111q6 6 15 6h47q9 0 9 -6q0 -4 -5 -9q-23 -20 -35.5 -41t-11.5 -40q1 -16 10.5 -23t23.5 -5h3q9 0 9 -9l1 -36q0 -11 -10 -14z" />
    <glyph glyph-name="tilde" unicode="&#x2dc;" horiz-adv-x="311" 
d="M233 598.5q-11 4.5 -26 14.5q-7 4 -14 9t-12.5 7.5t-13.5 2.5q-21 0 -39 -23q-9 -10 -17 -4l-29 23q-7 6 -3 16q17 32 40.5 47.5t48.5 15.5q16 0 28.5 -6t28.5 -17q4 -3 11 -8t13.5 -8t14.5 -3q23 0 40 22q7 12 16 5l29 -22q3 -3 3 -8q0 -6 -6 -15q-19 -28 -43 -40.5
t-46 -12.5q-13 0 -24 4.5z" />
    <glyph glyph-name="hungarumlaut" unicode="&#x2dd;" horiz-adv-x="339" 
d="M75 589q0 4 3 8l69 103q6 8 16 8h68q10 0 10 -7q0 -4 -4 -8l-83 -102q-5 -8 -15 -8h-54q-10 0 -10 6zM217 589q0 4 3 8l70 103q4 8 15 8h69q10 0 10 -7q0 -4 -4 -8l-83 -102q-6 -8 -15 -8h-55q-10 0 -10 6z" />
    <glyph glyph-name="gravecomb" unicode="&#x300;" horiz-adv-x="0" 
d="M41 584q0 -9 -12 -9h-56q-9 0 -12 8l-59 102q-2 4 -2 6q0 4 3.5 6.5t8.5 2.5h70q10 0 13 -8l45 -103q1 -2 1 -5z" />
    <glyph glyph-name="acutecomb" unicode="&#x301;" horiz-adv-x="0" 
d="M-114 581q0 4 3 8l69 103q5 8 16 8h70q9 0 9 -7q0 -3 -3 -8l-85 -103q-5 -7 -14 -7h-55q-10 0 -10 6z" />
    <glyph glyph-name="uni0302" unicode="&#x302;" horiz-adv-x="0" 
d="M-227 581q0 4 3 8l74 103q5 8 14 8h100q10 0 13 -8l51 -103q2 -4 2 -6q0 -8 -11 -8h-68q-9 0 -14 8l-25 63q-2 5 -6 0l-41 -63q-6 -8 -16 -8h-67q-9 0 -9 6z" />
    <glyph glyph-name="tildecomb" unicode="&#x303;" horiz-adv-x="0" 
d="M-61 598.5q-11 4.5 -26 14.5q-7 4 -14 9t-12.5 7.5t-13.5 2.5q-21 0 -39 -23q-9 -10 -17 -4l-29 23q-7 6 -3 16q17 32 40.5 47.5t48.5 15.5q16 0 28.5 -6t28.5 -17q4 -3 11 -8t13.5 -8t14.5 -3q23 0 40 22q7 12 16 5l29 -22q3 -3 3 -8q0 -6 -6 -15q-19 -28 -43 -40.5
t-46 -12.5q-13 0 -24 4.5z" />
    <glyph glyph-name="uni0304" unicode="&#x304;" horiz-adv-x="0" 
d="M-149 606.5q-3 3.5 -2 8.5l7 56q1 5 4.5 8.5t8.5 3.5h184q11 0 11 -12l-7 -56q-1 -5 -4.5 -8.5t-8.5 -3.5h-185q-5 0 -8 3.5z" />
    <glyph glyph-name="uni0306" unicode="&#x306;" horiz-adv-x="0" 
d="M-149 598q-27 28 -25 74q0 12 12 12h38q11 0 11 -12q0 -22 12 -35.5t31 -13.5t34.5 13.5t21.5 35.5q3 12 14 12h38q12 0 9 -12q-10 -46 -43.5 -74t-79.5 -28t-73 28z" />
    <glyph glyph-name="uni0307" unicode="&#x307;" horiz-adv-x="0" 
d="M-68 598q-17 17 -17 44q0 35 23 58t56 23q27 0 43.5 -16.5t16.5 -43.5q0 -35 -23 -58.5t-54 -23.5q-28 0 -45 17z" />
    <glyph glyph-name="uni0308" unicode="&#x308;" horiz-adv-x="0" 
d="M-61 598q-17 17 -17 44q0 35 23 58t56 23q27 0 43.5 -16.5t16.5 -43.5q0 -35 -23 -58.5t-54 -23.5q-28 0 -45 17zM-228 598q-17 17 -17 44q0 35 23 58t56 23q27 0 43.5 -16.5t16.5 -43.5q0 -35 -23 -58.5t-54 -23.5q-28 0 -45 17z" />
    <glyph glyph-name="hookabovecomb" unicode="&#x309;" horiz-adv-x="0" 
d="M-271 569q13 24 37 48q12 11 18 20t8 23q1 11 -7 19.5t-21 8.5q-14 0 -24.5 -6.5t-26.5 -24.5q-9 -11 -17 -3l-23 19q-4 4 -4 9q0 4 3 8q24 30 46.5 43t54.5 13q38 0 60 -20t22 -54q0 -27 -12 -45t-35 -39q-23 -23 -29 -32q-7 -10 -16 -8l-28 6q-12 3 -6 15z" />
    <glyph glyph-name="uni030A" unicode="&#x30a;" horiz-adv-x="0" 
d="M-123 597q-28 29 -28 74q0 36 18 67t47.5 49t64.5 18q44 0 72 -29t28 -73q0 -37 -18 -68t-47.5 -49t-63.5 -18q-45 0 -73 29zM-1 650q18 19 18 45q0 21 -12.5 34.5t-32.5 13.5q-24 0 -42.5 -18t-18.5 -44q0 -21 13.5 -35.5t33.5 -14.5q23 0 41 19z" />
    <glyph glyph-name="uni030B" unicode="&#x30b;" horiz-adv-x="0" 
d="M-258 578.5q-2 3.5 2 10.5l61 102q6 9 15 9h73q6 0 8 -4t-2 -10l-65 -102q-6 -9 -16 -9h-67q-7 0 -9 3.5zM-116 581q0 4 3 8l65 102q2 4 6.5 6.5t8.5 2.5h68q9 0 9 -6q0 -3 -3 -8l-66 -103q-4 -8 -15 -8h-67q-9 0 -9 6z" />
    <glyph glyph-name="uni030C" unicode="&#x30c;" horiz-adv-x="0" 
d="M-213 692q0 8 11 8h66q11 0 14 -8l26 -62q3 -4 6 0l41 62q5 8 15 8h68q9 0 9 -6q0 -3 -3 -8l-76 -103q-6 -8 -15 -8h-100q-9 0 -12 8l-49 103q-1 2 -1 6z" />
    <glyph glyph-name="uni0312" unicode="&#x312;" horiz-adv-x="0" 
d="M44 694q0 -3 -3 -8l-69 -103q-5 -8 -16 -8h-70q-10 0 -10 7q0 4 4 8l84 102q5 8 14 8h56q10 0 10 -6z" />
    <glyph glyph-name="uni0313" unicode="&#x313;" horiz-adv-x="0" 
d="M-114 581q0 4 3 8l69 103q5 8 16 8h70q9 0 9 -7q0 -3 -3 -8l-85 -103q-5 -7 -14 -7h-55q-10 0 -10 6z" />
    <glyph glyph-name="uni031B" unicode="&#x31b;" horiz-adv-x="0" 
d="M-89 470l4 30q1 11 12 12q20 4 36.5 21t22.5 49q1 6 4.5 9t8.5 3h38q5 0 7.5 -4.5t1.5 -12.5q-11 -55 -45 -85t-79 -34q-13 0 -11 12z" />
    <glyph glyph-name="dotbelowcomb" unicode="&#x323;" horiz-adv-x="0" 
d="M-165 -207q-16 16 -16 42q0 33 22 55t53 22q26 0 42 -15.5t16 -41.5q0 -33 -22 -55.5t-52 -22.5q-27 0 -43 16z" />
    <glyph glyph-name="uni0326" unicode="&#x326;" horiz-adv-x="0" 
d="M-228 -173q0 4 3 8l69 103q5 8 16 8h70q9 0 9 -7q0 -3 -3 -8l-85 -103q-5 -7 -14 -7h-55q-10 0 -10 6z" />
    <glyph glyph-name="uni0327" unicode="&#x327;" horiz-adv-x="0" 
d="M-170 -169l9 36q3 11 15 9q14 -2 25 4.5t16 23.5q2 10 2 16q0 31 -29 65q-4 6 -4 8q0 7 11 7h47q9 0 14 -6q33 -39 33 -83q0 -20 -6 -39q-12 -33 -35.5 -47t-52.5 -14q-18 0 -38 6q-10 3 -7 14z" />
    <glyph glyph-name="uni0328" unicode="&#x328;" horiz-adv-x="0" 
d="M-56 -183q-22 -6 -40 -6q-31 0 -52.5 16.5t-21.5 55.5q0 60 58 111q6 6 15 6h46q9 0 9 -6q0 -4 -5 -9q-47 -43 -46 -81q1 -16 10.5 -23t23.5 -5h3q9 0 9 -9l1 -36q0 -11 -10 -14z" />
    <glyph glyph-name="uni0335" unicode="&#x335;" horiz-adv-x="0" 
d="M-216 627.5q4 3.5 9 3.5h246q5 0 8 -3.5t2 -8.5l-6 -47q0 -5 -4 -8.5t-9 -3.5h-246q-5 0 -8 3.5t-2 8.5l6 47q0 5 4 8.5z" />
    <glyph glyph-name="uni0336" unicode="&#x336;" horiz-adv-x="0" 
d="M-403 515.5q-3 3.5 -2 8.5l7 55q1 5 4.5 8.5t8.5 3.5h427q5 0 8 -3.5t2 -8.5l-7 -55q-1 -5 -4.5 -8.5t-8.5 -3.5h-427q-5 0 -8 3.5z" />
    <glyph glyph-name="uni0337" unicode="&#x337;" horiz-adv-x="0" 
d="M-314 129q-5 0 -8 5l-34 50q-2 2 -2 7q0 6 6 10l390 290q4 3 8 3q5 0 8 -5l34 -50q3 -3 3 -7q0 -5 -7 -10l-390 -290q-5 -3 -8 -3z" />
    <glyph glyph-name="uni0338" unicode="&#x338;" horiz-adv-x="0" 
d="M-417.5 -37q-1.5 4 1.5 10l414 763q5 9 15 9h44q7 0 8.5 -4t-1.5 -10l-415 -763q-4 -9 -14 -9h-44q-7 0 -8.5 4z" />
    <glyph glyph-name="uni0394" unicode="&#x394;" horiz-adv-x="510" 
d="M-5 3.5q-3 3.5 -2 8.5l10 80q0 6 3 15l271 583q3 10 14 10h61q9 0 11 -10l127 -584q1 -8 0 -15l-9 -79q-1 -5 -4.5 -8.5t-8.5 -3.5h-465q-5 0 -8 3.5zM119 100h257q5 0 5 6l-76 436q0 4 -2 4t-4 -4l-183 -436q-3 -6 3 -6z" />
    <glyph glyph-name="uni03A9" unicode="&#x3a9;" horiz-adv-x="476" 
d="M25 3.5q-3 3.5 -2 8.5l9 76q1 5 4.5 8.5t8.5 3.5h40q3 0 4 2t-1 4q-28 36 -28 92q0 9 2 27l36 293q10 86 67.5 138t140.5 52q76 0 120.5 -43t44.5 -117q0 -10 -2 -30l-36 -293q-9 -74 -56 -119q-3 -2 -2 -4t4 -2h38q5 0 8 -3.5t2 -8.5l-9 -76q-1 -5 -5 -8.5t-9 -3.5h-156
q-5 0 -8 3.5t-2 8.5l10 77q0 9 11 14q21 8 37 29.5t20 51.5l41 339q1 5 1 14q0 33 -17 52t-47 19q-33 0 -55.5 -23.5t-27.5 -61.5l-42 -339q-1 -5 -1 -15q0 -24 10 -41.5t26 -23.5q9 -6 8 -14l-10 -78q-1 -5 -4.5 -8.5t-8.5 -3.5h-156q-5 0 -8 3.5z" />
    <glyph glyph-name="uni03BC" unicode="&#x3bc;" horiz-adv-x="429" 
d="M319 507.5q4 3.5 9 3.5h89q5 0 8 -3.5t2 -8.5l-60 -487q-1 -5 -4.5 -8.5t-8.5 -3.5h-89q-5 0 -8 3.5t-2 8.5l2 22q1 3 -1 4t-4 -2q-34 -43 -96 -43h-14q-4 1 -6 -4l-21 -177q-1 -5 -4.5 -8.5t-8.5 -3.5h-90q-5 0 -8 3.5t-2 8.5l84 687q1 5 5 8.5t9 3.5h89q5 0 8 -3.5
t2 -8.5l-41 -332q-1 -7 -1 -19q0 -56 48 -56q28 0 46.5 21.5t22.5 58.5l40 327q1 5 5 8.5z" />
    <glyph glyph-name="pi" unicode="&#x3c0;" horiz-adv-x="511" 
d="M514.5 415.5q-3.5 -3.5 -8.5 -3.5h-42q-4 0 -6 -5l-31 -256q-1 -7 -1 -18q0 -22 8 -28t25 -6h2q11 0 9 -11l-10 -76q-2 -12 -13 -12l-37 -1q-47 0 -75.5 15t-28.5 58q0 12 1 19l39 316q0 5 -4 5h-108q-4 0 -6 -5l-48 -395q-1 -5 -4.5 -8.5t-8.5 -3.5h-89q-11 0 -11 12
l49 395q0 5 -4 5h-43q-5 0 -8 3.5t-2 8.5l9 75q1 5 4.5 8.5t8.5 3.5h437q5 0 8 -3.5t2 -8.5l-9 -75q-1 -5 -4.5 -8.5z" />
    <glyph glyph-name="Wgrave" unicode="&#x1e80;" horiz-adv-x="638" 
d="M134 11l-46 676v2q0 11 12 11h93q11 0 11 -11l17 -417q0 -3 2 -3t3 3l113 417q3 11 14 11h77q12 0 12 -11l14 -417q1 -3 3 -3t3 3l112 417q3 11 14 11h91q5 0 7.5 -3.5t1.5 -9.5l-206 -676q-3 -11 -14 -11h-83q-11 0 -11 11l-13 425q0 4 -2 4t-4 -4l-112 -425
q-3 -11 -14 -11h-83q-12 0 -12 11zM429 773q0 -9 -12 -9h-56q-9 0 -12 8l-59 102q-2 4 -2 6q0 4 3.5 6.5t8.5 2.5h70q10 0 13 -8l45 -103q1 -2 1 -5z" />
    <glyph glyph-name="wgrave" unicode="&#x1e81;" horiz-adv-x="575" 
d="M107 3q-3 3 -3 8l-44 488v2q0 11 13 11h85q11 0 11 -11l12 -311q1 -3 3 -3t3 3l92 311q3 11 14 11h75q12 0 12 -11l16 -312q0 -3 2.5 -3t3.5 3l89 312q3 11 14 11l84 -2q12 0 8 -13l-163 -486q-3 -11 -14 -11h-87q-12 0 -12 11l-15 292q-1 3 -2.5 3t-3.5 -3l-86 -292
q-3 -11 -14 -11h-85q-5 0 -8 3zM375 584q0 -9 -12 -9h-56q-9 0 -12 8l-59 102q-2 4 -2 6q0 4 3.5 6.5t8.5 2.5h70q10 0 13 -8l45 -103q1 -2 1 -5z" />
    <glyph glyph-name="Wacute" unicode="&#x1e82;" horiz-adv-x="638" 
d="M134 11l-46 676v2q0 11 12 11h93q11 0 11 -11l17 -417q0 -3 2 -3t3 3l113 417q3 11 14 11h77q12 0 12 -11l14 -417q1 -3 3 -3t3 3l112 417q3 11 14 11h91q5 0 7.5 -3.5t1.5 -9.5l-206 -676q-3 -11 -14 -11h-83q-11 0 -11 11l-13 425q0 4 -2 4t-4 -4l-112 -425
q-3 -11 -14 -11h-83q-12 0 -12 11zM338 770q0 4 3 8l69 103q5 8 16 8h70q9 0 9 -7q0 -3 -3 -8l-85 -103q-5 -7 -14 -7h-55q-10 0 -10 6z" />
    <glyph glyph-name="wacute" unicode="&#x1e83;" horiz-adv-x="575" 
d="M107 3q-3 3 -3 8l-44 488v2q0 11 13 11h85q11 0 11 -11l12 -311q1 -3 3 -3t3 3l92 311q3 11 14 11h75q12 0 12 -11l16 -312q0 -3 2.5 -3t3.5 3l89 312q3 11 14 11l84 -2q12 0 8 -13l-163 -486q-3 -11 -14 -11h-87q-12 0 -12 11l-15 292q-1 3 -2.5 3t-3.5 -3l-86 -292
q-3 -11 -14 -11h-85q-5 0 -8 3zM284 581q0 4 3 8l69 103q5 8 16 8h70q9 0 9 -7q0 -3 -3 -8l-85 -103q-5 -7 -14 -7h-55q-10 0 -10 6z" />
    <glyph glyph-name="Wdieresis" unicode="&#x1e84;" horiz-adv-x="638" 
d="M134 11l-46 676v2q0 11 12 11h93q11 0 11 -11l17 -417q0 -3 2 -3t3 3l113 417q3 11 14 11h77q12 0 12 -11l14 -417q1 -3 3 -3t3 3l112 417q3 11 14 11h91q5 0 7.5 -3.5t1.5 -9.5l-206 -676q-3 -11 -14 -11h-83q-11 0 -11 11l-13 425q0 4 -2 4t-4 -4l-112 -425
q-3 -11 -14 -11h-83q-12 0 -12 11zM432 787q-17 17 -17 44q0 35 23 58t56 23q27 0 43.5 -16.5t16.5 -43.5q0 -35 -23 -58.5t-54 -23.5q-28 0 -45 17zM265 787q-17 17 -17 44q0 35 23 58t56 23q27 0 43.5 -16.5t16.5 -43.5q0 -35 -23 -58.5t-54 -23.5q-28 0 -45 17z" />
    <glyph glyph-name="wdieresis" unicode="&#x1e85;" horiz-adv-x="575" 
d="M107 3q-3 3 -3 8l-44 488v2q0 11 13 11h85q11 0 11 -11l12 -311q1 -3 3 -3t3 3l92 311q3 11 14 11h75q12 0 12 -11l16 -312q0 -3 2.5 -3t3.5 3l89 312q3 11 14 11l84 -2q12 0 8 -13l-163 -486q-3 -11 -14 -11h-87q-12 0 -12 11l-15 292q-1 3 -2.5 3t-3.5 -3l-86 -292
q-3 -11 -14 -11h-85q-5 0 -8 3zM377 598q-17 17 -17 44q0 35 23 58t56 23q27 0 43.5 -16.5t16.5 -43.5q0 -35 -23 -58.5t-54 -23.5q-28 0 -45 17zM210 598q-17 17 -17 44q0 35 23 58t56 23q27 0 43.5 -16.5t16.5 -43.5q0 -35 -23 -58.5t-54 -23.5q-28 0 -45 17z" />
    <glyph glyph-name="uni1EA0" unicode="&#x1ea0;" horiz-adv-x="443" 
d="M297 11l-5 105q0 5 -6 5h-141q-5 0 -7 -5l-31 -105q-3 -11 -14 -11h-88q-13 0 -9 13l226 676q3 11 14 11h103q11 0 11 -11l61 -676v-2q0 -11 -12 -11h-91q-11 0 -11 11zM173 212h107q6 0 6 5l-18 316q0 3 -2 3t-4 -3l-94 -316q-1 -5 5 -5zM132 -207q-16 16 -16 42
q0 33 22 55t53 22q26 0 42 -15.5t16 -41.5q0 -33 -22 -55.5t-52 -22.5q-27 0 -43 16z" />
    <glyph glyph-name="uni1EA1" unicode="&#x1ea1;" 
d="M313 507.5q4 3.5 9 3.5h89q5 0 8 -3.5t2 -8.5l-60 -487q-1 -5 -4.5 -8.5t-8.5 -3.5h-89q-5 0 -8 3.5t-2 8.5l4 30q0 4 -2 4t-4 -3q-38 -51 -100 -51q-56 0 -84.5 33.5t-28.5 93.5q0 24 2 36l25 202q10 77 48.5 119.5t102.5 42.5q27 0 50.5 -12t36.5 -39q2 -3 3.5 -3
t2.5 4l4 30q0 5 4 8.5zM244.5 111.5q18.5 19.5 22.5 51.5l23 185q1 4 1 13q0 26 -13.5 42t-36.5 16q-27 0 -45.5 -19.5t-22.5 -51.5l-23 -185q-1 -4 -1 -12q0 -27 14 -43t37 -16q26 0 44.5 19.5zM121 -207q-16 16 -16 42q0 33 22 55t53 22q26 0 42 -15.5t16 -41.5
q0 -33 -22 -55.5t-52 -22.5q-27 0 -43 16z" />
    <glyph glyph-name="uni1EA2" unicode="&#x1ea2;" horiz-adv-x="443" 
d="M297 11l-5 105q0 5 -6 5h-141q-5 0 -7 -5l-31 -105q-3 -11 -14 -11h-88q-13 0 -9 13l226 676q3 11 14 11h103q11 0 11 -11l61 -676v-2q0 -11 -12 -11h-91q-11 0 -11 11zM173 212h107q6 0 6 5l-18 316q0 3 -2 3t-4 -3l-94 -316q-1 -5 5 -5zM277 758q13 24 37 48
q12 11 18 20t8 23q1 11 -7 19.5t-21 8.5q-14 0 -24.5 -6.5t-26.5 -24.5q-9 -11 -17 -3l-23 19q-4 4 -4 9q0 4 3 8q24 30 46.5 43t54.5 13q38 0 60 -20t22 -54q0 -27 -12 -45t-35 -39q-23 -23 -29 -32q-7 -10 -16 -8l-28 6q-12 3 -6 15z" />
    <glyph glyph-name="uni1EA3" unicode="&#x1ea3;" 
d="M313 507.5q4 3.5 9 3.5h89q5 0 8 -3.5t2 -8.5l-60 -487q-1 -5 -4.5 -8.5t-8.5 -3.5h-89q-5 0 -8 3.5t-2 8.5l4 30q0 4 -2 4t-4 -3q-38 -51 -100 -51q-56 0 -84.5 33.5t-28.5 93.5q0 24 2 36l25 202q10 77 48.5 119.5t102.5 42.5q27 0 50.5 -12t36.5 -39q2 -3 3.5 -3
t2.5 4l4 30q0 5 4 8.5zM244.5 111.5q18.5 19.5 22.5 51.5l23 185q1 4 1 13q0 26 -13.5 42t-36.5 16q-27 0 -45.5 -19.5t-22.5 -51.5l-23 -185q-1 -4 -1 -12q0 -27 14 -43t37 -16q26 0 44.5 19.5zM243 569q13 24 37 48q12 11 18 20t8 23q1 11 -7 19.5t-21 8.5
q-14 0 -24.5 -6.5t-26.5 -24.5q-9 -11 -17 -3l-23 19q-4 4 -4 9q0 4 3 8q24 30 46.5 43t54.5 13q38 0 60 -20t22 -54q0 -27 -12 -45t-35 -39q-23 -23 -29 -32q-7 -10 -16 -8l-28 6q-12 3 -6 15z" />
    <glyph glyph-name="uni1EA4" unicode="&#x1ea4;" horiz-adv-x="443" 
d="M297 11l-5 105q0 5 -6 5h-141q-5 0 -7 -5l-31 -105q-3 -11 -14 -11h-88q-13 0 -9 13l226 676q3 11 14 11h103q11 0 11 -11l61 -676v-2q0 -11 -12 -11h-91q-11 0 -11 11zM173 212h107q6 0 6 5l-18 316q0 3 -2 3t-4 -3l-94 -316q-1 -5 5 -5zM167 770q0 4 3 8l74 103
q5 8 14 8h100q10 0 13 -8l51 -103q2 -4 2 -6q0 -8 -11 -8h-68q-9 0 -14 8l-25 63q-2 5 -6 0l-41 -63q-6 -8 -16 -8h-67q-9 0 -9 6zM429 850q0 4 3 8l69 103q5 8 16 8h70q9 0 9 -7q0 -3 -3 -8l-85 -103q-5 -7 -14 -7h-55q-10 0 -10 6z" />
    <glyph glyph-name="uni1EA5" unicode="&#x1ea5;" 
d="M313 507.5q4 3.5 9 3.5h89q5 0 8 -3.5t2 -8.5l-60 -487q-1 -5 -4.5 -8.5t-8.5 -3.5h-89q-5 0 -8 3.5t-2 8.5l4 30q0 4 -2 4t-4 -3q-38 -51 -100 -51q-56 0 -84.5 33.5t-28.5 93.5q0 24 2 36l25 202q10 77 48.5 119.5t102.5 42.5q27 0 50.5 -12t36.5 -39q2 -3 3.5 -3
t2.5 4l4 30q0 5 4 8.5zM244.5 111.5q18.5 19.5 22.5 51.5l23 185q1 4 1 13q0 26 -13.5 42t-36.5 16q-27 0 -45.5 -19.5t-22.5 -51.5l-23 -185q-1 -4 -1 -12q0 -27 14 -43t37 -16q26 0 44.5 19.5zM133 581q0 4 3 8l74 103q5 8 14 8h100q10 0 13 -8l51 -103q2 -4 2 -6
q0 -8 -11 -8h-68q-9 0 -14 8l-25 63q-2 5 -6 0l-41 -63q-6 -8 -16 -8h-67q-9 0 -9 6zM395 661q0 4 3 8l69 103q5 8 16 8h70q9 0 9 -7q0 -3 -3 -8l-85 -103q-5 -7 -14 -7h-55q-10 0 -10 6z" />
    <glyph glyph-name="uni1EA6" unicode="&#x1ea6;" horiz-adv-x="443" 
d="M297 11l-5 105q0 5 -6 5h-141q-5 0 -7 -5l-31 -105q-3 -11 -14 -11h-88q-13 0 -9 13l226 676q3 11 14 11h103q11 0 11 -11l61 -676v-2q0 -11 -12 -11h-91q-11 0 -11 11zM173 212h107q6 0 6 5l-18 316q0 3 -2 3t-4 -3l-94 -316q-1 -5 5 -5zM167 770q0 4 3 8l74 103
q5 8 14 8h100q10 0 13 -8l51 -103q2 -4 2 -6q0 -8 -11 -8h-68q-9 0 -14 8l-25 63q-2 5 -6 0l-41 -63q-6 -8 -16 -8h-67q-9 0 -9 6zM499 893q0 -9 -12 -9h-56q-9 0 -12 8l-59 102q-2 4 -2 6q0 4 3.5 6.5t8.5 2.5h70q10 0 13 -8l45 -103q1 -2 1 -5z" />
    <glyph glyph-name="uni1EA7" unicode="&#x1ea7;" 
d="M313 507.5q4 3.5 9 3.5h89q5 0 8 -3.5t2 -8.5l-60 -487q-1 -5 -4.5 -8.5t-8.5 -3.5h-89q-5 0 -8 3.5t-2 8.5l4 30q0 4 -2 4t-4 -3q-38 -51 -100 -51q-56 0 -84.5 33.5t-28.5 93.5q0 24 2 36l25 202q10 77 48.5 119.5t102.5 42.5q27 0 50.5 -12t36.5 -39q2 -3 3.5 -3
t2.5 4l4 30q0 5 4 8.5zM244.5 111.5q18.5 19.5 22.5 51.5l23 185q1 4 1 13q0 26 -13.5 42t-36.5 16q-27 0 -45.5 -19.5t-22.5 -51.5l-23 -185q-1 -4 -1 -12q0 -27 14 -43t37 -16q26 0 44.5 19.5zM133 581q0 4 3 8l74 103q5 8 14 8h100q10 0 13 -8l51 -103q2 -4 2 -6
q0 -8 -11 -8h-68q-9 0 -14 8l-25 63q-2 5 -6 0l-41 -63q-6 -8 -16 -8h-67q-9 0 -9 6zM465 704q0 -9 -12 -9h-56q-9 0 -12 8l-59 102q-2 4 -2 6q0 4 3.5 6.5t8.5 2.5h70q10 0 13 -8l45 -103q1 -2 1 -5z" />
    <glyph glyph-name="uni1EA8" unicode="&#x1ea8;" horiz-adv-x="443" 
d="M297 11l-5 105q0 5 -6 5h-141q-5 0 -7 -5l-31 -105q-3 -11 -14 -11h-88q-13 0 -9 13l226 676q3 11 14 11h103q11 0 11 -11l61 -676v-2q0 -11 -12 -11h-91q-11 0 -11 11zM173 212h107q6 0 6 5l-18 316q0 3 -2 3t-4 -3l-94 -316q-1 -5 5 -5zM427 870q-2 4 2 10q12 22 35 45
q11 10 17 18.5t7 21.5q1 11 -6.5 19t-20.5 8q-12 0 -21.5 -5.5t-24.5 -21.5l-4 -4q-7 -7 -15 -1l-20 17q-5 5 -5 9t4 8q23 28 44 40.5t52 12.5q35 0 56 -19t21 -51q0 -27 -11.5 -44.5t-33.5 -37.5q-18 -16 -27 -29q-7 -8 -16 -7l-25 5q-6 2 -8 6zM167 770q0 4 3 8l74 103
q5 8 14 8h100q10 0 13 -8l51 -103q2 -4 2 -6q0 -8 -11 -8h-68q-9 0 -14 8l-25 63q-2 5 -6 0l-41 -63q-6 -8 -16 -8h-67q-9 0 -9 6z" />
    <glyph glyph-name="uni1EA9" unicode="&#x1ea9;" 
d="M313 507.5q4 3.5 9 3.5h89q5 0 8 -3.5t2 -8.5l-60 -487q-1 -5 -4.5 -8.5t-8.5 -3.5h-89q-5 0 -8 3.5t-2 8.5l4 30q0 4 -2 4t-4 -3q-38 -51 -100 -51q-56 0 -84.5 33.5t-28.5 93.5q0 24 2 36l25 202q10 77 48.5 119.5t102.5 42.5q27 0 50.5 -12t36.5 -39q2 -3 3.5 -3
t2.5 4l4 30q0 5 4 8.5zM244.5 111.5q18.5 19.5 22.5 51.5l23 185q1 4 1 13q0 26 -13.5 42t-36.5 16q-27 0 -45.5 -19.5t-22.5 -51.5l-23 -185q-1 -4 -1 -12q0 -27 14 -43t37 -16q26 0 44.5 19.5zM393 681q-2 4 2 10q12 22 35 45q11 10 17 18.5t7 21.5q1 11 -6.5 19t-20.5 8
q-12 0 -21.5 -5.5t-24.5 -21.5l-4 -4q-7 -7 -15 -1l-20 17q-5 5 -5 9t4 8q23 28 44 40.5t52 12.5q35 0 56 -19t21 -51q0 -27 -11.5 -44.5t-33.5 -37.5q-18 -16 -27 -29q-7 -8 -16 -7l-25 5q-6 2 -8 6zM133 581q0 4 3 8l74 103q5 8 14 8h100q10 0 13 -8l51 -103q2 -4 2 -6
q0 -8 -11 -8h-68q-9 0 -14 8l-25 63q-2 5 -6 0l-41 -63q-6 -8 -16 -8h-67q-9 0 -9 6z" />
    <glyph glyph-name="uni1EAA" unicode="&#x1eaa;" horiz-adv-x="443" 
d="M297 11l-5 105q0 5 -6 5h-141q-5 0 -7 -5l-31 -105q-3 -11 -14 -11h-88q-13 0 -9 13l226 676q3 11 14 11h103q11 0 11 -11l61 -676v-2q0 -11 -12 -11h-91q-11 0 -11 11zM173 212h107q6 0 6 5l-18 316q0 3 -2 3t-4 -3l-94 -316q-1 -5 5 -5zM167 770q0 4 3 8l74 103
q5 8 14 8h100q10 0 13 -8l51 -103q2 -4 2 -6q0 -8 -11 -8h-68q-9 0 -14 8l-25 63q-2 5 -6 0l-41 -63q-6 -8 -16 -8h-67q-9 0 -9 6zM340 927.5q-11 4.5 -26 14.5q-7 4 -14 9t-12.5 7.5t-13.5 2.5q-21 0 -39 -23q-9 -10 -17 -4l-29 23q-7 6 -3 16q17 32 40.5 47.5t48.5 15.5
q16 0 28.5 -6t28.5 -17q4 -3 11 -8t13.5 -8t14.5 -3q23 0 40 22q7 12 16 5l29 -22q3 -3 3 -8q0 -6 -6 -15q-19 -28 -43 -40.5t-46 -12.5q-13 0 -24 4.5z" />
    <glyph glyph-name="uni1EAB" unicode="&#x1eab;" 
d="M313 507.5q4 3.5 9 3.5h89q5 0 8 -3.5t2 -8.5l-60 -487q-1 -5 -4.5 -8.5t-8.5 -3.5h-89q-5 0 -8 3.5t-2 8.5l4 30q0 4 -2 4t-4 -3q-38 -51 -100 -51q-56 0 -84.5 33.5t-28.5 93.5q0 24 2 36l25 202q10 77 48.5 119.5t102.5 42.5q27 0 50.5 -12t36.5 -39q2 -3 3.5 -3
t2.5 4l4 30q0 5 4 8.5zM244.5 111.5q18.5 19.5 22.5 51.5l23 185q1 4 1 13q0 26 -13.5 42t-36.5 16q-27 0 -45.5 -19.5t-22.5 -51.5l-23 -185q-1 -4 -1 -12q0 -27 14 -43t37 -16q26 0 44.5 19.5zM133 581q0 4 3 8l74 103q5 8 14 8h100q10 0 13 -8l51 -103q2 -4 2 -6
q0 -8 -11 -8h-68q-9 0 -14 8l-25 63q-2 5 -6 0l-41 -63q-6 -8 -16 -8h-67q-9 0 -9 6zM306 738.5q-11 4.5 -26 14.5q-7 4 -14 9t-12.5 7.5t-13.5 2.5q-21 0 -39 -23q-9 -10 -17 -4l-29 23q-7 6 -3 16q17 32 40.5 47.5t48.5 15.5q16 0 28.5 -6t28.5 -17q4 -3 11 -8t13.5 -8
t14.5 -3q23 0 40 22q7 12 16 5l29 -22q3 -3 3 -8q0 -6 -6 -15q-19 -28 -43 -40.5t-46 -12.5q-13 0 -24 4.5z" />
    <glyph glyph-name="uni1EAC" unicode="&#x1eac;" horiz-adv-x="443" 
d="M297 11l-5 105q0 5 -6 5h-141q-5 0 -7 -5l-31 -105q-3 -11 -14 -11h-88q-13 0 -9 13l226 676q3 11 14 11h103q11 0 11 -11l61 -676v-2q0 -11 -12 -11h-91q-11 0 -11 11zM173 212h107q6 0 6 5l-18 316q0 3 -2 3t-4 -3l-94 -316q-1 -5 5 -5zM132 -207q-16 16 -16 42
q0 33 22 55t53 22q26 0 42 -15.5t16 -41.5q0 -33 -22 -55.5t-52 -22.5q-27 0 -43 16zM167 770q0 4 3 8l74 103q5 8 14 8h100q10 0 13 -8l51 -103q2 -4 2 -6q0 -8 -11 -8h-68q-9 0 -14 8l-25 63q-2 5 -6 0l-41 -63q-6 -8 -16 -8h-67q-9 0 -9 6z" />
    <glyph glyph-name="uni1EAD" unicode="&#x1ead;" 
d="M313 507.5q4 3.5 9 3.5h89q5 0 8 -3.5t2 -8.5l-60 -487q-1 -5 -4.5 -8.5t-8.5 -3.5h-89q-5 0 -8 3.5t-2 8.5l4 30q0 4 -2 4t-4 -3q-38 -51 -100 -51q-56 0 -84.5 33.5t-28.5 93.5q0 24 2 36l25 202q10 77 48.5 119.5t102.5 42.5q27 0 50.5 -12t36.5 -39q2 -3 3.5 -3
t2.5 4l4 30q0 5 4 8.5zM244.5 111.5q18.5 19.5 22.5 51.5l23 185q1 4 1 13q0 26 -13.5 42t-36.5 16q-27 0 -45.5 -19.5t-22.5 -51.5l-23 -185q-1 -4 -1 -12q0 -27 14 -43t37 -16q26 0 44.5 19.5zM121 -207q-16 16 -16 42q0 33 22 55t53 22q26 0 42 -15.5t16 -41.5
q0 -33 -22 -55.5t-52 -22.5q-27 0 -43 16zM133 581q0 4 3 8l74 103q5 8 14 8h100q10 0 13 -8l51 -103q2 -4 2 -6q0 -8 -11 -8h-68q-9 0 -14 8l-25 63q-2 5 -6 0l-41 -63q-6 -8 -16 -8h-67q-9 0 -9 6z" />
    <glyph glyph-name="uni1EAE" unicode="&#x1eae;" horiz-adv-x="443" 
d="M297 11l-5 105q0 5 -6 5h-141q-5 0 -7 -5l-31 -105q-3 -11 -14 -11h-88q-13 0 -9 13l226 676q3 11 14 11h103q11 0 11 -11l61 -676v-2q0 -11 -12 -11h-91q-11 0 -11 11zM173 212h107q6 0 6 5l-18 316q0 3 -2 3t-4 -3l-94 -316q-1 -5 5 -5zM223 787q-27 28 -25 74
q0 12 12 12h38q11 0 11 -12q0 -22 12 -35.5t31 -13.5t34.5 13.5t21.5 35.5q3 12 14 12h38q12 0 9 -12q-10 -46 -43.5 -74t-79.5 -28t-73 28zM262 930q0 4 3 8l69 103q5 8 16 8h70q9 0 9 -7q0 -3 -3 -8l-85 -103q-5 -7 -14 -7h-55q-10 0 -10 6z" />
    <glyph glyph-name="uni1EAF" unicode="&#x1eaf;" 
d="M313 507.5q4 3.5 9 3.5h89q5 0 8 -3.5t2 -8.5l-60 -487q-1 -5 -4.5 -8.5t-8.5 -3.5h-89q-5 0 -8 3.5t-2 8.5l4 30q0 4 -2 4t-4 -3q-38 -51 -100 -51q-56 0 -84.5 33.5t-28.5 93.5q0 24 2 36l25 202q10 77 48.5 119.5t102.5 42.5q27 0 50.5 -12t36.5 -39q2 -3 3.5 -3
t2.5 4l4 30q0 5 4 8.5zM244.5 111.5q18.5 19.5 22.5 51.5l23 185q1 4 1 13q0 26 -13.5 42t-36.5 16q-27 0 -45.5 -19.5t-22.5 -51.5l-23 -185q-1 -4 -1 -12q0 -27 14 -43t37 -16q26 0 44.5 19.5zM188 598q-27 28 -25 74q0 12 12 12h38q11 0 11 -12q0 -22 12 -35.5t31 -13.5
t34.5 13.5t21.5 35.5q3 12 14 12h38q12 0 9 -12q-10 -46 -43.5 -74t-79.5 -28t-73 28zM227 741q0 4 3 8l69 103q5 8 16 8h70q9 0 9 -7q0 -3 -3 -8l-85 -103q-5 -7 -14 -7h-55q-10 0 -10 6z" />
    <glyph glyph-name="uni1EB0" unicode="&#x1eb0;" horiz-adv-x="443" 
d="M297 11l-5 105q0 5 -6 5h-141q-5 0 -7 -5l-31 -105q-3 -11 -14 -11h-88q-13 0 -9 13l226 676q3 11 14 11h103q11 0 11 -11l61 -676v-2q0 -11 -12 -11h-91q-11 0 -11 11zM173 212h107q6 0 6 5l-18 316q0 3 -2 3t-4 -3l-94 -316q-1 -5 5 -5zM223 787q-27 28 -25 74
q0 12 12 12h38q11 0 11 -12q0 -22 12 -35.5t31 -13.5t34.5 13.5t21.5 35.5q3 12 14 12h38q12 0 9 -12q-10 -46 -43.5 -74t-79.5 -28t-73 28zM352 933q0 -9 -12 -9h-56q-9 0 -12 8l-59 102q-2 4 -2 6q0 4 3.5 6.5t8.5 2.5h70q10 0 13 -8l45 -103q1 -2 1 -5z" />
    <glyph glyph-name="uni1EB1" unicode="&#x1eb1;" 
d="M313 507.5q4 3.5 9 3.5h89q5 0 8 -3.5t2 -8.5l-60 -487q-1 -5 -4.5 -8.5t-8.5 -3.5h-89q-5 0 -8 3.5t-2 8.5l4 30q0 4 -2 4t-4 -3q-38 -51 -100 -51q-56 0 -84.5 33.5t-28.5 93.5q0 24 2 36l25 202q10 77 48.5 119.5t102.5 42.5q27 0 50.5 -12t36.5 -39q2 -3 3.5 -3
t2.5 4l4 30q0 5 4 8.5zM244.5 111.5q18.5 19.5 22.5 51.5l23 185q1 4 1 13q0 26 -13.5 42t-36.5 16q-27 0 -45.5 -19.5t-22.5 -51.5l-23 -185q-1 -4 -1 -12q0 -27 14 -43t37 -16q26 0 44.5 19.5zM188 598q-27 28 -25 74q0 12 12 12h38q11 0 11 -12q0 -22 12 -35.5t31 -13.5
t34.5 13.5t21.5 35.5q3 12 14 12h38q12 0 9 -12q-10 -46 -43.5 -74t-79.5 -28t-73 28zM317 744q0 -9 -12 -9h-56q-9 0 -12 8l-59 102q-2 4 -2 6q0 4 3.5 6.5t8.5 2.5h70q10 0 13 -8l45 -103q1 -2 1 -5z" />
    <glyph glyph-name="uni1EB2" unicode="&#x1eb2;" horiz-adv-x="443" 
d="M297 11l-5 105q0 5 -6 5h-141q-5 0 -7 -5l-31 -105q-3 -11 -14 -11h-88q-13 0 -9 13l226 676q3 11 14 11h103q11 0 11 -11l61 -676v-2q0 -11 -12 -11h-91q-11 0 -11 11zM173 212h107q6 0 6 5l-18 316q0 3 -2 3t-4 -3l-94 -316q-1 -5 5 -5zM299 914q7 14 16 24t17 18
q11 10 16.5 18t7.5 21q1 10 -7 17.5t-19 7.5q-12 0 -21.5 -5.5t-21.5 -19.5l-4 -4t-8 -4t-7 3l-20 16q-4 3 -4 7q0 6 4 10q22 27 41.5 38t49.5 11q34 0 53.5 -17.5t19.5 -47.5q0 -26 -11 -43t-32 -36q-20 -20 -25 -27q-7 -8 -15 -7l-24 5q-13 4 -6 15zM223 787
q-27 28 -25 74q0 12 12 12h38q11 0 11 -12q0 -22 12 -35.5t31 -13.5t34.5 13.5t21.5 35.5q3 12 14 12h38q12 0 9 -12q-10 -46 -43.5 -74t-79.5 -28t-73 28z" />
    <glyph glyph-name="uni1EB3" unicode="&#x1eb3;" 
d="M313 507.5q4 3.5 9 3.5h89q5 0 8 -3.5t2 -8.5l-60 -487q-1 -5 -4.5 -8.5t-8.5 -3.5h-89q-5 0 -8 3.5t-2 8.5l4 30q0 4 -2 4t-4 -3q-38 -51 -100 -51q-56 0 -84.5 33.5t-28.5 93.5q0 24 2 36l25 202q10 77 48.5 119.5t102.5 42.5q27 0 50.5 -12t36.5 -39q2 -3 3.5 -3
t2.5 4l4 30q0 5 4 8.5zM244.5 111.5q18.5 19.5 22.5 51.5l23 185q1 4 1 13q0 26 -13.5 42t-36.5 16q-27 0 -45.5 -19.5t-22.5 -51.5l-23 -185q-1 -4 -1 -12q0 -27 14 -43t37 -16q26 0 44.5 19.5zM264 725q7 14 16 24t17 18q11 10 16.5 18t7.5 21q1 10 -7 17.5t-19 7.5
q-12 0 -21.5 -5.5t-21.5 -19.5l-4 -4t-8 -4t-7 3l-20 16q-4 3 -4 7q0 6 4 10q22 27 41.5 38t49.5 11q34 0 53.5 -17.5t19.5 -47.5q0 -26 -11 -43t-32 -36q-20 -20 -25 -27q-7 -8 -15 -7l-24 5q-13 4 -6 15zM188 598q-27 28 -25 74q0 12 12 12h38q11 0 11 -12q0 -22 12 -35.5
t31 -13.5t34.5 13.5t21.5 35.5q3 12 14 12h38q12 0 9 -12q-10 -46 -43.5 -74t-79.5 -28t-73 28z" />
    <glyph glyph-name="uni1EB4" unicode="&#x1eb4;" horiz-adv-x="443" 
d="M297 11l-5 105q0 5 -6 5h-141q-5 0 -7 -5l-31 -105q-3 -11 -14 -11h-88q-13 0 -9 13l226 676q3 11 14 11h103q11 0 11 -11l61 -676v-2q0 -11 -12 -11h-91q-11 0 -11 11zM173 212h107q6 0 6 5l-18 316q0 3 -2 3t-4 -3l-94 -316q-1 -5 5 -5zM223 787q-27 28 -25 74
q0 12 12 12h38q11 0 11 -12q0 -22 12 -35.5t31 -13.5t34.5 13.5t21.5 35.5q3 12 14 12h38q12 0 9 -12q-10 -46 -43.5 -74t-79.5 -28t-73 28zM348 923.5q-11 4.5 -26 14.5q-7 4 -14 9t-12.5 7.5t-13.5 2.5q-21 0 -39 -23q-9 -10 -17 -4l-29 23q-7 6 -3 16q17 32 40.5 47.5
t48.5 15.5q16 0 28.5 -6t28.5 -17q4 -3 11 -8t13.5 -8t14.5 -3q23 0 40 22q7 12 16 5l29 -22q3 -3 3 -8q0 -6 -6 -15q-19 -28 -43 -40.5t-46 -12.5q-13 0 -24 4.5z" />
    <glyph glyph-name="uni1EB5" unicode="&#x1eb5;" 
d="M313 507.5q4 3.5 9 3.5h89q5 0 8 -3.5t2 -8.5l-60 -487q-1 -5 -4.5 -8.5t-8.5 -3.5h-89q-5 0 -8 3.5t-2 8.5l4 30q0 4 -2 4t-4 -3q-38 -51 -100 -51q-56 0 -84.5 33.5t-28.5 93.5q0 24 2 36l25 202q10 77 48.5 119.5t102.5 42.5q27 0 50.5 -12t36.5 -39q2 -3 3.5 -3
t2.5 4l4 30q0 5 4 8.5zM244.5 111.5q18.5 19.5 22.5 51.5l23 185q1 4 1 13q0 26 -13.5 42t-36.5 16q-27 0 -45.5 -19.5t-22.5 -51.5l-23 -185q-1 -4 -1 -12q0 -27 14 -43t37 -16q26 0 44.5 19.5zM188 598q-27 28 -25 74q0 12 12 12h38q11 0 11 -12q0 -22 12 -35.5t31 -13.5
t34.5 13.5t21.5 35.5q3 12 14 12h38q12 0 9 -12q-10 -46 -43.5 -74t-79.5 -28t-73 28zM313 734.5q-11 4.5 -26 14.5q-7 4 -14 9t-12.5 7.5t-13.5 2.5q-21 0 -39 -23q-9 -10 -17 -4l-29 23q-7 6 -3 16q17 32 40.5 47.5t48.5 15.5q16 0 28.5 -6t28.5 -17q4 -3 11 -8t13.5 -8
t14.5 -3q23 0 40 22q7 12 16 5l29 -22q3 -3 3 -8q0 -6 -6 -15q-19 -28 -43 -40.5t-46 -12.5q-13 0 -24 4.5z" />
    <glyph glyph-name="uni1EB6" unicode="&#x1eb6;" horiz-adv-x="443" 
d="M297 11l-5 105q0 5 -6 5h-141q-5 0 -7 -5l-31 -105q-3 -11 -14 -11h-88q-13 0 -9 13l226 676q3 11 14 11h103q11 0 11 -11l61 -676v-2q0 -11 -12 -11h-91q-11 0 -11 11zM173 212h107q6 0 6 5l-18 316q0 3 -2 3t-4 -3l-94 -316q-1 -5 5 -5zM132 -207q-16 16 -16 42
q0 33 22 55t53 22q26 0 42 -15.5t16 -41.5q0 -33 -22 -55.5t-52 -22.5q-27 0 -43 16zM223 787q-27 28 -25 74q0 12 12 12h38q11 0 11 -12q0 -22 12 -35.5t31 -13.5t34.5 13.5t21.5 35.5q3 12 14 12h38q12 0 9 -12q-10 -46 -43.5 -74t-79.5 -28t-73 28z" />
    <glyph glyph-name="uni1EB7" unicode="&#x1eb7;" 
d="M313 507.5q4 3.5 9 3.5h89q5 0 8 -3.5t2 -8.5l-60 -487q-1 -5 -4.5 -8.5t-8.5 -3.5h-89q-5 0 -8 3.5t-2 8.5l4 30q0 4 -2 4t-4 -3q-38 -51 -100 -51q-56 0 -84.5 33.5t-28.5 93.5q0 24 2 36l25 202q10 77 48.5 119.5t102.5 42.5q27 0 50.5 -12t36.5 -39q2 -3 3.5 -3
t2.5 4l4 30q0 5 4 8.5zM244.5 111.5q18.5 19.5 22.5 51.5l23 185q1 4 1 13q0 26 -13.5 42t-36.5 16q-27 0 -45.5 -19.5t-22.5 -51.5l-23 -185q-1 -4 -1 -12q0 -27 14 -43t37 -16q26 0 44.5 19.5zM121 -207q-16 16 -16 42q0 33 22 55t53 22q26 0 42 -15.5t16 -41.5
q0 -33 -22 -55.5t-52 -22.5q-27 0 -43 16zM188 598q-27 28 -25 74q0 12 12 12h38q11 0 11 -12q0 -22 12 -35.5t31 -13.5t34.5 13.5t21.5 35.5q3 12 14 12h38q12 0 9 -12q-10 -46 -43.5 -74t-79.5 -28t-73 28z" />
    <glyph glyph-name="uni1EB8" unicode="&#x1eb8;" horiz-adv-x="422" 
d="M442.5 603.5q-3.5 -3.5 -8.5 -3.5h-210q-5 0 -5 -5l-24 -189q0 -5 5 -5h124q5 0 8 -3.5t2 -8.5l-10 -77q0 -5 -4 -8.5t-9 -3.5h-124q-5 0 -5 -5l-24 -190q0 -5 5 -5h209q5 0 8 -3.5t2 -8.5l-9 -76q-1 -5 -4.5 -8.5t-8.5 -3.5h-315q-11 0 -11 12l83 676q1 5 5 8.5t9 3.5
h315q5 0 8 -3.5t2 -8.5l-9 -76q-1 -5 -4.5 -8.5zM127 -207q-16 16 -16 42q0 33 22 55t53 22q26 0 42 -15.5t16 -41.5q0 -33 -22 -55.5t-52 -22.5q-27 0 -43 16z" />
    <glyph glyph-name="uni1EB9" unicode="&#x1eb9;" horiz-adv-x="413" 
d="M384 216.5q-4 -3.5 -9 -3.5h-214q-5 0 -5 -5l-6 -45l-1 -12q0 -26 14 -42.5t37 -16.5q22 0 39.5 14.5t26.5 37.5q4 10 14 10l86 -4q5 0 7.5 -3.5t1.5 -9.5q-15 -70 -63 -107.5t-124 -37.5q-73 0 -113.5 36.5t-40.5 100.5q0 7 2 25l25 203q9 73 61 117.5t131 44.5
q73 0 113 -37.5t40 -100.5q0 -16 -1 -24l-17 -132q0 -5 -4 -8.5zM196 399q-19 -20 -23 -51l-6 -45q0 -5 4 -5h110q5 0 5 5l6 45l1 12q0 26 -14 42.5t-38 16.5q-26 0 -45 -20zM118 -207q-16 16 -16 42q0 33 22 55t53 22q26 0 42 -15.5t16 -41.5q0 -33 -22 -55.5t-52 -22.5
q-27 0 -43 16z" />
    <glyph glyph-name="uni1EBA" unicode="&#x1eba;" horiz-adv-x="422" 
d="M442.5 603.5q-3.5 -3.5 -8.5 -3.5h-210q-5 0 -5 -5l-24 -189q0 -5 5 -5h124q5 0 8 -3.5t2 -8.5l-10 -77q0 -5 -4 -8.5t-9 -3.5h-124q-5 0 -5 -5l-24 -190q0 -5 5 -5h209q5 0 8 -3.5t2 -8.5l-9 -76q-1 -5 -4.5 -8.5t-8.5 -3.5h-315q-11 0 -11 12l83 676q1 5 5 8.5t9 3.5
h315q5 0 8 -3.5t2 -8.5l-9 -76q-1 -5 -4.5 -8.5zM278 758q13 24 37 48q12 11 18 20t8 23q1 11 -7 19.5t-21 8.5q-14 0 -24.5 -6.5t-26.5 -24.5q-9 -11 -17 -3l-23 19q-4 4 -4 9q0 4 3 8q24 30 46.5 43t54.5 13q38 0 60 -20t22 -54q0 -27 -12 -45t-35 -39q-23 -23 -29 -32
q-7 -10 -16 -8l-28 6q-12 3 -6 15z" />
    <glyph glyph-name="uni1EBB" unicode="&#x1ebb;" horiz-adv-x="413" 
d="M384 216.5q-4 -3.5 -9 -3.5h-214q-5 0 -5 -5l-6 -45l-1 -12q0 -26 14 -42.5t37 -16.5q22 0 39.5 14.5t26.5 37.5q4 10 14 10l86 -4q5 0 7.5 -3.5t1.5 -9.5q-15 -70 -63 -107.5t-124 -37.5q-73 0 -113.5 36.5t-40.5 100.5q0 7 2 25l25 203q9 73 61 117.5t131 44.5
q73 0 113 -37.5t40 -100.5q0 -16 -1 -24l-17 -132q0 -5 -4 -8.5zM196 399q-19 -20 -23 -51l-6 -45q0 -5 4 -5h110q5 0 5 5l6 45l1 12q0 26 -14 42.5t-38 16.5q-26 0 -45 -20zM239 569q13 24 37 48q12 11 18 20t8 23q1 11 -7 19.5t-21 8.5q-14 0 -24.5 -6.5t-26.5 -24.5
q-9 -11 -17 -3l-23 19q-4 4 -4 9q0 4 3 8q24 30 46.5 43t54.5 13q38 0 60 -20t22 -54q0 -27 -12 -45t-35 -39q-23 -23 -29 -32q-7 -10 -16 -8l-28 6q-12 3 -6 15z" />
    <glyph glyph-name="uni1EBC" unicode="&#x1ebc;" horiz-adv-x="422" 
d="M442.5 603.5q-3.5 -3.5 -8.5 -3.5h-210q-5 0 -5 -5l-24 -189q0 -5 5 -5h124q5 0 8 -3.5t2 -8.5l-10 -77q0 -5 -4 -8.5t-9 -3.5h-124q-5 0 -5 -5l-24 -190q0 -5 5 -5h209q5 0 8 -3.5t2 -8.5l-9 -76q-1 -5 -4.5 -8.5t-8.5 -3.5h-315q-11 0 -11 12l83 676q1 5 5 8.5t9 3.5
h315q5 0 8 -3.5t2 -8.5l-9 -76q-1 -5 -4.5 -8.5zM338 787.5q-11 4.5 -26 14.5q-7 4 -14 9t-12.5 7.5t-13.5 2.5q-21 0 -39 -23q-9 -10 -17 -4l-29 23q-7 6 -3 16q17 32 40.5 47.5t48.5 15.5q16 0 28.5 -6t28.5 -17q4 -3 11 -8t13.5 -8t14.5 -3q23 0 40 22q7 12 16 5l29 -22
q3 -3 3 -8q0 -6 -6 -15q-19 -28 -43 -40.5t-46 -12.5q-13 0 -24 4.5z" />
    <glyph glyph-name="uni1EBD" unicode="&#x1ebd;" horiz-adv-x="413" 
d="M384 216.5q-4 -3.5 -9 -3.5h-214q-5 0 -5 -5l-6 -45l-1 -12q0 -26 14 -42.5t37 -16.5q22 0 39.5 14.5t26.5 37.5q4 10 14 10l86 -4q5 0 7.5 -3.5t1.5 -9.5q-15 -70 -63 -107.5t-124 -37.5q-73 0 -113.5 36.5t-40.5 100.5q0 7 2 25l25 203q9 73 61 117.5t131 44.5
q73 0 113 -37.5t40 -100.5q0 -16 -1 -24l-17 -132q0 -5 -4 -8.5zM196 399q-19 -20 -23 -51l-6 -45q0 -5 4 -5h110q5 0 5 5l6 45l1 12q0 26 -14 42.5t-38 16.5q-26 0 -45 -20zM299 598.5q-11 4.5 -26 14.5q-7 4 -14 9t-12.5 7.5t-13.5 2.5q-21 0 -39 -23q-9 -10 -17 -4
l-29 23q-7 6 -3 16q17 32 40.5 47.5t48.5 15.5q16 0 28.5 -6t28.5 -17q4 -3 11 -8t13.5 -8t14.5 -3q23 0 40 22q7 12 16 5l29 -22q3 -3 3 -8q0 -6 -6 -15q-19 -28 -43 -40.5t-46 -12.5q-13 0 -24 4.5z" />
    <glyph glyph-name="uni1EBE" unicode="&#x1ebe;" horiz-adv-x="422" 
d="M442.5 603.5q-3.5 -3.5 -8.5 -3.5h-210q-5 0 -5 -5l-24 -189q0 -5 5 -5h124q5 0 8 -3.5t2 -8.5l-10 -77q0 -5 -4 -8.5t-9 -3.5h-124q-5 0 -5 -5l-24 -190q0 -5 5 -5h209q5 0 8 -3.5t2 -8.5l-9 -76q-1 -5 -4.5 -8.5t-8.5 -3.5h-315q-11 0 -11 12l83 676q1 5 5 8.5t9 3.5
h315q5 0 8 -3.5t2 -8.5l-9 -76q-1 -5 -4.5 -8.5zM168 770q0 4 3 8l74 103q5 8 14 8h100q10 0 13 -8l51 -103q2 -4 2 -6q0 -8 -11 -8h-68q-9 0 -14 8l-25 63q-2 5 -6 0l-41 -63q-6 -8 -16 -8h-67q-9 0 -9 6zM430 850q0 4 3 8l69 103q5 8 16 8h70q9 0 9 -7q0 -3 -3 -8
l-85 -103q-5 -7 -14 -7h-55q-10 0 -10 6z" />
    <glyph glyph-name="uni1EBF" unicode="&#x1ebf;" horiz-adv-x="413" 
d="M384 216.5q-4 -3.5 -9 -3.5h-214q-5 0 -5 -5l-6 -45l-1 -12q0 -26 14 -42.5t37 -16.5q22 0 39.5 14.5t26.5 37.5q4 10 14 10l86 -4q5 0 7.5 -3.5t1.5 -9.5q-15 -70 -63 -107.5t-124 -37.5q-73 0 -113.5 36.5t-40.5 100.5q0 7 2 25l25 203q9 73 61 117.5t131 44.5
q73 0 113 -37.5t40 -100.5q0 -16 -1 -24l-17 -132q0 -5 -4 -8.5zM196 399q-19 -20 -23 -51l-6 -45q0 -5 4 -5h110q5 0 5 5l6 45l1 12q0 26 -14 42.5t-38 16.5q-26 0 -45 -20zM130 581q0 4 3 8l74 103q5 8 14 8h100q10 0 13 -8l51 -103q2 -4 2 -6q0 -8 -11 -8h-68q-9 0 -14 8
l-25 63q-2 5 -6 0l-41 -63q-6 -8 -16 -8h-67q-9 0 -9 6zM392 661q0 4 3 8l69 103q5 8 16 8h70q9 0 9 -7q0 -3 -3 -8l-85 -103q-5 -7 -14 -7h-55q-10 0 -10 6z" />
    <glyph glyph-name="uni1EC0" unicode="&#x1ec0;" horiz-adv-x="422" 
d="M442.5 603.5q-3.5 -3.5 -8.5 -3.5h-210q-5 0 -5 -5l-24 -189q0 -5 5 -5h124q5 0 8 -3.5t2 -8.5l-10 -77q0 -5 -4 -8.5t-9 -3.5h-124q-5 0 -5 -5l-24 -190q0 -5 5 -5h209q5 0 8 -3.5t2 -8.5l-9 -76q-1 -5 -4.5 -8.5t-8.5 -3.5h-315q-11 0 -11 12l83 676q1 5 5 8.5t9 3.5
h315q5 0 8 -3.5t2 -8.5l-9 -76q-1 -5 -4.5 -8.5zM168 770q0 4 3 8l74 103q5 8 14 8h100q10 0 13 -8l51 -103q2 -4 2 -6q0 -8 -11 -8h-68q-9 0 -14 8l-25 63q-2 5 -6 0l-41 -63q-6 -8 -16 -8h-67q-9 0 -9 6zM500 893q0 -9 -12 -9h-56q-9 0 -12 8l-59 102q-2 4 -2 6
q0 4 3.5 6.5t8.5 2.5h70q10 0 13 -8l45 -103q1 -2 1 -5z" />
    <glyph glyph-name="uni1EC1" unicode="&#x1ec1;" horiz-adv-x="413" 
d="M384 216.5q-4 -3.5 -9 -3.5h-214q-5 0 -5 -5l-6 -45l-1 -12q0 -26 14 -42.5t37 -16.5q22 0 39.5 14.5t26.5 37.5q4 10 14 10l86 -4q5 0 7.5 -3.5t1.5 -9.5q-15 -70 -63 -107.5t-124 -37.5q-73 0 -113.5 36.5t-40.5 100.5q0 7 2 25l25 203q9 73 61 117.5t131 44.5
q73 0 113 -37.5t40 -100.5q0 -16 -1 -24l-17 -132q0 -5 -4 -8.5zM196 399q-19 -20 -23 -51l-6 -45q0 -5 4 -5h110q5 0 5 5l6 45l1 12q0 26 -14 42.5t-38 16.5q-26 0 -45 -20zM130 581q0 4 3 8l74 103q5 8 14 8h100q10 0 13 -8l51 -103q2 -4 2 -6q0 -8 -11 -8h-68q-9 0 -14 8
l-25 63q-2 5 -6 0l-41 -63q-6 -8 -16 -8h-67q-9 0 -9 6zM462 704q0 -9 -12 -9h-56q-9 0 -12 8l-59 102q-2 4 -2 6q0 4 3.5 6.5t8.5 2.5h70q10 0 13 -8l45 -103q1 -2 1 -5z" />
    <glyph glyph-name="uni1EC2" unicode="&#x1ec2;" horiz-adv-x="422" 
d="M442.5 603.5q-3.5 -3.5 -8.5 -3.5h-210q-5 0 -5 -5l-24 -189q0 -5 5 -5h124q5 0 8 -3.5t2 -8.5l-10 -77q0 -5 -4 -8.5t-9 -3.5h-124q-5 0 -5 -5l-24 -190q0 -5 5 -5h209q5 0 8 -3.5t2 -8.5l-9 -76q-1 -5 -4.5 -8.5t-8.5 -3.5h-315q-11 0 -11 12l83 676q1 5 5 8.5t9 3.5
h315q5 0 8 -3.5t2 -8.5l-9 -76q-1 -5 -4.5 -8.5zM428 870q-2 4 2 10q12 22 35 45q11 10 17 18.5t7 21.5q1 11 -6.5 19t-20.5 8q-12 0 -21.5 -5.5t-24.5 -21.5l-4 -4q-7 -7 -15 -1l-20 17q-5 5 -5 9t4 8q23 28 44 40.5t52 12.5q35 0 56 -19t21 -51q0 -27 -11.5 -44.5
t-33.5 -37.5q-18 -16 -27 -29q-7 -8 -16 -7l-25 5q-6 2 -8 6zM168 770q0 4 3 8l74 103q5 8 14 8h100q10 0 13 -8l51 -103q2 -4 2 -6q0 -8 -11 -8h-68q-9 0 -14 8l-25 63q-2 5 -6 0l-41 -63q-6 -8 -16 -8h-67q-9 0 -9 6z" />
    <glyph glyph-name="uni1EC3" unicode="&#x1ec3;" horiz-adv-x="413" 
d="M384 216.5q-4 -3.5 -9 -3.5h-214q-5 0 -5 -5l-6 -45l-1 -12q0 -26 14 -42.5t37 -16.5q22 0 39.5 14.5t26.5 37.5q4 10 14 10l86 -4q5 0 7.5 -3.5t1.5 -9.5q-15 -70 -63 -107.5t-124 -37.5q-73 0 -113.5 36.5t-40.5 100.5q0 7 2 25l25 203q9 73 61 117.5t131 44.5
q73 0 113 -37.5t40 -100.5q0 -16 -1 -24l-17 -132q0 -5 -4 -8.5zM196 399q-19 -20 -23 -51l-6 -45q0 -5 4 -5h110q5 0 5 5l6 45l1 12q0 26 -14 42.5t-38 16.5q-26 0 -45 -20zM390 681q-2 4 2 10q12 22 35 45q11 10 17 18.5t7 21.5q1 11 -6.5 19t-20.5 8q-12 0 -21.5 -5.5
t-24.5 -21.5l-4 -4q-7 -7 -15 -1l-20 17q-5 5 -5 9t4 8q23 28 44 40.5t52 12.5q35 0 56 -19t21 -51q0 -27 -11.5 -44.5t-33.5 -37.5q-18 -16 -27 -29q-7 -8 -16 -7l-25 5q-6 2 -8 6zM130 581q0 4 3 8l74 103q5 8 14 8h100q10 0 13 -8l51 -103q2 -4 2 -6q0 -8 -11 -8h-68
q-9 0 -14 8l-25 63q-2 5 -6 0l-41 -63q-6 -8 -16 -8h-67q-9 0 -9 6z" />
    </font>
</defs>
</svg>
