<?xml version="1.0" standalone="no"?>
<!DOCTYPE svg PUBLIC "-//W3C//DTD SVG 1.1//EN" "http://www.w3.org/Graphics/SVG/1.1/DTD/svg11.dtd" >
<svg xmlns="http://www.w3.org/2000/svg" xmlns:xlink="http://www.w3.org/1999/xlink" version="1.1">
<metadata>
Created by FontForge 20201107 at Wed Nov  7 06:08:20 2018
 By 
Copyright 2017 The Barlow Project Authors (https://github.com/jpt/barlow)
</metadata>
<defs>
<font id="BarlowCondensed-Regular" horiz-adv-x="424" >
  <font-face 
    font-family="Barlow Condensed"
    font-weight="400"
    font-stretch="condensed"
    units-per-em="1000"
    panose-1="0 0 5 6 0 0 0 0 0 0"
    ascent="800"
    descent="-200"
    x-height="506"
    cap-height="700"
    bbox="-601.333 -209 980 1074"
    underline-thickness="50"
    underline-position="-100"
    unicode-range="U+000D-FB02"
  />
<missing-glyph horiz-adv-x="341" 
d="M4 0h333q4 0 4 4v692q0 4 -4 4h-333q-4 0 -4 -4v-692q0 -4 4 -4zM139 242v39q0 31 11.5 50t35.5 44q24 24 36 44t12 51q0 36 -16.5 57.5t-42.5 21.5q-28 0 -45 -22t-17 -58v-19q0 -10 -10 -10l-31 2q-10 0 -10 10v17q0 57 31.5 92t82.5 35q49 0 79 -34.5t30 -91.5
q0 -45 -14.5 -70.5t-42.5 -53.5q-20 -20 -29 -33.5t-9 -33.5v-37q0 -10 -10 -10h-31q-10 0 -10 10zM136.5 102.5q-11.5 11.5 -11.5 28.5t11.5 28.5t28.5 11.5t28.5 -11.5t11.5 -28.5t-11.5 -28.5t-28.5 -11.5t-28.5 11.5z" />
    <glyph glyph-name="fi" unicode="fi" horiz-adv-x="484" 
d="M168 620.5q-16 -25.5 -16 -79.5v-31q0 -4 4 -4h77q10 0 10 -10v-33q0 -10 -10 -10h-77q-4 0 -4 -4v-439q0 -10 -10 -10h-50q-10 0 -10 10v439q0 4 -4 4h-40q-10 0 -10 10v33q0 10 10 10h40q4 0 4 4v32q0 87 32 126t107 39h14q10 0 10 -10l-1 -41q0 -10 -10 -10h-12
q-38 0 -54 -25.5zM339.5 614q-15.5 16 -15.5 40q0 25 15.5 40.5t40.5 15.5q24 0 39.5 -15.5t15.5 -40.5q0 -24 -15.5 -40t-39.5 -16q-25 0 -40.5 16zM345 10v486q0 10 10 10h51q10 0 10 -10v-486q0 -10 -10 -10h-51q-10 0 -10 10z" />
    <glyph glyph-name="fl" unicode="fl" horiz-adv-x="458" 
d="M168 620.5q-16 -25.5 -16 -79.5v-31q0 -4 4 -4h77q10 0 10 -10v-33q0 -10 -10 -10h-77q-4 0 -4 -4v-439q0 -10 -10 -10h-50q-10 0 -10 10v439q0 4 -4 4h-40q-10 0 -10 10v33q0 10 10 10h40q4 0 4 4v32q0 87 32 126t107 39h14q10 0 10 -10l-1 -41q0 -10 -10 -10h-12
q-38 0 -54 -25.5zM331 10v680q0 10 10 10h51q10 0 10 -10v-680q0 -10 -10 -10h-51q-10 0 -10 10z" />
    <glyph glyph-name="I_J.liga" unicode="IJ" horiz-adv-x="640" 
d="M72 10v680q0 10 10 10h51q10 0 10 -10v-680q0 -10 -10 -10h-51q-10 0 -10 10zM283 38.5q-46 46.5 -46 122.5v84q0 10 10 10h51q10 0 10 -10v-85q0 -47 26 -76.5t69 -29.5q42 0 68.5 29.5t26.5 76.5v530q0 10 10 10h51q10 0 10 -10v-529q0 -76 -46 -122.5t-120 -46.5
t-120 46.5z" />
    <glyph glyph-name="f_f_i.liga" unicode="ffi" horiz-adv-x="745" 
d="M681 694.5q16 -15.5 16 -40.5q0 -24 -16 -40t-40 -16q-25 0 -40.5 16t-15.5 40q0 25 15.5 40.5t40.5 15.5q24 0 40 -15.5zM416 510q0 -4 4 -4h77q10 0 10 -10v-33q0 -10 -10 -10h-77q-4 0 -4 -4v-439q0 -10 -10 -10h-51q-10 0 -10 10v439q0 4 -4 4h-184q-4 0 -4 -4v-439
q0 -10 -10 -10h-51q-10 0 -10 10v439q0 4 -4 4h-40q-10 0 -10 10v33q0 10 10 10h40q4 0 4 4v42q0 82 33 119t107 36h10q10 0 10 -10v-32q0 -10 -10 -10h-10q-40 -1 -54.5 -27.5t-14.5 -80.5v-37q0 -4 4 -4h184q4 0 4 4v42q0 82 33 119t107 36h10q10 0 10 -10v-32
q0 -10 -10 -10h-9q-40 -1 -55 -27.5t-15 -80.5v-37zM606 10v486q0 10 10 10h51q10 0 10 -10v-486q0 -10 -10 -10h-51q-10 0 -10 10z" />
    <glyph glyph-name="f_f_l.liga" unicode="ffl" horiz-adv-x="723" 
d="M418 510q0 -4 4 -4h77q10 0 10 -10v-33q0 -10 -10 -10h-77q-4 0 -4 -4v-439q0 -10 -10 -10h-51q-10 0 -10 10v439q0 4 -4 4h-186q-4 0 -4 -4v-439q0 -10 -10 -10h-51q-10 0 -10 10v439q0 4 -4 4h-40q-10 0 -10 10v33q0 10 10 10h40q4 0 4 4v42q0 82 33 119t107 36h10
q10 0 10 -10v-32q0 -10 -10 -10h-10q-40 -1 -54.5 -27.5t-14.5 -80.5v-37q0 -4 4 -4h186q4 0 4 4v42q0 82 33 119t107 36h10q10 0 10 -10v-32q0 -10 -10 -10h-9q-40 -1 -55 -27.5t-15 -80.5v-37zM607 700h51q10 0 10 -10v-680q0 -10 -10 -10h-51q-10 0 -10 10v680
q0 10 10 10z" />
    <glyph glyph-name="g_j.liga" unicode="gj" horiz-adv-x="612" 
d="M549 694.5q16 -15.5 16 -40.5q0 -24 -16 -40t-40 -16t-40 16t-16 40q0 25 16 40.5t40 15.5t40 -15.5zM289.5 461.5q1.5 0.5 1.5 3.5v31q0 10 10 10h51q10 0 10 -10v-486q0 -107 -49.5 -162.5t-165.5 -50.5q-10 1 -10 11v43q0 10 10 10q80 -2 112 36.5t32 118.5v30
q0 2 -1.5 3t-3.5 -1q-17 -25 -43.5 -38t-56.5 -13q-63 0 -99.5 42t-36.5 111v211q0 70 36.5 111.5t99.5 41.5q30 0 56.5 -12.5t43.5 -37.5q2 -3 3.5 -2.5zM474 496q0 10 10 10h50q10 0 10 -10v-540q0 -81 -32 -122t-110 -42q-10 0 -10 10l1 42q0 10 8 10q35 1 54 28t19 74
v540zM267.5 85.5q23.5 26.5 23.5 68.5v202q0 43 -23.5 69.5t-60.5 26.5q-38 0 -62 -26.5t-24 -69.5v-202q0 -42 24 -68.5t62 -26.5q37 0 60.5 26.5z" />
    <glyph glyph-name="i_j.liga" unicode="ij" horiz-adv-x="403" 
d="M63.5 614q-15.5 16 -15.5 40q0 25 15.5 40.5t40.5 15.5q24 0 39.5 -15.5t15.5 -40.5q0 -24 -15.5 -40t-39.5 -16q-25 0 -40.5 16zM259.5 614q-15.5 16 -15.5 40q0 25 15.5 40.5t40.5 15.5q24 0 40 -15.5t16 -40.5q0 -24 -16 -40t-40 -16q-25 0 -40.5 16zM68 10v486
q0 10 10 10h51q10 0 10 -10v-486q0 -10 -10 -10h-51q-10 0 -10 10zM173 -198v42q0 10 10 10q81 3 81 102v540q0 10 10 10h51q10 0 10 -10v-540q0 -82 -32 -123t-120 -41q-10 0 -10 10z" />
    <glyph glyph-name="hyphen_hyphen.liga" unicode="&#x2d;&#x2d;" horiz-adv-x="592" 
d="M32 283v42q0 10 10 10h508q10 0 10 -10v-42q0 -10 -10 -10h-508q-10 0 -10 10z" />
    <glyph glyph-name=".notdef" horiz-adv-x="341" 
d="M4 0h333q4 0 4 4v692q0 4 -4 4h-333q-4 0 -4 -4v-692q0 -4 4 -4zM139 242v39q0 31 11.5 50t35.5 44q24 24 36 44t12 51q0 36 -16.5 57.5t-42.5 21.5q-28 0 -45 -22t-17 -58v-19q0 -10 -10 -10l-31 2q-10 0 -10 10v17q0 57 31.5 92t82.5 35q49 0 79 -34.5t30 -91.5
q0 -45 -14.5 -70.5t-42.5 -53.5q-20 -20 -29 -33.5t-9 -33.5v-37q0 -10 -10 -10h-31q-10 0 -10 10zM136.5 102.5q-11.5 11.5 -11.5 28.5t11.5 28.5t28.5 11.5t28.5 -11.5t11.5 -28.5t-11.5 -28.5t-28.5 -11.5t-28.5 11.5z" />
    <glyph glyph-name=".null" horiz-adv-x="0" 
 />
    <glyph glyph-name="nonmarkingreturn" unicode="&#xd;" horiz-adv-x="200" 
 />
    <glyph glyph-name="NULL" horiz-adv-x="0" 
 />
    <glyph glyph-name="NULL" horiz-adv-x="0" 
 />
    <glyph glyph-name="space" unicode=" " horiz-adv-x="200" 
 />
    <glyph glyph-name="exclam" unicode="!" horiz-adv-x="251" 
d="M97 238l-6 452q0 10 10 10h51q10 0 10 -10l-7 -452q0 -10 -10 -10h-38q-10 0 -10 10zM85.5 19.5q-15.5 15.5 -15.5 39.5q0 25 15.5 40.5t40.5 15.5q24 0 40 -15.5t16 -40.5q0 -24 -16 -39.5t-40 -15.5q-25 0 -40.5 15.5z" />
    <glyph glyph-name="quotedbl" unicode="&#x22;" horiz-adv-x="235" 
d="M30 498l-8 186q0 10 10 10h50q10 0 10 -10l-8 -186q0 -10 -10 -10h-34q-10 0 -10 10zM148 498l-7 186q0 10 10 10h50q10 0 10 -10l-8 -186q0 -10 -10 -10h-35q-10 0 -10 10z" />
    <glyph glyph-name="numbersign" unicode="#" horiz-adv-x="589" 
d="M524 429h-63q-5 0 -5 -4l-23 -159q0 -4 3 -4h55q10 0 10 -10v-42q0 -10 -10 -10h-65q-5 0 -5 -4l-25 -171q-1 -9 -10 -9l-51 2q-4 0 -7 3t-2 8l24 167q0 4 -3 4h-146q-5 0 -5 -4l-25 -171q-1 -9 -10 -9l-51 2q-4 0 -7 3t-2 8l24 167q0 4 -3 4h-57q-10 0 -10 10v42
q0 10 10 10h66q5 0 5 4l23 159q0 4 -3 4h-58q-10 0 -10 10v43q0 10 10 10h68q5 0 5 4l25 171q1 9 10 9l51 -2q4 0 7 -3t2 -8l-24 -167q0 -4 3 -4h146q5 0 5 4l25 171q1 9 10 9l51 -2q4 0 7 -3t2 -8l-24 -167q0 -4 3 -4h54q10 0 10 -10v-43q0 -10 -10 -10zM361 266l23 159
q0 4 -3 4h-145q-5 0 -5 -4l-23 -159q0 -4 3 -4h145q5 0 5 4z" />
    <glyph glyph-name="dollar" unicode="$" horiz-adv-x="416" 
d="M340.5 54q-35.5 -47 -95.5 -58q-4 -1 -4 -5v-70q0 -10 -10 -10h-35q-10 0 -10 10l1 68q0 4 -4 4q-64 9 -102.5 56.5t-38.5 119.5v23q0 10 10 10h49q10 0 10 -10v-20q0 -53 27 -85.5t70 -32.5q42 0 70 31t28 82q0 34 -13.5 58.5t-35 43t-71.5 56.5q-50 37 -79 63.5
t-47.5 63.5t-18.5 87q0 71 38 115.5t101 52.5q4 0 4 4l-1 74q0 10 10 10h35q10 0 10 -10l-1 -76q0 -4 4 -5q60 -11 94.5 -58.5t34.5 -118.5v-25q0 -10 -10 -10h-50q-10 0 -10 10v26q0 53 -26.5 85.5t-70.5 32.5q-40 0 -66 -28.5t-26 -80.5q0 -31 11.5 -54.5t34.5 -44.5
t68 -55q60 -44 89.5 -71.5t45.5 -60t16 -78.5q0 -72 -35.5 -119z" />
    <glyph glyph-name="percent" unicode="%" horiz-adv-x="781" 
d="M141.5 444q-32.5 19 -51 51.5t-18.5 71.5t18.5 71.5t51 51.5t70.5 19t70 -19t50.5 -51.5t18.5 -71.5t-18.5 -71.5t-50.5 -51.5t-70 -19t-70.5 19zM179.5 3.5q-2.5 3.5 0.5 8.5l367 681q3 7 12 7h32q6 0 8.5 -3.5t-0.5 -8.5l-367 -681q-3 -7 -12 -7h-32q-6 0 -8.5 3.5z
M279.5 496.5q27.5 29.5 27.5 70.5q0 42 -27.5 71t-67.5 29t-68 -29t-28 -71t28 -71t68 -29t67.5 29.5zM500.5 10q-32.5 19 -51 52t-18.5 72q0 38 18.5 70.5t51 51.5t70.5 19t70 -19t50.5 -51.5t18.5 -70.5q0 -39 -18.5 -72t-50.5 -52t-70 -19t-70.5 19zM638.5 62.5
q27.5 29.5 27.5 71.5q0 41 -28 70t-67 29q-40 0 -68 -29t-28 -70q0 -43 27.5 -72t68.5 -29q40 0 67.5 29.5z" />
    <glyph glyph-name="ampersand" unicode="&#x26;" horiz-adv-x="542" 
d="M494 6q0 -2 -2 -4t-6 -2h-54q-8 0 -12 6l-41 60q-1 2 -3 2t-3 -1q-37 -40 -76.5 -58t-88.5 -18q-77 0 -122 43t-45 122q0 67 32 116.5t88 96.5q3 1 1 5q-36 54 -53 83.5t-22.5 50t-5.5 46.5q0 70 40 112t105 42t106.5 -42.5t41.5 -110.5q0 -61 -31 -104.5t-89 -92.5
q-3 -1 -1 -5q40 -56 59 -85l62 -88q1 -1 3 -1t3 1q14 21 48 81q2 4 6 5t8 -1l38 -22q8 -5 3 -14q-32 -59 -65 -105q-1 -3 0 -6l74 -106q2 -2 2 -6zM173 618.5q-21 -24.5 -21 -66.5q0 -28 10.5 -53t48.5 -83q2 -4 5 -1q42 36 64.5 68t22.5 72t-21 64t-54 24q-34 0 -55 -24.5z
M277 69.5q29 16.5 59 50.5q2 3 0 6l-48 69l-83 117q-2 3 -5 0q-43 -37 -65.5 -73t-22.5 -81q0 -47 27 -76t76 -29q33 0 62 16.5z" />
    <glyph glyph-name="quotesingle" unicode="'" horiz-adv-x="119" 
d="M30 503l-8 185q0 10 10 10h53q10 0 10 -10l-8 -185q0 -10 -10 -10h-37q-10 0 -10 10z" />
    <glyph glyph-name="parenleft" unicode="(" horiz-adv-x="222" 
d="M85 -97q-39 76 -63.5 187.5t-24.5 234.5q0 126 25 240t65 191q4 7 12 7h49q5 0 7.5 -3.5t0.5 -7.5q-34 -79 -56 -192t-22 -234q0 -119 22 -229.5t56 -188.5l1 -4q0 -8 -9 -8h-51q-8 0 -12 7z" />
    <glyph glyph-name="parenright" unicode=")" horiz-adv-x="222" 
d="M136 756q39 -75 63.5 -187t24.5 -235q0 -127 -25 -241.5t-65 -189.5q-4 -7 -12 -7h-48q-5 0 -7.5 3.5t-0.5 7.5q34 80 56 192.5t22 232.5q0 119 -22 229.5t-56 190.5q-1 1 -1 4t2.5 5t6.5 2h50q8 0 12 -7z" />
    <glyph glyph-name="asterisk" unicode="*" horiz-adv-x="361" 
d="M157 404l1 120q0 6 -5 3l-100 -61l-5 -2q-5 0 -9 6l-12 22q-2 4 -2 6q0 6 5 8l102 61q2 1 2 3t-2 3l-102 61q-4 2 -4.5 6t1.5 8l12 24q5 10 14 4l100 -62q5 -2 5 3l-1 119q0 10 10 10h26q10 0 10 -10v-119q0 -2 2 -3t3 0l99 62q4 2 6 2q5 0 8 -6l13 -24q1 -2 1 -5
q0 -6 -5 -9l-101 -61q-1 -1 -1 -3t1 -3l101 -61q9 -6 4 -14l-13 -24q-2 -4 -6 -5t-8 1l-99 63q-1 1 -3 0t-2 -3v-120q0 -10 -10 -10h-26q-10 0 -10 10z" />
    <glyph glyph-name="plus" unicode="+" horiz-adv-x="442" 
d="M410 336v-35q0 -10 -10 -10h-147q-4 0 -4 -4v-147q0 -10 -10 -10h-36q-10 0 -10 10v147q0 4 -4 4h-147q-10 0 -10 10v35q0 10 10 10h147q4 0 4 4v147q0 10 10 10h36q10 0 10 -10v-147q0 -4 4 -4h147q10 0 10 -10z" />
    <glyph glyph-name="comma" unicode="," horiz-adv-x="177" 
d="M41 -76q-3 3 -2 8l31 214q1 9 10 9h45q11 0 9 -11l-45 -214q-1 -9 -11 -9h-30q-4 0 -7 3z" />
    <glyph glyph-name="hyphen" unicode="-" horiz-adv-x="313" 
d="M32 290v42q0 10 10 10h229q10 0 10 -10v-42q0 -10 -10 -10h-229q-10 0 -10 10z" />
    <glyph glyph-name="period" unicode="." horiz-adv-x="190" 
d="M54.5 18q-15.5 16 -15.5 40q0 25 15.5 40.5t40.5 15.5q24 0 40 -15.5t16 -40.5q0 -24 -16 -40t-40 -16q-25 0 -40.5 16z" />
    <glyph glyph-name="slash" unicode="/" horiz-adv-x="334" 
d="M26.5 3q-2.5 3 -1.5 8l181 680q2 9 11 9h50q5 0 7.5 -3t1.5 -8l-181 -680q-2 -9 -11 -9h-50q-5 0 -7.5 3z" />
    <glyph glyph-name="zero" unicode="0" horiz-adv-x="444" 
d="M98.5 39.5q-46.5 49.5 -46.5 129.5v362q0 80 46.5 129.5t122.5 49.5q77 0 124 -49.5t47 -129.5v-362q0 -80 -47 -129.5t-124 -49.5q-76 0 -122.5 49.5zM294 83q27 31 27 82v370q0 51 -27 82t-73 31q-44 0 -71 -31t-27 -82v-370q0 -51 27 -82t71 -31q46 0 73 31z" />
    <glyph glyph-name="one" unicode="1" horiz-adv-x="256" 
d="M133 700h54q10 0 10 -10v-680q0 -10 -10 -10h-51q-10 0 -10 10v606q0 2 -1.5 3t-3.5 0l-94 -31l-3 -1q-7 0 -9 9l-5 37v2q0 5 7 10l103 52q6 3 13 3z" />
    <glyph glyph-name="two" unicode="2" horiz-adv-x="402" 
d="M126 63.5q1 -1.5 3 -1.5h235q10 0 10 -10v-42q0 -10 -10 -10h-314q-10 0 -10 10v45q0 8 4 13q31 49 35 56q88 139 139 226q64 110 64 182q0 52 -24 83t-63 31q-38 0 -61.5 -30.5t-22.5 -80.5v-38q0 -10 -10 -10h-52q-10 0 -10 10v40q2 77 45.5 124t113.5 47t113 -48.5
t43 -127.5q0 -94 -71 -212q-36 -61 -101 -164l-56 -89q-1 -2 0 -3.5z" />
    <glyph glyph-name="three" unicode="3" horiz-adv-x="408" 
d="M356 212q0 -53 -11 -97q-28 -123 -148 -123q-63 0 -103.5 35t-50.5 97q-6 35 -6 77q0 10 10 10h51q10 0 10 -10q0 -36 6 -65q17 -82 83 -82q31 0 52 19t30 55q8 42 8 90q0 63 -12 105q-10 32 -30 48.5t-48 16.5q-9 0 -23 -6q-9 -5 -14 1l-26 27q-5 7 -1 14l133 209
q1 1 0 3t-3 2h-211q-10 0 -10 10v42q0 10 10 10h292q10 0 10 -10v-45q0 -5 -4 -13l-124 -194q-1 -2 -0.5 -3.5t2.5 -1.5q40 -4 69.5 -32.5t42.5 -74.5q16 -51 16 -114z" />
    <glyph glyph-name="four" unicode="4" horiz-adv-x="415" 
d="M393 246v-44q0 -10 -10 -10h-31q-4 0 -4 -4v-178q0 -10 -10 -10h-51q-10 0 -10 10v178q0 4 -4 4h-241q-10 0 -10 10v38q0 4 2 12l150 440q3 8 12 8h55q11 0 8 -11l-144 -428q-1 -2 0 -3.5t3 -1.5h165q4 0 4 4v153q0 10 10 10h51q10 0 10 -10v-153q0 -4 4 -4h31
q10 0 10 -10z" />
    <glyph glyph-name="five" unicode="5" horiz-adv-x="409" 
d="M372 213q0 -45 -6 -83q-10 -67 -49.5 -102.5t-104.5 -35.5t-104.5 35t-50.5 105l-3 30v2q0 8 9 8h51q10 0 11 -10l3 -24q16 -84 84 -84q32 0 53 20.5t29 59.5q7 32 7 80q0 50 -9 86q-18 70 -80 70q-69 0 -86 -69q-3 -9 -11 -9h-52q-10 0 -10 10v388q0 10 10 10h283
q10 0 10 -10v-42q0 -10 -10 -10h-218q-4 0 -4 -4l-1 -248q0 -2 1.5 -3t3.5 1q16 24 42.5 36.5t59.5 12.5q53 0 87 -32t45 -92q10 -37 10 -96z" />
    <glyph glyph-name="six" unicode="6" horiz-adv-x="410" 
d="M373 213q0 -43 -4 -74q-8 -71 -48.5 -109t-107.5 -38q-62 0 -102 35t-50 103q-7 32 -7 79l-1 328q0 78 44 124.5t116 46.5q65 0 107.5 -47t42.5 -124v-16q0 -10 -10 -10h-51q-10 0 -10 10v14q0 48 -23 78.5t-56 30.5q-40 0 -64 -30t-24 -79v-134q0 -2 1.5 -2.5t3.5 1.5
q14 20 36 30.5t49 10.5q61 0 100 -37t50 -102q8 -40 8 -89zM302 218q0 46 -9 86q-8 37 -28.5 56t-51.5 19q-65 0 -82 -79q-6 -32 -6 -82q0 -47 5 -78q17 -86 83 -86q34 0 55.5 23t28.5 68q5 40 5 73z" />
    <glyph glyph-name="seven" unicode="7" horiz-adv-x="366" 
d="M103.5 3q-2.5 3 -1.5 8l171 623q1 1 -0.5 2.5t-3.5 1.5h-183q-4 0 -4 -4v-41q0 -10 -10 -10h-39q-10 0 -10 10v97q0 10 10 10h306q10 0 10 -10v-46q0 -2 -2 -12l-170 -623q-2 -9 -11 -9h-55q-5 0 -7.5 3z" />
    <glyph glyph-name="eight" unicode="8" horiz-adv-x="422" 
d="M295 368q37 -19 53 -57q22 -49 22 -116q0 -55 -14 -95q-17 -51 -55 -79.5t-91 -28.5q-51 0 -88.5 28t-55.5 79q-14 44 -14 97q0 64 19 108q17 42 56 64q4 3 0 6q-33 17 -53 54q-22 42 -22 102q0 61 22 102q19 37 54 57.5t82 20.5t82 -19.5t54 -56.5q24 -42 24 -105
q0 -60 -21 -99q-20 -37 -54 -56q-5 -3 0 -6zM122 524q0 -45 16 -75q22 -49 72 -49q27 0 46.5 14t29.5 39q14 30 14 72q0 48 -17 76q-23 47 -73 47q-51 0 -73 -50q-15 -30 -15 -74zM300 199q0 52 -14 86q-21 58 -76 58q-27 0 -46.5 -16t-29.5 -46q-12 -33 -12 -82
q0 -41 9 -73q9 -34 29.5 -53t49.5 -19q30 0 51.5 19.5t30.5 55.5q8 32 8 70z" />
    <glyph glyph-name="nine" unicode="9" horiz-adv-x="403" 
d="M350 163q0 -78 -44 -124.5t-116 -46.5q-65 0 -107.5 47t-42.5 124v16q0 10 10 10h51q10 0 10 -10v-14q0 -48 23 -78.5t56 -30.5q40 0 64 30t24 79v134q0 2 -1.5 2.5t-3.5 -1.5q-14 -20 -36 -30.5t-49 -10.5q-61 0 -100 37t-50 102q-8 40 -8 89q0 43 4 74q8 71 48.5 109
t107.5 38q62 0 102 -35t50 -103q7 -32 7 -79zM272 400q6 32 6 82q0 47 -5 78q-17 86 -83 86q-34 0 -55.5 -23t-28.5 -68q-5 -40 -5 -73q0 -45 9 -86q8 -37 28.5 -56t51.5 -19q65 0 82 79z" />
    <glyph glyph-name="colon" unicode=":" horiz-adv-x="211" 
d="M66.5 356q-15.5 16 -15.5 40q0 25 15.5 40.5t40.5 15.5q24 0 40 -15.5t16 -40.5q0 -24 -16 -40t-40 -16q-25 0 -40.5 16zM66.5 20q-15.5 16 -15.5 40q0 25 15.5 40.5t40.5 15.5q24 0 40 -15.5t16 -40.5q0 -24 -16 -40t-40 -16q-25 0 -40.5 16z" />
    <glyph glyph-name="semicolon" unicode=";" horiz-adv-x="193" 
d="M57.5 364q-15.5 17 -15.5 43q0 24 16.5 41t38.5 17q21 0 38 -17t17 -41q0 -25 -16 -42.5t-39 -17.5q-24 0 -39.5 17zM47 -72q-3 3 -2 7l21 207q1 9 11 9h44q5 0 7.5 -3t1.5 -8l-34 -206q-1 -9 -11 -9h-30q-5 0 -8 3z" />
    <glyph glyph-name="less" unicode="&#x3c;" horiz-adv-x="442" 
d="M406.5 63.5q-3.5 -2.5 -8.5 0.5l-359 176q-7 4 -7 12v48q0 8 7 12l359 176l5 2q3 0 5 -2.5t2 -6.5v-49q0 -8 -7 -12l-298 -141q-4 -3 0 -6l298 -141q7 -4 7 -12v-49q0 -5 -3.5 -7.5z" />
    <glyph glyph-name="equal" unicode="=" horiz-adv-x="442" 
d="M32 415v35q0 10 10 10h358q10 0 10 -10v-35q0 -10 -10 -10h-358q-10 0 -10 10zM32 209v35q0 10 10 10h358q10 0 10 -10v-35q0 -10 -10 -10h-358q-10 0 -10 10z" />
    <glyph glyph-name="greater" unicode="&#x3e;" horiz-adv-x="442" 
d="M39 62q-3 0 -5 2.5t-2 6.5v49q0 8 7 12l298 141q4 3 0 6l-298 141q-7 4 -7 12v49q0 5 3.5 7.5t8.5 -0.5l359 -176q7 -4 7 -12v-48q0 -8 -7 -12l-359 -176z" />
    <glyph glyph-name="question" unicode="?" horiz-adv-x="370" 
d="M135 210v59q0 43 16.5 70.5t49.5 60.5q34 34 50.5 61.5t16.5 71.5q0 50 -22.5 80.5t-59.5 30.5q-40 0 -63.5 -31t-23.5 -81v-31q0 -10 -10 -10l-51 3q-10 0 -10 10v28q0 79 44 128t115 49q70 0 111.5 -48t41.5 -128q0 -44 -11.5 -76t-27 -52t-41.5 -46q-27 -26 -40 -46
t-13 -48v-55q0 -10 -10 -10h-52q-10 0 -10 10zM131.5 18q-15.5 16 -15.5 40q0 25 15.5 40.5t40.5 15.5q24 0 40 -15.5t16 -40.5q0 -24 -16 -40t-40 -16q-25 0 -40.5 16z" />
    <glyph glyph-name="at" unicode="@" horiz-adv-x="761" 
d="M573.5 581.5q65.5 -34.5 101.5 -98.5t36 -148q0 -26 -3 -53q-13 -94 -59.5 -146.5t-116.5 -52.5q-66 0 -95 45q-3 3 -6 0q-14 -24 -36.5 -35.5t-47.5 -11.5q-45 0 -72.5 26.5t-27.5 71.5q0 16 9 88q4 36 10 71q7 50 36 79t75 29q17 0 34 -7t29 -21q2 -2 3.5 -1t1.5 3
l1 12q1 9 10 9h32q5 0 8 -3.5t2 -7.5l-26 -204q-1 -6 -1 -18q0 -35 18.5 -56t50.5 -21q44 0 74 40t39 111q3 26 3 48q0 72 -29.5 126t-84 83t-126.5 29q-77 0 -144 -39t-111.5 -109.5t-55.5 -159.5q-3 -25 -3 -48q0 -76 31 -132.5t83.5 -86.5t117.5 -30q48 0 89 13.5
t67 32.5q2 2 6 2q5 0 8 -4l16 -23q2 -4 2 -6q0 -5 -5 -8q-33 -25 -83 -40.5t-109 -15.5q-80 0 -143 35.5t-98 102t-35 155.5q0 18 4 56q13 103 65.5 183.5t132.5 125t171 44.5q86 0 151.5 -34.5zM420 218l8 65l6 53q1 4 1 11q0 24 -14 39t-37 15q-26 0 -44.5 -18.5
t-22.5 -46.5q-2 -21 -4 -30q-4 -24 -5 -43l-9 -71q-2 -29 12 -47t39 -18t43 18t23 47z" />
    <glyph glyph-name="A" unicode="A" horiz-adv-x="410" 
d="M325 9l-25 124q0 2 -1.5 3t-3.5 1h-181q-2 0 -3.5 -1t-1.5 -3l-25 -124q-1 -9 -11 -9h-51q-5 0 -7.5 3t-1.5 8l150 680q2 9 11 9h60q10 0 11 -9l152 -680v-2q0 -9 -9 -9h-52q-9 0 -11 9zM125 195h158q3 0 3 4l-80 393q-1 3 -2 3t-2 -3l-80 -393q0 -4 3 -4z" />
    <glyph glyph-name="B" unicode="B" horiz-adv-x="449" 
d="M366 50q-49 -50 -131 -50h-153q-10 0 -10 10v680q0 10 10 10h144q86 0 135 -47.5t49 -135.5q0 -112 -83 -153q-2 -1 -2 -2t1 -2q88 -51 88 -170q1 -90 -48 -140zM143 634v-241q0 -4 4 -4h79q54 0 84 32t30 90q0 60 -30 93.5t-84 33.5h-79q-4 0 -4 -4zM313 98.5
q30 35.5 30 99.5q0 65 -30 101t-83 36h-83q-4 0 -4 -4v-264q0 -4 4 -4h83q53 0 83 35.5z" />
    <glyph glyph-name="C" unicode="C" horiz-adv-x="446" 
d="M101.5 39q-46.5 47 -46.5 126v371q0 78 46.5 125t123.5 47q78 0 124.5 -46.5t46.5 -125.5v-17q0 -10 -10 -10l-52 -3q-10 0 -10 10v25q0 47 -27 76t-72 29q-44 0 -71.5 -29t-27.5 -76v-382q0 -47 27.5 -76t71.5 -29q45 0 72 29t27 76v25q0 10 10 10l52 -3q10 0 10 -10
v-16q0 -79 -47 -126t-124 -47t-123.5 47z" />
    <glyph glyph-name="D" unicode="D" horiz-adv-x="465" 
d="M72 10v680q0 10 10 10h154q77 0 123 -50.5t46 -135.5v-328q0 -85 -46 -135.5t-123 -50.5h-154q-10 0 -10 10zM147 62l88 1q44 0 70.5 34t27.5 92v322q0 59 -26 93t-72 34h-88q-4 0 -4 -4v-568q0 -4 4 -4z" />
    <glyph glyph-name="E" unicode="E" horiz-adv-x="429" 
d="M379 638h-232q-4 0 -4 -4v-248q0 -4 4 -4h146q10 0 10 -10v-43q0 -10 -10 -10h-146q-4 0 -4 -4v-249q0 -4 4 -4h232q10 0 10 -10v-42q0 -10 -10 -10h-297q-10 0 -10 10v680q0 10 10 10h297q10 0 10 -10v-42q0 -10 -10 -10z" />
    <glyph glyph-name="F" unicode="F" horiz-adv-x="404" 
d="M377 638h-230q-4 0 -4 -4v-248q0 -4 4 -4h145q10 0 10 -10v-43q0 -10 -10 -10h-145q-4 0 -4 -4v-305q0 -10 -10 -10h-51q-10 0 -10 10v680q0 10 10 10h295q10 0 10 -10v-42q0 -10 -10 -10z" />
    <glyph glyph-name="G" unicode="G" horiz-adv-x="451" 
d="M102 37.5q-46 45.5 -46 121.5v382q0 76 46 121.5t123 45.5t123.5 -46t46.5 -122v-43q0 -10 -10 -10h-51q-10 0 -10 10v45q0 47 -27 75.5t-72 28.5q-44 0 -71.5 -29t-27.5 -75v-384q0 -46 27.5 -75t71.5 -29q45 0 72 28.5t27 75.5v128q0 4 -4 4h-86q-10 0 -10 10v42
q0 10 10 10h151q10 0 10 -10v-183q0 -76 -46.5 -121.5t-123.5 -45.5t-123 45.5z" />
    <glyph glyph-name="H" unicode="H" horiz-adv-x="472" 
d="M339 700h51q10 0 10 -10v-680q0 -10 -10 -10h-51q-10 0 -10 10v305q0 4 -4 4h-178q-4 0 -4 -4v-305q0 -10 -10 -10h-51q-10 0 -10 10v680q0 10 10 10h51q10 0 10 -10v-304q0 -4 4 -4h178q4 0 4 4v304q0 10 10 10z" />
    <glyph glyph-name="I" unicode="I" horiz-adv-x="215" 
d="M72 10v680q0 10 10 10h51q10 0 10 -10v-680q0 -10 -10 -10h-51q-10 0 -10 10z" />
    <glyph glyph-name="J" unicode="J" horiz-adv-x="426" 
d="M68 38.5q-46 46.5 -46 122.5v84q0 10 10 10h51q10 0 10 -10v-85q0 -47 26 -76.5t69 -29.5q42 0 68.5 29.5t26.5 76.5v530q0 10 10 10h51q10 0 10 -10v-529q0 -76 -46 -122.5t-120 -46.5t-120 46.5z" />
    <glyph glyph-name="K" unicode="K" horiz-adv-x="452" 
d="M72 10v680q0 10 10 10h51q10 0 10 -10v-324q0 -3 2 -4t3 2l193 329q5 7 12 7h56q6 0 8 -3.5t-1 -8.5l-156 -271q-2 -4 -1 -6l172 -399l1 -4q0 -8 -9 -8h-57q-8 0 -11 8l-144 340q-1 4 -5 0l-62 -96q-1 -1 -1 -5v-237q0 -10 -10 -10h-51q-10 0 -10 10z" />
    <glyph glyph-name="L" unicode="L" horiz-adv-x="396" 
d="M72 10v680q0 10 10 10h51q10 0 10 -10v-624q0 -4 4 -4h229q10 0 10 -10v-42q0 -10 -10 -10h-294q-10 0 -10 10z" />
    <glyph glyph-name="M" unicode="M" horiz-adv-x="521" 
d="M389 700h52q10 0 10 -10v-680q0 -10 -10 -10h-51q-10 0 -10 10v536q0 3 -1.5 3t-3.5 -2l-104 -216q-3 -7 -10 -7q-8 0 -11 7l-104 215q-2 2 -3.5 2t-1.5 -3v-535q0 -10 -10 -10h-51q-10 0 -10 10v680q0 10 10 10h52q9 0 12 -7l114 -231q1 -2 3 -2t3 2l113 231q3 7 12 7z
" />
    <glyph glyph-name="N" unicode="N" horiz-adv-x="493" 
d="M362 700h50q10 0 10 -10v-680q0 -10 -10 -10h-59q-8 0 -11 8l-195 517q-1 3 -3 2.5t-2 -3.5l1 -514q0 -10 -10 -10h-51q-10 0 -10 10v680q0 10 10 10h58q8 0 11 -8l196 -518q1 -3 3 -2.5t2 3.5v515q0 10 10 10z" />
    <glyph glyph-name="O" unicode="O" horiz-adv-x="456" 
d="M102.5 40q-47.5 48 -47.5 127v366q0 79 47.5 127t124.5 48q78 0 126 -48t48 -127v-366q0 -78 -48 -126.5t-126 -48.5q-77 0 -124.5 48zM301.5 84.5q28.5 30.5 28.5 78.5v373q0 49 -28.5 79.5t-74.5 30.5q-45 0 -73 -30.5t-28 -79.5v-373q0 -48 28 -78.5t73 -30.5
q46 0 74.5 30.5z" />
    <glyph glyph-name="P" unicode="P" horiz-adv-x="442" 
d="M364 647.5q45 -53.5 45 -140.5q0 -86 -44 -138.5t-116 -52.5h-103q-4 0 -4 -4v-302q0 -10 -10 -10h-51q-10 0 -10 10v681q0 10 10 10h165q73 0 118 -53.5zM310 410q28 36 28 96t-28 96.5t-73 36.5h-91q-4 0 -4 -4v-257q0 -4 4 -4h91q45 0 73 36z" />
    <glyph glyph-name="Q" unicode="Q" horiz-adv-x="443" 
d="M342 659q46 -49 46 -129v-360q0 -69 -34.5 -115.5t-92.5 -58.5q-4 -1 -4 -5v-96q0 -10 -10 -10h-51q-10 0 -10 10v96q0 4 -4 5q-58 13 -92.5 59.5t-34.5 114.5v360q0 79 46.5 128.5t120.5 49.5t120 -49zM317 537q0 48 -26 78.5t-69 30.5t-69.5 -30.5t-26.5 -78.5v-374
q0 -48 26.5 -78.5t69.5 -30.5t69 30.5t26 78.5v374z" />
    <glyph glyph-name="R" unicode="R" horiz-adv-x="443" 
d="M340 8l-102 309q-1 3 -4 3h-87q-4 0 -4 -4v-306q0 -10 -10 -10h-51q-10 0 -10 10v680q0 10 10 10h165q73 0 118 -53.5t45 -139.5q0 -65 -28 -112t-76 -66q-4 -1 -3 -5l109 -313l1 -4q0 -7 -9 -7h-52q-9 0 -12 8zM143 634v-253q0 -4 4 -4h90q46 0 74 35.5t28 94.5t-28 95
t-74 36h-90q-4 0 -4 -4z" />
    <glyph glyph-name="S" unicode="S" horiz-adv-x="416" 
d="M88 41q-46 49 -46 128v23q0 10 10 10h49q10 0 10 -10v-20q0 -53 27 -85.5t70 -32.5q42 0 70 31t28 82q0 34 -13.5 58.5t-35 43t-71.5 56.5q-50 37 -79 63.5t-47.5 63.5t-18.5 87q0 78 45 123.5t117 45.5q76 0 121.5 -49.5t45.5 -131.5v-25q0 -10 -10 -10h-50
q-10 0 -10 10v26q0 53 -26.5 85.5t-70.5 32.5q-40 0 -66 -28.5t-26 -80.5q0 -31 11.5 -54.5t34.5 -44.5t68 -55q60 -44 89.5 -71.5t45.5 -60t16 -78.5q0 -82 -47 -131.5t-121 -49.5t-120 49z" />
    <glyph glyph-name="T" unicode="T" horiz-adv-x="423" 
d="M389 690v-42q0 -10 -10 -10h-132q-4 0 -4 -4v-624q0 -10 -10 -10h-51q-10 0 -10 10v624q0 4 -4 4h-124q-10 0 -10 10v42q0 10 10 10h335q10 0 10 -10z" />
    <glyph glyph-name="U" unicode="U" horiz-adv-x="476" 
d="M113 45q-47 53 -47 140v505q0 10 10 10h51q10 0 10 -10v-513q0 -55 27.5 -89t72.5 -34q46 0 74 34t28 89v513q0 10 10 10h51q10 0 10 -10v-505q0 -87 -47.5 -140t-125.5 -53q-77 0 -124 53z" />
    <glyph glyph-name="V" unicode="V" horiz-adv-x="439" 
d="M180 9l-145 680v2q0 9 9 9h56q10 0 11 -9l108 -559q1 -2 2 -2t2 2l107 559q2 9 11 9h54q11 0 9 -11l-145 -680q-1 -9 -11 -9h-57q-9 0 -11 9z" />
    <glyph glyph-name="W" unicode="W" horiz-adv-x="623" 
d="M161 9l-132 680v2q0 9 9 9h53q10 0 11 -9l94 -526q1 -2 2 -2t2 2l81 526q2 9 10 9h46q9 0 10 -9l85 -526q1 -2 2 -2t2 2l86 526q2 9 10 9h53q5 0 7.5 -3t1.5 -8l-124 -680q-1 -9 -11 -9h-49q-8 0 -10 9l-84 528q-1 2 -2.5 2t-1.5 -2l-82 -528q-1 -9 -10 -9h-48
q-9 0 -11 9z" />
    <glyph glyph-name="X" unicode="X" horiz-adv-x="434" 
d="M38.5 3.5q-2.5 3.5 -0.5 8.5l140 335q2 3 0 6l-140 335l-1 4q0 8 9 8h53q8 0 11 -8l104 -266q1 -3 3 -3t3 3l104 266q3 8 11 8h53q5 0 7.5 -3.5t0.5 -8.5l-141 -336q-1 -3 0 -6l141 -334l1 -4q0 -8 -9 -8h-53q-8 0 -11 8l-104 265q-1 3 -3 3t-3 -3l-104 -265
q-3 -8 -11 -8h-53q-5 0 -7.5 3.5z" />
    <glyph glyph-name="Y" unicode="Y" 
d="M177 11v299q0 4 -1 5l-139 373l-1 4q0 8 9 8h54q9 0 12 -8l98 -293q1 -2 3 -2t3 2l98 293q3 8 12 8h54q5 0 7.5 -3.5t0.5 -8.5l-138 -373q-1 -1 -1 -5v-299q0 -10 -10 -10h-51q-10 0 -10 10z" />
    <glyph glyph-name="Z" unicode="Z" horiz-adv-x="395" 
d="M33 10v46q0 5 3 12l243 565q1 2 0 3.5t-3 1.5h-233q-10 0 -10 10v42q0 10 10 10h303q10 0 10 -10v-46q0 -4 -3 -12l-242 -565q-1 -2 0 -3.5t3 -1.5h232q10 0 10 -10v-42q0 -10 -10 -10h-303q-10 0 -10 10z" />
    <glyph glyph-name="bracketleft" unicode="[" horiz-adv-x="303" 
d="M26 -111v875q0 10 10 10h155q10 0 10 -10v-42q0 -10 -10 -10h-90q-4 0 -4 -4v-763q0 -4 4 -4h91q10 0 10 -10v-42q0 -10 -10 -10h-156q-10 0 -10 10z" />
    <glyph glyph-name="backslash" unicode="\" horiz-adv-x="334" 
d="M310 8q0 -8 -10 -8h-50q-9 0 -11 9l-181 680l-1 3q0 8 10 8h50q9 0 11 -9l181 -680z" />
    <glyph glyph-name="bracketright" unicode="]" horiz-adv-x="303" 
d="M267 -121h-157q-10 0 -10 10v42q0 10 10 10h92q4 0 4 4v763q0 4 -4 4h-91q-10 0 -10 10v42q0 10 10 10h156q10 0 10 -10v-875q0 -10 -10 -10z" />
    <glyph glyph-name="asciicircum" unicode="^" horiz-adv-x="396" 
d="M36 318l127 374q3 8 12 8h45q9 0 12 -8l128 -374l1 -4q0 -7 -9 -7h-41q-9 0 -12 8l-98 303q-1 2 -3 2t-3 -2l-98 -303q-3 -8 -12 -8h-41q-11 0 -8 11z" />
    <glyph glyph-name="underscore" unicode="_" horiz-adv-x="376" 
d="M22 10v37q0 10 10 10h312q10 0 10 -10v-37q0 -10 -10 -10h-312q-10 0 -10 10z" />
    <glyph glyph-name="grave" unicode="`" horiz-adv-x="180" 
d="M153 578q0 -6 -9 -6h-32q-7 0 -12 7l-70 109q-2 4 -2 6q0 6 8 6h42q7 0 12 -7l61 -109q2 -4 2 -6z" />
    <glyph glyph-name="a" unicode="a" horiz-adv-x="413" 
d="M321 468.5q42 -45.5 42 -121.5v-337q0 -10 -10 -10h-51q-10 0 -10 10v30q0 2 -1.5 2.5t-3.5 -1.5q-37 -49 -111 -49q-55 0 -95.5 31.5t-40.5 111.5q0 85 49 124.5t129 39.5h70q4 0 4 4v39q0 50 -23 80t-62 30q-30 0 -51.5 -20t-25.5 -51q0 -10 -10 -10l-56 1q-5 0 -7.5 3
t-1.5 7q5 59 48 95.5t106 36.5q70 0 112 -45.5zM262 80.5q30 26.5 30 73.5v84q0 4 -4 4h-71q-48 0 -76 -25.5t-28 -75.5q0 -44 21.5 -65.5t56.5 -21.5q41 0 71 26.5z" />
    <glyph glyph-name="b" unicode="b" horiz-adv-x="423" 
d="M334.5 472.5q38.5 -41.5 38.5 -111.5v-216q0 -68 -38 -110.5t-102 -42.5q-27 0 -52 10.5t-44 31.5q-2 2 -3.5 1t-1.5 -3v-22q0 -10 -10 -10h-51q-10 0 -10 10v680q0 10 10 10h51q10 0 10 -10v-216q0 -2 2 -3t4 2q18 20 43 30.5t52 10.5q63 0 101.5 -41.5zM278 425.5
q-24 26.5 -63 26.5q-37 0 -60 -26.5t-23 -69.5v-207q0 -42 23 -68.5t60 -26.5q39 0 63 26.5t24 68.5v207q0 43 -24 69.5z" />
    <glyph glyph-name="c" unicode="c" horiz-adv-x="402" 
d="M92.5 34q-42.5 42 -42.5 111v216q0 68 43 110.5t113 42.5q47 0 83 -19t55.5 -50.5t19.5 -69.5v-10q0 -10 -10 -10l-51 -2q-10 0 -10 10v7q0 33 -24.5 57.5t-62.5 24.5t-61.5 -26.5t-23.5 -69.5v-206q0 -43 23.5 -69.5t61.5 -26.5t62.5 24.5t24.5 57.5v7q0 10 10 10l51 -1
q10 0 10 -10v-11q0 -60 -43.5 -99.5t-114.5 -39.5t-113.5 42z" />
    <glyph glyph-name="d" unicode="d" horiz-adv-x="423" 
d="M301 700h51q10 0 10 -10v-680q0 -10 -10 -10h-51q-10 0 -10 10v22q0 2 -1.5 3t-3.5 -1q-38 -42 -96 -42q-64 0 -102 42.5t-38 110.5v216q0 70 38 111.5t102 41.5q59 0 96 -43q2 -2 3.5 -1t1.5 3v217q0 10 10 10zM267.5 80.5q23.5 26.5 23.5 68.5v207q0 43 -23.5 69.5
t-60.5 26.5q-38 0 -62.5 -26.5t-24.5 -69.5v-207q0 -42 24.5 -68.5t62.5 -26.5q37 0 60.5 26.5z" />
    <glyph glyph-name="e" unicode="e" horiz-adv-x="407" 
d="M353 226h-228q-4 0 -4 -4v-73q0 -42 23.5 -68.5t61.5 -26.5q32 0 54.5 19.5t29.5 50.5q3 9 11 9l50 -2q4 0 7 -3t2 -8q-8 -59 -48.5 -93.5t-105.5 -34.5q-71 0 -113.5 42t-42.5 111v216q0 68 42.5 110.5t113.5 42.5q72 0 114.5 -42.5t42.5 -110.5v-125q0 -10 -10 -10z
M144.5 425.5q-23.5 -26.5 -23.5 -69.5v-67q0 -4 4 -4h164q4 0 4 4v67q0 43 -24 69.5t-63 26.5q-38 0 -61.5 -26.5z" />
    <glyph glyph-name="f" unicode="f" horiz-adv-x="277" 
d="M168 620.5q-16 -25.5 -16 -79.5v-31q0 -4 4 -4h77q10 0 10 -10v-33q0 -10 -10 -10h-77q-4 0 -4 -4v-439q0 -10 -10 -10h-50q-10 0 -10 10v439q0 4 -4 4h-40q-10 0 -10 10v33q0 10 10 10h40q4 0 4 4v32q0 87 32 126t107 39h14q10 0 10 -10l-1 -41q0 -10 -10 -10h-12
q-38 0 -54 -25.5z" />
    <glyph glyph-name="g" unicode="g" horiz-adv-x="413" 
d="M301 506h51q10 0 10 -10v-486q0 -107 -49.5 -162.5t-165.5 -50.5q-10 1 -10 11v43q0 10 10 10q80 -2 112 36.5t32 118.5v30q0 2 -1.5 3t-3.5 -1q-17 -25 -43.5 -38t-56.5 -13q-63 0 -99.5 42t-36.5 111v211q0 70 36.5 111.5t99.5 41.5q30 0 56.5 -12.5t43.5 -37.5
q2 -3 3.5 -2.5t1.5 3.5v31q0 10 10 10zM267.5 85.5q23.5 26.5 23.5 68.5v202q0 43 -23.5 69.5t-60.5 26.5q-38 0 -62 -26.5t-24 -69.5v-202q0 -42 24 -68.5t62 -26.5q37 0 60.5 26.5z" />
    <glyph glyph-name="h" unicode="h" 
d="M335.5 471q33.5 -42 33.5 -117v-344q0 -10 -10 -10h-51q-10 0 -10 10v338q0 49 -21.5 76t-59.5 27q-40 0 -62.5 -29t-22.5 -79v-333q0 -10 -10 -10h-51q-10 0 -10 10v680q0 10 10 10h51q10 0 10 -10v-226q0 -2 2 -3t3 2q18 25 45.5 37.5t58.5 12.5q61 0 94.5 -42z" />
    <glyph glyph-name="i" unicode="i" horiz-adv-x="208" 
d="M63.5 614q-15.5 16 -15.5 40q0 25 15.5 40.5t40.5 15.5q24 0 39.5 -15.5t15.5 -40.5q0 -24 -15.5 -40t-39.5 -16q-25 0 -40.5 16zM69 10v486q0 10 10 10h51q10 0 10 -10v-486q0 -10 -10 -10h-51q-10 0 -10 10z" />
    <glyph glyph-name="j" unicode="j" horiz-adv-x="200" 
d="M56 614q-16 16 -16 40q0 25 16 40.5t40 15.5q25 0 40.5 -15.5t15.5 -40.5q0 -24 -16 -40t-40 -16t-40 16zM-30 -198v42q0 10 10 10q81 3 81 102v540q0 10 10 10h51q10 0 10 -10v-540q0 -82 -32 -123t-120 -41q-10 0 -10 10z" />
    <glyph glyph-name="k" unicode="k" horiz-adv-x="405" 
d="M61 10v680q0 10 10 10h51q10 0 10 -10v-402q0 -2 2 -3t3 1l150 214q4 6 12 6h52q6 0 8 -3.5t-2 -8.5l-99 -142q-3 -3 -1 -6l118 -335l1 -4q0 -7 -9 -7h-53q-9 0 -12 8l-89 278q-1 6 -6 1l-73 -104q-2 -2 -2 -5v-168q0 -10 -10 -10h-51q-10 0 -10 10z" />
    <glyph glyph-name="l" unicode="l" horiz-adv-x="181" 
d="M55 10v680q0 10 10 10h51q10 0 10 -10v-680q0 -10 -10 -10h-51q-10 0 -10 10z" />
    <glyph glyph-name="m" unicode="m" horiz-adv-x="648" 
d="M559 469q33 -44 33 -122v-337q0 -10 -10 -10h-50q-10 0 -10 10v331q0 51 -21.5 80.5t-56.5 29.5q-38 0 -60 -29t-22 -79v-333q0 -10 -10 -10h-51q-10 0 -10 10v331q0 51 -21.5 80.5t-55.5 29.5q-38 0 -60.5 -29t-22.5 -79v-333q0 -10 -10 -10h-50q-10 0 -10 10v486
q0 10 10 10h50q10 0 10 -10v-31q0 -2 1.5 -2.5t3.5 1.5q19 25 45 37t55 12q38 0 66 -18.5t43 -52.5q1 -2 3 -2t3 3q18 36 49 53t66 17q60 0 93 -44z" />
    <glyph glyph-name="n" unicode="n" 
d="M335.5 471q33.5 -42 33.5 -117v-344q0 -10 -10 -10h-51q-10 0 -10 10v338q0 49 -21.5 76t-59.5 27q-40 0 -62.5 -29t-22.5 -79v-333q0 -10 -10 -10h-51q-10 0 -10 10v486q0 10 10 10h51q10 0 10 -10v-32q0 -2 2 -3t3 2q18 25 45.5 37.5t58.5 12.5q61 0 94.5 -42z" />
    <glyph glyph-name="o" unicode="o" horiz-adv-x="415" 
d="M92.5 34q-42.5 42 -42.5 111v215q0 68 43 111t114 43q72 0 115 -43t43 -111v-215q0 -69 -43 -111t-115 -42t-114.5 42zM269.5 81q24.5 26 24.5 69v206q0 43 -24.5 69.5t-62.5 26.5t-62 -26.5t-24 -69.5v-206q0 -43 24 -69t62 -26t62.5 26z" />
    <glyph glyph-name="p" unicode="p" horiz-adv-x="428" 
d="M340 471.5q38 -42.5 38 -110.5v-216q0 -70 -38 -111.5t-101 -41.5q-28 0 -53 10.5t-44 32.5q-2 2 -3.5 1t-1.5 -3v-217q0 -10 -10 -10h-51q-10 0 -10 10v680q0 10 10 10h51q10 0 10 -10v-23q0 -2 2 -2.5t4 1.5q18 21 43.5 31.5t52.5 10.5q63 0 101 -42.5zM283.5 425.5
q-24.5 26.5 -62.5 26.5q-37 0 -60.5 -26.5t-23.5 -69.5v-206q0 -43 23.5 -69.5t60.5 -26.5q38 0 62.5 26.5t24.5 69.5v206q0 43 -24.5 69.5z" />
    <glyph glyph-name="q" unicode="q" horiz-adv-x="428" 
d="M301 506h51q10 0 10 -10v-680q0 -10 -10 -10h-51q-10 0 -10 10v217q0 2 -1.5 3t-3.5 -1q-37 -43 -96 -43q-64 0 -102 41.5t-38 111.5v216q0 68 38 110.5t102 42.5q58 0 96 -42q2 -2 3.5 -1t1.5 3v22q0 10 10 10zM267.5 80.5q23.5 26.5 23.5 69.5v206q0 43 -23.5 69.5
t-60.5 26.5q-38 0 -62.5 -26.5t-24.5 -69.5v-206q0 -43 24.5 -69.5t62.5 -26.5q37 0 60.5 26.5z" />
    <glyph glyph-name="r" unicode="r" horiz-adv-x="292" 
d="M275 500q7 -4 5 -13l-12 -52q-1 -9 -12 -6q-12 6 -30 6q-8 0 -12 -1q-36 -2 -59 -37.5t-23 -86.5v-300q0 -10 -10 -10h-51q-10 0 -10 10v486q0 10 10 10h51q10 0 10 -10v-60q0 -3 1.5 -3t3.5 2q29 76 95 76q25 0 43 -11z" />
    <glyph glyph-name="s" unicode="s" horiz-adv-x="374" 
d="M82.5 30.5q-41.5 35.5 -41.5 94.5v7q0 10 10 10h48q10 0 10 -10v-6q0 -32 23.5 -54t61.5 -22q36 0 58 22t22 56q0 26 -14 43.5t-32.5 27.5t-55.5 26q-39 16 -64.5 31.5t-44 44t-18.5 72.5q0 64 39.5 101t106.5 37q68 0 108 -38t40 -101v-3q0 -10 -10 -10h-46
q-10 0 -10 10v6q0 34 -22.5 56t-58.5 22t-57.5 -22.5t-21.5 -55.5q0 -24 13 -40.5t32 -27t53 -25.5q41 -18 67.5 -34t46.5 -45t20 -72q0 -62 -41 -99t-111 -37q-69 0 -110.5 35.5z" />
    <glyph glyph-name="t" unicode="t" horiz-adv-x="267" 
d="M229 453h-76q-4 0 -4 -4v-306q0 -46 16 -63.5t49 -16.5h10q10 0 10 -10v-43q0 -10 -10 -10h-25q-59 0 -89.5 25.5t-30.5 96.5v327q0 4 -4 4h-39q-10 0 -10 10v33q0 10 10 10h39q4 0 4 4v112q0 10 10 10h50q10 0 10 -10v-112q0 -4 4 -4h76q10 0 10 -10v-33q0 -10 -10 -10z
" />
    <glyph glyph-name="u" unicode="u" 
d="M302 506h51q10 0 10 -10v-486q0 -10 -10 -10h-51q-10 0 -10 10v34q0 3 -1.5 3t-3.5 -2q-31 -52 -100 -52q-60 0 -95.5 36.5t-35.5 110.5v356q0 10 10 10h51q10 0 10 -10v-340q0 -50 20.5 -75.5t59.5 -25.5q40 0 62.5 29t22.5 79v333q0 10 10 10z" />
    <glyph glyph-name="v" unicode="v" horiz-adv-x="379" 
d="M149 9l-124 486l-1 4q0 7 9 7h58q9 0 11 -9l86 -379q1 -3 2 -3t2 3l85 379q2 9 11 9l58 -1q5 0 7.5 -3t0.5 -8l-123 -485q-1 -9 -11 -9h-60q-9 0 -11 9z" />
    <glyph glyph-name="w" unicode="w" horiz-adv-x="554" 
d="M130 9l-106 486v2q0 9 9 9h49q10 0 11 -9l72 -382q1 -2 2 -2t2 2l74 382q2 9 11 9h45q10 0 11 -9l74 -382q1 -2 2 -2t2 2l74 382q2 9 11 9l48 -1q11 0 9 -11l-106 -485q-1 -9 -11 -9h-51q-9 0 -11 9l-74 366q-1 3 -2 3t-2 -3l-71 -366q-1 -9 -11 -9h-50q-9 0 -11 9z" />
    <glyph glyph-name="x" unicode="x" horiz-adv-x="376" 
d="M23 3.5q-2 3.5 0 8.5l122 238q2 3 0 6l-122 238q-1 2 -1 5q0 7 8 7h56q9 0 12 -7l87 -178q1 -2 3 -2t3 2l87 178q3 7 12 7h56q5 0 7 -3.5t0 -8.5l-122 -238q-1 -3 0 -6l122 -238q1 -2 1 -5q0 -7 -8 -7h-56q-9 0 -12 7l-87 179q-1 2 -3 2t-3 -2l-87 -179q-3 -7 -12 -7h-56
q-5 0 -7 3.5z" />
    <glyph glyph-name="y" unicode="y" horiz-adv-x="368" 
d="M40 -197q-2 3 -2 7v40q0 10 10 10q31 1 48.5 12t28.5 39t22 86q1 2 0.5 3.5t-0.5 2.5l-127 492l-1 3q0 8 10 8h54q10 0 11 -9l88 -393q1 -3 2 -3t2 3l87 393q2 9 11 9l56 -1q5 0 7.5 -3t0.5 -8l-139 -538q-18 -67 -35.5 -99t-45.5 -44.5t-79 -12.5h-5q-2 0 -4 3z" />
    <glyph glyph-name="z" unicode="z" horiz-adv-x="361" 
d="M33 10v48q0 7 3 13l205 365q1 2 0.5 3.5t-2.5 1.5h-192q-10 0 -10 10v45q0 10 10 10h270q10 0 10 -10v-48q0 -7 -3 -13l-207 -365q-1 -2 0 -3.5t3 -1.5h199q10 0 10 -10v-45q0 -10 -10 -10h-276q-10 0 -10 10z" />
    <glyph glyph-name="braceleft" unicode="{" horiz-adv-x="273" 
d="M110.5 -93q-24.5 28 -24.5 86v217q0 41 -12.5 63t-38.5 27q-9 2 -9 10v40q0 9 9 10q26 5 38.5 26.5t12.5 62.5v212q0 58 24.5 85.5t75.5 27.5h51q10 0 10 -10v-42q0 -10 -10 -10h-26q-54 0 -54 -74v-194q0 -45 -12 -72t-36 -40q-2 -1 -2 -2t2 -2q24 -14 36 -41t12 -72
v-199q0 -75 54 -75h26q10 0 10 -10v-42q0 -10 -10 -10h-51q-51 0 -75.5 28z" />
    <glyph glyph-name="bar" unicode="|" horiz-adv-x="144" 
d="M36 -70v820q0 10 10 10h51q10 0 10 -10v-820q0 -10 -10 -10h-51q-10 0 -10 10z" />
    <glyph glyph-name="braceright" unicode="}" horiz-adv-x="273" 
d="M36 -121q-10 0 -10 10v42q0 10 10 10h26q54 0 54 75v199q0 45 12 72t36 41q2 1 2 2t-2 2q-24 13 -36 40t-12 72v194q0 74 -54 74h-26q-10 0 -10 10v42q0 10 10 10h51q51 0 75.5 -27.5t24.5 -85.5v-212q0 -41 12.5 -62.5t38.5 -26.5q9 -1 9 -10v-40q0 -8 -9 -10
q-26 -5 -38.5 -27t-12.5 -63v-217q0 -58 -24.5 -86t-75.5 -28h-51z" />
    <glyph glyph-name="asciitilde" unicode="~" horiz-adv-x="461" 
d="M272 240.5q-20 8.5 -49 25.5q-23 13 -37.5 19.5t-32.5 6.5q-46 0 -72 -41q-5 -10 -14 -4l-27 16q-8 5 -5 14q16 35 45.5 56.5t66.5 21.5q24 0 42.5 -7t38.5 -20q27 -17 46 -25t43 -8q20 0 33.5 10t27.5 30q6 8 14 3l29 -19q8 -5 3 -13q-44 -74 -104 -74q-28 0 -48 8.5z
" />
    <glyph glyph-name="uni00A0" unicode="&#xa0;" horiz-adv-x="200" 
 />
    <glyph glyph-name="exclamdown" unicode="&#xa1;" horiz-adv-x="251" 
d="M166 692q16 -16 16 -40q0 -25 -16 -40.5t-40 -15.5q-25 0 -40.5 15.5t-15.5 40.5q0 24 15.5 40t40.5 16q24 0 40 -16zM107 483h38q10 0 10 -10l7 -451q0 -10 -10 -10h-51q-10 0 -10 10l6 451q0 10 10 10z" />
    <glyph glyph-name="cent" unicode="&#xa2;" horiz-adv-x="402" 
d="M354 445l-51 -2q-10 0 -10 10v7q0 33 -24.5 57.5t-62.5 24.5t-61.5 -26.5t-23.5 -69.5v-206q0 -43 23.5 -69.5t61.5 -26.5t62.5 24.5t24.5 57.5v7q0 10 10 10l51 -1q10 0 10 -10v-11q0 -52 -34 -89.5t-91 -46.5q-4 -1 -4 -5l2 -69q0 -10 -10 -10h-42q-10 0 -10 10l2 69
q0 4 -4 5q-57 9 -90 49t-33 101v216q0 59 33 99.5t90 50.5q4 1 4 5l-2 69q0 10 10 10h42q10 0 10 -10l-2 -69q0 -4 4 -5q57 -10 91 -48t34 -88v-10q0 -10 -10 -10z" />
    <glyph glyph-name="sterling" unicode="&#xa3;" horiz-adv-x="503" 
d="M183 62h277q10 0 10 -10v-42q0 -10 -10 -10h-351q-10 0 -10 10v44q0 8 6 12q18 16 28.5 47.5t10.5 73.5v117q0 4 -4 4h-58q-10 0 -10 10v39q0 10 10 10h58q4 0 4 4v141q0 92 44.5 144t121.5 52q58 0 96 -35t54 -101v-2q0 -8 -8 -10l-48 -7h-2q-8 0 -10 9
q-11 43 -31.5 63.5t-53.5 20.5q-45 0 -69.5 -34t-24.5 -97v-144q0 -4 4 -4h144q10 0 10 -10v-39q0 -10 -10 -10h-144q-4 0 -4 -4v-115q0 -40 -8.5 -71.5t-23.5 -50.5q-3 -5 2 -5z" />
    <glyph glyph-name="currency" unicode="&#xa4;" horiz-adv-x="511" 
d="M415 188q-2 -3 1 -6l65 -64q3 -3 3 -6q0 -4 -4 -8l-32 -28q-3 -3 -6 -3q-4 0 -8 4l-63 61q-3 3 -6 1q-51 -35 -113 -35q-61 0 -110 33q-3 2 -6 -1l-59 -59q-3 -3 -7 -3.5t-7 2.5l-32 28q-7 8 -1 14l61 60q3 3 1 6q-40 53 -40 117q0 63 37 114q2 3 -1 6l-64 64q-3 3 -3 6
q0 4 4 8l31 28q3 3 6 3q4 0 8 -4l62 -62q3 -3 6 -1q50 36 114 36q67 0 118 -39q3 -2 6 1l65 65q8 8 14 1l31 -28q8 -7 1 -14l-69 -68q-3 -3 -1 -6q34 -48 34 -110q0 -63 -36 -113zM133.5 233q18.5 -31 50 -49.5t68.5 -18.5t68 18t49.5 49.5t18.5 68.5t-18.5 68.5t-50 50
t-67.5 18.5q-37 0 -68.5 -18.5t-50 -50t-18.5 -68.5t18.5 -68z" />
    <glyph glyph-name="yen" unicode="&#xa5;" horiz-adv-x="523" 
d="M434 297h-136q-4 0 -4 -4v-68q0 -4 4 -4h136q10 0 10 -10v-23q0 -10 -10 -10h-136q-4 0 -4 -4v-163q0 -10 -10 -10h-51q-10 0 -10 10v163q0 4 -4 4h-131q-10 0 -10 10v23q0 10 10 10h131q4 0 4 4v68q0 4 -4 4h-131q-10 0 -10 10v23q0 10 10 10h120q2 0 3 1.5t0 3.5
l-127 343l-1 4q0 8 9 8h53q9 0 12 -8l99 -293q1 -2 3 -2t3 2l98 293q3 8 12 8h53q5 0 7.5 -3.5t0.5 -8.5l-127 -343q-1 -2 0 -3.5t3 -1.5h125q10 0 10 -10v-23q0 -10 -10 -10z" />
    <glyph glyph-name="brokenbar" unicode="&#xa6;" horiz-adv-x="144" 
d="M36 395v355q0 10 10 10h51q10 0 10 -10v-355q0 -10 -10 -10h-51q-10 0 -10 10zM36 -70v348q0 10 10 10h51q10 0 10 -10v-348q0 -10 -10 -10h-51q-10 0 -10 10z" />
    <glyph glyph-name="section" unicode="&#xa7;" horiz-adv-x="388" 
d="M87.5 -162.5q-40.5 43.5 -40.5 113.5v14q0 10 10 10h51q10 0 10 -10v-10q1 -44 22 -71.5t54 -27.5t54.5 28t21.5 69q0 34 -16.5 57t-38 36t-54.5 28q-41 19 -65 37.5t-38 51.5q-16 37 -16 83q0 50 25 93q22 43 61 57q6 2 1 5q-38 22 -61 61t-23 90q0 68 41 112t106 44
t105.5 -44.5t41.5 -115.5v-12q0 -10 -10 -10h-52q-10 0 -10 10v9q0 44 -21 72.5t-54 28.5q-34 0 -55 -28.5t-21 -71.5q0 -46 25 -73t77 -49q40 -19 62.5 -33t39.5 -40q27 -41 27 -97q0 -53 -20 -93q-24 -48 -67 -62q-5 -1 -1 -5q82 -47 82 -144q0 -68 -41 -112t-107 -44
q-65 0 -105.5 43.5zM263 185q13 29 13 66q0 42 -20 72q-11 15 -28 24.5t-36 9.5q-23 0 -40.5 -14t-25.5 -33q-12 -25 -12 -62q0 -35 13 -64q9 -20 25.5 -32t41.5 -12q49 0 69 45z" />
    <glyph glyph-name="dieresis" unicode="&#xa8;" horiz-adv-x="306" 
d="M187.5 614q-15.5 16 -15.5 40q0 25 15.5 40.5t40.5 15.5q24 0 40 -15.5t16 -40.5q0 -24 -16 -40t-40 -16q-25 0 -40.5 16zM38.5 614q-15.5 16 -15.5 40q0 25 15.5 40.5t40.5 15.5q24 0 40 -15.5t16 -40.5q0 -24 -16 -40t-40 -16q-25 0 -40.5 16z" />
    <glyph glyph-name="copyright" unicode="&#xa9;" horiz-adv-x="835" 
d="M233 39.5q-83 47.5 -130.5 129.5t-47.5 181t47.5 181t130.5 129.5t184 47.5q102 0 184.5 -47.5t130 -129.5t47.5 -181t-47.5 -181t-130 -129.5t-184.5 -47.5q-101 0 -184 47.5zM577.5 77.5q72.5 41.5 114 113.5t41.5 159t-41.5 159t-114 113.5t-160.5 41.5t-160.5 -41.5
t-114 -113.5t-41.5 -159t41.5 -159t114 -113.5t160.5 -41.5t160.5 41.5zM355.5 203q-23.5 22 -23.5 59v171q0 37 23.5 58.5t62.5 21.5t63 -21.5t24 -58.5v-6q0 -10 -10 -10l-23 -1q-10 0 -10 10v10q0 17 -12.5 28t-31.5 11t-31.5 -11t-12.5 -28v-177q0 -18 12 -28.5
t32 -10.5t32 10.5t12 28.5v10q0 10 10 10l23 -1q10 0 10 -10v-6q0 -37 -24 -59t-63 -22t-62.5 22z" />
    <glyph glyph-name="ordfeminine" unicode="&#xaa;" horiz-adv-x="276" 
d="M183 562q4 0 4 4v29q0 31 -14 50t-40 19q-19 0 -33.5 -11.5t-18.5 -29.5q-2 -11 -11 -9l-31 2q-11 2 -9 11q4 36 33 58.5t69 22.5q49 0 77.5 -29.5t28.5 -79.5v-220q0 -10 -10 -10h-31q-10 0 -10 10v13q0 2 -1.5 2.5t-3.5 -1.5q-23 -29 -67 -29q-38 0 -65.5 21t-27.5 75
q0 102 116 102h45zM168 422q19 16 19 46v49q0 4 -4 4h-44q-30 0 -48 -15.5t-18 -46.5q0 -27 13.5 -40t36.5 -13q26 0 45 16zM31 317h209q10 0 10 -10v-27q0 -10 -10 -10h-209q-10 0 -10 10v27q0 10 10 10z" />
    <glyph glyph-name="guillemotleft" unicode="&#xab;" horiz-adv-x="472" 
d="M245 114q0 -7 -9 -7h-45q-8 0 -12 6l-106 161q-2 3 -2 7t2 7l106 161q5 6 12 6h45q6 0 8 -3.5t-1 -8.5l-105 -159q-1 -3 0 -6l105 -159zM394 114q0 -7 -9 -7h-46q-7 0 -12 7l-105 160q-2 3 -2 7t2 7l105 160q5 7 12 7h46q6 0 8 -3.5t-1 -8.5l-106 -159q-1 -3 0 -6
l106 -159z" />
    <glyph glyph-name="logicalnot" unicode="&#xac;" horiz-adv-x="442" 
d="M410 334v-35l-1 -10h-1v-102q0 -10 -10 -10h-37q-10 0 -10 10v98q0 4 -4 4h-305q-10 0 -10 10v35q0 10 10 10h358q10 0 10 -10z" />
    <glyph glyph-name="uni00AD" unicode="&#xad;" horiz-adv-x="313" 
d="M32 290v42q0 10 10 10h229q10 0 10 -10v-42q0 -10 -10 -10h-229q-10 0 -10 10z" />
    <glyph glyph-name="registered" unicode="&#xae;" horiz-adv-x="438" 
d="M318 688q45 -26 71.5 -70.5t26.5 -97.5q0 -54 -26 -99t-71.5 -71t-99.5 -26t-99.5 26t-71.5 71t-26 99q0 53 26.5 97.5t71.5 70.5t99 26t99 -26zM299.5 382q36.5 21 57.5 57.5t21 80.5q0 43 -21 79t-57.5 57t-80.5 21t-80.5 -21t-57.5 -57t-21 -79q0 -44 21 -80.5
t57.5 -57.5t80.5 -21t80.5 21zM275 527q-7 -12 -19 -17q-4 -3 -3 -6l26 -63l1 -4q0 -8 -9 -8h-13q-8 0 -11 8l-25 64q-1 3 -4 3h-16q-4 0 -4 -4v-61q0 -10 -10 -10h-11q-10 0 -10 10v159q0 10 10 10h53q23 0 37.5 -15t14.5 -38q0 -16 -7 -28zM198 577v-45q0 -4 4 -4h24
q11 0 18 7.5t7 18.5q0 13 -7 20t-18 7h-24q-4 0 -4 -4z" />
    <glyph glyph-name="macron" unicode="&#xaf;" horiz-adv-x="491" 
d="M143 605v32q0 10 10 10h183q10 0 10 -10v-32q0 -10 -10 -10h-183q-10 0 -10 10z" />
    <glyph glyph-name="degree" unicode="&#xb0;" horiz-adv-x="358" 
d="M100 511q-36 21 -57 57.5t-21 80.5t21 80.5t57 57.5t79 21t79 -21t57 -57.5t21 -80.5t-21 -80.5t-57 -57.5t-79 -21t-79 21zM255 571.5q31 31.5 31 77.5t-31 78t-76 32q-44 0 -75.5 -32t-31.5 -78t31.5 -77.5t75.5 -31.5q45 0 76 31.5z" />
    <glyph glyph-name="plusminus" unicode="&#xb1;" horiz-adv-x="442" 
d="M410 368v-35q0 -10 -10 -10h-147q-4 0 -4 -4v-147q0 -10 -10 -10h-36q-10 0 -10 10v147q0 4 -4 4h-147q-10 0 -10 10v35q0 10 10 10h147q4 0 4 4v147q0 10 10 10h36q10 0 10 -10v-147q0 -4 4 -4h147q10 0 10 -10zM32 38v35q0 10 10 10h358q10 0 10 -10v-35q0 -10 -10 -10
h-358q-10 0 -10 10z" />
    <glyph glyph-name="uni00B2" unicode="&#xb2;" horiz-adv-x="245" 
d="M22 452v27q0 8 4 13l38 58q46 70 67 105q36 60 36 104q0 30 -13 46.5t-35 16.5q-21 0 -34 -16.5t-13 -44.5v-19q0 -10 -10 -10h-31q-10 0 -10 10v21q1 48 28 76t71 28t71 -28.5t27 -81.5q0 -55 -36 -120q-25 -46 -66 -110l-23 -36q-1 -2 0 -3.5t3 -1.5h123q10 0 10 -10
v-24q0 -10 -10 -10h-187q-10 0 -10 10z" />
    <glyph glyph-name="uni00B3" unicode="&#xb3;" horiz-adv-x="263" 
d="M227 570q0 -35 -8 -62q-8 -33 -32 -52t-61 -19q-41 0 -67.5 25t-31.5 65q-2 22 -2 33q0 10 10 10h30q10 0 10 -10q0 -9 2 -23q3 -26 15.5 -40.5t33.5 -14.5q34 0 46 37q7 24 7 56q0 31 -5 50q-11 46 -48 46q-7 0 -11 -3q-2 -1 -7 -1q-4 0 -7 3l-15 15q-5 7 -1 14l79 114
q1 1 0 3t-3 2h-123q-10 0 -10 10v24q0 10 10 10h176q10 0 10 -10v-27q0 -8 -4 -13l-69 -103q-1 -1 -0.5 -2.5t2.5 -1.5q26 -4 44 -26t24 -54q6 -24 6 -55z" />
    <glyph glyph-name="acute" unicode="&#xb4;" horiz-adv-x="180" 
d="M28 575.5q-2 3.5 1 8.5l62 109q5 7 12 7h41q6 0 7.5 -3.5t-1.5 -8.5l-70 -109q-5 -7 -12 -7h-32q-6 0 -8 3.5z" />
    <glyph glyph-name="uni00B5" unicode="&#xb5;" horiz-adv-x="429" 
d="M308 506h51q10 0 10 -10v-486q0 -10 -10 -10h-51q-10 0 -10 10v34q0 3 -1.5 3.5t-3.5 -1.5q-31 -53 -100 -53q-32 0 -56 10q-5 2 -5 -3v-190q0 -10 -10 -10h-51q-10 0 -10 10v686q0 10 10 10h51q10 0 10 -10v-340q0 -50 21 -75.5t60 -25.5t62 29t23 79v333q0 10 10 10z
" />
    <glyph glyph-name="paragraph" unicode="&#xb6;" horiz-adv-x="470" 
d="M388 700q10 0 10 -10v-880q0 -10 -10 -10h-40q-10 0 -10 10v827q0 4 -4 4h-79q-4 0 -4 -4v-827q0 -10 -10 -10h-41q-10 0 -10 10v437q0 4 -4 4q-69 8 -111 70.5t-42 153.5q0 63 21.5 114.5t60.5 81t90 29.5h183z" />
    <glyph glyph-name="periodcentered" unicode="&#xb7;" horiz-adv-x="196" 
d="M57.5 238q-15.5 16 -15.5 40q0 25 15.5 40.5t40.5 15.5q24 0 40 -15.5t16 -40.5q0 -24 -16 -40t-40 -16q-25 0 -40.5 16z" />
    <glyph glyph-name="cedilla" unicode="&#xb8;" horiz-adv-x="121" 
d="M4 -170l3 21q2 8 10 8q1 -1 4 -1q21 -3 35.5 8t14.5 39q0 40 -41 83q-4 3 -4 7q0 5 8 5h27q7 0 10 -3l4 -4q46 -43 46 -97q0 -44 -23 -62.5t-57 -18.5q-16 0 -30 3q-8 3 -7 12z" />
    <glyph glyph-name="uni00B9" unicode="&#xb9;" horiz-adv-x="145" 
d="M71 862h34q10 0 10 -10v-400q0 -10 -10 -10h-31q-10 0 -10 10v357q0 2 -1.5 3.5t-2.5 0.5l-29 -8l-3 -1q-8 0 -8 10v18q0 9 7 12l31 15q6 3 13 3z" />
    <glyph glyph-name="ordmasculine" unicode="&#xba;" horiz-adv-x="280" 
d="M62.5 391q-28.5 28 -28.5 75v140q0 46 28.5 74t76.5 28q49 0 78 -28t29 -74v-140q0 -47 -29 -75t-78 -28q-48 0 -76.5 28zM179.5 424q15.5 17 15.5 44v134q0 27 -15.5 44.5t-40.5 17.5q-24 0 -39.5 -17.5t-15.5 -44.5v-134q0 -27 15.5 -44t39.5 -17q25 0 40.5 17zM25 280
v28q0 10 10 10h210q10 0 10 -10v-28q0 -10 -10 -10h-210q-10 0 -10 10z" />
    <glyph glyph-name="guillemotright" unicode="&#xbb;" horiz-adv-x="472" 
d="M79 110.5q-2 3.5 1 8.5l105 159q2 3 0 6l-105 159l-2 5q0 7 9 7h45q8 0 12 -6l106 -161q2 -3 2 -7t-2 -7l-106 -161q-4 -6 -12 -6h-45q-6 0 -8 3.5zM228 110.5q-2 3.5 1 8.5l105 159q2 3 0 6l-105 159l-2 5q0 7 9 7h45q8 0 12 -6l106 -161q2 -3 2 -7t-2 -7l-106 -161
q-4 -6 -12 -6h-45q-6 0 -8 3.5z" />
    <glyph glyph-name="onequarter" unicode="&#xbc;" horiz-adv-x="662" 
d="M71 700h34q10 0 10 -10v-400q0 -10 -10 -10h-31q-10 0 -10 10v357q0 2 -1.5 3.5t-2.5 0.5l-29 -8l-3 -1q-8 0 -8 10v18q0 9 7 12l31 15q6 3 13 3zM67.5 3.5q-1.5 3.5 1.5 8.5l431 681q5 7 12 7h33q6 0 7.5 -3.5t-1.5 -8.5l-431 -681q-5 -7 -12 -7h-33q-6 0 -7.5 3.5z
M650 149v-26q0 -10 -10 -10h-13q-4 0 -4 -4v-99q0 -10 -10 -10h-30q-10 0 -10 10v99q0 4 -4 4h-134q-10 0 -10 10v23q0 4 2 12l86 254q3 8 12 8h33q11 0 8 -11l-81 -245q-1 -2 0.5 -3.5t3.5 -1.5h80q4 0 4 4v81q0 10 10 10h30q10 0 10 -10v-81q0 -4 4 -4h13q10 0 10 -10z
" />
    <glyph glyph-name="onehalf" unicode="&#xbd;" horiz-adv-x="665" 
d="M71 700h34q10 0 10 -10v-400q0 -10 -10 -10h-31q-10 0 -10 10v357q0 2 -1.5 3.5t-2.5 0.5l-29 -8l-3 -1q-8 0 -8 10v18q0 9 7 12l31 15q6 3 13 3zM67.5 3.5q-1.5 3.5 1.5 8.5l431 681q5 7 12 7h33q6 0 7.5 -3.5t-1.5 -8.5l-431 -681q-5 -7 -12 -7h-33q-6 0 -7.5 3.5z
M442 10v27q0 8 4 13l38 58q46 70 67 105q36 60 36 104q0 30 -13 46.5t-35 16.5q-21 0 -34 -16.5t-13 -44.5v-19q0 -10 -10 -10h-31q-10 0 -10 10v21q1 48 28 76t71 28t71 -28.5t27 -81.5q0 -55 -36 -120q-25 -46 -66 -110l-23 -36q-1 -2 0 -3.5t3 -1.5h123q10 0 10 -10v-24
q0 -10 -10 -10h-187q-10 0 -10 10z" />
    <glyph glyph-name="threequarters" unicode="&#xbe;" horiz-adv-x="732" 
d="M227 406q0 -35 -8 -62q-8 -33 -32 -52t-61 -19q-41 0 -67.5 25t-31.5 65q-2 22 -2 33q0 10 10 10h30q10 0 10 -10q0 -9 2 -23q3 -26 15.5 -40.5t33.5 -14.5q34 0 46 37q7 24 7 56q0 31 -5 50q-11 46 -48 46q-7 0 -11 -3q-2 -1 -7 -1q-4 0 -7 3l-15 15q-5 7 -1 14l79 114
q1 1 0 3t-3 2h-123q-10 0 -10 10v24q0 10 10 10h176q10 0 10 -10v-27q0 -8 -4 -13l-69 -103q-1 -1 -0.5 -2.5t2.5 -1.5q26 -4 44 -26t24 -54q6 -24 6 -55zM136.5 3.5q-1.5 3.5 1.5 8.5l431 681q5 7 12 7h33q6 0 7.5 -3.5t-1.5 -8.5l-431 -681q-5 -7 -12 -7h-33
q-6 0 -7.5 3.5zM719 149v-26q0 -10 -10 -10h-13q-4 0 -4 -4v-99q0 -10 -10 -10h-30q-10 0 -10 10v99q0 4 -4 4h-134q-10 0 -10 10v23q0 4 2 12l86 254q3 8 12 8h33q11 0 8 -11l-81 -245q-1 -2 0.5 -3.5t3.5 -1.5h80q4 0 4 4v81q0 10 10 10h30q10 0 10 -10v-81q0 -4 4 -4h13
q10 0 10 -10z" />
    <glyph glyph-name="questiondown" unicode="&#xbf;" horiz-adv-x="370" 
d="M238 482q16 -16 16 -40q0 -25 -16 -40.5t-40 -15.5q-25 0 -40.5 15.5t-15.5 40.5q0 24 16 40t40 16t40 -16zM235 290v-59q0 -43 -17 -71t-50 -60q-34 -35 -50.5 -62t-16.5 -71q0 -50 23 -80.5t60 -30.5q40 0 63.5 31t23.5 81v31q0 10 10 10l51 -3q10 0 10 -10v-28
q0 -79 -44 -128t-115 -49q-70 0 -111.5 48t-41.5 128q0 44 11.5 76t27 52t41.5 46q27 26 40 46t13 48v55q0 10 10 10h52q10 0 10 -10z" />
    <glyph glyph-name="Agrave" unicode="&#xc0;" horiz-adv-x="410" 
d="M325 9l-25 124q0 2 -1.5 3t-3.5 1h-181q-2 0 -3.5 -1t-1.5 -3l-25 -124q-1 -9 -11 -9h-51q-5 0 -7.5 3t-1.5 8l150 680q2 9 11 9h60q10 0 11 -9l152 -680v-2q0 -9 -9 -9h-52q-9 0 -11 9zM125 195h158q3 0 3 4l-80 393q-1 3 -2 3t-2 -3l-80 -393q0 -4 3 -4zM228 772
q0 -6 -9 -6h-32q-7 0 -12 7l-70 109q-2 4 -2 6q0 6 8 6h42q7 0 12 -7l61 -109q2 -4 2 -6z" />
    <glyph glyph-name="Aacute" unicode="&#xc1;" horiz-adv-x="410" 
d="M325 9l-25 124q0 2 -1.5 3t-3.5 1h-181q-2 0 -3.5 -1t-1.5 -3l-25 -124q-1 -9 -11 -9h-51q-5 0 -7.5 3t-1.5 8l150 680q2 9 11 9h60q10 0 11 -9l152 -680v-2q0 -9 -9 -9h-52q-9 0 -11 9zM125 195h158q3 0 3 4l-80 393q-1 3 -2 3t-2 -3l-80 -393q0 -4 3 -4zM162 769.5
q-2 3.5 1 8.5l62 109q5 7 12 7h41q6 0 7.5 -3.5t-1.5 -8.5l-70 -109q-5 -7 -12 -7h-32q-6 0 -8 3.5z" />
    <glyph glyph-name="Acircumflex" unicode="&#xc2;" horiz-adv-x="410" 
d="M325 9l-25 124q0 2 -1.5 3t-3.5 1h-181q-2 0 -3.5 -1t-1.5 -3l-25 -124q-1 -9 -11 -9h-51q-5 0 -7.5 3t-1.5 8l150 680q2 9 11 9h60q10 0 11 -9l152 -680v-2q0 -9 -9 -9h-52q-9 0 -11 9zM125 195h158q3 0 3 4l-80 393q-1 3 -2 3t-2 -3l-80 -393q0 -4 3 -4zM94.5 775.5
q-1.5 3.5 1.5 8.5l65 103q5 7 12 7h60q7 0 12 -7l67 -103q2 -4 2 -6q0 -6 -8 -6h-44q-7 0 -12 7l-43 73q-1 2 -3 2t-3 -2l-44 -73q-5 -7 -12 -7h-43q-6 0 -7.5 3.5z" />
    <glyph glyph-name="Atilde" unicode="&#xc3;" horiz-adv-x="410" 
d="M325 9l-25 124q0 2 -1.5 3t-3.5 1h-181q-2 0 -3.5 -1t-1.5 -3l-25 -124q-1 -9 -11 -9h-51q-5 0 -7.5 3t-1.5 8l150 680q2 9 11 9h60q10 0 11 -9l152 -680v-2q0 -9 -9 -9h-52q-9 0 -11 9zM125 195h158q3 0 3 4l-80 393q-1 3 -2 3t-2 -3l-80 -393q0 -4 3 -4zM242 807.5
q-11 5.5 -29 16.5q-4 3 -13 9t-16 8.5t-15 2.5q-14 0 -24.5 -5.5t-20.5 -20.5q-6 -9 -14 -3l-18 13q-8 6 -4 14q27 52 76 52q16 0 29 -6t29 -17q2 -2 11 -8t17.5 -9.5t16.5 -3.5q13 0 23 6t20 22q2 4 6 5t8 -1l18 -12q4 -3 4 -8t-4 -12q-14 -25 -35 -36.5t-40 -11.5
q-14 0 -25 5.5z" />
    <glyph glyph-name="Adieresis" unicode="&#xc4;" horiz-adv-x="410" 
d="M325 9l-25 124q0 2 -1.5 3t-3.5 1h-181q-2 0 -3.5 -1t-1.5 -3l-25 -124q-1 -9 -11 -9h-51q-5 0 -7.5 3t-1.5 8l150 680q2 9 11 9h60q10 0 11 -9l152 -680v-2q0 -9 -9 -9h-52q-9 0 -11 9zM125 195h158q3 0 3 4l-80 393q-1 3 -2 3t-2 -3l-80 -393q0 -4 3 -4zM238.5 808
q-15.5 16 -15.5 40q0 25 15.5 40.5t40.5 15.5q24 0 40 -15.5t16 -40.5q0 -24 -16 -40t-40 -16q-25 0 -40.5 16zM89.5 808q-15.5 16 -15.5 40q0 25 15.5 40.5t40.5 15.5q24 0 40 -15.5t16 -40.5q0 -24 -16 -40t-40 -16q-25 0 -40.5 16z" />
    <glyph glyph-name="Aring" unicode="&#xc5;" horiz-adv-x="410" 
d="M325 9l-25 124q0 2 -1.5 3t-3.5 1h-181q-2 0 -3.5 -1t-1.5 -3l-25 -124q-1 -9 -11 -9h-51q-5 0 -7.5 3t-1.5 8l150 680q2 9 11 9h60q10 0 11 -9l152 -680v-2q0 -9 -9 -9h-52q-9 0 -11 9zM125 195h158q3 0 3 4l-80 393q-1 3 -2 3t-2 -3l-80 -393q0 -4 3 -4zM130 804
q-31 31 -31 77q0 45 31 76.5t75 31.5q45 0 75.5 -31.5t30.5 -76.5q0 -46 -30.5 -77t-75.5 -31q-44 0 -75 31zM249.5 834.5q18.5 18.5 18.5 46.5t-18.5 47t-44.5 19t-44.5 -19t-18.5 -47t18.5 -46.5t44.5 -18.5t44.5 18.5z" />
    <glyph glyph-name="AE" unicode="&#xc6;" horiz-adv-x="699" 
d="M649 638h-232q-4 0 -4 -4v-248q0 -4 4 -4h146q10 0 10 -10v-43q0 -10 -10 -10h-146q-4 0 -4 -4v-249q0 -4 4 -4h232q10 0 10 -10v-42q0 -10 -10 -10h-298q-10 0 -10 10v123q0 4 -4 4h-191q-2 0 -4 -3l-54 -126q-3 -8 -11 -8h-53q-5 0 -7.5 3.5t-0.5 8.5l297 680q3 8 11 8
h325q10 0 10 -10v-42q0 -10 -10 -10zM170 196.5q1 -1.5 3 -1.5h164q4 0 4 4l1 392q0 3 -2 3t-3 -2l-167 -392q-1 -2 0 -3.5z" />
    <glyph glyph-name="Ccedilla" unicode="&#xc7;" horiz-adv-x="446" 
d="M386 509l-52 -3q-10 0 -10 10v25q0 47 -27 76t-72 29q-44 0 -71.5 -29t-27.5 -76v-382q0 -47 27.5 -76t71.5 -29q45 0 72 29t27 76v25q0 10 10 10l52 -3q10 0 10 -10v-16q0 -70 -37.5 -115.5t-101.5 -54.5q-5 -2 -2 -5q41 -44 41 -92q0 -44 -23.5 -63t-57.5 -19
q-16 0 -29 3q-9 2 -8 11l3 22q2 8 10 8q1 -1 4 -1q19 -2 32.5 6t16.5 29q1 4 1 12q0 42 -44 86q-2 2 -5 2q-64 8 -102.5 54t-38.5 117v371q0 78 46.5 125t123.5 47q78 0 124.5 -46.5t46.5 -125.5v-17q0 -10 -10 -10z" />
    <glyph glyph-name="Egrave" unicode="&#xc8;" horiz-adv-x="429" 
d="M379 638h-232q-4 0 -4 -4v-248q0 -4 4 -4h146q10 0 10 -10v-43q0 -10 -10 -10h-146q-4 0 -4 -4v-249q0 -4 4 -4h232q10 0 10 -10v-42q0 -10 -10 -10h-297q-10 0 -10 10v680q0 10 10 10h297q10 0 10 -10v-42q0 -10 -10 -10zM254 772q0 -6 -9 -6h-32q-7 0 -12 7l-70 109
q-2 4 -2 6q0 6 8 6h42q7 0 12 -7l61 -109q2 -4 2 -6z" />
    <glyph glyph-name="Eacute" unicode="&#xc9;" horiz-adv-x="429" 
d="M379 638h-232q-4 0 -4 -4v-248q0 -4 4 -4h146q10 0 10 -10v-43q0 -10 -10 -10h-146q-4 0 -4 -4v-249q0 -4 4 -4h232q10 0 10 -10v-42q0 -10 -10 -10h-297q-10 0 -10 10v680q0 10 10 10h297q10 0 10 -10v-42q0 -10 -10 -10zM188 769.5q-2 3.5 1 8.5l62 109q5 7 12 7h41
q6 0 7.5 -3.5t-1.5 -8.5l-70 -109q-5 -7 -12 -7h-32q-6 0 -8 3.5z" />
    <glyph glyph-name="Ecircumflex" unicode="&#xca;" horiz-adv-x="429" 
d="M379 638h-232q-4 0 -4 -4v-248q0 -4 4 -4h146q10 0 10 -10v-43q0 -10 -10 -10h-146q-4 0 -4 -4v-249q0 -4 4 -4h232q10 0 10 -10v-42q0 -10 -10 -10h-297q-10 0 -10 10v680q0 10 10 10h297q10 0 10 -10v-42q0 -10 -10 -10zM120.5 775.5q-1.5 3.5 1.5 8.5l65 103q5 7 12 7
h60q7 0 12 -7l67 -103q2 -4 2 -6q0 -6 -8 -6h-44q-7 0 -12 7l-43 73q-1 2 -3 2t-3 -2l-44 -73q-5 -7 -12 -7h-43q-6 0 -7.5 3.5z" />
    <glyph glyph-name="Edieresis" unicode="&#xcb;" horiz-adv-x="429" 
d="M379 638h-232q-4 0 -4 -4v-248q0 -4 4 -4h146q10 0 10 -10v-43q0 -10 -10 -10h-146q-4 0 -4 -4v-249q0 -4 4 -4h232q10 0 10 -10v-42q0 -10 -10 -10h-297q-10 0 -10 10v680q0 10 10 10h297q10 0 10 -10v-42q0 -10 -10 -10zM264.5 808q-15.5 16 -15.5 40q0 25 15.5 40.5
t40.5 15.5q24 0 40 -15.5t16 -40.5q0 -24 -16 -40t-40 -16q-25 0 -40.5 16zM115.5 808q-15.5 16 -15.5 40q0 25 15.5 40.5t40.5 15.5q24 0 40 -15.5t16 -40.5q0 -24 -16 -40t-40 -16q-25 0 -40.5 16z" />
    <glyph glyph-name="Igrave" unicode="&#xcc;" horiz-adv-x="215" 
d="M72 10v680q0 10 10 10h51q10 0 10 -10v-680q0 -10 -10 -10h-51q-10 0 -10 10zM131 772q0 -6 -9 -6h-32q-7 0 -12 7l-70 109q-2 4 -2 6q0 6 8 6h42q7 0 12 -7l61 -109q2 -4 2 -6z" />
    <glyph glyph-name="Iacute" unicode="&#xcd;" horiz-adv-x="215" 
d="M72 10v680q0 10 10 10h51q10 0 10 -10v-680q0 -10 -10 -10h-51q-10 0 -10 10zM65 769.5q-2 3.5 1 8.5l62 109q5 7 12 7h41q6 0 7.5 -3.5t-1.5 -8.5l-70 -109q-5 -7 -12 -7h-32q-6 0 -8 3.5z" />
    <glyph glyph-name="Icircumflex" unicode="&#xce;" horiz-adv-x="215" 
d="M72 10v680q0 10 10 10h51q10 0 10 -10v-680q0 -10 -10 -10h-51q-10 0 -10 10zM-2.5 775.5q-1.5 3.5 1.5 8.5l65 103q5 7 12 7h60q7 0 12 -7l67 -103q2 -4 2 -6q0 -6 -8 -6h-44q-7 0 -12 7l-43 73q-1 2 -3 2t-3 -2l-44 -73q-5 -7 -12 -7h-43q-6 0 -7.5 3.5z" />
    <glyph glyph-name="Idieresis" unicode="&#xcf;" horiz-adv-x="215" 
d="M72 10v680q0 10 10 10h51q10 0 10 -10v-680q0 -10 -10 -10h-51q-10 0 -10 10zM141.5 808q-15.5 16 -15.5 40q0 25 15.5 40.5t40.5 15.5q24 0 40 -15.5t16 -40.5q0 -24 -16 -40t-40 -16q-25 0 -40.5 16zM-7.5 808q-15.5 16 -15.5 40q0 25 15.5 40.5t40.5 15.5
q24 0 40 -15.5t16 -40.5q0 -24 -16 -40t-40 -16q-25 0 -40.5 16z" />
    <glyph glyph-name="Eth" unicode="&#xd0;" horiz-adv-x="509" 
d="M402 649.5q46 -50.5 46 -135.5v-328q0 -85 -46 -135.5t-123 -50.5h-154q-10 0 -10 10v329q0 4 -4 4h-29q-10 0 -10 10v26q0 10 10 10h29q4 0 4 4v297q0 10 10 10h154q77 0 123 -50.5zM376 511q0 59 -26 93t-72 34h-88q-4 0 -4 -4v-241q0 -4 4 -4h75q10 0 10 -10v-26
q0 -10 -10 -10h-75q-4 0 -4 -4v-273q0 -4 4 -4l89 1q44 0 70 34t27 92v322z" />
    <glyph glyph-name="Ntilde" unicode="&#xd1;" horiz-adv-x="493" 
d="M362 700h50q10 0 10 -10v-680q0 -10 -10 -10h-59q-8 0 -11 8l-195 517q-1 3 -3 2.5t-2 -3.5l1 -514q0 -10 -10 -10h-51q-10 0 -10 10v680q0 10 10 10h58q8 0 11 -8l196 -518q1 -3 3 -2.5t2 3.5v515q0 10 10 10zM284 814.5q-11 5.5 -29 16.5q-4 3 -13 9t-16 8.5t-15 2.5
q-14 0 -24.5 -5.5t-20.5 -20.5q-6 -9 -14 -3l-18 13q-8 6 -4 14q27 52 76 52q16 0 29 -6t29 -17q2 -2 11 -8t17.5 -9.5t16.5 -3.5q13 0 23 6t20 22q2 4 6 5t8 -1l18 -12q4 -3 4 -8t-4 -12q-14 -25 -35 -36.5t-40 -11.5q-14 0 -25 5.5z" />
    <glyph glyph-name="Ograve" unicode="&#xd2;" horiz-adv-x="456" 
d="M102.5 40q-47.5 48 -47.5 127v366q0 79 47.5 127t124.5 48q78 0 126 -48t48 -127v-366q0 -78 -48 -126.5t-126 -48.5q-77 0 -124.5 48zM301.5 84.5q28.5 30.5 28.5 78.5v373q0 49 -28.5 79.5t-74.5 30.5q-45 0 -73 -30.5t-28 -79.5v-373q0 -48 28 -78.5t73 -30.5
q46 0 74.5 30.5zM250 771q0 -6 -9 -6h-32q-7 0 -12 7l-70 109q-2 4 -2 6q0 6 8 6h42q7 0 12 -7l61 -109q2 -4 2 -6z" />
    <glyph glyph-name="Oacute" unicode="&#xd3;" horiz-adv-x="456" 
d="M102.5 40q-47.5 48 -47.5 127v366q0 79 47.5 127t124.5 48q78 0 126 -48t48 -127v-366q0 -78 -48 -126.5t-126 -48.5q-77 0 -124.5 48zM301.5 84.5q28.5 30.5 28.5 78.5v373q0 49 -28.5 79.5t-74.5 30.5q-45 0 -73 -30.5t-28 -79.5v-373q0 -48 28 -78.5t73 -30.5
q46 0 74.5 30.5zM185 768.5q-2 3.5 1 8.5l62 109q5 7 12 7h41q6 0 7.5 -3.5t-1.5 -8.5l-70 -109q-5 -7 -12 -7h-32q-6 0 -8 3.5z" />
    <glyph glyph-name="Ocircumflex" unicode="&#xd4;" horiz-adv-x="456" 
d="M102.5 40q-47.5 48 -47.5 127v366q0 79 47.5 127t124.5 48q78 0 126 -48t48 -127v-366q0 -78 -48 -126.5t-126 -48.5q-77 0 -124.5 48zM301.5 84.5q28.5 30.5 28.5 78.5v373q0 49 -28.5 79.5t-74.5 30.5q-45 0 -73 -30.5t-28 -79.5v-373q0 -48 28 -78.5t73 -30.5
q46 0 74.5 30.5zM117.5 774.5q-1.5 3.5 1.5 8.5l65 103q5 7 12 7h60q7 0 12 -7l67 -103q2 -4 2 -6q0 -6 -8 -6h-44q-7 0 -12 7l-43 73q-1 2 -3 2t-3 -2l-44 -73q-5 -7 -12 -7h-43q-6 0 -7.5 3.5z" />
    <glyph glyph-name="Otilde" unicode="&#xd5;" horiz-adv-x="456" 
d="M102.5 40q-47.5 48 -47.5 127v366q0 79 47.5 127t124.5 48q78 0 126 -48t48 -127v-366q0 -78 -48 -126.5t-126 -48.5q-77 0 -124.5 48zM301.5 84.5q28.5 30.5 28.5 78.5v373q0 49 -28.5 79.5t-74.5 30.5q-45 0 -73 -30.5t-28 -79.5v-373q0 -48 28 -78.5t73 -30.5
q46 0 74.5 30.5zM265 806.5q-11 5.5 -29 16.5q-4 3 -13 9t-16 8.5t-15 2.5q-14 0 -24.5 -5.5t-20.5 -20.5q-6 -9 -14 -3l-18 13q-8 6 -4 14q27 52 76 52q16 0 29 -6t29 -17q2 -2 11 -8t17.5 -9.5t16.5 -3.5q13 0 23 6t20 22q2 4 6 5t8 -1l18 -12q4 -3 4 -8t-4 -12
q-14 -25 -35 -36.5t-40 -11.5q-14 0 -25 5.5z" />
    <glyph glyph-name="Odieresis" unicode="&#xd6;" horiz-adv-x="456" 
d="M102.5 40q-47.5 48 -47.5 127v366q0 79 47.5 127t124.5 48q78 0 126 -48t48 -127v-366q0 -78 -48 -126.5t-126 -48.5q-77 0 -124.5 48zM301.5 84.5q28.5 30.5 28.5 78.5v373q0 49 -28.5 79.5t-74.5 30.5q-45 0 -73 -30.5t-28 -79.5v-373q0 -48 28 -78.5t73 -30.5
q46 0 74.5 30.5zM261.5 807q-15.5 16 -15.5 40q0 25 15.5 40.5t40.5 15.5q24 0 40 -15.5t16 -40.5q0 -24 -16 -40t-40 -16q-25 0 -40.5 16zM112.5 807q-15.5 16 -15.5 40q0 25 15.5 40.5t40.5 15.5q24 0 40 -15.5t16 -40.5q0 -24 -16 -40t-40 -16q-25 0 -40.5 16z" />
    <glyph glyph-name="multiply" unicode="&#xd7;" horiz-adv-x="370" 
d="M334 425q0 -4 -3 -7l-104 -104q-3 -3 0 -6l104 -104q3 -3 3 -7t-3 -7l-25 -25q-3 -3 -7 -3t-7 3l-104 104q-3 3 -6 0l-104 -104q-3 -3 -7 -3t-7 3l-25 25q-3 3 -3 7t3 7l104 104q3 3 0 6l-104 104q-3 3 -3 7t3 7l25 25q3 3 7 3t7 -3l104 -104q3 -3 6 0l104 104q3 3 7 3
t7 -3l25 -25q3 -3 3 -7z" />
    <glyph glyph-name="Oslash" unicode="&#xd8;" horiz-adv-x="524" 
d="M406 701l-29 -67q-2 -3 1 -6q24 -39 24 -95v-366q0 -78 -48 -126.5t-126 -48.5q-61 0 -104 31q-4 3 -6 -1l-21 -50q-3 -10 -13 -5l-29 15q-8 5 -5 13l30 71q2 3 -1 6q-23 40 -23 95v366q0 79 47.5 127t124.5 48q63 0 106 -32q4 -3 6 1l21 50q2 5 5.5 6.5t7.5 -1.5l28 -17
q7 -4 4 -14zM127 189q0 -3 2 -3t3 2l177 416q1 3 -1 5q-31 37 -80 37q-45 0 -73 -30.5t-28 -79.5v-347zM331 512q0 3 -2 3t-3 -2l-177 -417q-1 -2 1 -6q28 -36 78 -36q46 0 74.5 30.5t28.5 78.5v349z" />
    <glyph glyph-name="Ugrave" unicode="&#xd9;" horiz-adv-x="476" 
d="M113 45q-47 53 -47 140v505q0 10 10 10h51q10 0 10 -10v-513q0 -55 27.5 -89t72.5 -34q46 0 74 34t28 89v513q0 10 10 10h51q10 0 10 -10v-505q0 -87 -47.5 -140t-125.5 -53q-77 0 -124 53zM261 772q0 -6 -9 -6h-32q-7 0 -12 7l-70 109q-2 4 -2 6q0 6 8 6h42q7 0 12 -7
l61 -109q2 -4 2 -6z" />
    <glyph glyph-name="Uacute" unicode="&#xda;" horiz-adv-x="476" 
d="M113 45q-47 53 -47 140v505q0 10 10 10h51q10 0 10 -10v-513q0 -55 27.5 -89t72.5 -34q46 0 74 34t28 89v513q0 10 10 10h51q10 0 10 -10v-505q0 -87 -47.5 -140t-125.5 -53q-77 0 -124 53zM195 769.5q-2 3.5 1 8.5l62 109q5 7 12 7h41q6 0 7.5 -3.5t-1.5 -8.5l-70 -109
q-5 -7 -12 -7h-32q-6 0 -8 3.5z" />
    <glyph glyph-name="Ucircumflex" unicode="&#xdb;" horiz-adv-x="476" 
d="M113 45q-47 53 -47 140v505q0 10 10 10h51q10 0 10 -10v-513q0 -55 27.5 -89t72.5 -34q46 0 74 34t28 89v513q0 10 10 10h51q10 0 10 -10v-505q0 -87 -47.5 -140t-125.5 -53q-77 0 -124 53zM127.5 775.5q-1.5 3.5 1.5 8.5l65 103q5 7 12 7h60q7 0 12 -7l67 -103
q2 -4 2 -6q0 -6 -8 -6h-44q-7 0 -12 7l-43 73q-1 2 -3 2t-3 -2l-44 -73q-5 -7 -12 -7h-43q-6 0 -7.5 3.5z" />
    <glyph glyph-name="Udieresis" unicode="&#xdc;" horiz-adv-x="476" 
d="M113 45q-47 53 -47 140v505q0 10 10 10h51q10 0 10 -10v-513q0 -55 27.5 -89t72.5 -34q46 0 74 34t28 89v513q0 10 10 10h51q10 0 10 -10v-505q0 -87 -47.5 -140t-125.5 -53q-77 0 -124 53zM271.5 808q-15.5 16 -15.5 40q0 25 15.5 40.5t40.5 15.5q24 0 40 -15.5
t16 -40.5q0 -24 -16 -40t-40 -16q-25 0 -40.5 16zM122.5 808q-15.5 16 -15.5 40q0 25 15.5 40.5t40.5 15.5q24 0 40 -15.5t16 -40.5q0 -24 -16 -40t-40 -16q-25 0 -40.5 16z" />
    <glyph glyph-name="Yacute" unicode="&#xdd;" 
d="M177 11v299q0 4 -1 5l-139 373l-1 4q0 8 9 8h54q9 0 12 -8l98 -293q1 -2 3 -2t3 2l98 293q3 8 12 8h54q5 0 7.5 -3.5t0.5 -8.5l-138 -373q-1 -1 -1 -5v-299q0 -10 -10 -10h-51q-10 0 -10 10zM170 769.5q-2 3.5 1 8.5l62 109q5 7 12 7h41q6 0 7.5 -3.5t-1.5 -8.5l-70 -109
q-5 -7 -12 -7h-32q-6 0 -8 3.5z" />
    <glyph glyph-name="Thorn" unicode="&#xde;" horiz-adv-x="442" 
d="M364 490.5q45 -53.5 45 -140.5q0 -86 -44 -138.5t-116 -52.5h-103q-4 0 -4 -4v-145q0 -10 -10 -10h-51q-10 0 -10 10v680q0 10 10 10h51q10 0 10 -10v-142q0 -4 4 -4h100q73 0 118 -53.5zM310 252.5q28 35.5 28 95.5q0 61 -28 97.5t-74 36.5h-90q-4 0 -4 -4v-257
q0 -4 4 -4h90q46 0 74 35.5z" />
    <glyph glyph-name="germandbls" unicode="&#xdf;" horiz-adv-x="430" 
d="M61 10v500q0 94 40 146.5t112 52.5q75 0 118 -51t43 -138q0 -54 -18.5 -91.5t-50.5 -55.5q-5 -2 0 -5q36 -20 56 -65.5t20 -108.5q0 -91 -45.5 -142.5t-126.5 -51.5h-29q-10 0 -10 10v41q0 10 10 10l30 1q48 1 74.5 37t26.5 102t-23 102t-65 38h-30q-10 0 -10 10v38
q0 10 10 10h30q38 0 59.5 31t21.5 86q0 61 -24.5 96t-65.5 35q-39 0 -60.5 -33.5t-21.5 -94.5v-509q0 -10 -10 -10h-51q-10 0 -10 10z" />
    <glyph glyph-name="agrave" unicode="&#xe0;" horiz-adv-x="411" 
d="M321 468.5q42 -45.5 42 -121.5v-337q0 -10 -10 -10h-51q-10 0 -10 10v30q0 2 -1.5 2.5t-3.5 -1.5q-37 -49 -111 -49q-55 0 -95.5 31.5t-40.5 111.5q0 85 49 124.5t129 39.5h70q4 0 4 4v39q0 50 -23 80t-62 30q-30 0 -51.5 -20t-25.5 -51q0 -10 -10 -10l-56 1q-5 0 -7.5 3
t-1.5 7q5 59 48 95.5t106 36.5q70 0 112 -45.5zM262 80.5q30 26.5 30 73.5v84q0 4 -4 4h-71q-48 0 -76 -25.5t-28 -75.5q0 -44 21.5 -65.5t56.5 -21.5q41 0 71 26.5zM229 578q0 -6 -9 -6h-32q-7 0 -12 7l-70 109q-2 4 -2 6q0 6 8 6h42q7 0 12 -7l61 -109q2 -4 2 -6z" />
    <glyph glyph-name="aacute" unicode="&#xe1;" horiz-adv-x="411" 
d="M321 468.5q42 -45.5 42 -121.5v-337q0 -10 -10 -10h-51q-10 0 -10 10v30q0 2 -1.5 2.5t-3.5 -1.5q-37 -49 -111 -49q-55 0 -95.5 31.5t-40.5 111.5q0 85 49 124.5t129 39.5h70q4 0 4 4v39q0 50 -23 80t-62 30q-30 0 -51.5 -20t-25.5 -51q0 -10 -10 -10l-56 1q-5 0 -7.5 3
t-1.5 7q5 59 48 95.5t106 36.5q70 0 112 -45.5zM262 80.5q30 26.5 30 73.5v84q0 4 -4 4h-71q-48 0 -76 -25.5t-28 -75.5q0 -44 21.5 -65.5t56.5 -21.5q41 0 71 26.5zM163 575.5q-2 3.5 1 8.5l62 109q5 7 12 7h41q6 0 7.5 -3.5t-1.5 -8.5l-70 -109q-5 -7 -12 -7h-32
q-6 0 -8 3.5z" />
    <glyph glyph-name="acircumflex" unicode="&#xe2;" horiz-adv-x="411" 
d="M321 468.5q42 -45.5 42 -121.5v-337q0 -10 -10 -10h-51q-10 0 -10 10v30q0 2 -1.5 2.5t-3.5 -1.5q-37 -49 -111 -49q-55 0 -95.5 31.5t-40.5 111.5q0 85 49 124.5t129 39.5h70q4 0 4 4v39q0 50 -23 80t-62 30q-30 0 -51.5 -20t-25.5 -51q0 -10 -10 -10l-56 1q-5 0 -7.5 3
t-1.5 7q5 59 48 95.5t106 36.5q70 0 112 -45.5zM262 80.5q30 26.5 30 73.5v84q0 4 -4 4h-71q-48 0 -76 -25.5t-28 -75.5q0 -44 21.5 -65.5t56.5 -21.5q41 0 71 26.5zM95.5 581.5q-1.5 3.5 1.5 8.5l65 103q5 7 12 7h60q7 0 12 -7l67 -103q2 -4 2 -6q0 -6 -8 -6h-44
q-7 0 -12 7l-43 73q-1 2 -3 2t-3 -2l-44 -73q-5 -7 -12 -7h-43q-6 0 -7.5 3.5z" />
    <glyph glyph-name="atilde" unicode="&#xe3;" horiz-adv-x="411" 
d="M321 468.5q42 -45.5 42 -121.5v-337q0 -10 -10 -10h-51q-10 0 -10 10v30q0 2 -1.5 2.5t-3.5 -1.5q-37 -49 -111 -49q-55 0 -95.5 31.5t-40.5 111.5q0 85 49 124.5t129 39.5h70q4 0 4 4v39q0 50 -23 80t-62 30q-30 0 -51.5 -20t-25.5 -51q0 -10 -10 -10l-56 1q-5 0 -7.5 3
t-1.5 7q5 59 48 95.5t106 36.5q70 0 112 -45.5zM262 80.5q30 26.5 30 73.5v84q0 4 -4 4h-71q-48 0 -76 -25.5t-28 -75.5q0 -44 21.5 -65.5t56.5 -21.5q41 0 71 26.5zM243 613.5q-11 5.5 -29 16.5q-4 3 -13 9t-16 8.5t-15 2.5q-14 0 -24.5 -5.5t-20.5 -20.5q-6 -9 -14 -3
l-18 13q-8 6 -4 14q27 52 76 52q16 0 29 -6t29 -17q2 -2 11 -8t17.5 -9.5t16.5 -3.5q13 0 23 6t20 22q2 4 6 5t8 -1l18 -12q4 -3 4 -8t-4 -12q-14 -25 -35 -36.5t-40 -11.5q-14 0 -25 5.5z" />
    <glyph glyph-name="adieresis" unicode="&#xe4;" horiz-adv-x="411" 
d="M321 468.5q42 -45.5 42 -121.5v-337q0 -10 -10 -10h-51q-10 0 -10 10v30q0 2 -1.5 2.5t-3.5 -1.5q-37 -49 -111 -49q-55 0 -95.5 31.5t-40.5 111.5q0 85 49 124.5t129 39.5h70q4 0 4 4v39q0 50 -23 80t-62 30q-30 0 -51.5 -20t-25.5 -51q0 -10 -10 -10l-56 1q-5 0 -7.5 3
t-1.5 7q5 59 48 95.5t106 36.5q70 0 112 -45.5zM262 80.5q30 26.5 30 73.5v84q0 4 -4 4h-71q-48 0 -76 -25.5t-28 -75.5q0 -44 21.5 -65.5t56.5 -21.5q41 0 71 26.5zM240.5 614q-15.5 16 -15.5 40q0 25 15.5 40.5t40.5 15.5q24 0 40 -15.5t16 -40.5q0 -24 -16 -40t-40 -16
q-25 0 -40.5 16zM91.5 614q-15.5 16 -15.5 40q0 25 15.5 40.5t40.5 15.5q24 0 40 -15.5t16 -40.5q0 -24 -16 -40t-40 -16q-25 0 -40.5 16z" />
    <glyph glyph-name="aring" unicode="&#xe5;" horiz-adv-x="411" 
d="M321 468.5q42 -45.5 42 -121.5v-337q0 -10 -10 -10h-51q-10 0 -10 10v30q0 2 -1.5 2.5t-3.5 -1.5q-37 -49 -111 -49q-55 0 -95.5 31.5t-40.5 111.5q0 85 49 124.5t129 39.5h70q4 0 4 4v39q0 50 -23 80t-62 30q-30 0 -51.5 -20t-25.5 -51q0 -10 -10 -10l-56 1q-5 0 -7.5 3
t-1.5 7q5 59 48 95.5t106 36.5q70 0 112 -45.5zM262 80.5q30 26.5 30 73.5v84q0 4 -4 4h-71q-48 0 -76 -25.5t-28 -75.5q0 -44 21.5 -65.5t56.5 -21.5q41 0 71 26.5zM131 610q-31 31 -31 77q0 45 31 76.5t75 31.5q45 0 75.5 -31.5t30.5 -76.5q0 -46 -30.5 -77t-75.5 -31
q-44 0 -75 31zM250.5 640.5q18.5 18.5 18.5 46.5t-18.5 47t-44.5 19t-44.5 -19t-18.5 -47t18.5 -46.5t44.5 -18.5t44.5 18.5z" />
    <glyph glyph-name="ae" unicode="&#xe6;" horiz-adv-x="652" 
d="M79 22.5q-39 30.5 -39 111.5q0 84 45 119.5t125 35.5h76q4 0 4 4v49q0 51 -22 80.5t-63 29.5q-32 0 -56 -19.5t-28 -51.5q-1 -10 -11 -10l-51 3q-5 0 -7.5 3t-1.5 7q4 59 48 94.5t106 35.5q80 0 118 -68q3 -4 6 0q18 32 50.5 50t74.5 18q69 0 112 -42.5t43 -110.5v-122
q0 -10 -10 -10h-229q-4 0 -4 -4v-76q0 -39 24 -65t62 -26q31 0 53.5 18.5t30.5 48.5q3 9 11 8l50 -5q11 -2 9 -11q-9 -58 -48.5 -91.5t-100.5 -33.5q-48 0 -83 21.5t-47 53.5q-1 2 -2 3t-2 -1q-13 -35 -54 -56t-94 -21q-56 0 -95 30.5zM369 289h164q4 0 4 4v63
q0 43 -24 69.5t-62 26.5t-62 -26.5t-24 -69.5v-63q0 -4 4 -4zM260.5 75q29.5 25 29.5 70v79q0 4 -4 4h-70q-48 0 -76 -23t-28 -69q0 -43 22 -64.5t57 -21.5q40 0 69.5 25z" />
    <glyph glyph-name="ccedilla" unicode="&#xe7;" horiz-adv-x="402" 
d="M354 355l-51 -2q-10 0 -10 10v7q0 33 -24.5 57.5t-62.5 24.5t-61.5 -26.5t-23.5 -69.5v-206q0 -43 23.5 -69.5t61.5 -26.5t62.5 24.5t24.5 57.5v7q0 10 10 10l51 -1q10 0 10 -10v-11q0 -52 -34.5 -89.5t-91.5 -46.5q-5 -2 -2 -5q41 -42 41 -93q0 -44 -23 -62.5t-57 -18.5
q-16 0 -30 3q-8 1 -7 11l3 22q2 8 10 8q1 -1 4 -1q22 -3 36 8t14 39q0 38 -44 86q-2 2 -5 2q-59 7 -93.5 48t-34.5 103v216q0 68 43 110.5t113 42.5q47 0 83 -19t55.5 -50.5t19.5 -69.5v-10q0 -10 -10 -10z" />
    <glyph glyph-name="egrave" unicode="&#xe8;" horiz-adv-x="408" 
d="M353 226h-228q-4 0 -4 -4v-73q0 -42 23.5 -68.5t61.5 -26.5q32 0 54.5 19.5t29.5 50.5q3 9 11 9l50 -2q4 0 7 -3t2 -8q-8 -59 -48.5 -93.5t-105.5 -34.5q-71 0 -113.5 42t-42.5 111v216q0 68 42.5 110.5t113.5 42.5q72 0 114.5 -42.5t42.5 -110.5v-125q0 -10 -10 -10z
M144.5 425.5q-23.5 -26.5 -23.5 -69.5v-67q0 -4 4 -4h164q4 0 4 4v67q0 43 -24 69.5t-63 26.5q-38 0 -61.5 -26.5zM227 578q0 -6 -9 -6h-32q-7 0 -12 7l-70 109q-2 4 -2 6q0 6 8 6h42q7 0 12 -7l61 -109q2 -4 2 -6z" />
    <glyph glyph-name="eacute" unicode="&#xe9;" horiz-adv-x="408" 
d="M353 226h-228q-4 0 -4 -4v-73q0 -42 23.5 -68.5t61.5 -26.5q32 0 54.5 19.5t29.5 50.5q3 9 11 9l50 -2q4 0 7 -3t2 -8q-8 -59 -48.5 -93.5t-105.5 -34.5q-71 0 -113.5 42t-42.5 111v216q0 68 42.5 110.5t113.5 42.5q72 0 114.5 -42.5t42.5 -110.5v-125q0 -10 -10 -10z
M144.5 425.5q-23.5 -26.5 -23.5 -69.5v-67q0 -4 4 -4h164q4 0 4 4v67q0 43 -24 69.5t-63 26.5q-38 0 -61.5 -26.5zM162 575.5q-2 3.5 1 8.5l62 109q5 7 12 7h41q6 0 7.5 -3.5t-1.5 -8.5l-70 -109q-5 -7 -12 -7h-32q-6 0 -8 3.5z" />
    <glyph glyph-name="ecircumflex" unicode="&#xea;" horiz-adv-x="408" 
d="M353 226h-228q-4 0 -4 -4v-73q0 -42 23.5 -68.5t61.5 -26.5q32 0 54.5 19.5t29.5 50.5q3 9 11 9l50 -2q4 0 7 -3t2 -8q-8 -59 -48.5 -93.5t-105.5 -34.5q-71 0 -113.5 42t-42.5 111v216q0 68 42.5 110.5t113.5 42.5q72 0 114.5 -42.5t42.5 -110.5v-125q0 -10 -10 -10z
M144.5 425.5q-23.5 -26.5 -23.5 -69.5v-67q0 -4 4 -4h164q4 0 4 4v67q0 43 -24 69.5t-63 26.5q-38 0 -61.5 -26.5zM94.5 581.5q-1.5 3.5 1.5 8.5l65 103q5 7 12 7h60q7 0 12 -7l67 -103q2 -4 2 -6q0 -6 -8 -6h-44q-7 0 -12 7l-43 73q-1 2 -3 2t-3 -2l-44 -73q-5 -7 -12 -7
h-43q-6 0 -7.5 3.5z" />
    <glyph glyph-name="edieresis" unicode="&#xeb;" horiz-adv-x="408" 
d="M353 226h-228q-4 0 -4 -4v-73q0 -42 23.5 -68.5t61.5 -26.5q32 0 54.5 19.5t29.5 50.5q3 9 11 9l50 -2q4 0 7 -3t2 -8q-8 -59 -48.5 -93.5t-105.5 -34.5q-71 0 -113.5 42t-42.5 111v216q0 68 42.5 110.5t113.5 42.5q72 0 114.5 -42.5t42.5 -110.5v-125q0 -10 -10 -10z
M144.5 425.5q-23.5 -26.5 -23.5 -69.5v-67q0 -4 4 -4h164q4 0 4 4v67q0 43 -24 69.5t-63 26.5q-38 0 -61.5 -26.5zM238.5 614q-15.5 16 -15.5 40q0 25 15.5 40.5t40.5 15.5q24 0 40 -15.5t16 -40.5q0 -24 -16 -40t-40 -16q-25 0 -40.5 16zM89.5 614q-15.5 16 -15.5 40
q0 25 15.5 40.5t40.5 15.5q24 0 40 -15.5t16 -40.5q0 -24 -16 -40t-40 -16q-25 0 -40.5 16z" />
    <glyph glyph-name="igrave" unicode="&#xec;" horiz-adv-x="169" 
d="M49 10v486q0 10 10 10h51q10 0 10 -10v-486q0 -10 -10 -10h-51q-10 0 -10 10zM108 578q0 -6 -9 -6h-32q-7 0 -12 7l-70 109q-2 4 -2 6q0 6 8 6h42q7 0 12 -7l61 -109q2 -4 2 -6z" />
    <glyph glyph-name="iacute" unicode="&#xed;" horiz-adv-x="169" 
d="M49 10v486q0 10 10 10h51q10 0 10 -10v-486q0 -10 -10 -10h-51q-10 0 -10 10zM42 575.5q-2 3.5 1 8.5l62 109q5 7 12 7h41q6 0 7.5 -3.5t-1.5 -8.5l-70 -109q-5 -7 -12 -7h-32q-6 0 -8 3.5z" />
    <glyph glyph-name="icircumflex" unicode="&#xee;" horiz-adv-x="169" 
d="M49 10v486q0 10 10 10h51q10 0 10 -10v-486q0 -10 -10 -10h-51q-10 0 -10 10zM-25.5 581.5q-1.5 3.5 1.5 8.5l65 103q5 7 12 7h60q7 0 12 -7l67 -103q2 -4 2 -6q0 -6 -8 -6h-44q-7 0 -12 7l-43 73q-1 2 -3 2t-3 -2l-44 -73q-5 -7 -12 -7h-43q-6 0 -7.5 3.5z" />
    <glyph glyph-name="idieresis" unicode="&#xef;" horiz-adv-x="169" 
d="M49 10v486q0 10 10 10h51q10 0 10 -10v-486q0 -10 -10 -10h-51q-10 0 -10 10zM118.5 614q-15.5 16 -15.5 40q0 25 15.5 40.5t40.5 15.5q24 0 40 -15.5t16 -40.5q0 -24 -16 -40t-40 -16q-25 0 -40.5 16zM-30.5 614q-15.5 16 -15.5 40q0 25 15.5 40.5t40.5 15.5
q24 0 40 -15.5t16 -40.5q0 -24 -16 -40t-40 -16q-25 0 -40.5 16z" />
    <glyph glyph-name="eth" unicode="&#xf0;" horiz-adv-x="432" 
d="M380 627q0 -6 -7 -9l-69 -20q-3 -2 -2 -5q60 -103 63 -244v-204q0 -69 -43 -111t-115 -42t-114.5 42t-42.5 111v204q0 67 41.5 110t105.5 43q53 0 84 -34q4 -3 4 2q-10 53 -40 107q-2 4 -5 2l-74 -21l-4 -1q-6 0 -9 8l-4 16l-1 4q0 6 8 9l61 18q5 2 2 5q-25 37 -56 71
q-3 3 -3 6q0 6 8 6h47q6 0 12 -6q35 -39 49 -61q2 -4 5 -2l82 24l4 1q5 0 8 -8l5 -18v-3zM269.5 413.5q-24.5 26.5 -62.5 26.5t-62 -26.5t-24 -69.5v-194q0 -43 24 -69.5t62 -26.5t62.5 26.5t24.5 69.5v194q0 43 -24.5 69.5z" />
    <glyph glyph-name="ntilde" unicode="&#xf1;" 
d="M163 644.5q-9 -5.5 -18 -19.5q-6 -9 -14 -3l-15 12q-7 5 -4 13q24 53 67 53q14 0 25.5 -6t25.5 -17q3 -2 10.5 -8.5t15 -9.5t14.5 -3q11 0 20 6t17 21q2 5 6 6t8 -2l15 -11q7 -4 4 -13q-13 -29 -32.5 -42t-38.5 -13q-12 0 -21.5 5t-25.5 17q-4 3 -11.5 9t-13.5 8.5
t-13 2.5q-12 0 -21 -5.5zM335.5 471q33.5 -42 33.5 -117v-344q0 -10 -10 -10h-51q-10 0 -10 10v338q0 49 -21.5 76t-59.5 27q-40 0 -62.5 -29t-22.5 -79v-333q0 -10 -10 -10h-51q-10 0 -10 10v486q0 10 10 10h51q10 0 10 -10v-32q0 -2 2 -3t3 2q18 25 45.5 37.5t58.5 12.5
q61 0 94.5 -42z" />
    <glyph glyph-name="ograve" unicode="&#xf2;" horiz-adv-x="414" 
d="M92.5 34q-42.5 42 -42.5 111v215q0 68 43 111t114 43q72 0 115 -43t43 -111v-215q0 -69 -43 -111t-115 -42t-114.5 42zM269.5 81q24.5 26 24.5 69v206q0 43 -24.5 69.5t-62.5 26.5t-62 -26.5t-24 -69.5v-206q0 -43 24 -69t62 -26t62.5 26zM230 578q0 -6 -9 -6h-32
q-7 0 -12 7l-70 109q-2 4 -2 6q0 6 8 6h42q7 0 12 -7l61 -109q2 -4 2 -6z" />
    <glyph glyph-name="oacute" unicode="&#xf3;" horiz-adv-x="414" 
d="M92.5 34q-42.5 42 -42.5 111v215q0 68 43 111t114 43q72 0 115 -43t43 -111v-215q0 -69 -43 -111t-115 -42t-114.5 42zM269.5 81q24.5 26 24.5 69v206q0 43 -24.5 69.5t-62.5 26.5t-62 -26.5t-24 -69.5v-206q0 -43 24 -69t62 -26t62.5 26zM165 575.5q-2 3.5 1 8.5l62 109
q5 7 12 7h41q6 0 7.5 -3.5t-1.5 -8.5l-70 -109q-5 -7 -12 -7h-32q-6 0 -8 3.5z" />
    <glyph glyph-name="ocircumflex" unicode="&#xf4;" horiz-adv-x="414" 
d="M92.5 34q-42.5 42 -42.5 111v215q0 68 43 111t114 43q72 0 115 -43t43 -111v-215q0 -69 -43 -111t-115 -42t-114.5 42zM269.5 81q24.5 26 24.5 69v206q0 43 -24.5 69.5t-62.5 26.5t-62 -26.5t-24 -69.5v-206q0 -43 24 -69t62 -26t62.5 26zM97.5 581.5q-1.5 3.5 1.5 8.5
l65 103q5 7 12 7h60q7 0 12 -7l67 -103q2 -4 2 -6q0 -6 -8 -6h-44q-7 0 -12 7l-43 73q-1 2 -3 2t-3 -2l-44 -73q-5 -7 -12 -7h-43q-6 0 -7.5 3.5z" />
    <glyph glyph-name="otilde" unicode="&#xf5;" horiz-adv-x="414" 
d="M92.5 34q-42.5 42 -42.5 111v215q0 68 43 111t114 43q72 0 115 -43t43 -111v-215q0 -69 -43 -111t-115 -42t-114.5 42zM269.5 81q24.5 26 24.5 69v206q0 43 -24.5 69.5t-62.5 26.5t-62 -26.5t-24 -69.5v-206q0 -43 24 -69t62 -26t62.5 26zM245 613.5q-11 5.5 -29 16.5
q-4 3 -13 9t-16 8.5t-15 2.5q-14 0 -24.5 -5.5t-20.5 -20.5q-6 -9 -14 -3l-18 13q-8 6 -4 14q27 52 76 52q16 0 29 -6t29 -17q2 -2 11 -8t17.5 -9.5t16.5 -3.5q13 0 23 6t20 22q2 4 6 5t8 -1l18 -12q4 -3 4 -8t-4 -12q-14 -25 -35 -36.5t-40 -11.5q-14 0 -25 5.5z" />
    <glyph glyph-name="odieresis" unicode="&#xf6;" horiz-adv-x="414" 
d="M92.5 34q-42.5 42 -42.5 111v215q0 68 43 111t114 43q72 0 115 -43t43 -111v-215q0 -69 -43 -111t-115 -42t-114.5 42zM269.5 81q24.5 26 24.5 69v206q0 43 -24.5 69.5t-62.5 26.5t-62 -26.5t-24 -69.5v-206q0 -43 24 -69t62 -26t62.5 26zM241.5 614q-15.5 16 -15.5 40
q0 25 15.5 40.5t40.5 15.5q24 0 40 -15.5t16 -40.5q0 -24 -16 -40t-40 -16q-25 0 -40.5 16zM92.5 614q-15.5 16 -15.5 40q0 25 15.5 40.5t40.5 15.5q24 0 40 -15.5t16 -40.5q0 -24 -16 -40t-40 -16q-25 0 -40.5 16z" />
    <glyph glyph-name="divide" unicode="&#xf7;" horiz-adv-x="442" 
d="M183 441q-15 15 -15 37t15.5 37t36.5 15q22 0 37.5 -15t15.5 -37t-15.5 -37t-37.5 -15t-37 15zM32 308v35q0 10 10 10h358q10 0 10 -10v-35q0 -10 -10 -10h-358q-10 0 -10 10zM183 138q-15 15 -15 37q0 21 15.5 36.5t36.5 15.5q22 0 37.5 -15.5t15.5 -36.5
q0 -22 -15.5 -37t-37.5 -15t-37 15z" />
    <glyph glyph-name="oslash" unicode="&#xf8;" horiz-adv-x="430" 
d="M365 522l-28 -62q-1 -2 1 -6q28 -39 28 -94v-215q0 -69 -42.5 -111t-114.5 -42q-41 0 -71 13q-5 2 -6 -2l-20 -45q-4 -9 -13 -5l-35 19q-8 5 -4 14l25 54q1 3 -1 5q-33 39 -33 100v215q0 68 43.5 111t114.5 43q44 0 75 -16q5 -2 6 2l23 51q5 11 13 5l35 -20q8 -5 4 -14z
M123 138q0 -3 2 -2.5t3 2.5l132 294q1 3 -2 5q-20 15 -49 15q-38 0 -62.5 -26.5t-24.5 -69.5v-206q0 -8 1 -12zM293 357q-2 0 -3 -2l-126 -284q-1 -4 1 -5q20 -11 44 -11q38 0 62 26t24 69v204q0 3 -2 3z" />
    <glyph glyph-name="ugrave" unicode="&#xf9;" 
d="M302 506h51q10 0 10 -10v-486q0 -10 -10 -10h-51q-10 0 -10 10v34q0 3 -1.5 3t-3.5 -2q-31 -52 -100 -52q-60 0 -95.5 36.5t-35.5 110.5v356q0 10 10 10h51q10 0 10 -10v-340q0 -50 20.5 -75.5t59.5 -25.5q40 0 62.5 29t22.5 79v333q0 10 10 10zM232 578q0 -6 -9 -6h-32
q-7 0 -12 7l-70 109q-2 4 -2 6q0 6 8 6h42q7 0 12 -7l61 -109q2 -4 2 -6z" />
    <glyph glyph-name="uacute" unicode="&#xfa;" 
d="M302 506h51q10 0 10 -10v-486q0 -10 -10 -10h-51q-10 0 -10 10v34q0 3 -1.5 3t-3.5 -2q-31 -52 -100 -52q-60 0 -95.5 36.5t-35.5 110.5v356q0 10 10 10h51q10 0 10 -10v-340q0 -50 20.5 -75.5t59.5 -25.5q40 0 62.5 29t22.5 79v333q0 10 10 10zM166 575.5q-2 3.5 1 8.5
l62 109q5 7 12 7h41q6 0 7.5 -3.5t-1.5 -8.5l-70 -109q-5 -7 -12 -7h-32q-6 0 -8 3.5z" />
    <glyph glyph-name="ucircumflex" unicode="&#xfb;" 
d="M302 506h51q10 0 10 -10v-486q0 -10 -10 -10h-51q-10 0 -10 10v34q0 3 -1.5 3t-3.5 -2q-31 -52 -100 -52q-60 0 -95.5 36.5t-35.5 110.5v356q0 10 10 10h51q10 0 10 -10v-340q0 -50 20.5 -75.5t59.5 -25.5q40 0 62.5 29t22.5 79v333q0 10 10 10zM98.5 581.5
q-1.5 3.5 1.5 8.5l65 103q5 7 12 7h60q7 0 12 -7l67 -103q2 -4 2 -6q0 -6 -8 -6h-44q-7 0 -12 7l-43 73q-1 2 -3 2t-3 -2l-44 -73q-5 -7 -12 -7h-43q-6 0 -7.5 3.5z" />
    <glyph glyph-name="udieresis" unicode="&#xfc;" 
d="M302 506h51q10 0 10 -10v-486q0 -10 -10 -10h-51q-10 0 -10 10v34q0 3 -1.5 3t-3.5 -2q-31 -52 -100 -52q-60 0 -95.5 36.5t-35.5 110.5v356q0 10 10 10h51q10 0 10 -10v-340q0 -50 20.5 -75.5t59.5 -25.5q40 0 62.5 29t22.5 79v333q0 10 10 10zM242.5 614
q-15.5 16 -15.5 40q0 25 15.5 40.5t40.5 15.5q24 0 40 -15.5t16 -40.5q0 -24 -16 -40t-40 -16q-25 0 -40.5 16zM93.5 614q-15.5 16 -15.5 40q0 25 15.5 40.5t40.5 15.5q24 0 40 -15.5t16 -40.5q0 -24 -16 -40t-40 -16q-25 0 -40.5 16z" />
    <glyph glyph-name="yacute" unicode="&#xfd;" horiz-adv-x="367" 
d="M40 -197q-2 3 -2 7v40q0 10 10 10q31 1 48.5 12t28.5 39t22 86q1 2 0.5 3.5t-0.5 2.5l-127 492l-1 3q0 8 10 8h54q10 0 11 -9l88 -393q1 -3 2 -3t2 3l87 393q2 9 11 9l56 -1q5 0 7.5 -3t0.5 -8l-139 -538q-18 -67 -35.5 -99t-45.5 -44.5t-79 -12.5h-5q-2 0 -4 3z
M141 575.5q-2 3.5 1 8.5l62 109q5 7 12 7h41q6 0 7.5 -3.5t-1.5 -8.5l-70 -109q-5 -7 -12 -7h-32q-6 0 -8 3.5z" />
    <glyph glyph-name="thorn" unicode="&#xfe;" horiz-adv-x="417" 
d="M332 472.5q36 -41.5 36 -111.5v-216q0 -69 -36 -111t-99 -42q-32 0 -59 14t-43 42q-1 3 -3 2.5t-2 -3.5v-237q0 -10 -10 -10h-51q-10 0 -10 10v880q0 10 10 10h51q10 0 10 -10v-233q0 -3 2 -3t3 3q17 28 43.5 42.5t58.5 14.5q63 0 99 -41.5zM272.5 425.5
q-24.5 26.5 -62.5 26.5q-37 0 -60 -26.5t-23 -69.5v-206q0 -43 23 -69.5t60 -26.5q38 0 62.5 26.5t24.5 69.5v206q0 43 -24.5 69.5z" />
    <glyph glyph-name="ydieresis" unicode="&#xff;" horiz-adv-x="367" 
d="M40 -197q-2 3 -2 7v40q0 10 10 10q31 1 48.5 12t28.5 39t22 86q1 2 0.5 3.5t-0.5 2.5l-127 492l-1 3q0 8 10 8h54q10 0 11 -9l88 -393q1 -3 2 -3t2 3l87 393q2 9 11 9l56 -1q5 0 7.5 -3t0.5 -8l-139 -538q-18 -67 -35.5 -99t-45.5 -44.5t-79 -12.5h-5q-2 0 -4 3z
M218.5 614q-15.5 16 -15.5 40q0 25 15.5 40.5t40.5 15.5q24 0 40 -15.5t16 -40.5q0 -24 -16 -40t-40 -16q-25 0 -40.5 16zM69.5 614q-15.5 16 -15.5 40q0 25 15.5 40.5t40.5 15.5q24 0 40 -15.5t16 -40.5q0 -24 -16 -40t-40 -16q-25 0 -40.5 16z" />
    <glyph glyph-name="Amacron" unicode="&#x100;" horiz-adv-x="410" 
d="M325 9l-25 124q0 2 -1.5 3t-3.5 1h-181q-2 0 -3.5 -1t-1.5 -3l-25 -124q-1 -9 -11 -9h-51q-5 0 -7.5 3t-1.5 8l150 680q2 9 11 9h60q10 0 11 -9l152 -680v-2q0 -9 -9 -9h-52q-9 0 -11 9zM125 195h158q3 0 3 4l-80 393q-1 3 -2 3t-2 -3l-80 -393q0 -4 3 -4zM102 799v32
q0 10 10 10h183q10 0 10 -10v-32q0 -10 -10 -10h-183q-10 0 -10 10z" />
    <glyph glyph-name="amacron" unicode="&#x101;" horiz-adv-x="411" 
d="M321 468.5q42 -45.5 42 -121.5v-337q0 -10 -10 -10h-51q-10 0 -10 10v30q0 2 -1.5 2.5t-3.5 -1.5q-37 -49 -111 -49q-55 0 -95.5 31.5t-40.5 111.5q0 85 49 124.5t129 39.5h70q4 0 4 4v39q0 50 -23 80t-62 30q-30 0 -51.5 -20t-25.5 -51q0 -10 -10 -10l-56 1q-5 0 -7.5 3
t-1.5 7q5 59 48 95.5t106 36.5q70 0 112 -45.5zM262 80.5q30 26.5 30 73.5v84q0 4 -4 4h-71q-48 0 -76 -25.5t-28 -75.5q0 -44 21.5 -65.5t56.5 -21.5q41 0 71 26.5zM103 605v32q0 10 10 10h183q10 0 10 -10v-32q0 -10 -10 -10h-183q-10 0 -10 10z" />
    <glyph glyph-name="Abreve" unicode="&#x102;" horiz-adv-x="410" 
d="M325 9l-25 124q0 2 -1.5 3t-3.5 1h-181q-2 0 -3.5 -1t-1.5 -3l-25 -124q-1 -9 -11 -9h-51q-5 0 -7.5 3t-1.5 8l150 680q2 9 11 9h60q10 0 11 -9l152 -680v-2q0 -9 -9 -9h-52q-9 0 -11 9zM125 195h158q3 0 3 4l-80 393q-1 3 -2 3t-2 -3l-80 -393q0 -4 3 -4zM133 779
q-29 27 -33 68q0 10 10 10h23q10 0 11 -10q3 -25 20 -41t41 -16t41 16t20 41q1 10 11 10h23q10 0 10 -10q-4 -42 -33 -68.5t-72 -26.5t-72 27z" />
    <glyph glyph-name="abreve" unicode="&#x103;" horiz-adv-x="411" 
d="M321 468.5q42 -45.5 42 -121.5v-337q0 -10 -10 -10h-51q-10 0 -10 10v30q0 2 -1.5 2.5t-3.5 -1.5q-37 -49 -111 -49q-55 0 -95.5 31.5t-40.5 111.5q0 85 49 124.5t129 39.5h70q4 0 4 4v39q0 50 -23 80t-62 30q-30 0 -51.5 -20t-25.5 -51q0 -10 -10 -10l-56 1q-5 0 -7.5 3
t-1.5 7q5 59 48 95.5t106 36.5q70 0 112 -45.5zM262 80.5q30 26.5 30 73.5v84q0 4 -4 4h-71q-48 0 -76 -25.5t-28 -75.5q0 -44 21.5 -65.5t56.5 -21.5q41 0 71 26.5zM134 585q-29 27 -33 68q0 10 10 10h23q10 0 11 -10q3 -25 20 -41t41 -16t41 16t20 41q1 10 11 10h23
q10 0 10 -10q-4 -42 -33 -68.5t-72 -26.5t-72 27z" />
    <glyph glyph-name="Aogonek" unicode="&#x104;" horiz-adv-x="410" 
d="M325 9l-25 124q0 2 -1.5 3t-3.5 1h-181q-2 0 -3.5 -1t-1.5 -3l-25 -124q-1 -9 -11 -9h-51q-5 0 -7.5 3t-1.5 8l150 680q2 9 11 9h60q10 0 11 -9l152 -680v-2q0 -9 -9 -9h-52q-9 0 -11 9zM125 195h158q3 0 3 4l-80 393q-1 3 -2 3t-2 -3l-80 -393q0 -4 3 -4zM412 -173
q0 -6 -7 -9q-13 -3 -29 -3q-34 0 -57 18.5t-23 63.5q0 25 11 50t34 46l4 4q3 3 10 3h27q7 0 8.5 -4t-3.5 -8q-19 -20 -30.5 -42t-11.5 -43q0 -24 11.5 -35t29.5 -11q7 0 11 1l4 1q6 0 8 -8l3 -21v-3z" />
    <glyph glyph-name="aogonek" unicode="&#x105;" horiz-adv-x="411" 
d="M363 -141q6 0 8 -8l3 -21v-3q0 -6 -7 -9q-14 -3 -29 -3q-34 0 -57 18.5t-23 63.5q0 55 46 98q2 2 1.5 3.5t-2.5 1.5h-1q-10 0 -10 10v30q0 2 -1.5 2.5t-3.5 -1.5q-37 -49 -111 -49q-55 0 -95.5 31.5t-40.5 111.5q0 85 49 124.5t129 39.5h70q4 0 4 4v39q0 50 -23 80
t-62 30q-30 0 -51.5 -20t-25.5 -51q0 -10 -10 -10l-56 1q-5 0 -7.5 3t-1.5 7q5 59 48.5 95.5t105.5 36.5q70 0 112 -45.5t42 -121.5v-339v-8l-3 -2q-24 -22 -38.5 -46t-14.5 -48t12 -35.5t30 -11.5q7 0 10 1zM262 80.5q30 26.5 30 73.5v84q0 4 -4 4h-71q-48 0 -76 -25.5
t-28 -75.5q0 -44 21.5 -65.5t56.5 -21.5q41 0 71 26.5z" />
    <glyph glyph-name="Cacute" unicode="&#x106;" horiz-adv-x="446" 
d="M101.5 39q-46.5 47 -46.5 126v371q0 78 46.5 125t123.5 47q78 0 124.5 -46.5t46.5 -125.5v-17q0 -10 -10 -10l-52 -3q-10 0 -10 10v25q0 47 -27 76t-72 29q-44 0 -71.5 -29t-27.5 -76v-382q0 -47 27.5 -76t71.5 -29q45 0 72 29t27 76v25q0 10 10 10l52 -3q10 0 10 -10
v-16q0 -79 -47 -126t-124 -47t-123.5 47zM182 769.5q-2 3.5 1 8.5l62 109q5 7 12 7h41q6 0 7.5 -3.5t-1.5 -8.5l-70 -109q-5 -7 -12 -7h-32q-6 0 -8 3.5z" />
    <glyph glyph-name="cacute" unicode="&#x107;" horiz-adv-x="402" 
d="M92.5 34q-42.5 42 -42.5 111v216q0 68 43 110.5t113 42.5q47 0 83 -19t55.5 -50.5t19.5 -69.5v-10q0 -10 -10 -10l-51 -2q-10 0 -10 10v7q0 33 -24.5 57.5t-62.5 24.5t-61.5 -26.5t-23.5 -69.5v-206q0 -43 23.5 -69.5t61.5 -26.5t62.5 24.5t24.5 57.5v7q0 10 10 10l51 -1
q10 0 10 -10v-11q0 -60 -43.5 -99.5t-114.5 -39.5t-113.5 42zM164 575.5q-2 3.5 1 8.5l62 109q5 7 12 7h41q6 0 7.5 -3.5t-1.5 -8.5l-70 -109q-5 -7 -12 -7h-32q-6 0 -8 3.5z" />
    <glyph glyph-name="Ccircumflex" unicode="&#x108;" horiz-adv-x="446" 
d="M101.5 39q-46.5 47 -46.5 126v371q0 78 46.5 125t123.5 47q78 0 124.5 -46.5t46.5 -125.5v-17q0 -10 -10 -10l-52 -3q-10 0 -10 10v25q0 47 -27 76t-72 29q-44 0 -71.5 -29t-27.5 -76v-382q0 -47 27.5 -76t71.5 -29q45 0 72 29t27 76v25q0 10 10 10l52 -3q10 0 10 -10
v-16q0 -79 -47 -126t-124 -47t-123.5 47zM115.5 775.5q-1.5 3.5 1.5 8.5l65 103q5 7 12 7h60q7 0 12 -7l67 -103q2 -4 2 -6q0 -6 -8 -6h-44q-7 0 -12 7l-43 73q-1 2 -3 2t-3 -2l-44 -73q-5 -7 -12 -7h-43q-6 0 -7.5 3.5z" />
    <glyph glyph-name="ccircumflex" unicode="&#x109;" horiz-adv-x="402" 
d="M92.5 34q-42.5 42 -42.5 111v216q0 68 43 110.5t113 42.5q47 0 83 -19t55.5 -50.5t19.5 -69.5v-10q0 -10 -10 -10l-51 -2q-10 0 -10 10v7q0 33 -24.5 57.5t-62.5 24.5t-61.5 -26.5t-23.5 -69.5v-206q0 -43 23.5 -69.5t61.5 -26.5t62.5 24.5t24.5 57.5v7q0 10 10 10l51 -1
q10 0 10 -10v-11q0 -60 -43.5 -99.5t-114.5 -39.5t-113.5 42zM96.5 581.5q-1.5 3.5 1.5 8.5l65 103q5 7 12 7h60q7 0 12 -7l67 -103q2 -4 2 -6q0 -6 -8 -6h-44q-7 0 -12 7l-43 73q-1 2 -3 2t-3 -2l-44 -73q-5 -7 -12 -7h-43q-6 0 -7.5 3.5z" />
    <glyph glyph-name="Cdotaccent" unicode="&#x10a;" horiz-adv-x="446" 
d="M101.5 39q-46.5 47 -46.5 126v371q0 78 46.5 125t123.5 47q78 0 124.5 -46.5t46.5 -125.5v-17q0 -10 -10 -10l-52 -3q-10 0 -10 10v25q0 47 -27 76t-72 29q-44 0 -71.5 -29t-27.5 -76v-382q0 -47 27.5 -76t71.5 -29q45 0 72 29t27 76v25q0 10 10 10l52 -3q10 0 10 -10
v-16q0 -79 -47 -126t-124 -47t-123.5 47zM185.5 808q-15.5 16 -15.5 40q0 25 15.5 40.5t40.5 15.5q24 0 40 -15.5t16 -40.5q0 -24 -16 -40t-40 -16q-25 0 -40.5 16z" />
    <glyph glyph-name="cdotaccent" unicode="&#x10b;" horiz-adv-x="402" 
d="M92.5 34q-42.5 42 -42.5 111v216q0 68 43 110.5t113 42.5q47 0 83 -19t55.5 -50.5t19.5 -69.5v-10q0 -10 -10 -10l-51 -2q-10 0 -10 10v7q0 33 -24.5 57.5t-62.5 24.5t-61.5 -26.5t-23.5 -69.5v-206q0 -43 23.5 -69.5t61.5 -26.5t62.5 24.5t24.5 57.5v7q0 10 10 10l51 -1
q10 0 10 -10v-11q0 -60 -43.5 -99.5t-114.5 -39.5t-113.5 42zM166.5 614q-15.5 16 -15.5 40q0 25 15.5 40.5t40.5 15.5q24 0 40 -15.5t16 -40.5q0 -24 -16 -40t-40 -16q-25 0 -40.5 16z" />
    <glyph glyph-name="Ccaron" unicode="&#x10c;" horiz-adv-x="446" 
d="M101.5 39q-46.5 47 -46.5 126v371q0 78 46.5 125t123.5 47q78 0 124.5 -46.5t46.5 -125.5v-17q0 -10 -10 -10l-52 -3q-10 0 -10 10v25q0 47 -27 76t-72 29q-44 0 -71.5 -29t-27.5 -76v-382q0 -47 27.5 -76t71.5 -29q45 0 72 29t27 76v25q0 10 10 10l52 -3q10 0 10 -10
v-16q0 -79 -47 -126t-124 -47t-123.5 47zM117 888q0 6 8 6h43q7 0 12 -7l44 -73q1 -1 3 -1t3 1l43 73q5 7 12 7h44q6 0 7.5 -3.5t-1.5 -8.5l-67 -103q-5 -7 -12 -7h-60q-7 0 -12 7l-65 103q-2 4 -2 6z" />
    <glyph glyph-name="ccaron" unicode="&#x10d;" horiz-adv-x="402" 
d="M92.5 34q-42.5 42 -42.5 111v216q0 68 43 110.5t113 42.5q47 0 83 -19t55.5 -50.5t19.5 -69.5v-10q0 -10 -10 -10l-51 -2q-10 0 -10 10v7q0 33 -24.5 57.5t-62.5 24.5t-61.5 -26.5t-23.5 -69.5v-206q0 -43 23.5 -69.5t61.5 -26.5t62.5 24.5t24.5 57.5v7q0 10 10 10l51 -1
q10 0 10 -10v-11q0 -60 -43.5 -99.5t-114.5 -39.5t-113.5 42zM98 694q0 6 8 6h43q7 0 12 -7l44 -73q1 -1 3 -1t3 1l43 73q5 7 12 7h44q6 0 7.5 -3.5t-1.5 -8.5l-67 -103q-5 -7 -12 -7h-60q-7 0 -12 7l-65 103q-2 4 -2 6z" />
    <glyph glyph-name="Dcaron" unicode="&#x10e;" horiz-adv-x="465" 
d="M72 10v680q0 10 10 10h154q77 0 123 -50.5t46 -135.5v-328q0 -85 -46 -135.5t-123 -50.5h-154q-10 0 -10 10zM147 62l88 1q44 0 70.5 34t27.5 92v322q0 59 -26 93t-72 34h-88q-4 0 -4 -4v-568q0 -4 4 -4zM121 886q0 6 8 6h43q7 0 12 -7l44 -73q1 -1 3 -1t3 1l43 73
q5 7 12 7h44q6 0 7.5 -3.5t-1.5 -8.5l-67 -103q-5 -7 -12 -7h-60q-7 0 -12 7l-65 103q-2 4 -2 6z" />
    <glyph glyph-name="dcaron" unicode="&#x10f;" horiz-adv-x="423" 
d="M301 700h51q10 0 10 -10v-680q0 -10 -10 -10h-51q-10 0 -10 10v22q0 2 -1.5 3t-3.5 -1q-38 -42 -96 -42q-64 0 -102 42.5t-38 110.5v216q0 70 38 111.5t102 41.5q59 0 96 -43q2 -2 3.5 -1t1.5 3v217q0 10 10 10zM267.5 80.5q23.5 26.5 23.5 68.5v207q0 43 -23.5 69.5
t-60.5 26.5q-38 0 -62.5 -26.5t-24.5 -69.5v-207q0 -42 24.5 -68.5t62.5 -26.5q37 0 60.5 26.5zM423 575.5q-2 3.5 1 8.5l62 109q5 7 12 7h41q6 0 7.5 -3.5t-1.5 -8.5l-70 -109q-5 -7 -12 -7h-32q-6 0 -8 3.5z" />
    <glyph glyph-name="Dcroat" unicode="&#x110;" horiz-adv-x="509" 
d="M402 649.5q46 -50.5 46 -135.5v-328q0 -85 -46 -135.5t-123 -50.5h-154q-10 0 -10 10v329q0 4 -4 4h-29q-10 0 -10 10v26q0 10 10 10h29q4 0 4 4v297q0 10 10 10h154q77 0 123 -50.5zM376 511q0 59 -26 93t-72 34h-88q-4 0 -4 -4v-241q0 -4 4 -4h75q10 0 10 -10v-26
q0 -10 -10 -10h-75q-4 0 -4 -4v-273q0 -4 4 -4l89 1q44 0 70 34t27 92v322z" />
    <glyph glyph-name="dcroat" unicode="&#x111;" horiz-adv-x="423" 
d="M410 605v-28q0 -10 -10 -10h-34q-4 0 -4 -4v-553q0 -10 -10 -10h-51q-10 0 -10 10v22q0 2 -1.5 3t-3.5 -1q-38 -42 -96 -42q-64 0 -102 42.5t-38 110.5v216q0 70 38 111.5t102 41.5q59 0 96 -43q2 -2 3.5 -1t1.5 3v90q0 4 -4 4h-134q-10 0 -10 10v28q0 10 10 10h134
q4 0 4 4v71q0 10 10 10h51q10 0 10 -10v-71q0 -4 4 -4h34q10 0 10 -10zM267.5 80.5q23.5 26.5 23.5 68.5v207q0 43 -23.5 69.5t-60.5 26.5q-38 0 -62.5 -26.5t-24.5 -69.5v-207q0 -42 24.5 -68.5t62.5 -26.5q37 0 60.5 26.5z" />
    <glyph glyph-name="Emacron" unicode="&#x112;" horiz-adv-x="429" 
d="M379 638h-232q-4 0 -4 -4v-248q0 -4 4 -4h146q10 0 10 -10v-43q0 -10 -10 -10h-146q-4 0 -4 -4v-249q0 -4 4 -4h232q10 0 10 -10v-42q0 -10 -10 -10h-297q-10 0 -10 10v680q0 10 10 10h297q10 0 10 -10v-42q0 -10 -10 -10zM128 799v32q0 10 10 10h183q10 0 10 -10v-32
q0 -10 -10 -10h-183q-10 0 -10 10z" />
    <glyph glyph-name="emacron" unicode="&#x113;" horiz-adv-x="408" 
d="M353 226h-228q-4 0 -4 -4v-73q0 -42 23.5 -68.5t61.5 -26.5q32 0 54.5 19.5t29.5 50.5q3 9 11 9l50 -2q4 0 7 -3t2 -8q-8 -59 -48.5 -93.5t-105.5 -34.5q-71 0 -113.5 42t-42.5 111v216q0 68 42.5 110.5t113.5 42.5q72 0 114.5 -42.5t42.5 -110.5v-125q0 -10 -10 -10z
M144.5 425.5q-23.5 -26.5 -23.5 -69.5v-67q0 -4 4 -4h164q4 0 4 4v67q0 43 -24 69.5t-63 26.5q-38 0 -61.5 -26.5zM101 631v32q0 10 10 10h183q10 0 10 -10v-32q0 -10 -10 -10h-183q-10 0 -10 10z" />
    <glyph glyph-name="Edotaccent" unicode="&#x116;" horiz-adv-x="429" 
d="M379 638h-232q-4 0 -4 -4v-248q0 -4 4 -4h146q10 0 10 -10v-43q0 -10 -10 -10h-146q-4 0 -4 -4v-249q0 -4 4 -4h232q10 0 10 -10v-42q0 -10 -10 -10h-297q-10 0 -10 10v680q0 10 10 10h297q10 0 10 -10v-42q0 -10 -10 -10zM190.5 808q-15.5 16 -15.5 40q0 25 15.5 40.5
t40.5 15.5q24 0 40 -15.5t16 -40.5q0 -24 -16 -40t-40 -16q-25 0 -40.5 16z" />
    <glyph glyph-name="edotaccent" unicode="&#x117;" horiz-adv-x="408" 
d="M353 226h-228q-4 0 -4 -4v-73q0 -42 23.5 -68.5t61.5 -26.5q32 0 54.5 19.5t29.5 50.5q3 9 11 9l50 -2q4 0 7 -3t2 -8q-8 -59 -48.5 -93.5t-105.5 -34.5q-71 0 -113.5 42t-42.5 111v216q0 68 42.5 110.5t113.5 42.5q72 0 114.5 -42.5t42.5 -110.5v-125q0 -10 -10 -10z
M144.5 425.5q-23.5 -26.5 -23.5 -69.5v-67q0 -4 4 -4h164q4 0 4 4v67q0 43 -24 69.5t-63 26.5q-38 0 -61.5 -26.5zM164.5 614q-15.5 16 -15.5 40q0 25 15.5 40.5t40.5 15.5q24 0 40 -15.5t16 -40.5q0 -24 -16 -40t-40 -16q-25 0 -40.5 16z" />
    <glyph glyph-name="Eogonek" unicode="&#x118;" horiz-adv-x="429" 
d="M379 638h-232q-4 0 -4 -4v-248q0 -4 4 -4h146q10 0 10 -10v-43q0 -10 -10 -10h-146q-4 0 -4 -4v-249q0 -4 4 -4h232q10 0 10 -10v-42q0 -10 -10 -10h-123q-3 0 -5 -2q-45 -45 -45 -86q0 -8 1 -12q3 -21 16.5 -29t32.5 -6q3 0 4 1q8 0 10 -8l3 -22v-2q0 -7 -8 -9
q-13 -3 -30 -3q-33 0 -56.5 18.5t-23.5 63.5q0 49 41 91q2 2 1 3.5t-3 1.5h-112q-10 0 -10 10v680q0 10 10 10h297q10 0 10 -10v-42q0 -10 -10 -10z" />
    <glyph glyph-name="eogonek" unicode="&#x119;" horiz-adv-x="408" 
d="M353 226h-228q-4 0 -4 -4v-73q0 -42 23.5 -68.5t61.5 -26.5q32 0 54.5 19.5t29.5 50.5q3 9 11 9l50 -2q4 0 7 -3t2 -8q-8 -55 -42.5 -88.5t-91.5 -38.5q-3 0 -5 -2q-38 -41 -38 -79q0 -25 12 -36.5t30 -11.5q7 0 10 1l4 1q6 0 8 -8l3 -22v-3q0 -7 -7 -8q-13 -3 -30 -3
q-28 0 -49.5 13t-28.5 45q-2 16 -2 23q0 49 36 88q4 4 -2 5q-54 11 -85.5 50.5t-31.5 98.5v216q0 68 42.5 110.5t113.5 42.5q72 0 114.5 -42.5t42.5 -110.5v-125q0 -10 -10 -10zM144.5 425.5q-23.5 -26.5 -23.5 -69.5v-67q0 -4 4 -4h164q4 0 4 4v67q0 43 -24 69.5t-63 26.5
q-38 0 -61.5 -26.5z" />
    <glyph glyph-name="Ecaron" unicode="&#x11a;" horiz-adv-x="429" 
d="M379 638h-232q-4 0 -4 -4v-248q0 -4 4 -4h146q10 0 10 -10v-43q0 -10 -10 -10h-146q-4 0 -4 -4v-249q0 -4 4 -4h232q10 0 10 -10v-42q0 -10 -10 -10h-297q-10 0 -10 10v680q0 10 10 10h297q10 0 10 -10v-42q0 -10 -10 -10zM123 888q0 6 8 6h43q7 0 12 -7l44 -73
q1 -1 3 -1t3 1l43 73q5 7 12 7h44q6 0 7.5 -3.5t-1.5 -8.5l-67 -103q-5 -7 -12 -7h-60q-7 0 -12 7l-65 103q-2 4 -2 6z" />
    <glyph glyph-name="ecaron" unicode="&#x11b;" horiz-adv-x="408" 
d="M353 226h-228q-4 0 -4 -4v-73q0 -42 23.5 -68.5t61.5 -26.5q32 0 54.5 19.5t29.5 50.5q3 9 11 9l50 -2q4 0 7 -3t2 -8q-8 -59 -48.5 -93.5t-105.5 -34.5q-71 0 -113.5 42t-42.5 111v216q0 68 42.5 110.5t113.5 42.5q72 0 114.5 -42.5t42.5 -110.5v-125q0 -10 -10 -10z
M144.5 425.5q-23.5 -26.5 -23.5 -69.5v-67q0 -4 4 -4h164q4 0 4 4v67q0 43 -24 69.5t-63 26.5q-38 0 -61.5 -26.5zM96 692q0 6 8 6h43q7 0 12 -7l44 -73q1 -1 3 -1t3 1l43 73q5 7 12 7h44q6 0 7.5 -3.5t-1.5 -8.5l-67 -103q-5 -7 -12 -7h-60q-7 0 -12 7l-65 103q-2 4 -2 6z
" />
    <glyph glyph-name="Gcircumflex" unicode="&#x11c;" horiz-adv-x="451" 
d="M102 37.5q-46 45.5 -46 121.5v382q0 76 46 121.5t123 45.5t123.5 -46t46.5 -122v-43q0 -10 -10 -10h-51q-10 0 -10 10v45q0 47 -27 75.5t-72 28.5q-44 0 -71.5 -29t-27.5 -75v-384q0 -46 27.5 -75t71.5 -29q45 0 72 28.5t27 75.5v128q0 4 -4 4h-86q-10 0 -10 10v42
q0 10 10 10h151q10 0 10 -10v-183q0 -76 -46.5 -121.5t-123.5 -45.5t-123 45.5zM115.5 775.5q-1.5 3.5 1.5 8.5l65 103q5 7 12 7h60q7 0 12 -7l67 -103q2 -4 2 -6q0 -6 -8 -6h-44q-7 0 -12 7l-43 73q-1 2 -3 2t-3 -2l-44 -73q-5 -7 -12 -7h-43q-6 0 -7.5 3.5z" />
    <glyph glyph-name="gcircumflex" unicode="&#x11d;" horiz-adv-x="413" 
d="M301 506h51q10 0 10 -10v-486q0 -107 -49.5 -162.5t-165.5 -50.5q-10 1 -10 11v43q0 10 10 10q80 -2 112 36.5t32 118.5v30q0 2 -1.5 3t-3.5 -1q-17 -25 -43.5 -38t-56.5 -13q-63 0 -99.5 42t-36.5 111v211q0 70 36.5 111.5t99.5 41.5q30 0 56.5 -12.5t43.5 -37.5
q2 -3 3.5 -2.5t1.5 3.5v31q0 10 10 10zM267.5 85.5q23.5 26.5 23.5 68.5v202q0 43 -23.5 69.5t-60.5 26.5q-38 0 -62 -26.5t-24 -69.5v-202q0 -42 24 -68.5t62 -26.5q37 0 60.5 26.5zM97.5 581.5q-1.5 3.5 1.5 8.5l65 103q5 7 12 7h60q7 0 12 -7l67 -103q2 -4 2 -6
q0 -6 -8 -6h-44q-7 0 -12 7l-43 73q-1 2 -3 2t-3 -2l-44 -73q-5 -7 -12 -7h-43q-6 0 -7.5 3.5z" />
    <glyph glyph-name="Gbreve" unicode="&#x11e;" horiz-adv-x="451" 
d="M102 37.5q-46 45.5 -46 121.5v382q0 76 46 121.5t123 45.5t123.5 -46t46.5 -122v-43q0 -10 -10 -10h-51q-10 0 -10 10v45q0 47 -27 75.5t-72 28.5q-44 0 -71.5 -29t-27.5 -75v-384q0 -46 27.5 -75t71.5 -29q45 0 72 28.5t27 75.5v128q0 4 -4 4h-86q-10 0 -10 10v42
q0 10 10 10h151q10 0 10 -10v-183q0 -76 -46.5 -121.5t-123.5 -45.5t-123 45.5zM153 779q-29 27 -33 68q0 10 10 10h23q10 0 11 -10q3 -25 20 -41t41 -16t41 16t20 41q1 10 11 10h23q10 0 10 -10q-4 -42 -33 -68.5t-72 -26.5t-72 27z" />
    <glyph glyph-name="gbreve" unicode="&#x11f;" horiz-adv-x="413" 
d="M301 506h51q10 0 10 -10v-486q0 -107 -49.5 -162.5t-165.5 -50.5q-10 1 -10 11v43q0 10 10 10q80 -2 112 36.5t32 118.5v30q0 2 -1.5 3t-3.5 -1q-17 -25 -43.5 -38t-56.5 -13q-63 0 -99.5 42t-36.5 111v211q0 70 36.5 111.5t99.5 41.5q30 0 56.5 -12.5t43.5 -37.5
q2 -3 3.5 -2.5t1.5 3.5v31q0 10 10 10zM267.5 85.5q23.5 26.5 23.5 68.5v202q0 43 -23.5 69.5t-60.5 26.5q-38 0 -62 -26.5t-24 -69.5v-202q0 -42 24 -68.5t62 -26.5q37 0 60.5 26.5zM135 585q-29 27 -33 68q0 10 10 10h23q10 0 11 -10q3 -25 20 -41t41 -16t41 16t20 41
q1 10 11 10h23q10 0 10 -10q-4 -42 -33 -68.5t-72 -26.5t-72 27z" />
    <glyph glyph-name="Gdotaccent" unicode="&#x120;" horiz-adv-x="451" 
d="M102 37.5q-46 45.5 -46 121.5v382q0 76 46 121.5t123 45.5t123.5 -46t46.5 -122v-43q0 -10 -10 -10h-51q-10 0 -10 10v45q0 47 -27 75.5t-72 28.5q-44 0 -71.5 -29t-27.5 -75v-384q0 -46 27.5 -75t71.5 -29q45 0 72 28.5t27 75.5v128q0 4 -4 4h-86q-10 0 -10 10v42
q0 10 10 10h151q10 0 10 -10v-183q0 -76 -46.5 -121.5t-123.5 -45.5t-123 45.5zM185.5 808q-15.5 16 -15.5 40q0 25 15.5 40.5t40.5 15.5q24 0 40 -15.5t16 -40.5q0 -24 -16 -40t-40 -16q-25 0 -40.5 16z" />
    <glyph glyph-name="gdotaccent" unicode="&#x121;" horiz-adv-x="413" 
d="M301 506h51q10 0 10 -10v-486q0 -107 -49.5 -162.5t-165.5 -50.5q-10 1 -10 11v43q0 10 10 10q80 -2 112 36.5t32 118.5v30q0 2 -1.5 3t-3.5 -1q-17 -25 -43.5 -38t-56.5 -13q-63 0 -99.5 42t-36.5 111v211q0 70 36.5 111.5t99.5 41.5q30 0 56.5 -12.5t43.5 -37.5
q2 -3 3.5 -2.5t1.5 3.5v31q0 10 10 10zM267.5 85.5q23.5 26.5 23.5 68.5v202q0 43 -23.5 69.5t-60.5 26.5q-38 0 -62 -26.5t-24 -69.5v-202q0 -42 24 -68.5t62 -26.5q37 0 60.5 26.5zM167.5 614q-15.5 16 -15.5 40q0 25 15.5 40.5t40.5 15.5q24 0 40 -15.5t16 -40.5
q0 -24 -16 -40t-40 -16q-25 0 -40.5 16z" />
    <glyph glyph-name="uni0122" unicode="&#x122;" horiz-adv-x="451" 
d="M102 37.5q-46 45.5 -46 121.5v382q0 76 46 121.5t123 45.5t123.5 -46t46.5 -122v-43q0 -10 -10 -10h-51q-10 0 -10 10v45q0 47 -27 75.5t-72 28.5q-44 0 -71.5 -29t-27.5 -75v-384q0 -46 27.5 -75t71.5 -29q45 0 72 28.5t27 75.5v128q0 4 -4 4h-86q-10 0 -10 10v42
q0 10 10 10h151q10 0 10 -10v-183q0 -76 -46.5 -121.5t-123.5 -45.5t-123 45.5zM175 -194.5q-2 3.5 1 8.5l62 109q5 7 12 7h41q6 0 7.5 -3.5t-1.5 -8.5l-70 -109q-5 -7 -12 -7h-32q-6 0 -8 3.5z" />
    <glyph glyph-name="uni0123" unicode="&#x123;" horiz-adv-x="413" 
d="M256 692.5q2 -3.5 -1 -8.5l-62 -109q-5 -7 -12 -7h-41q-6 0 -7.5 3.5t1.5 8.5l70 109q5 7 12 7h32q6 0 8 -3.5zM301 506h51q10 0 10 -10v-486q0 -107 -49.5 -162.5t-165.5 -50.5q-10 1 -10 11v43q0 10 10 10q80 -2 112 36.5t32 118.5v30q0 2 -1.5 3t-3.5 -1
q-17 -25 -43.5 -38t-56.5 -13q-63 0 -99.5 42t-36.5 111v211q0 70 36.5 111.5t99.5 41.5q30 0 56.5 -12.5t43.5 -37.5q2 -3 3.5 -2.5t1.5 3.5v31q0 10 10 10zM267.5 85.5q23.5 26.5 23.5 68.5v202q0 43 -23.5 69.5t-60.5 26.5q-38 0 -62 -26.5t-24 -69.5v-202
q0 -42 24 -68.5t62 -26.5q37 0 60.5 26.5z" />
    <glyph glyph-name="Hcircumflex" unicode="&#x124;" horiz-adv-x="472" 
d="M339 700h51q10 0 10 -10v-680q0 -10 -10 -10h-51q-10 0 -10 10v305q0 4 -4 4h-178q-4 0 -4 -4v-305q0 -10 -10 -10h-51q-10 0 -10 10v680q0 10 10 10h51q10 0 10 -10v-304q0 -4 4 -4h178q4 0 4 4v304q0 10 10 10zM123.5 776.5q-1.5 3.5 1.5 8.5l65 103q5 7 12 7h60
q7 0 12 -7l67 -103q2 -4 2 -6q0 -6 -8 -6h-44q-7 0 -12 7l-43 73q-1 2 -3 2t-3 -2l-44 -73q-5 -7 -12 -7h-43q-6 0 -7.5 3.5z" />
    <glyph glyph-name="hcircumflex" unicode="&#x125;" 
d="M335.5 471q33.5 -42 33.5 -117v-344q0 -10 -10 -10h-51q-10 0 -10 10v338q0 49 -21.5 76t-59.5 27q-40 0 -62.5 -29t-22.5 -79v-333q0 -10 -10 -10h-51q-10 0 -10 10v680q0 10 10 10h51q10 0 10 -10v-226q0 -2 2 -3t3 2q18 25 45.5 37.5t58.5 12.5q61 0 94.5 -42z
M108.5 753.5q-1.5 3.5 1.5 8.5l65 103q5 7 12 7h60q7 0 12 -7l67 -103q2 -4 2 -6q0 -6 -8 -6h-44q-7 0 -12 7l-43 73q-1 2 -3 2t-3 -2l-44 -73q-5 -7 -12 -7h-43q-6 0 -7.5 3.5z" />
    <glyph glyph-name="Hbar" unicode="&#x126;" horiz-adv-x="472" 
d="M448 549v-31q0 -10 -10 -10h-34q-4 0 -4 -4v-494q0 -10 -10 -10h-51q-10 0 -10 10v305q0 4 -4 4h-178q-4 0 -4 -4v-305q0 -10 -10 -10h-51q-10 0 -10 10v494q0 4 -4 4h-34q-10 0 -10 10v31q0 10 10 10h34q4 0 4 4v127q0 10 10 10h51q10 0 10 -10v-127q0 -4 4 -4h178
q4 0 4 4v127q0 10 10 10h51q10 0 10 -10v-127q0 -4 4 -4h34q10 0 10 -10zM329 386v118q0 4 -4 4h-178q-4 0 -4 -4v-118q0 -4 4 -4h178q4 0 4 4z" />
    <glyph glyph-name="hbar" unicode="&#x127;" 
d="M335.5 471q33.5 -42 33.5 -117v-344q0 -10 -10 -10h-51q-10 0 -10 10v338q0 49 -21.5 76t-59.5 27q-40 0 -62.5 -29t-22.5 -79v-333q0 -10 -10 -10h-51q-10 0 -10 10v540q0 4 -4 4h-40q-10 0 -10 10v27q0 10 10 10h40q4 0 4 4v85q0 10 10 10h51q10 0 10 -10v-85
q0 -4 4 -4h127q10 0 10 -10v-27q0 -10 -10 -10h-127q-4 0 -4 -4v-86q0 -2 2 -3t3 2q18 25 45.5 37.5t58.5 12.5q61 0 94.5 -42z" />
    <glyph glyph-name="Itilde" unicode="&#x128;" horiz-adv-x="215" 
d="M72 10v680q0 10 10 10h51q10 0 10 -10v-680q0 -10 -10 -10h-51q-10 0 -10 10zM145 807.5q-11 5.5 -29 16.5q-4 3 -13 9t-16 8.5t-15 2.5q-14 0 -24.5 -5.5t-20.5 -20.5q-6 -9 -14 -3l-18 13q-8 6 -4 14q27 52 76 52q16 0 29 -6t29 -17q2 -2 11 -8t17.5 -9.5t16.5 -3.5
q13 0 23 6t20 22q2 4 6 5t8 -1l18 -12q4 -3 4 -8t-4 -12q-14 -25 -35 -36.5t-40 -11.5q-14 0 -25 5.5z" />
    <glyph glyph-name="itilde" unicode="&#x129;" horiz-adv-x="169" 
d="M49 10v486q0 10 10 10h51q10 0 10 -10v-486q0 -10 -10 -10h-51q-10 0 -10 10zM122 613.5q-11 5.5 -29 16.5q-4 3 -13 9t-16 8.5t-15 2.5q-14 0 -24.5 -5.5t-20.5 -20.5q-6 -9 -14 -3l-18 13q-8 6 -4 14q27 52 76 52q16 0 29 -6t29 -17q2 -2 11 -8t17.5 -9.5t16.5 -3.5
q13 0 23 6t20 22q2 4 6 5t8 -1l18 -12q4 -3 4 -8t-4 -12q-14 -25 -35 -36.5t-40 -11.5q-14 0 -25 5.5z" />
    <glyph glyph-name="Imacron" unicode="&#x12a;" horiz-adv-x="215" 
d="M72 10v680q0 10 10 10h51q10 0 10 -10v-680q0 -10 -10 -10h-51q-10 0 -10 10zM5 799v32q0 10 10 10h183q10 0 10 -10v-32q0 -10 -10 -10h-183q-10 0 -10 10z" />
    <glyph glyph-name="imacron" unicode="&#x12b;" horiz-adv-x="169" 
d="M49 10v486q0 10 10 10h51q10 0 10 -10v-486q0 -10 -10 -10h-51q-10 0 -10 10zM-18 605v32q0 10 10 10h183q10 0 10 -10v-32q0 -10 -10 -10h-183q-10 0 -10 10z" />
    <glyph glyph-name="ibreve" unicode="&#x12d;" horiz-adv-x="169" 
d="M49 10v486q0 10 10 10h51q10 0 10 -10v-486q0 -10 -10 -10h-51q-10 0 -10 10zM12 607q-29 27 -33 68q0 10 10 10h23q10 0 11 -10q3 -26 20 -42t41 -16t41 16t20 42q1 10 11 10h23q10 0 10 -10q-4 -41 -33 -68t-72 -27t-72 27z" />
    <glyph glyph-name="Iogonek" unicode="&#x12e;" horiz-adv-x="186" 
d="M59 10v680q0 10 10 10h51q10 0 10 -10v-680q0 -10 -10 -10h-51q-10 0 -10 10zM142 -173q0 -6 -7 -9q-13 -3 -29 -3q-34 0 -57 18.5t-23 63.5q0 55 44 96l4 4q4 3 10 3h28q7 0 8.5 -3.5t-3.5 -8.5q-21 -22 -32.5 -46.5t-8.5 -47.5q4 -19 14.5 -28t25.5 -9q7 0 11 1l4 1
q6 0 8 -8l3 -21v-3z" />
    <glyph glyph-name="iogonek" unicode="&#x12f;" horiz-adv-x="224" 
d="M85 10v486q0 10 10 10h51q10 0 10 -10v-486q0 -10 -10 -10h-51q-10 0 -10 10zM80.5 614q-15.5 16 -15.5 40q0 25 15.5 40.5t40.5 15.5q24 0 40 -15.5t16 -40.5q0 -24 -16 -40t-40 -16q-25 0 -40.5 16zM169 -173q0 -6 -7 -9q-13 -3 -29 -3q-34 0 -57 18.5t-23 63.5
q0 55 44 96l4 4q4 3 10 3h28q7 0 8.5 -3.5t-3.5 -8.5q-21 -22 -32.5 -46.5t-8.5 -47.5q4 -19 14.5 -28t25.5 -9q7 0 11 1l4 1q6 0 8 -8l3 -21v-3z" />
    <glyph glyph-name="Idotaccent" unicode="&#x130;" horiz-adv-x="215" 
d="M72 10v680q0 10 10 10h51q10 0 10 -10v-680q0 -10 -10 -10h-51q-10 0 -10 10zM67.5 808q-15.5 16 -15.5 40q0 25 15.5 40.5t40.5 15.5q24 0 40 -15.5t16 -40.5q0 -24 -16 -40t-40 -16q-25 0 -40.5 16z" />
    <glyph glyph-name="dotlessi" unicode="&#x131;" horiz-adv-x="169" 
d="M49 10v486q0 10 10 10h51q10 0 10 -10v-486q0 -10 -10 -10h-51q-10 0 -10 10z" />
    <glyph glyph-name="ij" unicode="&#x133;" horiz-adv-x="409" 
d="M63.5 614q-15.5 16 -15.5 40q0 25 15.5 40.5t40.5 15.5q24 0 39.5 -15.5t15.5 -40.5q0 -24 -15.5 -40t-39.5 -16q-25 0 -40.5 16zM69 10v486q0 10 10 10h51q10 0 10 -10v-486q0 -10 -10 -10h-51q-10 0 -10 10zM265 614q-16 16 -16 40q0 25 16 40.5t40 15.5
q25 0 40.5 -15.5t15.5 -40.5q0 -24 -16 -40t-40 -16t-40 16zM179 -198v42q0 10 10 10q81 3 81 102v540q0 10 10 10h51q10 0 10 -10v-540q0 -82 -32 -123t-120 -41q-10 0 -10 10z" />
    <glyph glyph-name="Jcircumflex" unicode="&#x134;" horiz-adv-x="426" 
d="M68 38.5q-46 46.5 -46 122.5v84q0 10 10 10h51q10 0 10 -10v-85q0 -47 26 -76.5t69 -29.5q42 0 68.5 29.5t26.5 76.5v530q0 10 10 10h51q10 0 10 -10v-529q0 -76 -46 -122.5t-120 -46.5t-120 46.5zM207.5 776.5q-1.5 3.5 1.5 8.5l65 103q5 7 12 7h60q7 0 12 -7l67 -103
q2 -4 2 -6q0 -6 -8 -6h-44q-7 0 -12 7l-43 73q-1 2 -3 2t-3 -2l-44 -73q-5 -7 -12 -7h-43q-6 0 -7.5 3.5z" />
    <glyph glyph-name="jcircumflex" unicode="&#x135;" horiz-adv-x="198" 
d="M-30 -198v42q0 10 10 10q81 3 81 102v540q0 10 10 10h51q10 0 10 -10v-540q0 -82 -32 -123t-120 -41q-10 0 -10 10zM-13.5 581.5q-1.5 3.5 1.5 8.5l65 103q5 7 12 7h60q7 0 12 -7l67 -103q2 -4 2 -6q0 -6 -8 -6h-44q-7 0 -12 7l-43 73q-1 2 -3 2t-3 -2l-44 -73
q-5 -7 -12 -7h-43q-6 0 -7.5 3.5z" />
    <glyph glyph-name="uni0136" unicode="&#x136;" horiz-adv-x="452" 
d="M72 10v680q0 10 10 10h51q10 0 10 -10v-324q0 -3 2 -4t3 2l193 329q5 7 12 7h56q6 0 8 -3.5t-1 -8.5l-156 -271q-2 -4 -1 -6l172 -399l1 -4q0 -8 -9 -8h-57q-8 0 -11 8l-144 340q-1 4 -5 0l-62 -96q-1 -1 -1 -5v-237q0 -10 -10 -10h-51q-10 0 -10 10zM200 -186.5
q-2 3.5 1 8.5l62 109q5 7 12 7h41q6 0 7.5 -3.5t-1.5 -8.5l-70 -109q-5 -7 -12 -7h-32q-6 0 -8 3.5z" />
    <glyph glyph-name="uni0137" unicode="&#x137;" horiz-adv-x="405" 
d="M61 10v680q0 10 10 10h51q10 0 10 -10v-402q0 -2 2 -3t3 1l150 214q4 6 12 6h52q6 0 8 -3.5t-2 -8.5l-99 -142q-3 -3 -1 -6l118 -335l1 -4q0 -7 -9 -7h-53q-9 0 -12 8l-89 278q-1 6 -6 1l-73 -104q-2 -2 -2 -5v-168q0 -10 -10 -10h-51q-10 0 -10 10zM166 -186.5
q-2 3.5 1 8.5l62 109q5 7 12 7h41q6 0 7.5 -3.5t-1.5 -8.5l-70 -109q-5 -7 -12 -7h-32q-6 0 -8 3.5z" />
    <glyph glyph-name="Lacute" unicode="&#x139;" horiz-adv-x="396" 
d="M72 10v680q0 10 10 10h51q10 0 10 -10v-624q0 -4 4 -4h229q10 0 10 -10v-42q0 -10 -10 -10h-294q-10 0 -10 10zM65 769.5q-2 3.5 1 8.5l62 109q5 7 12 7h41q6 0 7.5 -3.5t-1.5 -8.5l-70 -109q-5 -7 -12 -7h-32q-6 0 -8 3.5z" />
    <glyph glyph-name="lacute" unicode="&#x13a;" horiz-adv-x="181" 
d="M55 10v680q0 10 10 10h51q10 0 10 -10v-680q0 -10 -10 -10h-51q-10 0 -10 10zM49 769.5q-2 3.5 1 8.5l62 109q5 7 12 7h41q6 0 7.5 -3.5t-1.5 -8.5l-70 -109q-5 -7 -12 -7h-32q-6 0 -8 3.5z" />
    <glyph glyph-name="uni013B" unicode="&#x13b;" horiz-adv-x="396" 
d="M72 10v680q0 10 10 10h51q10 0 10 -10v-624q0 -4 4 -4h229q10 0 10 -10v-42q0 -10 -10 -10h-294q-10 0 -10 10zM150 -186.5q-2 3.5 1 8.5l62 109q5 7 12 7h41q6 0 7.5 -3.5t-1.5 -8.5l-70 -109q-5 -7 -12 -7h-32q-6 0 -8 3.5z" />
    <glyph glyph-name="uni013C" unicode="&#x13c;" horiz-adv-x="181" 
d="M55 10v680q0 10 10 10h51q10 0 10 -10v-680q0 -10 -10 -10h-51q-10 0 -10 10zM-13 -186.5q-2 3.5 1 8.5l62 109q5 7 12 7h41q6 0 7.5 -3.5t-1.5 -8.5l-70 -109q-5 -7 -12 -7h-32q-6 0 -8 3.5z" />
    <glyph glyph-name="Lcaron" unicode="&#x13d;" horiz-adv-x="397" 
d="M72 10v680q0 10 10 10h51q10 0 10 -10v-624q0 -4 4 -4h229q10 0 10 -10v-42q0 -10 -10 -10h-294q-10 0 -10 10zM195 575.5q-2 3.5 1 8.5l62 109q5 7 12 7h41q6 0 7.5 -3.5t-1.5 -8.5l-70 -109q-5 -7 -12 -7h-32q-6 0 -8 3.5z" />
    <glyph glyph-name="lcaron" unicode="&#x13e;" horiz-adv-x="331" 
d="M55 10v680q0 10 10 10h51q10 0 10 -10v-680q0 -10 -10 -10h-51q-10 0 -10 10zM167 575.5q-2 3.5 1 8.5l62 109q5 7 12 7h41q6 0 7.5 -3.5t-1.5 -8.5l-70 -109q-5 -7 -12 -7h-32q-6 0 -8 3.5z" />
    <glyph glyph-name="ldot" unicode="&#x140;" horiz-adv-x="223" 
d="M75 10v680q0 10 10 10h51q10 0 10 -10v-680q0 -10 -10 -10h-51q-10 0 -10 10zM71.5 808q-15.5 16 -15.5 40q0 25 15.5 40.5t40.5 15.5q24 0 40 -15.5t16 -40.5q0 -24 -16 -40t-40 -16q-25 0 -40.5 16z" />
    <glyph glyph-name="Lslash" unicode="&#x141;" horiz-adv-x="423" 
d="M174 62h229q10 0 10 -10v-42q0 -10 -10 -10h-294q-10 0 -10 10v233q0 2 -1.5 3t-3.5 -1l-68 -49q-2 -2 -6 -2q-5 0 -8 4l-23 28q-2 2 -2 6q0 5 4 8l106 77q2 2 2 5v368q0 10 10 10h51q10 0 10 -10v-313q0 -2 1.5 -3t3.5 1l158 116q2 2 6 2q5 0 8 -4l24 -29q2 -2 2 -6
q0 -5 -4 -8l-197 -143q-2 -2 -2 -5v-232q0 -4 4 -4z" />
    <glyph glyph-name="lslash" unicode="&#x142;" horiz-adv-x="292" 
d="M271 387q0 -6 -5 -9l-87 -51q-3 -1 -3 -5v-312q0 -10 -10 -10h-51q-10 0 -10 10v268q0 2 -1.5 3t-3.5 0l-48 -28q-2 -1 -5 -1q-6 0 -9 5l-16 30q-2 4 -2 6q0 5 5 8l77 45q3 2 3 5v339q0 10 10 10h51q10 0 10 -10v-295q0 -2 1.5 -3t3.5 0l57 34q4 2 6 2q5 0 8 -6l18 -30
q1 -2 1 -5z" />
    <glyph glyph-name="Nacute" unicode="&#x143;" horiz-adv-x="493" 
d="M362 700h50q10 0 10 -10v-680q0 -10 -10 -10h-59q-8 0 -11 8l-195 517q-1 3 -3 2.5t-2 -3.5l1 -514q0 -10 -10 -10h-51q-10 0 -10 10v680q0 10 10 10h58q8 0 11 -8l196 -518q1 -3 3 -2.5t2 3.5v515q0 10 10 10zM204 776.5q-2 3.5 1 8.5l62 109q5 7 12 7h41q6 0 7.5 -3.5
t-1.5 -8.5l-70 -109q-5 -7 -12 -7h-32q-6 0 -8 3.5z" />
    <glyph glyph-name="nacute" unicode="&#x144;" 
d="M335.5 471q33.5 -42 33.5 -117v-344q0 -10 -10 -10h-51q-10 0 -10 10v338q0 49 -21.5 76t-59.5 27q-40 0 -62.5 -29t-22.5 -79v-333q0 -10 -10 -10h-51q-10 0 -10 10v486q0 10 10 10h51q10 0 10 -10v-32q0 -2 2 -3t3 2q18 25 45.5 37.5t58.5 12.5q61 0 94.5 -42z
M174 575.5q-2 3.5 1 8.5l62 109q5 7 12 7h41q6 0 7.5 -3.5t-1.5 -8.5l-70 -109q-5 -7 -12 -7h-32q-6 0 -8 3.5z" />
    <glyph glyph-name="uni0145" unicode="&#x145;" horiz-adv-x="493" 
d="M362 700h50q10 0 10 -10v-680q0 -10 -10 -10h-59q-8 0 -11 8l-195 517q-1 3 -3 2.5t-2 -3.5l1 -514q0 -10 -10 -10h-51q-10 0 -10 10v680q0 10 10 10h58q8 0 11 -8l196 -518q1 -3 3 -2.5t2 3.5v515q0 10 10 10zM199 -186.5q-2 3.5 1 8.5l62 109q5 7 12 7h41q6 0 7.5 -3.5
t-1.5 -8.5l-70 -109q-5 -7 -12 -7h-32q-6 0 -8 3.5z" />
    <glyph glyph-name="uni0146" unicode="&#x146;" 
d="M335.5 471q33.5 -42 33.5 -117v-344q0 -10 -10 -10h-51q-10 0 -10 10v338q0 49 -21.5 76t-59.5 27q-40 0 -62.5 -29t-22.5 -79v-333q0 -10 -10 -10h-51q-10 0 -10 10v486q0 10 10 10h51q10 0 10 -10v-32q0 -2 2 -3t3 2q18 25 45.5 37.5t58.5 12.5q61 0 94.5 -42z
M170 -186.5q-2 3.5 1 8.5l62 109q5 7 12 7h41q6 0 7.5 -3.5t-1.5 -8.5l-70 -109q-5 -7 -12 -7h-32q-6 0 -8 3.5z" />
    <glyph glyph-name="Ncaron" unicode="&#x147;" horiz-adv-x="493" 
d="M362 700h50q10 0 10 -10v-680q0 -10 -10 -10h-59q-8 0 -11 8l-195 517q-1 3 -3 2.5t-2 -3.5l1 -514q0 -10 -10 -10h-51q-10 0 -10 10v680q0 10 10 10h58q8 0 11 -8l196 -518q1 -3 3 -2.5t2 3.5v515q0 10 10 10zM138 895q0 6 8 6h43q7 0 12 -7l44 -73q1 -1 3 -1t3 1l43 73
q5 7 12 7h44q6 0 7.5 -3.5t-1.5 -8.5l-67 -103q-5 -7 -12 -7h-60q-7 0 -12 7l-65 103q-2 4 -2 6z" />
    <glyph glyph-name="ncaron" unicode="&#x148;" 
d="M335.5 471q33.5 -42 33.5 -117v-344q0 -10 -10 -10h-51q-10 0 -10 10v338q0 49 -21.5 76t-59.5 27q-40 0 -62.5 -29t-22.5 -79v-333q0 -10 -10 -10h-51q-10 0 -10 10v486q0 10 10 10h51q10 0 10 -10v-32q0 -2 2 -3t3 2q18 25 45.5 37.5t58.5 12.5q61 0 94.5 -42zM108 694
q0 6 8 6h43q7 0 12 -7l44 -73q1 -1 3 -1t3 1l43 73q5 7 12 7h44q6 0 7.5 -3.5t-1.5 -8.5l-67 -103q-5 -7 -12 -7h-60q-7 0 -12 7l-65 103q-2 4 -2 6z" />
    <glyph glyph-name="Eng" unicode="&#x14a;" horiz-adv-x="493" 
d="M362 700h50q10 0 10 -10v-690q0 -57 -7.5 -88.5t-36.5 -49.5t-90 -18q-10 0 -10 10v42q0 10 10 10q28 1 40 11.5t14.5 27.5t2.5 52q0 4 -1 5l-197 523q-1 3 -3 2.5t-2 -3.5l1 -514q0 -10 -10 -10h-51q-10 0 -10 10v680q0 10 10 10h58q8 0 11 -8l189 -499q1 -3 3 -2.5
t2 3.5v265q0 10 4 10q3 0 3 4v217q0 10 10 10z" />
    <glyph glyph-name="eng" unicode="&#x14b;" 
d="M335.5 471q33.5 -42 33.5 -117v-362q0 -51 -9.5 -84t-40 -53t-89.5 -21q-10 0 -10 10v41q0 10 10 10q39 2 53.5 26.5t14.5 70.5v356q0 49 -21.5 76t-59.5 27q-40 0 -62.5 -29t-22.5 -79v-333q0 -10 -10 -10h-51q-10 0 -10 10v486q0 10 10 10h51q10 0 10 -10v-32
q0 -2 2 -3t3 2q18 25 45.5 37.5t58.5 12.5q61 0 94.5 -42z" />
    <glyph glyph-name="Omacron" unicode="&#x14c;" horiz-adv-x="456" 
d="M102.5 40q-47.5 48 -47.5 127v366q0 79 47.5 127t124.5 48q78 0 126 -48t48 -127v-366q0 -78 -48 -126.5t-126 -48.5q-77 0 -124.5 48zM301.5 84.5q28.5 30.5 28.5 78.5v373q0 49 -28.5 79.5t-74.5 30.5q-45 0 -73 -30.5t-28 -79.5v-373q0 -48 28 -78.5t73 -30.5
q46 0 74.5 30.5zM124 798v32q0 10 10 10h183q10 0 10 -10v-32q0 -10 -10 -10h-183q-10 0 -10 10z" />
    <glyph glyph-name="omacron" unicode="&#x14d;" horiz-adv-x="414" 
d="M92.5 34q-42.5 42 -42.5 111v215q0 68 43 111t114 43q72 0 115 -43t43 -111v-215q0 -69 -43 -111t-115 -42t-114.5 42zM269.5 81q24.5 26 24.5 69v206q0 43 -24.5 69.5t-62.5 26.5t-62 -26.5t-24 -69.5v-206q0 -43 24 -69t62 -26t62.5 26zM104 605v32q0 10 10 10h183
q10 0 10 -10v-32q0 -10 -10 -10h-183q-10 0 -10 10z" />
    <glyph glyph-name="obreve" unicode="&#x14f;" horiz-adv-x="414" 
d="M92.5 34q-42.5 42 -42.5 111v215q0 68 43 111t114 43q72 0 115 -43t43 -111v-215q0 -69 -43 -111t-115 -42t-114.5 42zM269.5 81q24.5 26 24.5 69v206q0 43 -24.5 69.5t-62.5 26.5t-62 -26.5t-24 -69.5v-206q0 -43 24 -69t62 -26t62.5 26zM135 607q-29 27 -33 68
q0 10 10 10h23q10 0 11 -10q3 -26 20 -42t41 -16t41 16t20 42q1 10 11 10h23q10 0 10 -10q-4 -41 -33 -68t-72 -27t-72 27z" />
    <glyph glyph-name="Ohungarumlaut" unicode="&#x150;" horiz-adv-x="456" 
d="M102.5 40q-47.5 48 -47.5 127v366q0 79 47.5 127t124.5 48q78 0 126 -48t48 -127v-366q0 -78 -48 -126.5t-126 -48.5q-77 0 -124.5 48zM301.5 84.5q28.5 30.5 28.5 78.5v373q0 49 -28.5 79.5t-74.5 30.5q-45 0 -73 -30.5t-28 -79.5v-373q0 -48 28 -78.5t73 -30.5
q46 0 74.5 30.5zM141 768.5q-2 3.5 0 8.5l57 109q3 7 12 7h42q6 0 8 -3.5t-1 -8.5l-60 -109q-3 -7 -12 -7h-39q-5 0 -7 3.5zM266.5 768.5q-2.5 3.5 0.5 8.5l59 109q3 7 12 7h39q6 0 8 -3.5t-1 -8.5l-60 -109q-3 -7 -12 -7h-38q-5 0 -7.5 3.5z" />
    <glyph glyph-name="ohungarumlaut" unicode="&#x151;" horiz-adv-x="414" 
d="M92.5 34q-42.5 42 -42.5 111v215q0 68 43 111t114 43q72 0 115 -43t43 -111v-215q0 -69 -43 -111t-115 -42t-114.5 42zM269.5 81q24.5 26 24.5 69v206q0 43 -24.5 69.5t-62.5 26.5t-62 -26.5t-24 -69.5v-206q0 -43 24 -69t62 -26t62.5 26zM121 575.5q-2 3.5 0 8.5l57 109
q3 7 12 7h42q6 0 8 -3.5t-1 -8.5l-60 -109q-3 -7 -12 -7h-39q-5 0 -7 3.5zM246.5 575.5q-2.5 3.5 0.5 8.5l59 109q3 7 12 7h39q6 0 8 -3.5t-1 -8.5l-60 -109q-3 -7 -12 -7h-38q-5 0 -7.5 3.5z" />
    <glyph glyph-name="OE" unicode="&#x152;" horiz-adv-x="687" 
d="M636 638h-231q-4 0 -4 -4v-248q0 -4 4 -4h146q10 0 10 -10v-43q0 -10 -10 -10h-146q-4 0 -4 -4v-249q0 -4 4 -4h231q10 0 10 -10v-42q0 -10 -10 -10h-296q-10 0 -10 10v28q0 2 -1.5 3t-3.5 -1q-43 -48 -113 -48q-43 0 -79 22t-57 62t-21 91v366q0 51 21 91t57 62t79 22
q70 0 113 -48q2 -2 3.5 -1t1.5 3v28q0 10 10 10h296q10 0 10 -10v-42q0 -10 -10 -10zM301.5 84.5q28.5 30.5 28.5 78.5v373q0 49 -28.5 79.5t-74.5 30.5q-45 0 -73 -30.5t-28 -79.5v-373q0 -48 28 -78.5t73 -30.5q46 0 74.5 30.5z" />
    <glyph glyph-name="oe" unicode="&#x153;" horiz-adv-x="658" 
d="M604 233h-229q-4 0 -4 -4v-79q0 -43 24 -69.5t62 -26.5q32 0 54 19.5t30 50.5q3 9 11 9l50 -2q4 0 7 -3t2 -8q-9 -60 -49 -94t-105 -34q-80 0 -121 66q-3 3 -6 0q-43 -66 -123 -66q-72 0 -114.5 42t-42.5 111v215q0 68 43 111t114 43q79 0 123 -67q3 -3 6 0
q20 31 50.5 49t70.5 18q71 0 114 -43t43 -111v-117q0 -10 -10 -10zM270 425.5q-24 26.5 -63 26.5q-38 0 -62 -26.5t-24 -69.5v-206q0 -43 24 -69.5t62 -26.5q39 0 63 26.5t24 69.5v206q0 43 -24 69.5zM395 425.5q-24 -26.5 -24 -69.5v-70q0 -4 4 -4h164q4 0 4 4v70
q0 43 -24 69.5t-62 26.5t-62 -26.5z" />
    <glyph glyph-name="Racute" unicode="&#x154;" horiz-adv-x="443" 
d="M340 8l-102 309q-1 3 -4 3h-87q-4 0 -4 -4v-306q0 -10 -10 -10h-51q-10 0 -10 10v680q0 10 10 10h165q73 0 118 -53.5t45 -139.5q0 -65 -28 -112t-76 -66q-4 -1 -3 -5l109 -313l1 -4q0 -7 -9 -7h-52q-9 0 -12 8zM143 634v-253q0 -4 4 -4h90q46 0 74 35.5t28 94.5t-28 95
t-74 36h-90q-4 0 -4 -4zM181 769.5q-2 3.5 1 8.5l62 109q5 7 12 7h41q6 0 7.5 -3.5t-1.5 -8.5l-70 -109q-5 -7 -12 -7h-32q-6 0 -8 3.5z" />
    <glyph glyph-name="racute" unicode="&#x155;" horiz-adv-x="292" 
d="M275 500q7 -4 5 -13l-12 -52q-1 -9 -12 -6q-12 6 -30 6q-8 0 -12 -1q-36 -2 -59 -37.5t-23 -86.5v-300q0 -10 -10 -10h-51q-10 0 -10 10v486q0 10 10 10h51q10 0 10 -10v-60q0 -3 1.5 -3t3.5 2q29 76 95 76q25 0 43 -11zM131 575.5q-2 3.5 1 8.5l62 109q5 7 12 7h41
q6 0 7.5 -3.5t-1.5 -8.5l-70 -109q-5 -7 -12 -7h-32q-6 0 -8 3.5z" />
    <glyph glyph-name="uni0156" unicode="&#x156;" horiz-adv-x="443" 
d="M340 8l-102 309q-1 3 -4 3h-87q-4 0 -4 -4v-306q0 -10 -10 -10h-51q-10 0 -10 10v680q0 10 10 10h165q73 0 118 -53.5t45 -139.5q0 -65 -28 -112t-76 -66q-4 -1 -3 -5l109 -313l1 -4q0 -7 -9 -7h-52q-9 0 -12 8zM143 634v-253q0 -4 4 -4h90q46 0 74 35.5t28 94.5t-28 95
t-74 36h-90q-4 0 -4 -4zM186 -186.5q-2 3.5 1 8.5l62 109q5 7 12 7h41q6 0 7.5 -3.5t-1.5 -8.5l-70 -109q-5 -7 -12 -7h-32q-6 0 -8 3.5z" />
    <glyph glyph-name="uni0157" unicode="&#x157;" horiz-adv-x="292" 
d="M275 500q7 -4 5 -13l-12 -52q-1 -9 -12 -6q-12 6 -30 6q-8 0 -12 -1q-36 -2 -59 -37.5t-23 -86.5v-300q0 -10 -10 -10h-51q-10 0 -10 10v486q0 10 10 10h51q10 0 10 -10v-60q0 -3 1.5 -3t3.5 2q29 76 95 76q25 0 43 -11zM-7 -186.5q-2 3.5 1 8.5l62 109q5 7 12 7h41
q6 0 7.5 -3.5t-1.5 -8.5l-70 -109q-5 -7 -12 -7h-32q-6 0 -8 3.5z" />
    <glyph glyph-name="Rcaron" unicode="&#x158;" horiz-adv-x="443" 
d="M340 8l-102 309q-1 3 -4 3h-87q-4 0 -4 -4v-306q0 -10 -10 -10h-51q-10 0 -10 10v680q0 10 10 10h165q73 0 118 -53.5t45 -139.5q0 -65 -28 -112t-76 -66q-4 -1 -3 -5l109 -313l1 -4q0 -7 -9 -7h-52q-9 0 -12 8zM143 634v-253q0 -4 4 -4h90q46 0 74 35.5t28 94.5t-28 95
t-74 36h-90q-4 0 -4 -4zM116 888q0 6 8 6h43q7 0 12 -7l44 -73q1 -1 3 -1t3 1l43 73q5 7 12 7h44q6 0 7.5 -3.5t-1.5 -8.5l-67 -103q-5 -7 -12 -7h-60q-7 0 -12 7l-65 103q-2 4 -2 6z" />
    <glyph glyph-name="rcaron" unicode="&#x159;" horiz-adv-x="292" 
d="M275 500q7 -4 5 -13l-12 -52q-1 -9 -12 -6q-12 6 -30 6q-8 0 -12 -1q-36 -2 -59 -37.5t-23 -86.5v-300q0 -10 -10 -10h-51q-10 0 -10 10v486q0 10 10 10h51q10 0 10 -10v-60q0 -3 1.5 -3t3.5 2q29 76 95 76q25 0 43 -11zM65 694q0 6 8 6h43q7 0 12 -7l44 -73q1 -1 3 -1
t3 1l43 73q5 7 12 7h44q6 0 7.5 -3.5t-1.5 -8.5l-67 -103q-5 -7 -12 -7h-60q-7 0 -12 7l-65 103q-2 4 -2 6z" />
    <glyph glyph-name="Sacute" unicode="&#x15a;" horiz-adv-x="416" 
d="M88 41q-46 49 -46 128v23q0 10 10 10h49q10 0 10 -10v-20q0 -53 27 -85.5t70 -32.5q42 0 70 31t28 82q0 34 -13.5 58.5t-35 43t-71.5 56.5q-50 37 -79 63.5t-47.5 63.5t-18.5 87q0 78 45 123.5t117 45.5q76 0 121.5 -49.5t45.5 -131.5v-25q0 -10 -10 -10h-50
q-10 0 -10 10v26q0 53 -26.5 85.5t-70.5 32.5q-40 0 -66 -28.5t-26 -80.5q0 -31 11.5 -54.5t34.5 -44.5t68 -55q60 -44 89.5 -71.5t45.5 -60t16 -78.5q0 -82 -47 -131.5t-121 -49.5t-120 49zM160 769.5q-2 3.5 1 8.5l62 109q5 7 12 7h41q6 0 7.5 -3.5t-1.5 -8.5l-70 -109
q-5 -7 -12 -7h-32q-6 0 -8 3.5z" />
    <glyph glyph-name="sacute" unicode="&#x15b;" horiz-adv-x="375" 
d="M82.5 30.5q-41.5 35.5 -41.5 94.5v7q0 10 10 10h48q10 0 10 -10v-6q0 -32 23.5 -54t61.5 -22q36 0 58 22t22 56q0 26 -14 43.5t-32.5 27.5t-55.5 26q-39 16 -64.5 31.5t-44 44t-18.5 72.5q0 64 39.5 101t106.5 37q68 0 108 -38t40 -101v-3q0 -10 -10 -10h-46
q-10 0 -10 10v6q0 34 -22.5 56t-58.5 22t-57.5 -22.5t-21.5 -55.5q0 -24 13 -40.5t32 -27t53 -25.5q41 -18 67.5 -34t46.5 -45t20 -72q0 -62 -41 -99t-111 -37q-69 0 -110.5 35.5zM149 575.5q-2 3.5 1 8.5l62 109q5 7 12 7h41q6 0 7.5 -3.5t-1.5 -8.5l-70 -109q-5 -7 -12 -7
h-32q-6 0 -8 3.5z" />
    <glyph glyph-name="Scircumflex" unicode="&#x15c;" horiz-adv-x="416" 
d="M88 41q-46 49 -46 128v23q0 10 10 10h49q10 0 10 -10v-20q0 -53 27 -85.5t70 -32.5q42 0 70 31t28 82q0 34 -13.5 58.5t-35 43t-71.5 56.5q-50 37 -79 63.5t-47.5 63.5t-18.5 87q0 78 45 123.5t117 45.5q76 0 121.5 -49.5t45.5 -131.5v-25q0 -10 -10 -10h-50
q-10 0 -10 10v26q0 53 -26.5 85.5t-70.5 32.5q-40 0 -66 -28.5t-26 -80.5q0 -31 11.5 -54.5t34.5 -44.5t68 -55q60 -44 89.5 -71.5t45.5 -60t16 -78.5q0 -82 -47 -131.5t-121 -49.5t-120 49zM92.5 775.5q-1.5 3.5 1.5 8.5l65 103q5 7 12 7h60q7 0 12 -7l67 -103q2 -4 2 -6
q0 -6 -8 -6h-44q-7 0 -12 7l-43 73q-1 2 -3 2t-3 -2l-44 -73q-5 -7 -12 -7h-43q-6 0 -7.5 3.5z" />
    <glyph glyph-name="scircumflex" unicode="&#x15d;" horiz-adv-x="375" 
d="M82.5 30.5q-41.5 35.5 -41.5 94.5v7q0 10 10 10h48q10 0 10 -10v-6q0 -32 23.5 -54t61.5 -22q36 0 58 22t22 56q0 26 -14 43.5t-32.5 27.5t-55.5 26q-39 16 -64.5 31.5t-44 44t-18.5 72.5q0 64 39.5 101t106.5 37q68 0 108 -38t40 -101v-3q0 -10 -10 -10h-46
q-10 0 -10 10v6q0 34 -22.5 56t-58.5 22t-57.5 -22.5t-21.5 -55.5q0 -24 13 -40.5t32 -27t53 -25.5q41 -18 67.5 -34t46.5 -45t20 -72q0 -62 -41 -99t-111 -37q-69 0 -110.5 35.5zM81.5 581.5q-1.5 3.5 1.5 8.5l65 103q5 7 12 7h60q7 0 12 -7l67 -103q2 -4 2 -6q0 -6 -8 -6
h-44q-7 0 -12 7l-43 73q-1 2 -3 2t-3 -2l-44 -73q-5 -7 -12 -7h-43q-6 0 -7.5 3.5z" />
    <glyph glyph-name="Scedilla" unicode="&#x15e;" horiz-adv-x="416" 
d="M339 52.5q-37 -47.5 -99 -57.5q-5 -2 -2 -5q41 -42 41 -93q0 -44 -23 -62.5t-57 -18.5q-17 0 -30 3q-8 1 -7 11l3 22q1 5 4.5 6.5t7.5 0.5t11 -1q18 0 29.5 11.5t11.5 36.5q0 38 -44 86q-2 2 -5 2q-63 9 -100.5 56t-37.5 119v23q0 10 10 10h49q10 0 10 -10v-20
q0 -53 27 -85.5t70 -32.5q42 0 70 31t28 82q0 34 -13.5 58.5t-35 43t-71.5 56.5q-50 37 -79 63.5t-47.5 63.5t-18.5 87q0 78 45 123.5t117 45.5q76 0 121.5 -49.5t45.5 -131.5v-25q0 -10 -10 -10h-50q-10 0 -10 10v26q0 53 -26.5 85.5t-70.5 32.5q-40 0 -66 -28.5t-26 -80.5
q0 -31 11.5 -54.5t34.5 -44.5t68 -55q60 -44 89.5 -71.5t45.5 -60t16 -78.5q0 -73 -37 -120.5z" />
    <glyph glyph-name="scedilla" unicode="&#x15f;" horiz-adv-x="375" 
d="M313 41.5q-32 -35.5 -87 -43.5q-5 -2 -2 -5q42 -42 42 -93q0 -44 -23.5 -63t-56.5 -19q-17 0 -30 3q-8 3 -7 12l3 21q1 4 4 6.5t8 1.5q4 -1 12 -1q18 0 29 11.5t11 36.5q0 40 -45 85q-2 2 -5 2q-58 7 -91.5 41.5t-33.5 87.5v7q0 10 10 10h48q10 0 10 -10v-6
q0 -32 23.5 -54t61.5 -22q36 0 58 22t22 56q0 26 -14 43.5t-32.5 27.5t-55.5 26q-39 16 -64.5 31.5t-44 44t-18.5 72.5q0 64 39.5 101t106.5 37q68 0 108 -38t40 -101v-3q0 -10 -10 -10h-46q-10 0 -10 10v6q0 34 -22.5 56t-58.5 22t-57.5 -22.5t-21.5 -55.5q0 -24 13 -40.5
t32 -27t53 -25.5q41 -18 67.5 -34t46.5 -45t20 -72q0 -54 -32 -89.5z" />
    <glyph glyph-name="Scaron" unicode="&#x160;" horiz-adv-x="416" 
d="M88 41q-46 49 -46 128v23q0 10 10 10h49q10 0 10 -10v-20q0 -53 27 -85.5t70 -32.5q42 0 70 31t28 82q0 34 -13.5 58.5t-35 43t-71.5 56.5q-50 37 -79 63.5t-47.5 63.5t-18.5 87q0 78 45 123.5t117 45.5q76 0 121.5 -49.5t45.5 -131.5v-25q0 -10 -10 -10h-50
q-10 0 -10 10v26q0 53 -26.5 85.5t-70.5 32.5q-40 0 -66 -28.5t-26 -80.5q0 -31 11.5 -54.5t34.5 -44.5t68 -55q60 -44 89.5 -71.5t45.5 -60t16 -78.5q0 -82 -47 -131.5t-121 -49.5t-120 49zM95 888q0 6 8 6h43q7 0 12 -7l44 -73q1 -1 3 -1t3 1l43 73q5 7 12 7h44
q6 0 7.5 -3.5t-1.5 -8.5l-67 -103q-5 -7 -12 -7h-60q-7 0 -12 7l-65 103q-2 4 -2 6z" />
    <glyph glyph-name="scaron" unicode="&#x161;" horiz-adv-x="375" 
d="M82.5 30.5q-41.5 35.5 -41.5 94.5v7q0 10 10 10h48q10 0 10 -10v-6q0 -32 23.5 -54t61.5 -22q36 0 58 22t22 56q0 26 -14 43.5t-32.5 27.5t-55.5 26q-39 16 -64.5 31.5t-44 44t-18.5 72.5q0 64 39.5 101t106.5 37q68 0 108 -38t40 -101v-3q0 -10 -10 -10h-46
q-10 0 -10 10v6q0 34 -22.5 56t-58.5 22t-57.5 -22.5t-21.5 -55.5q0 -24 13 -40.5t32 -27t53 -25.5q41 -18 67.5 -34t46.5 -45t20 -72q0 -62 -41 -99t-111 -37q-69 0 -110.5 35.5zM83 694q0 6 8 6h43q7 0 12 -7l44 -73q1 -1 3 -1t3 1l43 73q5 7 12 7h44q6 0 7.5 -3.5
t-1.5 -8.5l-67 -103q-5 -7 -12 -7h-60q-7 0 -12 7l-65 103q-2 4 -2 6z" />
    <glyph glyph-name="uni0162" unicode="&#x162;" horiz-adv-x="423" 
d="M389 690v-42q0 -10 -10 -10h-132q-4 0 -4 -4v-624q0 -10 -10 -10h-51q-10 0 -10 10v624q0 4 -4 4h-124q-10 0 -10 10v42q0 10 10 10h335q10 0 10 -10zM178 -170l3 21q2 8 10 8q1 -1 5 -1q22 -3 35.5 8t13.5 40q0 20 -11 41.5t-30 40.5q-4 3 -4 7q0 5 8 5h27q7 0 10 -3
l4 -4q46 -41 46 -96q0 -44 -23 -63t-57 -19q-17 0 -30 3q-8 3 -7 12z" />
    <glyph glyph-name="uni0163" unicode="&#x163;" horiz-adv-x="267" 
d="M229 453h-76q-4 0 -4 -4v-306q0 -46 16 -63.5t49 -16.5h10q10 0 10 -10v-43q0 -10 -10 -10h-21q-5 0 -2 -5q30 -37 30 -79q0 -44 -23.5 -63t-57.5 -19q-17 0 -30 3q-8 1 -7 11l3 22q2 8 10 8q1 -1 4 -1q22 -3 36 8t14 38q0 42 -42 84l-4 3q-55 23 -55 112v327q0 4 -4 4
h-39q-10 0 -10 10v33q0 10 10 10h39q4 0 4 4v112q0 10 10 10h50q10 0 10 -10v-112q0 -4 4 -4h76q10 0 10 -10v-33q0 -10 -10 -10z" />
    <glyph glyph-name="Tcaron" unicode="&#x164;" horiz-adv-x="423" 
d="M389 690v-42q0 -10 -10 -10h-132q-4 0 -4 -4v-624q0 -10 -10 -10h-51q-10 0 -10 10v624q0 4 -4 4h-124q-10 0 -10 10v42q0 10 10 10h335q10 0 10 -10zM101 886q0 6 8 6h43q7 0 12 -7l44 -73q1 -1 3 -1t3 1l43 73q5 7 12 7h44q6 0 7.5 -3.5t-1.5 -8.5l-67 -103
q-5 -7 -12 -7h-60q-7 0 -12 7l-65 103q-2 4 -2 6z" />
    <glyph glyph-name="tcaron" unicode="&#x165;" horiz-adv-x="267" 
d="M229 453h-76q-4 0 -4 -4v-306q0 -46 16 -63.5t49 -16.5h10q10 0 10 -10v-43q0 -10 -10 -10h-25q-59 0 -89.5 25.5t-30.5 96.5v327q0 4 -4 4h-39q-10 0 -10 10v33q0 10 10 10h39q4 0 4 4v112q0 10 10 10h50q10 0 10 -10v-112q0 -4 4 -4h76q10 0 10 -10v-33q0 -10 -10 -10z
M171 575.5q-2 3.5 1 8.5l62 109q5 7 12 7h41q6 0 7.5 -3.5t-1.5 -8.5l-70 -109q-5 -7 -12 -7h-32q-6 0 -8 3.5z" />
    <glyph glyph-name="Tbar" unicode="&#x166;" horiz-adv-x="423" 
d="M379 638h-132q-4 0 -4 -4v-212q0 -4 4 -4h78q10 0 10 -10v-27q0 -10 -10 -10h-78q-4 0 -4 -4v-357q0 -10 -10 -10h-51q-10 0 -10 10v357q0 4 -4 4h-89q-10 0 -10 10v27q0 10 10 10h89q4 0 4 4v212q0 4 -4 4h-124q-10 0 -10 10v42q0 10 10 10h335q10 0 10 -10v-42
q0 -10 -10 -10z" />
    <glyph glyph-name="tbar" unicode="&#x167;" horiz-adv-x="267" 
d="M229 453h-76q-4 0 -4 -4v-96q0 -4 4 -4h75q10 0 10 -10v-28q0 -10 -10 -10h-75q-4 0 -4 -4v-154q0 -46 16 -63.5t49 -16.5h10q10 0 10 -10v-43q0 -10 -10 -10h-25q-59 0 -89.5 25.5t-30.5 96.5v175q0 4 -4 4h-37q-10 0 -10 10v28q0 10 10 10h37q4 0 4 4v96q0 4 -4 4h-39
q-10 0 -10 10v33q0 10 10 10h39q4 0 4 4v112q0 10 10 10h50q10 0 10 -10v-112q0 -4 4 -4h76q10 0 10 -10v-33q0 -10 -10 -10z" />
    <glyph glyph-name="Utilde" unicode="&#x168;" horiz-adv-x="476" 
d="M113 45q-47 53 -47 140v505q0 10 10 10h51q10 0 10 -10v-513q0 -55 27.5 -89t72.5 -34q46 0 74 34t28 89v513q0 10 10 10h51q10 0 10 -10v-505q0 -87 -47.5 -140t-125.5 -53q-77 0 -124 53zM275 807.5q-11 5.5 -29 16.5q-4 3 -13 9t-16 8.5t-15 2.5q-14 0 -24.5 -5.5
t-20.5 -20.5q-6 -9 -14 -3l-18 13q-8 6 -4 14q27 52 76 52q16 0 29 -6t29 -17q2 -2 11 -8t17.5 -9.5t16.5 -3.5q13 0 23 6t20 22q2 4 6 5t8 -1l18 -12q4 -3 4 -8t-4 -12q-14 -25 -35 -36.5t-40 -11.5q-14 0 -25 5.5z" />
    <glyph glyph-name="utilde" unicode="&#x169;" 
d="M302 506h51q10 0 10 -10v-486q0 -10 -10 -10h-51q-10 0 -10 10v34q0 3 -1.5 3t-3.5 -2q-31 -52 -100 -52q-60 0 -95.5 36.5t-35.5 110.5v356q0 10 10 10h51q10 0 10 -10v-340q0 -50 20.5 -75.5t59.5 -25.5q40 0 62.5 29t22.5 79v333q0 10 10 10zM246 613.5
q-11 5.5 -29 16.5q-4 3 -13 9t-16 8.5t-15 2.5q-14 0 -24.5 -5.5t-20.5 -20.5q-6 -9 -14 -3l-18 13q-8 6 -4 14q27 52 76 52q16 0 29 -6t29 -17q2 -2 11 -8t17.5 -9.5t16.5 -3.5q13 0 23 6t20 22q2 4 6 5t8 -1l18 -12q4 -3 4 -8t-4 -12q-14 -25 -35 -36.5t-40 -11.5
q-14 0 -25 5.5z" />
    <glyph glyph-name="Umacron" unicode="&#x16a;" horiz-adv-x="476" 
d="M113 45q-47 53 -47 140v505q0 10 10 10h51q10 0 10 -10v-513q0 -55 27.5 -89t72.5 -34q46 0 74 34t28 89v513q0 10 10 10h51q10 0 10 -10v-505q0 -87 -47.5 -140t-125.5 -53q-77 0 -124 53zM135 799v32q0 10 10 10h183q10 0 10 -10v-32q0 -10 -10 -10h-183q-10 0 -10 10z
" />
    <glyph glyph-name="umacron" unicode="&#x16b;" 
d="M302 506h51q10 0 10 -10v-486q0 -10 -10 -10h-51q-10 0 -10 10v34q0 3 -1.5 3t-3.5 -2q-31 -52 -100 -52q-60 0 -95.5 36.5t-35.5 110.5v356q0 10 10 10h51q10 0 10 -10v-340q0 -50 20.5 -75.5t59.5 -25.5q40 0 62.5 29t22.5 79v333q0 10 10 10zM106 605v32q0 10 10 10
h183q10 0 10 -10v-32q0 -10 -10 -10h-183q-10 0 -10 10z" />
    <glyph glyph-name="Ubreve" unicode="&#x16c;" horiz-adv-x="476" 
d="M113 45q-47 53 -47 140v505q0 10 10 10h51q10 0 10 -10v-513q0 -55 27.5 -89t72.5 -34q46 0 74 34t28 89v513q0 10 10 10h51q10 0 10 -10v-505q0 -87 -47.5 -140t-125.5 -53q-77 0 -124 53zM165 801q-29 27 -33 68q0 10 10 10h23q10 0 11 -10q3 -26 20 -42t41 -16t41 16
t20 42q1 10 11 10h23q10 0 10 -10q-4 -41 -33 -68t-72 -27t-72 27z" />
    <glyph glyph-name="ubreve" unicode="&#x16d;" 
d="M302 506h51q10 0 10 -10v-486q0 -10 -10 -10h-51q-10 0 -10 10v34q0 3 -1.5 3t-3.5 -2q-31 -52 -100 -52q-60 0 -95.5 36.5t-35.5 110.5v356q0 10 10 10h51q10 0 10 -10v-340q0 -50 20.5 -75.5t59.5 -25.5q40 0 62.5 29t22.5 79v333q0 10 10 10zM137 607q-29 27 -33 68
q0 10 10 10h23q10 0 11 -10q3 -26 20 -42t41 -16t41 16t20 42q1 10 11 10h23q10 0 10 -10q-4 -41 -33 -68t-72 -27t-72 27z" />
    <glyph glyph-name="Uring" unicode="&#x16e;" horiz-adv-x="476" 
d="M113 45q-47 53 -47 140v505q0 10 10 10h51q10 0 10 -10v-513q0 -55 27.5 -89t72.5 -34q46 0 74 34t28 89v513q0 10 10 10h51q10 0 10 -10v-505q0 -87 -47.5 -140t-125.5 -53q-77 0 -124 53zM162 804q-31 31 -31 77q0 45 31 76.5t75 31.5q45 0 75.5 -31.5t30.5 -76.5
q0 -46 -30.5 -77t-75.5 -31q-44 0 -75 31zM281.5 834.5q18.5 18.5 18.5 46.5t-18.5 47t-44.5 19t-44.5 -19t-18.5 -47t18.5 -46.5t44.5 -18.5t44.5 18.5z" />
    <glyph glyph-name="uring" unicode="&#x16f;" 
d="M302 506h51q10 0 10 -10v-486q0 -10 -10 -10h-51q-10 0 -10 10v34q0 3 -1.5 3t-3.5 -2q-31 -52 -100 -52q-60 0 -95.5 36.5t-35.5 110.5v356q0 10 10 10h51q10 0 10 -10v-340q0 -50 20.5 -75.5t59.5 -25.5q40 0 62.5 29t22.5 79v333q0 10 10 10zM134 610q-31 31 -31 77
q0 45 31 76.5t75 31.5q45 0 75.5 -31.5t30.5 -76.5q0 -46 -30.5 -77t-75.5 -31q-44 0 -75 31zM253.5 640.5q18.5 18.5 18.5 46.5t-18.5 47t-44.5 19t-44.5 -19t-18.5 -47t18.5 -46.5t44.5 -18.5t44.5 18.5z" />
    <glyph glyph-name="Uhungarumlaut" unicode="&#x170;" horiz-adv-x="476" 
d="M113 45q-47 53 -47 140v505q0 10 10 10h51q10 0 10 -10v-513q0 -55 27.5 -89t72.5 -34q46 0 74 34t28 89v513q0 10 10 10h51q10 0 10 -10v-505q0 -87 -47.5 -140t-125.5 -53q-77 0 -124 53zM151 769.5q-2 3.5 0 8.5l57 109q3 7 12 7h42q6 0 8 -3.5t-1 -8.5l-60 -109
q-3 -7 -12 -7h-39q-5 0 -7 3.5zM276.5 769.5q-2.5 3.5 0.5 8.5l59 109q3 7 12 7h39q6 0 8 -3.5t-1 -8.5l-60 -109q-3 -7 -12 -7h-38q-5 0 -7.5 3.5z" />
    <glyph glyph-name="uhungarumlaut" unicode="&#x171;" 
d="M302 506h51q10 0 10 -10v-486q0 -10 -10 -10h-51q-10 0 -10 10v34q0 3 -1.5 3t-3.5 -2q-31 -52 -100 -52q-60 0 -95.5 36.5t-35.5 110.5v356q0 10 10 10h51q10 0 10 -10v-340q0 -50 20.5 -75.5t59.5 -25.5q40 0 62.5 29t22.5 79v333q0 10 10 10zM122 575.5q-2 3.5 0 8.5
l57 109q3 7 12 7h42q6 0 8 -3.5t-1 -8.5l-60 -109q-3 -7 -12 -7h-39q-5 0 -7 3.5zM247.5 575.5q-2.5 3.5 0.5 8.5l59 109q3 7 12 7h39q6 0 8 -3.5t-1 -8.5l-60 -109q-3 -7 -12 -7h-38q-5 0 -7.5 3.5z" />
    <glyph glyph-name="Uogonek" unicode="&#x172;" horiz-adv-x="476" 
d="M349 700h51q10 0 10 -10v-505q0 -80 -40.5 -131.5t-108.5 -60.5q-3 0 -5 -2q-38 -41 -38 -80q0 -47 40 -47q7 0 10 1q3 0 4 1q8 0 10 -8l3 -22v-3q0 -7 -7 -8q-13 -3 -30 -3q-34 0 -57 18.5t-23 62.5q0 48 36 87q4 4 -2 5q-62 12 -99 63t-37 127v505q0 10 10 10h51
q10 0 10 -10v-513q0 -55 27.5 -89t72.5 -34q46 0 74 34t28 89v513q0 10 10 10z" />
    <glyph glyph-name="uogonek" unicode="&#x173;" 
d="M364 -141q8 0 10 -8l3 -21v-2q0 -7 -8 -10q-13 -3 -29 -3q-34 0 -57.5 18.5t-23.5 64.5q0 53 47 97q2 2 1.5 3.5t-2.5 1.5h-3q-10 0 -10 10v34q0 3 -1.5 3t-3.5 -2q-31 -52 -100 -52q-60 0 -95.5 36.5t-35.5 110.5v356q0 10 10 10h51q10 0 10 -10v-340q0 -50 20.5 -75.5
t59.5 -25.5q40 0 62.5 29t22.5 79v333q0 10 10 10h51q10 0 10 -10v-489q0 -5 -5 -12q-22 -20 -35 -43.5t-13 -45.5q0 -8 1 -12q3 -22 16.5 -30t32.5 -6q3 0 4 1z" />
    <glyph glyph-name="Wcircumflex" unicode="&#x174;" horiz-adv-x="619" 
d="M161 9l-132 680v2q0 9 9 9h53q10 0 11 -9l94 -526q1 -2 2 -2t2 2l81 526q2 9 10 9h46q9 0 10 -9l85 -526q1 -2 2 -2t2 2l86 526q2 9 10 9h53q5 0 7.5 -3t1.5 -8l-124 -680q-1 -9 -11 -9h-49q-8 0 -10 9l-84 528q-1 2 -2.5 2t-1.5 -2l-82 -528q-1 -9 -10 -9h-48
q-9 0 -11 9zM200.5 775.5q-1.5 3.5 1.5 8.5l65 103q5 7 12 7h60q7 0 12 -7l67 -103q2 -4 2 -6q0 -6 -8 -6h-44q-7 0 -12 7l-43 73q-1 2 -3 2t-3 -2l-44 -73q-5 -7 -12 -7h-43q-6 0 -7.5 3.5z" />
    <glyph glyph-name="wcircumflex" unicode="&#x175;" horiz-adv-x="554" 
d="M130 9l-106 486v2q0 9 9 9h49q10 0 11 -9l72 -382q1 -2 2 -2t2 2l74 382q2 9 11 9h45q10 0 11 -9l74 -382q1 -2 2 -2t2 2l74 382q2 9 11 9l48 -1q11 0 9 -11l-106 -485q-1 -9 -11 -9h-51q-9 0 -11 9l-74 366q-1 3 -2 3t-2 -3l-71 -366q-1 -9 -11 -9h-50q-9 0 -11 9z
M166.5 581.5q-1.5 3.5 1.5 8.5l65 103q5 7 12 7h60q7 0 12 -7l67 -103q2 -4 2 -6q0 -6 -8 -6h-44q-7 0 -12 7l-43 73q-1 2 -3 2t-3 -2l-44 -73q-5 -7 -12 -7h-43q-6 0 -7.5 3.5z" />
    <glyph glyph-name="Ycircumflex" unicode="&#x176;" 
d="M177 11v299q0 4 -1 5l-139 373l-1 4q0 8 9 8h54q9 0 12 -8l98 -293q1 -2 3 -2t3 2l98 293q3 8 12 8h54q5 0 7.5 -3.5t0.5 -8.5l-138 -373q-1 -1 -1 -5v-299q0 -10 -10 -10h-51q-10 0 -10 10zM102.5 775.5q-1.5 3.5 1.5 8.5l65 103q5 7 12 7h60q7 0 12 -7l67 -103
q2 -4 2 -6q0 -6 -8 -6h-44q-7 0 -12 7l-43 73q-1 2 -3 2t-3 -2l-44 -73q-5 -7 -12 -7h-43q-6 0 -7.5 3.5z" />
    <glyph glyph-name="ycircumflex" unicode="&#x177;" horiz-adv-x="367" 
d="M40 -197q-2 3 -2 7v40q0 10 10 10q31 1 48.5 12t28.5 39t22 86q1 2 0.5 3.5t-0.5 2.5l-127 492l-1 3q0 8 10 8h54q10 0 11 -9l88 -393q1 -3 2 -3t2 3l87 393q2 9 11 9l56 -1q5 0 7.5 -3t0.5 -8l-139 -538q-18 -67 -35.5 -99t-45.5 -44.5t-79 -12.5h-5q-2 0 -4 3z
M73.5 581.5q-1.5 3.5 1.5 8.5l65 103q5 7 12 7h60q7 0 12 -7l67 -103q2 -4 2 -6q0 -6 -8 -6h-44q-7 0 -12 7l-43 73q-1 2 -3 2t-3 -2l-44 -73q-5 -7 -12 -7h-43q-6 0 -7.5 3.5z" />
    <glyph glyph-name="Ydieresis" unicode="&#x178;" 
d="M177 11v299q0 4 -1 5l-139 373l-1 4q0 8 9 8h54q9 0 12 -8l98 -293q1 -2 3 -2t3 2l98 293q3 8 12 8h54q5 0 7.5 -3.5t0.5 -8.5l-138 -373q-1 -1 -1 -5v-299q0 -10 -10 -10h-51q-10 0 -10 10zM246.5 808q-15.5 16 -15.5 40q0 25 15.5 40.5t40.5 15.5q24 0 40 -15.5
t16 -40.5q0 -24 -16 -40t-40 -16q-25 0 -40.5 16zM97.5 808q-15.5 16 -15.5 40q0 25 15.5 40.5t40.5 15.5q24 0 40 -15.5t16 -40.5q0 -24 -16 -40t-40 -16q-25 0 -40.5 16z" />
    <glyph glyph-name="Zacute" unicode="&#x179;" horiz-adv-x="395" 
d="M33 10v46q0 5 3 12l243 565q1 2 0 3.5t-3 1.5h-233q-10 0 -10 10v42q0 10 10 10h303q10 0 10 -10v-46q0 -4 -3 -12l-242 -565q-1 -2 0 -3.5t3 -1.5h232q10 0 10 -10v-42q0 -10 -10 -10h-303q-10 0 -10 10zM154 769.5q-2 3.5 1 8.5l62 109q5 7 12 7h41q6 0 7.5 -3.5
t-1.5 -8.5l-70 -109q-5 -7 -12 -7h-32q-6 0 -8 3.5z" />
    <glyph glyph-name="zacute" unicode="&#x17a;" horiz-adv-x="361" 
d="M33 10v48q0 7 3 13l205 365q1 2 0.5 3.5t-2.5 1.5h-192q-10 0 -10 10v45q0 10 10 10h270q10 0 10 -10v-48q0 -7 -3 -13l-207 -365q-1 -2 0 -3.5t3 -1.5h199q10 0 10 -10v-45q0 -10 -10 -10h-276q-10 0 -10 10zM141 575.5q-2 3.5 1 8.5l62 109q5 7 12 7h41q6 0 7.5 -3.5
t-1.5 -8.5l-70 -109q-5 -7 -12 -7h-32q-6 0 -8 3.5z" />
    <glyph glyph-name="Zdotaccent" unicode="&#x17b;" horiz-adv-x="395" 
d="M33 10v46q0 5 3 12l243 565q1 2 0 3.5t-3 1.5h-233q-10 0 -10 10v42q0 10 10 10h303q10 0 10 -10v-46q0 -4 -3 -12l-242 -565q-1 -2 0 -3.5t3 -1.5h232q10 0 10 -10v-42q0 -10 -10 -10h-303q-10 0 -10 10zM156.5 808q-15.5 16 -15.5 40q0 25 15.5 40.5t40.5 15.5
q24 0 40 -15.5t16 -40.5q0 -24 -16 -40t-40 -16q-25 0 -40.5 16z" />
    <glyph glyph-name="zdotaccent" unicode="&#x17c;" horiz-adv-x="361" 
d="M33 10v48q0 7 3 13l205 365q1 2 0.5 3.5t-2.5 1.5h-192q-10 0 -10 10v45q0 10 10 10h270q10 0 10 -10v-48q0 -7 -3 -13l-207 -365q-1 -2 0 -3.5t3 -1.5h199q10 0 10 -10v-45q0 -10 -10 -10h-276q-10 0 -10 10zM143.5 614q-15.5 16 -15.5 40q0 25 15.5 40.5t40.5 15.5
q24 0 40 -15.5t16 -40.5q0 -24 -16 -40t-40 -16q-25 0 -40.5 16z" />
    <glyph glyph-name="Zcaron" unicode="&#x17d;" horiz-adv-x="395" 
d="M33 10v46q0 5 3 12l243 565q1 2 0 3.5t-3 1.5h-233q-10 0 -10 10v42q0 10 10 10h303q10 0 10 -10v-46q0 -4 -3 -12l-242 -565q-1 -2 0 -3.5t3 -1.5h232q10 0 10 -10v-42q0 -10 -10 -10h-303q-10 0 -10 10zM89 888q0 6 8 6h43q7 0 12 -7l44 -73q1 -1 3 -1t3 1l43 73
q5 7 12 7h44q6 0 7.5 -3.5t-1.5 -8.5l-67 -103q-5 -7 -12 -7h-60q-7 0 -12 7l-65 103q-2 4 -2 6z" />
    <glyph glyph-name="zcaron" unicode="&#x17e;" horiz-adv-x="361" 
d="M33 10v48q0 7 3 13l205 365q1 2 0.5 3.5t-2.5 1.5h-192q-10 0 -10 10v45q0 10 10 10h270q10 0 10 -10v-48q0 -7 -3 -13l-207 -365q-1 -2 0 -3.5t3 -1.5h199q10 0 10 -10v-45q0 -10 -10 -10h-276q-10 0 -10 10zM75 694q0 6 8 6h43q7 0 12 -7l44 -73q1 -1 3 -1t3 1l43 73
q5 7 12 7h44q6 0 7.5 -3.5t-1.5 -8.5l-67 -103q-5 -7 -12 -7h-60q-7 0 -12 7l-65 103q-2 4 -2 6z" />
    <glyph glyph-name="uni018F" unicode="&#x18f;" horiz-adv-x="519" 
d="M365 681.5q47 -26.5 72.5 -73.5t25.5 -108v-303q0 -60 -26 -107.5t-72.5 -74t-107.5 -26.5q-62 0 -109 26.5t-72.5 74t-25.5 107.5v164q0 10 10 10h328q4 0 4 4v122q0 65 -38 107t-97 42q-50 0 -84 -30.5t-44 -81.5q-3 -9 -11 -9l-55 2q-5 0 -7.5 3t-1.5 7
q11 79 65.5 125t137.5 46q61 0 108 -26.5zM354 93.5q38 42.5 38 107.5v100q0 4 -4 4h-264q-4 0 -4 -4v-100q0 -65 38.5 -107.5t98.5 -42.5q59 0 97 42.5z" />
    <glyph glyph-name="florin" unicode="&#x192;" horiz-adv-x="467" 
d="M291 672.5q35 36.5 106 36.5q18 0 28 -1t10 -11l-2 -44q0 -10 -10 -10h-22q-40 0 -59.5 -27t-27.5 -82l-23 -142q0 -4 3 -4h72q10 0 10 -10v-33q0 -10 -10 -10h-80q-5 0 -5 -4l-62 -383q-13 -84 -47.5 -120.5t-106.5 -36.5q-17 0 -27 1t-10 11l2 44q0 10 10 10h22
q40 0 59 27t28 82l59 365q0 4 -3 4h-56q-10 0 -10 10v33q0 10 10 10h64q5 0 5 4l26 160q12 84 47 120.5z" />
    <glyph glyph-name="Ohorn" unicode="&#x1a0;" horiz-adv-x="456" 
d="M339 672q30 -23 46 -58.5t16 -80.5v-366q0 -78 -48 -126.5t-126 -48.5q-77 0 -124.5 48t-47.5 127v366q0 79 47.5 127t124.5 48q23 0 55 -7q1 -1 4 -1q25 2 42 20t20 50q0 10 10 10h23q5 0 7.5 -3.5t1.5 -9.5q-2 -31 -15.5 -54t-35.5 -36q-3 -2 0 -5zM330 536
q0 49 -28.5 79.5t-74.5 30.5q-45 0 -73 -30.5t-28 -79.5v-373q0 -48 28 -78.5t73 -30.5q46 0 74.5 30.5t28.5 78.5v373z" />
    <glyph glyph-name="ohorn" unicode="&#x1a1;" horiz-adv-x="414" 
d="M316 477q23 -20 36 -50.5t13 -66.5v-215q0 -69 -43 -111t-115 -42t-114.5 42t-42.5 111v215q0 68 43 111t114 43q24 0 54 -7q1 -1 4 -1q25 2 42.5 19.5t20.5 49.5q0 10 10 10h22q5 0 7.5 -3.5t1.5 -9.5q-2 -31 -16 -54.5t-37 -35.5q-3 -2 0 -5zM269.5 425.5
q-24.5 26.5 -62.5 26.5t-62 -26.5t-24 -69.5v-206q0 -43 24 -69t62 -26t62.5 26t24.5 69v206q0 43 -24.5 69.5z" />
    <glyph glyph-name="Uhorn" unicode="&#x1af;" horiz-adv-x="476" 
d="M488 770q-3 -40 -23 -66.5t-52 -36.5q-3 -1 -3 -4v-478q0 -87 -47.5 -140t-125.5 -53q-77 0 -124 53t-47 140v505q0 10 10 10h51q10 0 10 -10v-513q0 -55 27.5 -89t72.5 -34q46 0 74 34t28 89v513q0 10 10 10h28q26 0 45.5 18t22.5 52q0 10 10 10h23q10 0 10 -10z" />
    <glyph glyph-name="uhorn" unicode="&#x1b0;" 
d="M439 575q-3 -39 -22.5 -65t-50.5 -36q-3 -1 -3 -4v-460q0 -10 -10 -10h-51q-10 0 -10 10v34q0 3 -1.5 3t-3.5 -2q-31 -52 -100 -52q-60 0 -95.5 36.5t-35.5 110.5v356q0 10 10 10h51q10 0 10 -10v-340q0 -50 20.5 -75.5t59.5 -25.5q40 0 62.5 29t22.5 79v333q0 10 10 10
h26q26 0 45.5 18t22.5 51q0 10 10 10h23q10 0 10 -10z" />
    <glyph glyph-name="uni01CD" unicode="&#x1cd;" horiz-adv-x="410" 
d="M325 9l-25 124q0 2 -1.5 3t-3.5 1h-181q-2 0 -3.5 -1t-1.5 -3l-25 -124q-1 -9 -11 -9h-51q-5 0 -7.5 3t-1.5 8l150 680q2 9 11 9h60q10 0 11 -9l152 -680v-2q0 -9 -9 -9h-52q-9 0 -11 9zM125 195h158q3 0 3 4l-80 393q-1 3 -2 3t-2 -3l-80 -393q0 -4 3 -4zM96 886
q0 6 8 6h43q7 0 12 -7l44 -73q1 -1 3 -1t3 1l43 73q5 7 12 7h44q6 0 7.5 -3.5t-1.5 -8.5l-67 -103q-5 -7 -12 -7h-60q-7 0 -12 7l-65 103q-2 4 -2 6z" />
    <glyph glyph-name="uni01CE" unicode="&#x1ce;" horiz-adv-x="411" 
d="M321 468.5q42 -45.5 42 -121.5v-337q0 -10 -10 -10h-51q-10 0 -10 10v30q0 2 -1.5 2.5t-3.5 -1.5q-37 -49 -111 -49q-55 0 -95.5 31.5t-40.5 111.5q0 85 49 124.5t129 39.5h70q4 0 4 4v39q0 50 -23 80t-62 30q-30 0 -51.5 -20t-25.5 -51q0 -10 -10 -10l-56 1q-5 0 -7.5 3
t-1.5 7q5 59 48 95.5t106 36.5q70 0 112 -45.5zM262 80.5q30 26.5 30 73.5v84q0 4 -4 4h-71q-48 0 -76 -25.5t-28 -75.5q0 -44 21.5 -65.5t56.5 -21.5q41 0 71 26.5zM97 692q0 6 8 6h43q7 0 12 -7l44 -73q1 -1 3 -1t3 1l43 73q5 7 12 7h44q6 0 7.5 -3.5t-1.5 -8.5l-67 -103
q-5 -7 -12 -7h-60q-7 0 -12 7l-65 103q-2 4 -2 6z" />
    <glyph glyph-name="uni01D4" unicode="&#x1d4;" 
d="M302 506h51q10 0 10 -10v-486q0 -10 -10 -10h-51q-10 0 -10 10v34q0 3 -1.5 3t-3.5 -2q-31 -52 -100 -52q-60 0 -95.5 36.5t-35.5 110.5v356q0 10 10 10h51q10 0 10 -10v-340q0 -50 20.5 -75.5t59.5 -25.5q40 0 62.5 29t22.5 79v333q0 10 10 10zM100 692q0 6 8 6h43
q7 0 12 -7l44 -73q1 -1 3 -1t3 1l43 73q5 7 12 7h44q6 0 7.5 -3.5t-1.5 -8.5l-67 -103q-5 -7 -12 -7h-60q-7 0 -12 7l-65 103q-2 4 -2 6z" />
    <glyph glyph-name="uni01E5" unicode="&#x1e5;" horiz-adv-x="421" 
d="M418 265v-28q0 -10 -10 -10h-42q-4 0 -4 -4v-213q0 -107 -49.5 -162.5t-165.5 -50.5q-10 1 -10 11v43q0 10 10 10q80 -2 112 36.5t32 118.5v30q0 2 -1.5 3t-3.5 -1q-17 -25 -43.5 -38t-56.5 -13q-63 0 -99.5 42t-36.5 111v211q0 70 36.5 111.5t99.5 41.5q30 0 56.5 -12.5
t43.5 -37.5q2 -3 3.5 -2.5t1.5 3.5v31q0 10 10 10h51q10 0 10 -10v-217q0 -4 4 -4h42q10 0 10 -10zM267.5 85.5q23.5 26.5 23.5 68.5v69q0 4 -4 4h-81q-10 0 -10 10v28q0 10 10 10h81q4 0 4 4v77q0 43 -23.5 69.5t-60.5 26.5q-38 0 -62 -26.5t-24 -69.5v-202q0 -42 24 -68.5
t62 -26.5q37 0 60.5 26.5z" />
    <glyph glyph-name="gcaron" unicode="&#x1e7;" horiz-adv-x="413" 
d="M301 506h51q10 0 10 -10v-486q0 -107 -49.5 -162.5t-165.5 -50.5q-10 1 -10 11v43q0 10 10 10q80 -2 112 36.5t32 118.5v30q0 2 -1.5 3t-3.5 -1q-17 -25 -43.5 -38t-56.5 -13q-63 0 -99.5 42t-36.5 111v211q0 70 36.5 111.5t99.5 41.5q30 0 56.5 -12.5t43.5 -37.5
q2 -3 3.5 -2.5t1.5 3.5v31q0 10 10 10zM267.5 85.5q23.5 26.5 23.5 68.5v202q0 43 -23.5 69.5t-60.5 26.5q-38 0 -62 -26.5t-24 -69.5v-202q0 -42 24 -68.5t62 -26.5q37 0 60.5 26.5zM99 692q0 6 8 6h43q7 0 12 -7l44 -73q1 -1 3 -1t3 1l43 73q5 7 12 7h44q6 0 7.5 -3.5
t-1.5 -8.5l-67 -103q-5 -7 -12 -7h-60q-7 0 -12 7l-65 103q-2 4 -2 6z" />
    <glyph glyph-name="uni01E9" unicode="&#x1e9;" horiz-adv-x="405" 
d="M61 10v680q0 10 10 10h51q10 0 10 -10v-402q0 -2 2 -3t3 1l150 214q4 6 12 6h52q6 0 8 -3.5t-2 -8.5l-99 -142q-3 -3 -1 -6l118 -335l1 -4q0 -7 -9 -7h-53q-9 0 -12 8l-89 278q-1 6 -6 1l-73 -104q-2 -2 -2 -5v-168q0 -10 -10 -10h-51q-10 0 -10 10zM99 886q0 6 8 6h43
q7 0 12 -7l44 -73q1 -1 3 -1t3 1l43 73q5 7 12 7h44q6 0 7.5 -3.5t-1.5 -8.5l-67 -103q-5 -7 -12 -7h-60q-7 0 -12 7l-65 103q-2 4 -2 6z" />
    <glyph glyph-name="uni01EF" unicode="&#x1ef;" horiz-adv-x="439" 
d="M180 246.5q1 -1.5 3 -1.5q106 -9 160.5 -70t54.5 -152q0 -75 -34.5 -127t-91 -78t-120.5 -26q-45 0 -92 14q-8 3 -8 12l2 43q0 11 12 8q33 -12 79 -12q75 0 128.5 40t53.5 129q0 69 -40 114.5t-133 45.5q-15 0 -53 -4h-2q-6 0 -10 7l-12 33q-1 2 -1 5q0 5 4 9l192 200
q3 5 -2 5h-196q-10 0 -10 10v45q0 10 10 10h280q10 0 10 -10v-48q0 -7 -5 -12l-178 -186q-2 -2 -1 -3.5zM112 692q0 6 8 6h43q7 0 12 -7l44 -73q1 -1 3 -1t3 1l43 73q5 7 12 7h44q6 0 7.5 -3.5t-1.5 -8.5l-67 -103q-5 -7 -12 -7h-60q-7 0 -12 7l-65 103q-2 4 -2 6z" />
    <glyph glyph-name="oslashacute" unicode="&#x1ff;" horiz-adv-x="414" 
d="M365 522l-28 -62q-1 -2 1 -6q28 -39 28 -94v-215q0 -69 -42.5 -111t-114.5 -42q-41 0 -71 13q-5 2 -6 -2l-20 -45q-4 -9 -13 -5l-35 19q-8 5 -4 14l25 54q1 3 -1 5q-33 39 -33 100v215q0 68 43.5 111t114.5 43q44 0 75 -16q5 -2 6 2l23 51q5 11 13 5l35 -20q8 -5 4 -14z
M123 138q0 -3 2 -2.5t3 2.5l132 294q1 3 -2 5q-20 15 -49 15q-38 0 -62.5 -26.5t-24.5 -69.5v-206q0 -8 1 -12zM293 357q-2 0 -3 -2l-126 -284q-1 -4 1 -5q20 -11 44 -11q38 0 62 26t24 69v204q0 3 -2 3zM165 575.5q-2 3.5 1 8.5l62 109q5 7 12 7h41q6 0 7.5 -3.5t-1.5 -8.5
l-70 -109q-5 -7 -12 -7h-32q-6 0 -8 3.5z" />
    <glyph glyph-name="uni0218" unicode="&#x218;" horiz-adv-x="416" 
d="M88 41q-46 49 -46 128v23q0 10 10 10h49q10 0 10 -10v-20q0 -53 27 -85.5t70 -32.5q42 0 70 31t28 82q0 34 -13.5 58.5t-35 43t-71.5 56.5q-50 37 -79 63.5t-47.5 63.5t-18.5 87q0 78 45 123.5t117 45.5q76 0 121.5 -49.5t45.5 -131.5v-25q0 -10 -10 -10h-50
q-10 0 -10 10v26q0 53 -26.5 85.5t-70.5 32.5q-40 0 -66 -28.5t-26 -80.5q0 -31 11.5 -54.5t34.5 -44.5t68 -55q60 -44 89.5 -71.5t45.5 -60t16 -78.5q0 -82 -47 -131.5t-121 -49.5t-120 49zM160 -194.5q-2 3.5 1 8.5l62 109q5 7 12 7h41q6 0 7.5 -3.5t-1.5 -8.5l-70 -109
q-5 -7 -12 -7h-32q-6 0 -8 3.5z" />
    <glyph glyph-name="uni0219" unicode="&#x219;" horiz-adv-x="375" 
d="M82.5 30.5q-41.5 35.5 -41.5 94.5v7q0 10 10 10h48q10 0 10 -10v-6q0 -32 23.5 -54t61.5 -22q36 0 58 22t22 56q0 26 -14 43.5t-32.5 27.5t-55.5 26q-39 16 -64.5 31.5t-44 44t-18.5 72.5q0 64 39.5 101t106.5 37q68 0 108 -38t40 -101v-3q0 -10 -10 -10h-46
q-10 0 -10 10v6q0 34 -22.5 56t-58.5 22t-57.5 -22.5t-21.5 -55.5q0 -24 13 -40.5t32 -27t53 -25.5q41 -18 67.5 -34t46.5 -45t20 -72q0 -62 -41 -99t-111 -37q-69 0 -110.5 35.5zM147 -191.5q-2 3.5 1 8.5l62 109q5 7 12 7h41q6 0 7.5 -3.5t-1.5 -8.5l-70 -109
q-5 -7 -12 -7h-32q-6 0 -8 3.5z" />
    <glyph glyph-name="uni021A" unicode="&#x21a;" horiz-adv-x="423" 
d="M389 690v-42q0 -10 -10 -10h-132q-4 0 -4 -4v-624q0 -10 -10 -10h-51q-10 0 -10 10v624q0 4 -4 4h-124q-10 0 -10 10v42q0 10 10 10h335q10 0 10 -10zM99 -189.5q-2 3.5 1 8.5l62 109q5 7 12 7h41q6 0 7.5 -3.5t-1.5 -8.5l-70 -109q-5 -7 -12 -7h-32q-6 0 -8 3.5z" />
    <glyph glyph-name="uni021B" unicode="&#x21b;" horiz-adv-x="267" 
d="M229 453h-76q-4 0 -4 -4v-306q0 -46 16 -63.5t49 -16.5h10q10 0 10 -10v-43q0 -10 -10 -10h-25q-59 0 -89.5 25.5t-30.5 96.5v327q0 4 -4 4h-39q-10 0 -10 10v33q0 10 10 10h39q4 0 4 4v112q0 10 10 10h50q10 0 10 -10v-112q0 -4 4 -4h76q10 0 10 -10v-33q0 -10 -10 -10z
M111 -176.5q-2 3.5 1 8.5l62 109q5 7 12 7h41q6 0 7.5 -3.5t-1.5 -8.5l-70 -109q-5 -7 -12 -7h-32q-6 0 -8 3.5z" />
    <glyph glyph-name="uni021F" unicode="&#x21f;" 
d="M335.5 471q33.5 -42 33.5 -117v-344q0 -10 -10 -10h-51q-10 0 -10 10v338q0 49 -21.5 76t-59.5 27q-40 0 -62.5 -29t-22.5 -79v-333q0 -10 -10 -10h-51q-10 0 -10 10v680q0 10 10 10h51q10 0 10 -10v-226q0 -2 2 -3t3 2q18 25 45.5 37.5t58.5 12.5q61 0 94.5 -42z
M111 886q0 6 8 6h43q7 0 12 -7l44 -73q1 -1 3 -1t3 1l43 73q5 7 12 7h44q6 0 7.5 -3.5t-1.5 -8.5l-67 -103q-5 -7 -12 -7h-60q-7 0 -12 7l-65 103q-2 4 -2 6z" />
    <glyph glyph-name="uni0228" unicode="&#x228;" horiz-adv-x="429" 
d="M379 638h-232q-4 0 -4 -4v-248q0 -4 4 -4h146q10 0 10 -10v-43q0 -10 -10 -10h-146q-4 0 -4 -4v-249q0 -4 4 -4h232q10 0 10 -10v-42q0 -10 -10 -10h-118q-2 0 -3 -1.5t1 -3.5q38 -39 38 -90q0 -9 -2 -23q-6 -32 -27.5 -45t-50.5 -13q-17 0 -30 3q-8 1 -7 11l3 22
q2 8 10 8q1 -1 4 -1q21 -3 35.5 8t14.5 38q0 40 -43 85q-2 2 -5 2h-117q-10 0 -10 10v680q0 10 10 10h297q10 0 10 -10v-42q0 -10 -10 -10z" />
    <glyph glyph-name="uni0229" unicode="&#x229;" horiz-adv-x="408" 
d="M353 226h-228q-4 0 -4 -4v-73q0 -42 23.5 -68.5t61.5 -26.5q32 0 54.5 19.5t29.5 50.5q3 9 11 9l50 -2q4 0 7 -3t2 -8q-7 -51 -37 -83.5t-80 -41.5q-6 -1 -2 -5q33 -39 33 -83q0 -45 -23.5 -64t-56.5 -19q-16 0 -29 3q-8 1 -7 11l3 22q1 5 4.5 6.5t7.5 0.5t11 -1
q15 0 26 9t14 27q5 43 -36 89q-2 2 -5 2q-61 7 -97 48t-36 104v216q0 68 42.5 110.5t113.5 42.5q72 0 114.5 -42.5t42.5 -110.5v-125q0 -10 -10 -10zM144.5 425.5q-23.5 -26.5 -23.5 -69.5v-67q0 -4 4 -4h164q4 0 4 4v67q0 43 -24 69.5t-63 26.5q-38 0 -61.5 -26.5z" />
    <glyph glyph-name="uni0237" unicode="&#x237;" horiz-adv-x="198" 
d="M-30 -198v42q0 10 10 10q81 3 81 102v540q0 10 10 10h51q10 0 10 -10v-540q0 -82 -32 -123t-120 -41q-10 0 -10 10z" />
    <glyph glyph-name="uni0259" unicode="&#x259;" horiz-adv-x="408" 
d="M315.5 472q42.5 -42 42.5 -111v-216q0 -68 -43 -110.5t-114 -42.5t-114 42.5t-43 110.5v125q0 10 10 10h229q4 0 4 4v72q0 43 -24 69.5t-62 26.5q-32 0 -54 -19.5t-30 -50.5q-3 -9 -11 -9l-50 2q-5 0 -7.5 3t-1.5 8q8 59 48.5 93.5t105.5 34.5q72 0 114.5 -42zM263 80.5
q24 26.5 24 69.5v67q0 4 -4 4h-164q-4 0 -4 -4v-67q0 -43 24 -69.5t62 -26.5t62 26.5z" />
    <glyph glyph-name="uni0292" unicode="&#x292;" horiz-adv-x="439" 
d="M180 246.5q1 -1.5 3 -1.5q106 -9 160.5 -70t54.5 -152q0 -75 -34.5 -127t-91 -78t-120.5 -26q-45 0 -92 14q-8 3 -8 12l2 43q0 11 12 8q33 -12 79 -12q75 0 128.5 40t53.5 129q0 69 -40 114.5t-133 45.5q-15 0 -53 -4h-2q-6 0 -10 7l-12 33q-1 2 -1 5q0 5 4 9l192 200
q3 5 -2 5h-196q-10 0 -10 10v45q0 10 10 10h280q10 0 10 -10v-48q0 -7 -5 -12l-178 -186q-2 -2 -1 -3.5z" />
    <glyph glyph-name="uni02BB" unicode="&#x2bb;" horiz-adv-x="123" 
d="M3 693q0 7 9 7h52q10 0 11 -9l45 -185l1 -4q0 -7 -9 -7h-37q-9 0 -12 8l-59 186z" />
    <glyph glyph-name="uni02BC" unicode="&#x2bc;" horiz-adv-x="123" 
d="M119 689l-59 -186q-3 -8 -12 -8h-37q-11 0 -8 11l45 185q2 9 11 9h52q11 0 8 -11z" />
    <glyph glyph-name="circumflex" unicode="&#x2c6;" horiz-adv-x="232" 
d="M28.5 581.5q-1.5 3.5 1.5 8.5l65 103q5 7 12 7h60q7 0 12 -7l67 -103q2 -4 2 -6q0 -6 -8 -6h-44q-7 0 -12 7l-43 73q-1 2 -3 2t-3 -2l-44 -73q-5 -7 -12 -7h-43q-6 0 -7.5 3.5z" />
    <glyph glyph-name="caron" unicode="&#x2c7;" horiz-adv-x="276" 
d="M28 694q0 6 8 6h43q7 0 12 -7l44 -73q1 -1 3 -1t3 1l43 73q5 7 12 7h44q6 0 7.5 -3.5t-1.5 -8.5l-67 -103q-5 -7 -12 -7h-60q-7 0 -12 7l-65 103q-2 4 -2 6z" />
    <glyph glyph-name="uni02C9" unicode="&#x2c9;" horiz-adv-x="203" 
d="M0 658v32q0 10 10 10h183q10 0 10 -10v-32q0 -10 -10 -10h-183q-10 0 -10 10z" />
    <glyph glyph-name="breve" unicode="&#x2d8;" horiz-adv-x="254" 
d="M55 585q-29 27 -33 68q0 10 10 10h23q10 0 11 -10q3 -25 20 -41t41 -16t41 16t20 41q1 10 11 10h23q10 0 10 -10q-4 -42 -33 -68.5t-72 -26.5t-72 27z" />
    <glyph glyph-name="dotaccent" unicode="&#x2d9;" horiz-adv-x="156" 
d="M38.5 614q-15.5 16 -15.5 40q0 25 15.5 40.5t40.5 15.5q24 0 40 -15.5t16 -40.5q0 -24 -16 -40t-40 -16q-25 0 -40.5 16z" />
    <glyph glyph-name="ring" unicode="&#x2da;" horiz-adv-x="256" 
d="M53 610q-31 31 -31 77q0 45 31 76.5t75 31.5q45 0 75.5 -31.5t30.5 -76.5q0 -46 -30.5 -77t-75.5 -31q-44 0 -75 31zM172.5 640.5q18.5 18.5 18.5 46.5t-18.5 47t-44.5 19t-44.5 -19t-18.5 -47t18.5 -46.5t44.5 -18.5t44.5 18.5z" />
    <glyph glyph-name="ogonek" unicode="&#x2db;" horiz-adv-x="121" 
d="M116 -173q0 -6 -7 -9q-13 -3 -29 -3q-34 0 -57 18.5t-23 63.5q0 25 11 50t34 46l4 4q3 3 10 3h27q7 0 8.5 -4t-3.5 -8q-19 -20 -30.5 -42t-11.5 -43q0 -24 11.5 -35t29.5 -11q7 0 11 1l4 1q6 0 8 -8l3 -21v-3z" />
    <glyph glyph-name="tilde" unicode="&#x2dc;" horiz-adv-x="311" 
d="M181 613.5q-11 5.5 -29 16.5q-4 3 -13 9t-16 8.5t-15 2.5q-14 0 -24.5 -5.5t-20.5 -20.5q-6 -9 -14 -3l-18 13q-8 6 -4 14q27 52 76 52q16 0 29 -6t29 -17q2 -2 11 -8t17.5 -9.5t16.5 -3.5q13 0 23 6t20 22q2 4 6 5t8 -1l18 -12q4 -3 4 -8t-4 -12q-14 -25 -35 -36.5
t-40 -11.5q-14 0 -25 5.5z" />
    <glyph glyph-name="hungarumlaut" unicode="&#x2dd;" horiz-adv-x="304" 
d="M28 583.5q-2 3.5 1 8.5l61 109q5 7 12 7h42q6 0 7.5 -3.5t-1.5 -8.5l-70 -109q-5 -7 -12 -7h-32q-6 0 -8 3.5zM153 583.5q-2 3.5 1 8.5l62 109q5 7 12 7h41q6 0 7.5 -3.5t-1.5 -8.5l-70 -109q-5 -7 -12 -7h-32q-6 0 -8 3.5z" />
    <glyph glyph-name="gravecomb" unicode="&#x300;" horiz-adv-x="0" 
d="M-8 578q0 -6 -9 -6h-32q-7 0 -12 7l-70 109q-2 4 -2 6q0 6 8 6h42q7 0 12 -7l61 -109q2 -4 2 -6z" />
    <glyph glyph-name="acutecomb" unicode="&#x301;" horiz-adv-x="0" 
d="M-133 575.5q-2 3.5 1 8.5l62 109q5 7 12 7h41q6 0 7.5 -3.5t-1.5 -8.5l-70 -109q-5 -7 -12 -7h-32q-6 0 -8 3.5z" />
    <glyph glyph-name="uni0302" unicode="&#x302;" horiz-adv-x="0" 
d="M-247.5 581.5q-1.5 3.5 1.5 8.5l65 103q5 7 12 7h60q7 0 12 -7l67 -103q2 -4 2 -6q0 -6 -8 -6h-44q-7 0 -12 7l-43 73q-1 2 -3 2t-3 -2l-44 -73q-5 -7 -12 -7h-43q-6 0 -7.5 3.5z" />
    <glyph glyph-name="tildecomb" unicode="&#x303;" horiz-adv-x="0" 
d="M-108 613.5q-11 5.5 -29 16.5q-4 3 -13 9t-16 8.5t-15 2.5q-14 0 -24.5 -5.5t-20.5 -20.5q-6 -9 -14 -3l-18 13q-8 6 -4 14q27 52 76 52q16 0 29 -6t29 -17q2 -2 11 -8t17.5 -9.5t16.5 -3.5q13 0 23 6t20 22q2 4 6 5t8 -1l18 -12q4 -3 4 -8t-4 -12q-14 -25 -35 -36.5
t-40 -11.5q-14 0 -25 5.5z" />
    <glyph glyph-name="uni0304" unicode="&#x304;" horiz-adv-x="0" 
d="M-203 631v32q0 10 10 10h183q10 0 10 -10v-32q0 -10 -10 -10h-183q-10 0 -10 10z" />
    <glyph glyph-name="uni0306" unicode="&#x306;" horiz-adv-x="0" 
d="M-199 607q-29 27 -33 68q0 10 10 10h23q10 0 11 -10q3 -26 20 -42t41 -16t41 16t20 42q1 10 11 10h23q10 0 10 -10q-4 -41 -33 -68t-72 -27t-72 27z" />
    <glyph glyph-name="uni0307" unicode="&#x307;" horiz-adv-x="0" 
d="M-100.5 614q-15.5 16 -15.5 40q0 25 15.5 40.5t40.5 15.5q24 0 40 -15.5t16 -40.5q0 -24 -16 -40t-40 -16q-25 0 -40.5 16z" />
    <glyph glyph-name="uni0308" unicode="&#x308;" horiz-adv-x="0" 
d="M-96.5 614q-15.5 16 -15.5 40q0 25 15.5 40.5t40.5 15.5q24 0 40 -15.5t16 -40.5q0 -24 -16 -40t-40 -16q-25 0 -40.5 16zM-245.5 614q-15.5 16 -15.5 40q0 25 15.5 40.5t40.5 15.5q24 0 40 -15.5t16 -40.5q0 -24 -16 -40t-40 -16q-25 0 -40.5 16z" />
    <glyph glyph-name="hookabovecomb" unicode="&#x309;" horiz-adv-x="0" 
d="M-330.5 554.5q-1.5 3.5 0.5 7.5q10 23 34 47q13 13 19 22.5t6 24.5t-12.5 25.5t-29.5 10.5t-28.5 -8t-25.5 -28q-6 -8 -14 -2l-16 10q-8 6 -3 14q20 29 38 41.5t51 12.5q37 0 60 -21t23 -55q0 -22 -9 -36.5t-28 -34.5q-21 -19 -28 -34q-4 -7 -13 -6l-18 4q-5 2 -6.5 5.5z
" />
    <glyph glyph-name="uni030A" unicode="&#x30a;" horiz-adv-x="0" 
d="M-174 610q-31 31 -31 77q0 45 31 76.5t75 31.5q45 0 75.5 -31.5t30.5 -76.5q0 -46 -30.5 -77t-75.5 -31q-44 0 -75 31zM-54.5 640.5q18.5 18.5 18.5 46.5t-18.5 47t-44.5 19t-44.5 -19t-18.5 -47t18.5 -46.5t44.5 -18.5t44.5 18.5z" />
    <glyph glyph-name="uni030B" unicode="&#x30b;" horiz-adv-x="0" 
d="M-272 575.5q-2 3.5 0 8.5l57 109q3 7 12 7h42q6 0 8 -3.5t-1 -8.5l-60 -109q-3 -7 -12 -7h-39q-5 0 -7 3.5zM-146.5 575.5q-2.5 3.5 0.5 8.5l59 109q3 7 12 7h39q6 0 8 -3.5t-1 -8.5l-60 -109q-3 -7 -12 -7h-38q-5 0 -7.5 3.5z" />
    <glyph glyph-name="uni030C" unicode="&#x30c;" horiz-adv-x="0" 
d="M-248 694q0 6 8 6h43q7 0 12 -7l44 -73q1 -1 3 -1t3 1l43 73q5 7 12 7h44q6 0 7.5 -3.5t-1.5 -8.5l-67 -103q-5 -7 -12 -7h-60q-7 0 -12 7l-65 103q-2 4 -2 6z" />
    <glyph glyph-name="uni0312" unicode="&#x312;" horiz-adv-x="0" 
d="M-28 696.5q2 -3.5 -1 -8.5l-61 -109q-5 -7 -12 -7h-42q-6 0 -7.5 3.5t1.5 8.5l70 109q5 7 12 7h32q6 0 8 -3.5z" />
    <glyph glyph-name="uni0313" unicode="&#x313;" horiz-adv-x="0" 
d="M-133 575.5q-2 3.5 1 8.5l62 109q5 7 12 7h41q6 0 7.5 -3.5t-1.5 -8.5l-70 -109q-5 -7 -12 -7h-32q-6 0 -8 3.5z" />
    <glyph glyph-name="uni031B" unicode="&#x31b;" horiz-adv-x="0" 
d="M-127 478v18q0 10 10 11q23 3 39 20.5t19 47.5q0 10 10 10h23q10 0 9 -13q-4 -46 -31.5 -73t-68.5 -31q-10 0 -10 10z" />
    <glyph glyph-name="dotbelowcomb" unicode="&#x323;" horiz-adv-x="0" 
d="M-98 -176q-15 15 -15 38t15 38t38 15t38 -15t15 -38t-15 -38t-38 -15t-38 15z" />
    <glyph glyph-name="uni0326" unicode="&#x326;" horiz-adv-x="0" 
d="M-158 -186.5q-2 3.5 1 8.5l62 109q5 7 12 7h41q6 0 7.5 -3.5t-1.5 -8.5l-70 -109q-5 -7 -12 -7h-32q-6 0 -8 3.5z" />
    <glyph glyph-name="uni0327" unicode="&#x327;" horiz-adv-x="0" 
d="M-117 -170l3 21q2 8 10 8q1 -1 5 -1q22 -3 35.5 8t13.5 40q0 20 -11 41.5t-30 40.5q-4 3 -4 7q0 5 8 5h27q7 0 10 -3l4 -4q46 -41 46 -96q0 -44 -23 -63t-57 -19q-17 0 -30 3q-8 3 -7 12z" />
    <glyph glyph-name="uni0328" unicode="&#x328;" horiz-adv-x="0" 
d="M-5 -173q0 -6 -7 -9q-13 -3 -29 -3q-34 0 -57 18.5t-23 63.5q0 55 44 96l4 4q4 3 10 3h28q7 0 8.5 -3.5t-3.5 -8.5q-21 -22 -32.5 -46.5t-8.5 -47.5q4 -19 14.5 -28t25.5 -9q7 0 11 1l4 1q6 0 8 -8l3 -21v-3z" />
    <glyph glyph-name="uni0335" unicode="&#x335;" horiz-adv-x="0" 
d="M-261 615h247q10 0 10 -10v-28q0 -10 -10 -10h-247q-10 0 -10 10v28q0 10 10 10z" />
    <glyph glyph-name="uni0336" unicode="&#x336;" horiz-adv-x="0" 
d="M-424 526v31q0 10 10 10h404q10 0 10 -10v-31q0 -10 -10 -10h-404q-10 0 -10 10z" />
    <glyph glyph-name="uni0337" unicode="&#x337;" horiz-adv-x="0" 
d="M-287 138q-5 0 -8 4l-23 28q-3 3 -3 7t4 7l343 251q2 2 6 2q5 0 8 -4l24 -29q2 -2 2 -6q0 -5 -4 -8l-343 -250q-2 -2 -6 -2z" />
    <glyph glyph-name="uni0338" unicode="&#x338;" horiz-adv-x="0" 
d="M-373.5 -35.5q-2.5 3.5 -0.5 8.5l318 764q3 8 11 8h32q5 0 7.5 -3.5t0.5 -8.5l-319 -764q-3 -8 -11 -8h-31q-5 0 -7.5 3.5z" />
    <glyph glyph-name="uni0394" unicode="&#x394;" horiz-adv-x="499" 
d="M11 10v46q0 4 2 12l206 624q3 8 12 8h36q9 0 12 -8l207 -625q2 -8 2 -12v-45q0 -10 -10 -10h-457q-10 0 -10 10zM81.5 63.5q1.5 -1.5 3.5 -1.5h329q2 0 3.5 1.5t0.5 3.5l-166 535q-1 2 -3 2t-3 -2l-165 -535q-1 -2 0.5 -3.5z" />
    <glyph glyph-name="uni03A9" unicode="&#x3a9;" horiz-adv-x="481" 
d="M55 10v42q0 10 10 10h55q2 0 3 1.5t-1 3.5q-25 22 -39 54.5t-14 71.5v340q0 79 47.5 127t124.5 48q78 0 126 -48t48 -127v-340q0 -40 -14.5 -72t-39.5 -54q-2 -2 -1 -3.5t3 -1.5h53q10 0 10 -10v-42q0 -10 -10 -10h-141q-10 0 -10 10v43q0 8 9 11q29 7 49.5 36.5
t20.5 70.5v365q0 49 -28.5 79.5t-74.5 30.5q-45 0 -73 -30.5t-28 -79.5v-365q0 -41 20 -70.5t49 -35.5q9 -3 9 -11v-44q0 -10 -10 -10h-143q-10 0 -10 10z" />
    <glyph glyph-name="uni03BC" unicode="&#x3bc;" horiz-adv-x="429" 
d="M308 506h51q10 0 10 -10v-486q0 -10 -10 -10h-51q-10 0 -10 10v34q0 3 -1.5 3.5t-3.5 -1.5q-31 -53 -100 -53q-32 0 -56 10q-5 2 -5 -3v-190q0 -10 -10 -10h-51q-10 0 -10 10v686q0 10 10 10h51q10 0 10 -10v-340q0 -50 21 -75.5t60 -25.5t62 29t23 79v333q0 10 10 10z
" />
    <glyph glyph-name="pi" unicode="&#x3c0;" horiz-adv-x="508" 
d="M466 445h-49q-4 0 -4 -4v-334q0 -27 11 -35.5t35 -7.5q10 0 10 -10v-44q0 -10 -10 -10q-57 0 -87.5 13.5t-29.5 61.5v366q0 4 -4 4h-164q-4 0 -4 -4v-431q0 -10 -10 -10h-51q-10 0 -10 10v431q0 4 -4 4h-53q-10 0 -10 10v41q0 10 10 10h424q10 0 10 -10v-41
q0 -10 -10 -10z" />
    <glyph glyph-name="Wgrave" unicode="&#x1e80;" horiz-adv-x="619" 
d="M161 9l-132 680v2q0 9 9 9h53q10 0 11 -9l94 -526q1 -2 2 -2t2 2l81 526q2 9 10 9h46q9 0 10 -9l85 -526q1 -2 2 -2t2 2l86 526q2 9 10 9h53q5 0 7.5 -3t1.5 -8l-124 -680q-1 -9 -11 -9h-49q-8 0 -10 9l-84 528q-1 2 -2.5 2t-1.5 -2l-82 -528q-1 -9 -10 -9h-48
q-9 0 -11 9zM334 772q0 -6 -9 -6h-32q-7 0 -12 7l-70 109q-2 4 -2 6q0 6 8 6h42q7 0 12 -7l61 -109q2 -4 2 -6z" />
    <glyph glyph-name="wgrave" unicode="&#x1e81;" horiz-adv-x="554" 
d="M130 9l-106 486v2q0 9 9 9h49q10 0 11 -9l72 -382q1 -2 2 -2t2 2l74 382q2 9 11 9h45q10 0 11 -9l74 -382q1 -2 2 -2t2 2l74 382q2 9 11 9l48 -1q11 0 9 -11l-106 -485q-1 -9 -11 -9h-51q-9 0 -11 9l-74 366q-1 3 -2 3t-2 -3l-71 -366q-1 -9 -11 -9h-50q-9 0 -11 9z
M299 578q0 -6 -9 -6h-32q-7 0 -12 7l-70 109q-2 4 -2 6q0 6 8 6h42q7 0 12 -7l61 -109q2 -4 2 -6z" />
    <glyph glyph-name="Wacute" unicode="&#x1e82;" horiz-adv-x="619" 
d="M161 9l-132 680v2q0 9 9 9h53q10 0 11 -9l94 -526q1 -2 2 -2t2 2l81 526q2 9 10 9h46q9 0 10 -9l85 -526q1 -2 2 -2t2 2l86 526q2 9 10 9h53q5 0 7.5 -3t1.5 -8l-124 -680q-1 -9 -11 -9h-49q-8 0 -10 9l-84 528q-1 2 -2.5 2t-1.5 -2l-82 -528q-1 -9 -10 -9h-48
q-9 0 -11 9zM268 769.5q-2 3.5 1 8.5l62 109q5 7 12 7h41q6 0 7.5 -3.5t-1.5 -8.5l-70 -109q-5 -7 -12 -7h-32q-6 0 -8 3.5z" />
    <glyph glyph-name="wacute" unicode="&#x1e83;" horiz-adv-x="554" 
d="M130 9l-106 486v2q0 9 9 9h49q10 0 11 -9l72 -382q1 -2 2 -2t2 2l74 382q2 9 11 9h45q10 0 11 -9l74 -382q1 -2 2 -2t2 2l74 382q2 9 11 9l48 -1q11 0 9 -11l-106 -485q-1 -9 -11 -9h-51q-9 0 -11 9l-74 366q-1 3 -2 3t-2 -3l-71 -366q-1 -9 -11 -9h-50q-9 0 -11 9z
M234 575.5q-2 3.5 1 8.5l62 109q5 7 12 7h41q6 0 7.5 -3.5t-1.5 -8.5l-70 -109q-5 -7 -12 -7h-32q-6 0 -8 3.5z" />
    <glyph glyph-name="Wdieresis" unicode="&#x1e84;" horiz-adv-x="619" 
d="M161 9l-132 680v2q0 9 9 9h53q10 0 11 -9l94 -526q1 -2 2 -2t2 2l81 526q2 9 10 9h46q9 0 10 -9l85 -526q1 -2 2 -2t2 2l86 526q2 9 10 9h53q5 0 7.5 -3t1.5 -8l-124 -680q-1 -9 -11 -9h-49q-8 0 -10 9l-84 528q-1 2 -2.5 2t-1.5 -2l-82 -528q-1 -9 -10 -9h-48
q-9 0 -11 9zM344.5 808q-15.5 16 -15.5 40q0 25 15.5 40.5t40.5 15.5q24 0 40 -15.5t16 -40.5q0 -24 -16 -40t-40 -16q-25 0 -40.5 16zM195.5 808q-15.5 16 -15.5 40q0 25 15.5 40.5t40.5 15.5q24 0 40 -15.5t16 -40.5q0 -24 -16 -40t-40 -16q-25 0 -40.5 16z" />
    <glyph glyph-name="wdieresis" unicode="&#x1e85;" horiz-adv-x="554" 
d="M130 9l-106 486v2q0 9 9 9h49q10 0 11 -9l72 -382q1 -2 2 -2t2 2l74 382q2 9 11 9h45q10 0 11 -9l74 -382q1 -2 2 -2t2 2l74 382q2 9 11 9l48 -1q11 0 9 -11l-106 -485q-1 -9 -11 -9h-51q-9 0 -11 9l-74 366q-1 3 -2 3t-2 -3l-71 -366q-1 -9 -11 -9h-50q-9 0 -11 9z
M310.5 614q-15.5 16 -15.5 40q0 25 15.5 40.5t40.5 15.5q24 0 40 -15.5t16 -40.5q0 -24 -16 -40t-40 -16q-25 0 -40.5 16zM161.5 614q-15.5 16 -15.5 40q0 25 15.5 40.5t40.5 15.5q24 0 40 -15.5t16 -40.5q0 -24 -16 -40t-40 -16q-25 0 -40.5 16z" />
    <glyph glyph-name="uni1EA0" unicode="&#x1ea0;" horiz-adv-x="410" 
d="M325 9l-25 124q0 2 -1.5 3t-3.5 1h-181q-2 0 -3.5 -1t-1.5 -3l-25 -124q-1 -9 -11 -9h-51q-5 0 -7.5 3t-1.5 8l150 680q2 9 11 9h60q10 0 11 -9l152 -680v-2q0 -9 -9 -9h-52q-9 0 -11 9zM125 195h158q3 0 3 4l-80 393q-1 3 -2 3t-2 -3l-80 -393q0 -4 3 -4zM168 -176
q-15 15 -15 38t15 38t38 15t38 -15t15 -38t-15 -38t-38 -15t-38 15z" />
    <glyph glyph-name="uni1EA1" unicode="&#x1ea1;" horiz-adv-x="411" 
d="M321 468.5q42 -45.5 42 -121.5v-337q0 -10 -10 -10h-51q-10 0 -10 10v30q0 2 -1.5 2.5t-3.5 -1.5q-37 -49 -111 -49q-55 0 -95.5 31.5t-40.5 111.5q0 85 49 124.5t129 39.5h70q4 0 4 4v39q0 50 -23 80t-62 30q-30 0 -51.5 -20t-25.5 -51q0 -10 -10 -10l-56 1q-5 0 -7.5 3
t-1.5 7q5 59 48 95.5t106 36.5q70 0 112 -45.5zM262 80.5q30 26.5 30 73.5v84q0 4 -4 4h-71q-48 0 -76 -25.5t-28 -75.5q0 -44 21.5 -65.5t56.5 -21.5q41 0 71 26.5zM168 -176q-15 15 -15 38t15 38t38 15t38 -15t15 -38t-15 -38t-38 -15t-38 15z" />
    <glyph glyph-name="uni1EA2" unicode="&#x1ea2;" horiz-adv-x="410" 
d="M325 9l-25 124q0 2 -1.5 3t-3.5 1h-181q-2 0 -3.5 -1t-1.5 -3l-25 -124q-1 -9 -11 -9h-51q-5 0 -7.5 3t-1.5 8l150 680q2 9 11 9h60q10 0 11 -9l152 -680v-2q0 -9 -9 -9h-52q-9 0 -11 9zM125 195h158q3 0 3 4l-80 393q-1 3 -2 3t-2 -3l-80 -393q0 -4 3 -4zM189.5 748.5
q-1.5 3.5 0.5 7.5q10 23 34 47q13 13 19 22.5t6 24.5t-12.5 25.5t-29.5 10.5t-28.5 -8t-25.5 -28q-6 -8 -14 -2l-16 10q-8 6 -3 14q20 29 38 41.5t51 12.5q37 0 60 -21t23 -55q0 -22 -9 -36.5t-28 -34.5q-21 -19 -28 -34q-4 -7 -13 -6l-18 4q-5 2 -6.5 5.5z" />
    <glyph glyph-name="uni1EA3" unicode="&#x1ea3;" horiz-adv-x="411" 
d="M321 468.5q42 -45.5 42 -121.5v-337q0 -10 -10 -10h-51q-10 0 -10 10v30q0 2 -1.5 2.5t-3.5 -1.5q-37 -49 -111 -49q-55 0 -95.5 31.5t-40.5 111.5q0 85 49 124.5t129 39.5h70q4 0 4 4v39q0 50 -23 80t-62 30q-30 0 -51.5 -20t-25.5 -51q0 -10 -10 -10l-56 1q-5 0 -7.5 3
t-1.5 7q5 59 48 95.5t106 36.5q70 0 112 -45.5zM262 80.5q30 26.5 30 73.5v84q0 4 -4 4h-71q-48 0 -76 -25.5t-28 -75.5q0 -44 21.5 -65.5t56.5 -21.5q41 0 71 26.5zM191.5 554.5q-1.5 3.5 0.5 7.5q10 23 34 47q13 13 19 22.5t6 24.5t-12.5 25.5t-29.5 10.5t-28.5 -8
t-25.5 -28q-6 -8 -14 -2l-16 10q-8 6 -3 14q20 29 38 41.5t51 12.5q37 0 60 -21t23 -55q0 -22 -9 -36.5t-28 -34.5q-21 -19 -28 -34q-4 -7 -13 -6l-18 4q-5 2 -6.5 5.5z" />
    <glyph glyph-name="uni1EA4" unicode="&#x1ea4;" horiz-adv-x="410" 
d="M325 9l-25 124q0 2 -1.5 3t-3.5 1h-181q-2 0 -3.5 -1t-1.5 -3l-25 -124q-1 -9 -11 -9h-51q-5 0 -7.5 3t-1.5 8l150 680q2 9 11 9h60q10 0 11 -9l152 -680v-2q0 -9 -9 -9h-52q-9 0 -11 9zM125 195h158q3 0 3 4l-80 393q-1 3 -2 3t-2 -3l-80 -393q0 -4 3 -4zM94.5 775.5
q-1.5 3.5 1.5 8.5l65 103q5 7 12 7h60q7 0 12 -7l67 -103q2 -4 2 -6q0 -6 -8 -6h-44q-7 0 -12 7l-43 73q-1 2 -3 2t-3 -2l-44 -73q-5 -7 -12 -7h-43q-6 0 -7.5 3.5zM315 847.5q-2 3.5 1 8.5l62 109q5 7 12 7h41q6 0 7.5 -3.5t-1.5 -8.5l-70 -109q-5 -7 -12 -7h-32
q-6 0 -8 3.5z" />
    <glyph glyph-name="uni1EA5" unicode="&#x1ea5;" horiz-adv-x="411" 
d="M321 468.5q42 -45.5 42 -121.5v-337q0 -10 -10 -10h-51q-10 0 -10 10v30q0 2 -1.5 2.5t-3.5 -1.5q-37 -49 -111 -49q-55 0 -95.5 31.5t-40.5 111.5q0 85 49 124.5t129 39.5h70q4 0 4 4v39q0 50 -23 80t-62 30q-30 0 -51.5 -20t-25.5 -51q0 -10 -10 -10l-56 1q-5 0 -7.5 3
t-1.5 7q5 59 48 95.5t106 36.5q70 0 112 -45.5zM262 80.5q30 26.5 30 73.5v84q0 4 -4 4h-71q-48 0 -76 -25.5t-28 -75.5q0 -44 21.5 -65.5t56.5 -21.5q41 0 71 26.5zM95.5 581.5q-1.5 3.5 1.5 8.5l65 103q5 7 12 7h60q7 0 12 -7l67 -103q2 -4 2 -6q0 -6 -8 -6h-44
q-7 0 -12 7l-43 73q-1 2 -3 2t-3 -2l-44 -73q-5 -7 -12 -7h-43q-6 0 -7.5 3.5zM316 653.5q-2 3.5 1 8.5l62 109q5 7 12 7h41q6 0 7.5 -3.5t-1.5 -8.5l-70 -109q-5 -7 -12 -7h-32q-6 0 -8 3.5z" />
    <glyph glyph-name="uni1EA6" unicode="&#x1ea6;" horiz-adv-x="410" 
d="M325 9l-25 124q0 2 -1.5 3t-3.5 1h-181q-2 0 -3.5 -1t-1.5 -3l-25 -124q-1 -9 -11 -9h-51q-5 0 -7.5 3t-1.5 8l150 680q2 9 11 9h60q10 0 11 -9l152 -680v-2q0 -9 -9 -9h-52q-9 0 -11 9zM125 195h158q3 0 3 4l-80 393q-1 3 -2 3t-2 -3l-80 -393q0 -4 3 -4zM94.5 775.5
q-1.5 3.5 1.5 8.5l65 103q5 7 12 7h60q7 0 12 -7l67 -103q2 -4 2 -6q0 -6 -8 -6h-44q-7 0 -12 7l-43 73q-1 2 -3 2t-3 -2l-44 -73q-5 -7 -12 -7h-43q-6 0 -7.5 3.5zM369 892q0 -6 -9 -6h-32q-7 0 -12 7l-70 109q-2 4 -2 6q0 6 8 6h42q7 0 12 -7l61 -109q2 -4 2 -6z" />
    <glyph glyph-name="uni1EA7" unicode="&#x1ea7;" horiz-adv-x="411" 
d="M321 468.5q42 -45.5 42 -121.5v-337q0 -10 -10 -10h-51q-10 0 -10 10v30q0 2 -1.5 2.5t-3.5 -1.5q-37 -49 -111 -49q-55 0 -95.5 31.5t-40.5 111.5q0 85 49 124.5t129 39.5h70q4 0 4 4v39q0 50 -23 80t-62 30q-30 0 -51.5 -20t-25.5 -51q0 -10 -10 -10l-56 1q-5 0 -7.5 3
t-1.5 7q5 59 48 95.5t106 36.5q70 0 112 -45.5zM262 80.5q30 26.5 30 73.5v84q0 4 -4 4h-71q-48 0 -76 -25.5t-28 -75.5q0 -44 21.5 -65.5t56.5 -21.5q41 0 71 26.5zM95.5 581.5q-1.5 3.5 1.5 8.5l65 103q5 7 12 7h60q7 0 12 -7l67 -103q2 -4 2 -6q0 -6 -8 -6h-44
q-7 0 -12 7l-43 73q-1 2 -3 2t-3 -2l-44 -73q-5 -7 -12 -7h-43q-6 0 -7.5 3.5zM370 698q0 -6 -9 -6h-32q-7 0 -12 7l-70 109q-2 4 -2 6q0 6 8 6h42q7 0 12 -7l61 -109q2 -4 2 -6z" />
    <glyph glyph-name="uni1EA8" unicode="&#x1ea8;" horiz-adv-x="410" 
d="M325 9l-25 124q0 2 -1.5 3t-3.5 1h-181q-2 0 -3.5 -1t-1.5 -3l-25 -124q-1 -9 -11 -9h-51q-5 0 -7.5 3t-1.5 8l150 680q2 9 11 9h60q10 0 11 -9l152 -680v-2q0 -9 -9 -9h-52q-9 0 -11 9zM125 195h158q3 0 3 4l-80 393q-1 3 -2 3t-2 -3l-80 -393q0 -4 3 -4zM312 878
q9 22 33 46q13 13 18.5 22t5.5 24q0 14 -11.5 24t-28.5 10t-28 -7t-25 -27q-6 -8 -14 -2l-15 10q-8 6 -3 14q19 28 37 40t49 12q36 0 59 -21t23 -53q0 -22 -9.5 -37t-28.5 -33q-20 -20 -26 -32q-5 -9 -13 -6l-16 4q-11 3 -7 12zM94.5 775.5q-1.5 3.5 1.5 8.5l65 103
q5 7 12 7h60q7 0 12 -7l67 -103q2 -4 2 -6q0 -6 -8 -6h-44q-7 0 -12 7l-43 73q-1 2 -3 2t-3 -2l-44 -73q-5 -7 -12 -7h-43q-6 0 -7.5 3.5z" />
    <glyph glyph-name="uni1EA9" unicode="&#x1ea9;" horiz-adv-x="411" 
d="M321 468.5q42 -45.5 42 -121.5v-337q0 -10 -10 -10h-51q-10 0 -10 10v30q0 2 -1.5 2.5t-3.5 -1.5q-37 -49 -111 -49q-55 0 -95.5 31.5t-40.5 111.5q0 85 49 124.5t129 39.5h70q4 0 4 4v39q0 50 -23 80t-62 30q-30 0 -51.5 -20t-25.5 -51q0 -10 -10 -10l-56 1q-5 0 -7.5 3
t-1.5 7q5 59 48 95.5t106 36.5q70 0 112 -45.5zM262 80.5q30 26.5 30 73.5v84q0 4 -4 4h-71q-48 0 -76 -25.5t-28 -75.5q0 -44 21.5 -65.5t56.5 -21.5q41 0 71 26.5zM313 684q9 22 33 46q13 13 18.5 22t5.5 24q0 14 -11.5 24t-28.5 10t-28 -7t-25 -27q-6 -8 -14 -2l-15 10
q-8 6 -3 14q19 28 37 40t49 12q36 0 59 -21t23 -53q0 -22 -9.5 -37t-28.5 -33q-20 -20 -26 -32q-5 -9 -13 -6l-16 4q-11 3 -7 12zM95.5 581.5q-1.5 3.5 1.5 8.5l65 103q5 7 12 7h60q7 0 12 -7l67 -103q2 -4 2 -6q0 -6 -8 -6h-44q-7 0 -12 7l-43 73q-1 2 -3 2t-3 -2l-44 -73
q-5 -7 -12 -7h-43q-6 0 -7.5 3.5z" />
    <glyph glyph-name="uni1EAA" unicode="&#x1eaa;" horiz-adv-x="410" 
d="M325 9l-25 124q0 2 -1.5 3t-3.5 1h-181q-2 0 -3.5 -1t-1.5 -3l-25 -124q-1 -9 -11 -9h-51q-5 0 -7.5 3t-1.5 8l150 680q2 9 11 9h60q10 0 11 -9l152 -680v-2q0 -9 -9 -9h-52q-9 0 -11 9zM125 195h158q3 0 3 4l-80 393q-1 3 -2 3t-2 -3l-80 -393q0 -4 3 -4zM94.5 775.5
q-1.5 3.5 1.5 8.5l65 103q5 7 12 7h60q7 0 12 -7l67 -103q2 -4 2 -6q0 -6 -8 -6h-44q-7 0 -12 7l-43 73q-1 2 -3 2t-3 -2l-44 -73q-5 -7 -12 -7h-43q-6 0 -7.5 3.5zM234 930.5q-11 5.5 -29 16.5q-4 3 -13 9t-16 8.5t-15 2.5q-14 0 -24.5 -5.5t-20.5 -20.5q-6 -9 -14 -3
l-18 13q-8 6 -4 14q27 52 76 52q16 0 29 -6t29 -17q2 -2 11 -8t17.5 -9.5t16.5 -3.5q13 0 23 6t20 22q2 4 6 5t8 -1l18 -12q4 -3 4 -8t-4 -12q-14 -25 -35 -36.5t-40 -11.5q-14 0 -25 5.5z" />
    <glyph glyph-name="uni1EAB" unicode="&#x1eab;" horiz-adv-x="411" 
d="M321 468.5q42 -45.5 42 -121.5v-337q0 -10 -10 -10h-51q-10 0 -10 10v30q0 2 -1.5 2.5t-3.5 -1.5q-37 -49 -111 -49q-55 0 -95.5 31.5t-40.5 111.5q0 85 49 124.5t129 39.5h70q4 0 4 4v39q0 50 -23 80t-62 30q-30 0 -51.5 -20t-25.5 -51q0 -10 -10 -10l-56 1q-5 0 -7.5 3
t-1.5 7q5 59 48 95.5t106 36.5q70 0 112 -45.5zM262 80.5q30 26.5 30 73.5v84q0 4 -4 4h-71q-48 0 -76 -25.5t-28 -75.5q0 -44 21.5 -65.5t56.5 -21.5q41 0 71 26.5zM95.5 581.5q-1.5 3.5 1.5 8.5l65 103q5 7 12 7h60q7 0 12 -7l67 -103q2 -4 2 -6q0 -6 -8 -6h-44
q-7 0 -12 7l-43 73q-1 2 -3 2t-3 -2l-44 -73q-5 -7 -12 -7h-43q-6 0 -7.5 3.5zM235 736.5q-11 5.5 -29 16.5q-4 3 -13 9t-16 8.5t-15 2.5q-14 0 -24.5 -5.5t-20.5 -20.5q-6 -9 -14 -3l-18 13q-8 6 -4 14q27 52 76 52q16 0 29 -6t29 -17q2 -2 11 -8t17.5 -9.5t16.5 -3.5
q13 0 23 6t20 22q2 4 6 5t8 -1l18 -12q4 -3 4 -8t-4 -12q-14 -25 -35 -36.5t-40 -11.5q-14 0 -25 5.5z" />
    <glyph glyph-name="uni1EAC" unicode="&#x1eac;" horiz-adv-x="410" 
d="M325 9l-25 124q0 2 -1.5 3t-3.5 1h-181q-2 0 -3.5 -1t-1.5 -3l-25 -124q-1 -9 -11 -9h-51q-5 0 -7.5 3t-1.5 8l150 680q2 9 11 9h60q10 0 11 -9l152 -680v-2q0 -9 -9 -9h-52q-9 0 -11 9zM125 195h158q3 0 3 4l-80 393q-1 3 -2 3t-2 -3l-80 -393q0 -4 3 -4zM168 -176
q-15 15 -15 38t15 38t38 15t38 -15t15 -38t-15 -38t-38 -15t-38 15zM94.5 775.5q-1.5 3.5 1.5 8.5l65 103q5 7 12 7h60q7 0 12 -7l67 -103q2 -4 2 -6q0 -6 -8 -6h-44q-7 0 -12 7l-43 73q-1 2 -3 2t-3 -2l-44 -73q-5 -7 -12 -7h-43q-6 0 -7.5 3.5z" />
    <glyph glyph-name="uni1EAD" unicode="&#x1ead;" horiz-adv-x="411" 
d="M321 468.5q42 -45.5 42 -121.5v-337q0 -10 -10 -10h-51q-10 0 -10 10v30q0 2 -1.5 2.5t-3.5 -1.5q-37 -49 -111 -49q-55 0 -95.5 31.5t-40.5 111.5q0 85 49 124.5t129 39.5h70q4 0 4 4v39q0 50 -23 80t-62 30q-30 0 -51.5 -20t-25.5 -51q0 -10 -10 -10l-56 1q-5 0 -7.5 3
t-1.5 7q5 59 48 95.5t106 36.5q70 0 112 -45.5zM262 80.5q30 26.5 30 73.5v84q0 4 -4 4h-71q-48 0 -76 -25.5t-28 -75.5q0 -44 21.5 -65.5t56.5 -21.5q41 0 71 26.5zM168 -176q-15 15 -15 38t15 38t38 15t38 -15t15 -38t-15 -38t-38 -15t-38 15zM95.5 581.5
q-1.5 3.5 1.5 8.5l65 103q5 7 12 7h60q7 0 12 -7l67 -103q2 -4 2 -6q0 -6 -8 -6h-44q-7 0 -12 7l-43 73q-1 2 -3 2t-3 -2l-44 -73q-5 -7 -12 -7h-43q-6 0 -7.5 3.5z" />
    <glyph glyph-name="uni1EAE" unicode="&#x1eae;" horiz-adv-x="410" 
d="M325 9l-25 124q0 2 -1.5 3t-3.5 1h-181q-2 0 -3.5 -1t-1.5 -3l-25 -124q-1 -9 -11 -9h-51q-5 0 -7.5 3t-1.5 8l150 680q2 9 11 9h60q10 0 11 -9l152 -680v-2q0 -9 -9 -9h-52q-9 0 -11 9zM125 195h158q3 0 3 4l-80 393q-1 3 -2 3t-2 -3l-80 -393q0 -4 3 -4zM133 801
q-29 27 -33 68q0 10 10 10h23q10 0 11 -10q3 -26 20 -42t41 -16t41 16t20 42q1 10 11 10h23q10 0 10 -10q-4 -41 -33 -68t-72 -27t-72 27zM162 928.5q-2 3.5 1 8.5l62 109q5 7 12 7h41q6 0 7.5 -3.5t-1.5 -8.5l-70 -109q-5 -7 -12 -7h-32q-6 0 -8 3.5z" />
    <glyph glyph-name="uni1EAF" unicode="&#x1eaf;" horiz-adv-x="411" 
d="M321 468.5q42 -45.5 42 -121.5v-337q0 -10 -10 -10h-51q-10 0 -10 10v30q0 2 -1.5 2.5t-3.5 -1.5q-37 -49 -111 -49q-55 0 -95.5 31.5t-40.5 111.5q0 85 49 124.5t129 39.5h70q4 0 4 4v39q0 50 -23 80t-62 30q-30 0 -51.5 -20t-25.5 -51q0 -10 -10 -10l-56 1q-5 0 -7.5 3
t-1.5 7q5 59 48 95.5t106 36.5q70 0 112 -45.5zM262 80.5q30 26.5 30 73.5v84q0 4 -4 4h-71q-48 0 -76 -25.5t-28 -75.5q0 -44 21.5 -65.5t56.5 -21.5q41 0 71 26.5zM134 607q-29 27 -33 68q0 10 10 10h23q10 0 11 -10q3 -26 20 -42t41 -16t41 16t20 42q1 10 11 10h23
q10 0 10 -10q-4 -41 -33 -68t-72 -27t-72 27zM163 734.5q-2 3.5 1 8.5l62 109q5 7 12 7h41q6 0 7.5 -3.5t-1.5 -8.5l-70 -109q-5 -7 -12 -7h-32q-6 0 -8 3.5z" />
    <glyph glyph-name="uni1EB0" unicode="&#x1eb0;" horiz-adv-x="410" 
d="M325 9l-25 124q0 2 -1.5 3t-3.5 1h-181q-2 0 -3.5 -1t-1.5 -3l-25 -124q-1 -9 -11 -9h-51q-5 0 -7.5 3t-1.5 8l150 680q2 9 11 9h60q10 0 11 -9l152 -680v-2q0 -9 -9 -9h-52q-9 0 -11 9zM125 195h158q3 0 3 4l-80 393q-1 3 -2 3t-2 -3l-80 -393q0 -4 3 -4zM133 801
q-29 27 -33 68q0 10 10 10h23q10 0 11 -10q3 -26 20 -42t41 -16t41 16t20 42q1 10 11 10h23q10 0 10 -10q-4 -41 -33 -68t-72 -27t-72 27zM228 931q0 -6 -9 -6h-32q-7 0 -12 7l-70 109q-2 4 -2 6q0 6 8 6h42q7 0 12 -7l61 -109q2 -4 2 -6z" />
    <glyph glyph-name="uni1EB1" unicode="&#x1eb1;" horiz-adv-x="411" 
d="M321 468.5q42 -45.5 42 -121.5v-337q0 -10 -10 -10h-51q-10 0 -10 10v30q0 2 -1.5 2.5t-3.5 -1.5q-37 -49 -111 -49q-55 0 -95.5 31.5t-40.5 111.5q0 85 49 124.5t129 39.5h70q4 0 4 4v39q0 50 -23 80t-62 30q-30 0 -51.5 -20t-25.5 -51q0 -10 -10 -10l-56 1q-5 0 -7.5 3
t-1.5 7q5 59 48 95.5t106 36.5q70 0 112 -45.5zM262 80.5q30 26.5 30 73.5v84q0 4 -4 4h-71q-48 0 -76 -25.5t-28 -75.5q0 -44 21.5 -65.5t56.5 -21.5q41 0 71 26.5zM134 607q-29 27 -33 68q0 10 10 10h23q10 0 11 -10q3 -26 20 -42t41 -16t41 16t20 42q1 10 11 10h23
q10 0 10 -10q-4 -41 -33 -68t-72 -27t-72 27zM229 737q0 -6 -9 -6h-32q-7 0 -12 7l-70 109q-2 4 -2 6q0 6 8 6h42q7 0 12 -7l61 -109q2 -4 2 -6z" />
    <glyph glyph-name="uni1EB2" unicode="&#x1eb2;" horiz-adv-x="410" 
d="M325 9l-25 124q0 2 -1.5 3t-3.5 1h-181q-2 0 -3.5 -1t-1.5 -3l-25 -124q-1 -9 -11 -9h-51q-5 0 -7.5 3t-1.5 8l150 680q2 9 11 9h60q10 0 11 -9l152 -680v-2q0 -9 -9 -9h-52q-9 0 -11 9zM125 195h158q3 0 3 4l-80 393q-1 3 -2 3t-2 -3l-80 -393q0 -4 3 -4zM192.5 905.5
q-1.5 3.5 0.5 7.5q6 15 13.5 24.5t18.5 20.5q12 12 17.5 21t5.5 23t-11.5 24t-28.5 10t-27.5 -7t-23.5 -26q-6 -9 -14 -3l-14 9q-8 6 -3 14q19 28 36.5 39.5t47.5 11.5q35 0 57 -20t22 -52q0 -21 -9 -35.5t-27 -32.5q-19 -19 -25 -31q-5 -9 -13 -6l-16 4q-5 1 -6.5 4.5z
M133 801q-29 27 -33 68q0 10 10 10h23q10 0 11 -10q3 -26 20 -42t41 -16t41 16t20 42q1 10 11 10h23q10 0 10 -10q-4 -42 -33 -68.5t-72 -26.5t-72 27z" />
    <glyph glyph-name="uni1EB3" unicode="&#x1eb3;" horiz-adv-x="411" 
d="M321 468.5q42 -45.5 42 -121.5v-337q0 -10 -10 -10h-51q-10 0 -10 10v30q0 2 -1.5 2.5t-3.5 -1.5q-37 -49 -111 -49q-55 0 -95.5 31.5t-40.5 111.5q0 85 49 124.5t129 39.5h70q4 0 4 4v39q0 50 -23 80t-62 30q-30 0 -51.5 -20t-25.5 -51q0 -10 -10 -10l-56 1q-5 0 -7.5 3
t-1.5 7q5 59 48 95.5t106 36.5q70 0 112 -45.5zM262 80.5q30 26.5 30 73.5v84q0 4 -4 4h-71q-48 0 -76 -25.5t-28 -75.5q0 -44 21.5 -65.5t56.5 -21.5q41 0 71 26.5zM193.5 711.5q-1.5 3.5 0.5 7.5q6 15 13.5 24.5t18.5 20.5q12 12 17.5 21t5.5 23t-11.5 24t-28.5 10
t-27.5 -7t-23.5 -26q-6 -9 -14 -3l-14 9q-8 6 -3 14q19 28 36.5 39.5t47.5 11.5q35 0 57 -20t22 -52q0 -21 -9 -35.5t-27 -32.5q-19 -19 -25 -31q-5 -9 -13 -6l-16 4q-5 1 -6.5 4.5zM134 607q-29 27 -33 68q0 10 10 10h23q10 0 11 -10q3 -26 20 -42t41 -16t41 16t20 42
q1 10 11 10h23q10 0 10 -10q-4 -42 -33 -68.5t-72 -26.5t-72 27z" />
    <glyph glyph-name="uni1EB4" unicode="&#x1eb4;" horiz-adv-x="410" 
d="M325 9l-25 124q0 2 -1.5 3t-3.5 1h-181q-2 0 -3.5 -1t-1.5 -3l-25 -124q-1 -9 -11 -9h-51q-5 0 -7.5 3t-1.5 8l150 680q2 9 11 9h60q10 0 11 -9l152 -680v-2q0 -9 -9 -9h-52q-9 0 -11 9zM125 195h158q3 0 3 4l-80 393q-1 3 -2 3t-2 -3l-80 -393q0 -4 3 -4zM133 801
q-29 27 -33 68q0 10 10 10h23q10 0 11 -10q3 -26 20 -42t41 -16t41 16t20 42q1 10 11 10h23q10 0 10 -10q-4 -41 -33 -68t-72 -27t-72 27zM232 927.5q-11 5.5 -29 16.5q-4 3 -13 9t-16 8.5t-15 2.5q-14 0 -24.5 -5.5t-20.5 -20.5q-6 -9 -14 -3l-18 13q-8 6 -4 14
q27 52 76 52q16 0 29 -6t29 -17q2 -2 11 -8t17.5 -9.5t16.5 -3.5q13 0 23 6t20 22q2 4 6 5t8 -1l18 -12q4 -3 4 -8t-4 -12q-14 -25 -35 -36.5t-40 -11.5q-14 0 -25 5.5z" />
    <glyph glyph-name="uni1EB5" unicode="&#x1eb5;" horiz-adv-x="411" 
d="M321 468.5q42 -45.5 42 -121.5v-337q0 -10 -10 -10h-51q-10 0 -10 10v30q0 2 -1.5 2.5t-3.5 -1.5q-37 -49 -111 -49q-55 0 -95.5 31.5t-40.5 111.5q0 85 49 124.5t129 39.5h70q4 0 4 4v39q0 50 -23 80t-62 30q-30 0 -51.5 -20t-25.5 -51q0 -10 -10 -10l-56 1q-5 0 -7.5 3
t-1.5 7q5 59 48 95.5t106 36.5q70 0 112 -45.5zM262 80.5q30 26.5 30 73.5v84q0 4 -4 4h-71q-48 0 -76 -25.5t-28 -75.5q0 -44 21.5 -65.5t56.5 -21.5q41 0 71 26.5zM134 607q-29 27 -33 68q0 10 10 10h23q10 0 11 -10q3 -26 20 -42t41 -16t41 16t20 42q1 10 11 10h23
q10 0 10 -10q-4 -41 -33 -68t-72 -27t-72 27zM233 733.5q-11 5.5 -29 16.5q-4 3 -13 9t-16 8.5t-15 2.5q-14 0 -24.5 -5.5t-20.5 -20.5q-6 -9 -14 -3l-18 13q-8 6 -4 14q27 52 76 52q16 0 29 -6t29 -17q2 -2 11 -8t17.5 -9.5t16.5 -3.5q13 0 23 6t20 22q2 4 6 5t8 -1l18 -12
q4 -3 4 -8t-4 -12q-14 -25 -35 -36.5t-40 -11.5q-14 0 -25 5.5z" />
    <glyph glyph-name="uni1EB6" unicode="&#x1eb6;" horiz-adv-x="410" 
d="M325 9l-25 124q0 2 -1.5 3t-3.5 1h-181q-2 0 -3.5 -1t-1.5 -3l-25 -124q-1 -9 -11 -9h-51q-5 0 -7.5 3t-1.5 8l150 680q2 9 11 9h60q10 0 11 -9l152 -680v-2q0 -9 -9 -9h-52q-9 0 -11 9zM125 195h158q3 0 3 4l-80 393q-1 3 -2 3t-2 -3l-80 -393q0 -4 3 -4zM168 -176
q-15 15 -15 38t15 38t38 15t38 -15t15 -38t-15 -38t-38 -15t-38 15zM133 801q-29 27 -33 68q0 10 10 10h23q10 0 11 -10q3 -26 20 -42t41 -16t41 16t20 42q1 10 11 10h23q10 0 10 -10q-4 -41 -33 -68t-72 -27t-72 27z" />
    <glyph glyph-name="uni1EB7" unicode="&#x1eb7;" horiz-adv-x="411" 
d="M321 468.5q42 -45.5 42 -121.5v-337q0 -10 -10 -10h-51q-10 0 -10 10v30q0 2 -1.5 2.5t-3.5 -1.5q-37 -49 -111 -49q-55 0 -95.5 31.5t-40.5 111.5q0 85 49 124.5t129 39.5h70q4 0 4 4v39q0 50 -23 80t-62 30q-30 0 -51.5 -20t-25.5 -51q0 -10 -10 -10l-56 1q-5 0 -7.5 3
t-1.5 7q5 59 48 95.5t106 36.5q70 0 112 -45.5zM262 80.5q30 26.5 30 73.5v84q0 4 -4 4h-71q-48 0 -76 -25.5t-28 -75.5q0 -44 21.5 -65.5t56.5 -21.5q41 0 71 26.5zM168 -176q-15 15 -15 38t15 38t38 15t38 -15t15 -38t-15 -38t-38 -15t-38 15zM134 607q-29 27 -33 68
q0 10 10 10h23q10 0 11 -10q3 -26 20 -42t41 -16t41 16t20 42q1 10 11 10h23q10 0 10 -10q-4 -41 -33 -68t-72 -27t-72 27z" />
    <glyph glyph-name="uni1EB8" unicode="&#x1eb8;" horiz-adv-x="429" 
d="M379 638h-232q-4 0 -4 -4v-248q0 -4 4 -4h146q10 0 10 -10v-43q0 -10 -10 -10h-146q-4 0 -4 -4v-249q0 -4 4 -4h232q10 0 10 -10v-42q0 -10 -10 -10h-297q-10 0 -10 10v680q0 10 10 10h297q10 0 10 -10v-42q0 -10 -10 -10zM189 -176q-15 15 -15 38t15 38t38 15t38 -15
t15 -38t-15 -38t-38 -15t-38 15z" />
    <glyph glyph-name="uni1EB9" unicode="&#x1eb9;" horiz-adv-x="408" 
d="M353 226h-228q-4 0 -4 -4v-73q0 -42 23.5 -68.5t61.5 -26.5q32 0 54.5 19.5t29.5 50.5q3 9 11 9l50 -2q4 0 7 -3t2 -8q-8 -59 -48.5 -93.5t-105.5 -34.5q-71 0 -113.5 42t-42.5 111v216q0 68 42.5 110.5t113.5 42.5q72 0 114.5 -42.5t42.5 -110.5v-125q0 -10 -10 -10z
M144.5 425.5q-23.5 -26.5 -23.5 -69.5v-67q0 -4 4 -4h164q4 0 4 4v67q0 43 -24 69.5t-63 26.5q-38 0 -61.5 -26.5zM167 -176q-15 15 -15 38t15 38t38 15t38 -15t15 -38t-15 -38t-38 -15t-38 15z" />
    <glyph glyph-name="uni1EBA" unicode="&#x1eba;" horiz-adv-x="429" 
d="M379 638h-232q-4 0 -4 -4v-248q0 -4 4 -4h146q10 0 10 -10v-43q0 -10 -10 -10h-146q-4 0 -4 -4v-249q0 -4 4 -4h232q10 0 10 -10v-42q0 -10 -10 -10h-297q-10 0 -10 10v680q0 10 10 10h297q10 0 10 -10v-42q0 -10 -10 -10zM215.5 748.5q-1.5 3.5 0.5 7.5q10 23 34 47
q13 13 19 22.5t6 24.5t-12.5 25.5t-29.5 10.5t-28.5 -8t-25.5 -28q-6 -8 -14 -2l-16 10q-8 6 -3 14q20 29 38 41.5t51 12.5q37 0 60 -21t23 -55q0 -22 -9 -36.5t-28 -34.5q-21 -19 -28 -34q-4 -7 -13 -6l-18 4q-5 2 -6.5 5.5z" />
    <glyph glyph-name="uni1EBB" unicode="&#x1ebb;" horiz-adv-x="408" 
d="M353 226h-228q-4 0 -4 -4v-73q0 -42 23.5 -68.5t61.5 -26.5q32 0 54.5 19.5t29.5 50.5q3 9 11 9l50 -2q4 0 7 -3t2 -8q-8 -59 -48.5 -93.5t-105.5 -34.5q-71 0 -113.5 42t-42.5 111v216q0 68 42.5 110.5t113.5 42.5q72 0 114.5 -42.5t42.5 -110.5v-125q0 -10 -10 -10z
M144.5 425.5q-23.5 -26.5 -23.5 -69.5v-67q0 -4 4 -4h164q4 0 4 4v67q0 43 -24 69.5t-63 26.5q-38 0 -61.5 -26.5zM189.5 554.5q-1.5 3.5 0.5 7.5q10 23 34 47q13 13 19 22.5t6 24.5t-12.5 25.5t-29.5 10.5t-28.5 -8t-25.5 -28q-6 -8 -14 -2l-16 10q-8 6 -3 14
q20 29 38 41.5t51 12.5q37 0 60 -21t23 -55q0 -22 -9 -36.5t-28 -34.5q-21 -19 -28 -34q-4 -7 -13 -6l-18 4q-5 2 -6.5 5.5z" />
    <glyph glyph-name="uni1EBC" unicode="&#x1ebc;" horiz-adv-x="429" 
d="M379 638h-232q-4 0 -4 -4v-248q0 -4 4 -4h146q10 0 10 -10v-43q0 -10 -10 -10h-146q-4 0 -4 -4v-249q0 -4 4 -4h232q10 0 10 -10v-42q0 -10 -10 -10h-297q-10 0 -10 10v680q0 10 10 10h297q10 0 10 -10v-42q0 -10 -10 -10zM268 807.5q-11 5.5 -29 16.5q-4 3 -13 9
t-16 8.5t-15 2.5q-14 0 -24.5 -5.5t-20.5 -20.5q-6 -9 -14 -3l-18 13q-8 6 -4 14q27 52 76 52q16 0 29 -6t29 -17q2 -2 11 -8t17.5 -9.5t16.5 -3.5q13 0 23 6t20 22q2 4 6 5t8 -1l18 -12q4 -3 4 -8t-4 -12q-14 -25 -35 -36.5t-40 -11.5q-14 0 -25 5.5z" />
    <glyph glyph-name="uni1EBD" unicode="&#x1ebd;" horiz-adv-x="408" 
d="M353 226h-228q-4 0 -4 -4v-73q0 -42 23.5 -68.5t61.5 -26.5q32 0 54.5 19.5t29.5 50.5q3 9 11 9l50 -2q4 0 7 -3t2 -8q-8 -59 -48.5 -93.5t-105.5 -34.5q-71 0 -113.5 42t-42.5 111v216q0 68 42.5 110.5t113.5 42.5q72 0 114.5 -42.5t42.5 -110.5v-125q0 -10 -10 -10z
M144.5 425.5q-23.5 -26.5 -23.5 -69.5v-67q0 -4 4 -4h164q4 0 4 4v67q0 43 -24 69.5t-63 26.5q-38 0 -61.5 -26.5zM242 613.5q-11 5.5 -29 16.5q-4 3 -13 9t-16 8.5t-15 2.5q-14 0 -24.5 -5.5t-20.5 -20.5q-6 -9 -14 -3l-18 13q-8 6 -4 14q27 52 76 52q16 0 29 -6t29 -17
q2 -2 11 -8t17.5 -9.5t16.5 -3.5q13 0 23 6t20 22q2 4 6 5t8 -1l18 -12q4 -3 4 -8t-4 -12q-14 -25 -35 -36.5t-40 -11.5q-14 0 -25 5.5z" />
    <glyph glyph-name="uni1EBE" unicode="&#x1ebe;" horiz-adv-x="429" 
d="M379 638h-232q-4 0 -4 -4v-248q0 -4 4 -4h146q10 0 10 -10v-43q0 -10 -10 -10h-146q-4 0 -4 -4v-249q0 -4 4 -4h232q10 0 10 -10v-42q0 -10 -10 -10h-297q-10 0 -10 10v680q0 10 10 10h297q10 0 10 -10v-42q0 -10 -10 -10zM120.5 775.5q-1.5 3.5 1.5 8.5l65 103q5 7 12 7
h60q7 0 12 -7l67 -103q2 -4 2 -6q0 -6 -8 -6h-44q-7 0 -12 7l-43 73q-1 2 -3 2t-3 -2l-44 -73q-5 -7 -12 -7h-43q-6 0 -7.5 3.5zM341 847.5q-2 3.5 1 8.5l62 109q5 7 12 7h41q6 0 7.5 -3.5t-1.5 -8.5l-70 -109q-5 -7 -12 -7h-32q-6 0 -8 3.5z" />
    <glyph glyph-name="uni1EBF" unicode="&#x1ebf;" horiz-adv-x="408" 
d="M353 226h-228q-4 0 -4 -4v-73q0 -42 23.5 -68.5t61.5 -26.5q32 0 54.5 19.5t29.5 50.5q3 9 11 9l50 -2q4 0 7 -3t2 -8q-8 -59 -48.5 -93.5t-105.5 -34.5q-71 0 -113.5 42t-42.5 111v216q0 68 42.5 110.5t113.5 42.5q72 0 114.5 -42.5t42.5 -110.5v-125q0 -10 -10 -10z
M144.5 425.5q-23.5 -26.5 -23.5 -69.5v-67q0 -4 4 -4h164q4 0 4 4v67q0 43 -24 69.5t-63 26.5q-38 0 -61.5 -26.5zM93.5 581.5q-1.5 3.5 1.5 8.5l65 103q5 7 12 7h60q7 0 12 -7l67 -103q2 -4 2 -6q0 -6 -8 -6h-44q-7 0 -12 7l-43 73q-1 2 -3 2t-3 -2l-44 -73q-5 -7 -12 -7
h-43q-6 0 -7.5 3.5zM314 653.5q-2 3.5 1 8.5l62 109q5 7 12 7h41q6 0 7.5 -3.5t-1.5 -8.5l-70 -109q-5 -7 -12 -7h-32q-6 0 -8 3.5z" />
    <glyph glyph-name="uni1EC0" unicode="&#x1ec0;" horiz-adv-x="429" 
d="M379 638h-232q-4 0 -4 -4v-248q0 -4 4 -4h146q10 0 10 -10v-43q0 -10 -10 -10h-146q-4 0 -4 -4v-249q0 -4 4 -4h232q10 0 10 -10v-42q0 -10 -10 -10h-297q-10 0 -10 10v680q0 10 10 10h297q10 0 10 -10v-42q0 -10 -10 -10zM120.5 775.5q-1.5 3.5 1.5 8.5l65 103q5 7 12 7
h60q7 0 12 -7l67 -103q2 -4 2 -6q0 -6 -8 -6h-44q-7 0 -12 7l-43 73q-1 2 -3 2t-3 -2l-44 -73q-5 -7 -12 -7h-43q-6 0 -7.5 3.5zM395 892q0 -6 -9 -6h-32q-7 0 -12 7l-70 109q-2 4 -2 6q0 6 8 6h42q7 0 12 -7l61 -109q2 -4 2 -6z" />
    <glyph glyph-name="uni1EC1" unicode="&#x1ec1;" horiz-adv-x="408" 
d="M353 226h-228q-4 0 -4 -4v-73q0 -42 23.5 -68.5t61.5 -26.5q32 0 54.5 19.5t29.5 50.5q3 9 11 9l50 -2q4 0 7 -3t2 -8q-8 -59 -48.5 -93.5t-105.5 -34.5q-71 0 -113.5 42t-42.5 111v216q0 68 42.5 110.5t113.5 42.5q72 0 114.5 -42.5t42.5 -110.5v-125q0 -10 -10 -10z
M144.5 425.5q-23.5 -26.5 -23.5 -69.5v-67q0 -4 4 -4h164q4 0 4 4v67q0 43 -24 69.5t-63 26.5q-38 0 -61.5 -26.5zM93.5 581.5q-1.5 3.5 1.5 8.5l65 103q5 7 12 7h60q7 0 12 -7l67 -103q2 -4 2 -6q0 -6 -8 -6h-44q-7 0 -12 7l-43 73q-1 2 -3 2t-3 -2l-44 -73q-5 -7 -12 -7
h-43q-6 0 -7.5 3.5zM368 698q0 -6 -9 -6h-32q-7 0 -12 7l-70 109q-2 4 -2 6q0 6 8 6h42q7 0 12 -7l61 -109q2 -4 2 -6z" />
    <glyph glyph-name="uni1EC2" unicode="&#x1ec2;" horiz-adv-x="429" 
d="M379 638h-232q-4 0 -4 -4v-248q0 -4 4 -4h146q10 0 10 -10v-43q0 -10 -10 -10h-146q-4 0 -4 -4v-249q0 -4 4 -4h232q10 0 10 -10v-42q0 -10 -10 -10h-297q-10 0 -10 10v680q0 10 10 10h297q10 0 10 -10v-42q0 -10 -10 -10zM338 878q9 22 33 46q13 13 18.5 22t5.5 24
q0 14 -11.5 24t-28.5 10t-28 -7t-25 -27q-6 -8 -14 -2l-15 10q-8 6 -3 14q19 28 37 40t49 12q36 0 59 -21t23 -53q0 -22 -9.5 -37t-28.5 -33q-20 -20 -26 -32q-5 -9 -13 -6l-16 4q-11 3 -7 12zM120.5 775.5q-1.5 3.5 1.5 8.5l65 103q5 7 12 7h60q7 0 12 -7l67 -103
q2 -4 2 -6q0 -6 -8 -6h-44q-7 0 -12 7l-43 73q-1 2 -3 2t-3 -2l-44 -73q-5 -7 -12 -7h-43q-6 0 -7.5 3.5z" />
    <glyph glyph-name="uni1EC3" unicode="&#x1ec3;" horiz-adv-x="408" 
d="M353 226h-228q-4 0 -4 -4v-73q0 -42 23.5 -68.5t61.5 -26.5q32 0 54.5 19.5t29.5 50.5q3 9 11 9l50 -2q4 0 7 -3t2 -8q-8 -59 -48.5 -93.5t-105.5 -34.5q-71 0 -113.5 42t-42.5 111v216q0 68 42.5 110.5t113.5 42.5q72 0 114.5 -42.5t42.5 -110.5v-125q0 -10 -10 -10z
M144.5 425.5q-23.5 -26.5 -23.5 -69.5v-67q0 -4 4 -4h164q4 0 4 4v67q0 43 -24 69.5t-63 26.5q-38 0 -61.5 -26.5zM311 684q9 22 33 46q13 13 18.5 22t5.5 24q0 14 -11.5 24t-28.5 10t-28 -7t-25 -27q-6 -8 -14 -2l-15 10q-8 6 -3 14q19 28 37 40t49 12q36 0 59 -21t23 -53
q0 -22 -9.5 -37t-28.5 -33q-20 -20 -26 -32q-5 -9 -13 -6l-16 4q-11 3 -7 12zM93.5 581.5q-1.5 3.5 1.5 8.5l65 103q5 7 12 7h60q7 0 12 -7l67 -103q2 -4 2 -6q0 -6 -8 -6h-44q-7 0 -12 7l-43 73q-1 2 -3 2t-3 -2l-44 -73q-5 -7 -12 -7h-43q-6 0 -7.5 3.5z" />
    <glyph glyph-name="uni1EC4" unicode="&#x1ec4;" horiz-adv-x="429" 
d="M379 638h-232q-4 0 -4 -4v-248q0 -4 4 -4h146q10 0 10 -10v-43q0 -10 -10 -10h-146q-4 0 -4 -4v-249q0 -4 4 -4h232q10 0 10 -10v-42q0 -10 -10 -10h-297q-10 0 -10 10v680q0 10 10 10h297q10 0 10 -10v-42q0 -10 -10 -10zM120.5 775.5q-1.5 3.5 1.5 8.5l65 103q5 7 12 7
h60q7 0 12 -7l67 -103q2 -4 2 -6q0 -6 -8 -6h-44q-7 0 -12 7l-43 73q-1 2 -3 2t-3 -2l-44 -73q-5 -7 -12 -7h-43q-6 0 -7.5 3.5zM260 930.5q-11 5.5 -29 16.5q-4 3 -13 9t-16 8.5t-15 2.5q-14 0 -24.5 -5.5t-20.5 -20.5q-6 -9 -14 -3l-18 13q-8 6 -4 14q27 52 76 52
q16 0 29 -6t29 -17q2 -2 11 -8t17.5 -9.5t16.5 -3.5q13 0 23 6t20 22q2 4 6 5t8 -1l18 -12q4 -3 4 -8t-4 -12q-14 -25 -35 -36.5t-40 -11.5q-14 0 -25 5.5z" />
    <glyph glyph-name="uni1EC5" unicode="&#x1ec5;" horiz-adv-x="408" 
d="M353 226h-228q-4 0 -4 -4v-73q0 -42 23.5 -68.5t61.5 -26.5q32 0 54.5 19.5t29.5 50.5q3 9 11 9l50 -2q4 0 7 -3t2 -8q-8 -59 -48.5 -93.5t-105.5 -34.5q-71 0 -113.5 42t-42.5 111v216q0 68 42.5 110.5t113.5 42.5q72 0 114.5 -42.5t42.5 -110.5v-125q0 -10 -10 -10z
M144.5 425.5q-23.5 -26.5 -23.5 -69.5v-67q0 -4 4 -4h164q4 0 4 4v67q0 43 -24 69.5t-63 26.5q-38 0 -61.5 -26.5zM93.5 581.5q-1.5 3.5 1.5 8.5l65 103q5 7 12 7h60q7 0 12 -7l67 -103q2 -4 2 -6q0 -6 -8 -6h-44q-7 0 -12 7l-43 73q-1 2 -3 2t-3 -2l-44 -73q-5 -7 -12 -7
h-43q-6 0 -7.5 3.5zM233 736.5q-11 5.5 -29 16.5q-4 3 -13 9t-16 8.5t-15 2.5q-14 0 -24.5 -5.5t-20.5 -20.5q-6 -9 -14 -3l-18 13q-8 6 -4 14q27 52 76 52q16 0 29 -6t29 -17q2 -2 11 -8t17.5 -9.5t16.5 -3.5q13 0 23 6t20 22q2 4 6 5t8 -1l18 -12q4 -3 4 -8t-4 -12
q-14 -25 -35 -36.5t-40 -11.5q-14 0 -25 5.5z" />
    <glyph glyph-name="uni1EC6" unicode="&#x1ec6;" horiz-adv-x="429" 
d="M379 638h-232q-4 0 -4 -4v-248q0 -4 4 -4h146q10 0 10 -10v-43q0 -10 -10 -10h-146q-4 0 -4 -4v-249q0 -4 4 -4h232q10 0 10 -10v-42q0 -10 -10 -10h-297q-10 0 -10 10v680q0 10 10 10h297q10 0 10 -10v-42q0 -10 -10 -10zM189 -176q-15 15 -15 38t15 38t38 15t38 -15
t15 -38t-15 -38t-38 -15t-38 15zM120.5 775.5q-1.5 3.5 1.5 8.5l65 103q5 7 12 7h60q7 0 12 -7l67 -103q2 -4 2 -6q0 -6 -8 -6h-44q-7 0 -12 7l-43 73q-1 2 -3 2t-3 -2l-44 -73q-5 -7 -12 -7h-43q-6 0 -7.5 3.5z" />
    <glyph glyph-name="uni1EC7" unicode="&#x1ec7;" horiz-adv-x="408" 
d="M353 226h-228q-4 0 -4 -4v-73q0 -42 23.5 -68.5t61.5 -26.5q32 0 54.5 19.5t29.5 50.5q3 9 11 9l50 -2q4 0 7 -3t2 -8q-8 -59 -48.5 -93.5t-105.5 -34.5q-71 0 -113.5 42t-42.5 111v216q0 68 42.5 110.5t113.5 42.5q72 0 114.5 -42.5t42.5 -110.5v-125q0 -10 -10 -10z
M144.5 425.5q-23.5 -26.5 -23.5 -69.5v-67q0 -4 4 -4h164q4 0 4 4v67q0 43 -24 69.5t-63 26.5q-38 0 -61.5 -26.5zM167 -176q-15 15 -15 38t15 38t38 15t38 -15t15 -38t-15 -38t-38 -15t-38 15zM94.5 581.5q-1.5 3.5 1.5 8.5l65 103q5 7 12 7h60q7 0 12 -7l67 -103
q2 -4 2 -6q0 -6 -8 -6h-44q-7 0 -12 7l-43 73q-1 2 -3 2t-3 -2l-44 -73q-5 -7 -12 -7h-43q-6 0 -7.5 3.5z" />
    <glyph glyph-name="uni1EC8" unicode="&#x1ec8;" horiz-adv-x="215" 
d="M72 10v680q0 10 10 10h51q10 0 10 -10v-680q0 -10 -10 -10h-51q-10 0 -10 10zM92.5 748.5q-1.5 3.5 0.5 7.5q10 23 34 47q13 13 19 22.5t6 24.5t-12.5 25.5t-29.5 10.5t-28.5 -8t-25.5 -28q-6 -8 -14 -2l-16 10q-8 6 -3 14q20 29 38 41.5t51 12.5q37 0 60 -21t23 -55
q0 -22 -9 -36.5t-28 -34.5q-21 -19 -28 -34q-4 -7 -13 -6l-18 4q-5 2 -6.5 5.5z" />
    <glyph glyph-name="uni1EC9" unicode="&#x1ec9;" horiz-adv-x="169" 
d="M49 10v486q0 10 10 10h51q10 0 10 -10v-486q0 -10 -10 -10h-51q-10 0 -10 10zM69.5 554.5q-1.5 3.5 0.5 7.5q10 23 34 47q13 13 19 22.5t6 24.5t-12.5 25.5t-29.5 10.5t-28.5 -8t-25.5 -28q-6 -8 -14 -2l-16 10q-8 6 -3 14q20 29 38 41.5t51 12.5q37 0 60 -21t23 -55
q0 -22 -9 -36.5t-28 -34.5q-21 -19 -28 -34q-4 -7 -13 -6l-18 4q-5 2 -6.5 5.5z" />
    <glyph glyph-name="uni1ECA" unicode="&#x1eca;" horiz-adv-x="215" 
d="M72 10v680q0 10 10 10h51q10 0 10 -10v-680q0 -10 -10 -10h-51q-10 0 -10 10zM70 -176q-15 15 -15 38t15 38t38 15t38 -15t15 -38t-15 -38t-38 -15t-38 15z" />
    <glyph glyph-name="uni1ECB" unicode="&#x1ecb;" horiz-adv-x="208" 
d="M63.5 614q-15.5 16 -15.5 40q0 25 15.5 40.5t40.5 15.5q24 0 39.5 -15.5t15.5 -40.5q0 -24 -15.5 -40t-39.5 -16q-25 0 -40.5 16zM69 10v486q0 10 10 10h51q10 0 10 -10v-486q0 -10 -10 -10h-51q-10 0 -10 10zM66 -176q-15 15 -15 38t15 38t38 15t38 -15t15 -38t-15 -38
t-38 -15t-38 15z" />
    <glyph glyph-name="uni1ECC" unicode="&#x1ecc;" horiz-adv-x="456" 
d="M102.5 40q-47.5 48 -47.5 127v366q0 79 47.5 127t124.5 48q78 0 126 -48t48 -127v-366q0 -78 -48 -126.5t-126 -48.5q-77 0 -124.5 48zM301.5 84.5q28.5 30.5 28.5 78.5v373q0 49 -28.5 79.5t-74.5 30.5q-45 0 -73 -30.5t-28 -79.5v-373q0 -48 28 -78.5t73 -30.5
q46 0 74.5 30.5zM191 -176q-15 15 -15 38t15 38t38 15t38 -15t15 -38t-15 -38t-38 -15t-38 15z" />
    <glyph glyph-name="uni1ECD" unicode="&#x1ecd;" horiz-adv-x="414" 
d="M92.5 34q-42.5 42 -42.5 111v215q0 68 43 111t114 43q72 0 115 -43t43 -111v-215q0 -69 -43 -111t-115 -42t-114.5 42zM269.5 81q24.5 26 24.5 69v206q0 43 -24.5 69.5t-62.5 26.5t-62 -26.5t-24 -69.5v-206q0 -43 24 -69t62 -26t62.5 26zM170 -176q-15 15 -15 38t15 38
t38 15t38 -15t15 -38t-15 -38t-38 -15t-38 15z" />
    <glyph glyph-name="uni1ECE" unicode="&#x1ece;" horiz-adv-x="456" 
d="M102.5 40q-47.5 48 -47.5 127v366q0 79 47.5 127t124.5 48q78 0 126 -48t48 -127v-366q0 -78 -48 -126.5t-126 -48.5q-77 0 -124.5 48zM301.5 84.5q28.5 30.5 28.5 78.5v373q0 49 -28.5 79.5t-74.5 30.5q-45 0 -73 -30.5t-28 -79.5v-373q0 -48 28 -78.5t73 -30.5
q46 0 74.5 30.5zM212.5 747.5q-1.5 3.5 0.5 7.5q10 23 34 47q13 13 19 22.5t6 24.5t-12.5 25.5t-29.5 10.5t-28.5 -8t-25.5 -28q-6 -8 -14 -2l-16 10q-8 6 -3 14q20 29 38 41.5t51 12.5q37 0 60 -21t23 -55q0 -22 -9 -36.5t-28 -34.5q-21 -19 -28 -34q-4 -7 -13 -6l-18 4
q-5 2 -6.5 5.5z" />
    <glyph glyph-name="uni1ECF" unicode="&#x1ecf;" horiz-adv-x="414" 
d="M92.5 34q-42.5 42 -42.5 111v215q0 68 43 111t114 43q72 0 115 -43t43 -111v-215q0 -69 -43 -111t-115 -42t-114.5 42zM269.5 81q24.5 26 24.5 69v206q0 43 -24.5 69.5t-62.5 26.5t-62 -26.5t-24 -69.5v-206q0 -43 24 -69t62 -26t62.5 26zM192.5 554.5q-1.5 3.5 0.5 7.5
q10 23 34 47q13 13 19 22.5t6 24.5t-12.5 25.5t-29.5 10.5t-28.5 -8t-25.5 -28q-6 -8 -14 -2l-16 10q-8 6 -3 14q20 29 38 41.5t51 12.5q37 0 60 -21t23 -55q0 -22 -9 -36.5t-28 -34.5q-21 -19 -28 -34q-4 -7 -13 -6l-18 4q-5 2 -6.5 5.5z" />
    <glyph glyph-name="uni1ED0" unicode="&#x1ed0;" horiz-adv-x="456" 
d="M102.5 40q-47.5 48 -47.5 127v366q0 79 47.5 127t124.5 48q78 0 126 -48t48 -127v-366q0 -78 -48 -126.5t-126 -48.5q-77 0 -124.5 48zM301.5 84.5q28.5 30.5 28.5 78.5v373q0 49 -28.5 79.5t-74.5 30.5q-45 0 -73 -30.5t-28 -79.5v-373q0 -48 28 -78.5t73 -30.5
q46 0 74.5 30.5zM116.5 774.5q-1.5 3.5 1.5 8.5l65 103q5 7 12 7h60q7 0 12 -7l67 -103q2 -4 2 -6q0 -6 -8 -6h-44q-7 0 -12 7l-43 73q-1 2 -3 2t-3 -2l-44 -73q-5 -7 -12 -7h-43q-6 0 -7.5 3.5zM337 846.5q-2 3.5 1 8.5l62 109q5 7 12 7h41q6 0 7.5 -3.5t-1.5 -8.5
l-70 -109q-5 -7 -12 -7h-32q-6 0 -8 3.5z" />
    <glyph glyph-name="uni1ED1" unicode="&#x1ed1;" horiz-adv-x="414" 
d="M92.5 34q-42.5 42 -42.5 111v215q0 68 43 111t114 43q72 0 115 -43t43 -111v-215q0 -69 -43 -111t-115 -42t-114.5 42zM269.5 81q24.5 26 24.5 69v206q0 43 -24.5 69.5t-62.5 26.5t-62 -26.5t-24 -69.5v-206q0 -43 24 -69t62 -26t62.5 26zM96.5 581.5q-1.5 3.5 1.5 8.5
l65 103q5 7 12 7h60q7 0 12 -7l67 -103q2 -4 2 -6q0 -6 -8 -6h-44q-7 0 -12 7l-43 73q-1 2 -3 2t-3 -2l-44 -73q-5 -7 -12 -7h-43q-6 0 -7.5 3.5zM317 653.5q-2 3.5 1 8.5l62 109q5 7 12 7h41q6 0 7.5 -3.5t-1.5 -8.5l-70 -109q-5 -7 -12 -7h-32q-6 0 -8 3.5z" />
    <glyph glyph-name="uni1ED2" unicode="&#x1ed2;" horiz-adv-x="456" 
d="M102.5 40q-47.5 48 -47.5 127v366q0 79 47.5 127t124.5 48q78 0 126 -48t48 -127v-366q0 -78 -48 -126.5t-126 -48.5q-77 0 -124.5 48zM301.5 84.5q28.5 30.5 28.5 78.5v373q0 49 -28.5 79.5t-74.5 30.5q-45 0 -73 -30.5t-28 -79.5v-373q0 -48 28 -78.5t73 -30.5
q46 0 74.5 30.5zM116.5 774.5q-1.5 3.5 1.5 8.5l65 103q5 7 12 7h60q7 0 12 -7l67 -103q2 -4 2 -6q0 -6 -8 -6h-44q-7 0 -12 7l-43 73q-1 2 -3 2t-3 -2l-44 -73q-5 -7 -12 -7h-43q-6 0 -7.5 3.5zM391 891q0 -6 -9 -6h-32q-7 0 -12 7l-70 109q-2 4 -2 6q0 6 8 6h42q7 0 12 -7
l61 -109q2 -4 2 -6z" />
    <glyph glyph-name="uni1ED3" unicode="&#x1ed3;" horiz-adv-x="414" 
d="M92.5 34q-42.5 42 -42.5 111v215q0 68 43 111t114 43q72 0 115 -43t43 -111v-215q0 -69 -43 -111t-115 -42t-114.5 42zM269.5 81q24.5 26 24.5 69v206q0 43 -24.5 69.5t-62.5 26.5t-62 -26.5t-24 -69.5v-206q0 -43 24 -69t62 -26t62.5 26zM96.5 581.5q-1.5 3.5 1.5 8.5
l65 103q5 7 12 7h60q7 0 12 -7l67 -103q2 -4 2 -6q0 -6 -8 -6h-44q-7 0 -12 7l-43 73q-1 2 -3 2t-3 -2l-44 -73q-5 -7 -12 -7h-43q-6 0 -7.5 3.5zM371 698q0 -6 -9 -6h-32q-7 0 -12 7l-70 109q-2 4 -2 6q0 6 8 6h42q7 0 12 -7l61 -109q2 -4 2 -6z" />
    <glyph glyph-name="uni1ED4" unicode="&#x1ed4;" horiz-adv-x="456" 
d="M102.5 40q-47.5 48 -47.5 127v366q0 79 47.5 127t124.5 48q78 0 126 -48t48 -127v-366q0 -78 -48 -126.5t-126 -48.5q-77 0 -124.5 48zM301.5 84.5q28.5 30.5 28.5 78.5v373q0 49 -28.5 79.5t-74.5 30.5q-45 0 -73 -30.5t-28 -79.5v-373q0 -48 28 -78.5t73 -30.5
q46 0 74.5 30.5zM334 877q9 22 33 46q13 13 18.5 22t5.5 24q0 14 -11.5 24t-28.5 10t-28 -7t-25 -27q-6 -8 -14 -2l-15 10q-8 6 -3 14q19 28 37 40t49 12q36 0 59 -21t23 -53q0 -22 -9.5 -37t-28.5 -33q-20 -20 -26 -32q-5 -9 -13 -6l-16 4q-11 3 -7 12zM116.5 774.5
q-1.5 3.5 1.5 8.5l65 103q5 7 12 7h60q7 0 12 -7l67 -103q2 -4 2 -6q0 -6 -8 -6h-44q-7 0 -12 7l-43 73q-1 2 -3 2t-3 -2l-44 -73q-5 -7 -12 -7h-43q-6 0 -7.5 3.5z" />
    <glyph glyph-name="uni1ED5" unicode="&#x1ed5;" horiz-adv-x="414" 
d="M92.5 34q-42.5 42 -42.5 111v215q0 68 43 111t114 43q72 0 115 -43t43 -111v-215q0 -69 -43 -111t-115 -42t-114.5 42zM269.5 81q24.5 26 24.5 69v206q0 43 -24.5 69.5t-62.5 26.5t-62 -26.5t-24 -69.5v-206q0 -43 24 -69t62 -26t62.5 26zM314 684q9 22 33 46
q13 13 18.5 22t5.5 24q0 14 -11.5 24t-28.5 10t-28 -7t-25 -27q-6 -8 -14 -2l-15 10q-8 6 -3 14q19 28 37 40t49 12q36 0 59 -21t23 -53q0 -22 -9.5 -37t-28.5 -33q-20 -20 -26 -32q-5 -9 -13 -6l-16 4q-11 3 -7 12zM96.5 581.5q-1.5 3.5 1.5 8.5l65 103q5 7 12 7h60
q7 0 12 -7l67 -103q2 -4 2 -6q0 -6 -8 -6h-44q-7 0 -12 7l-43 73q-1 2 -3 2t-3 -2l-44 -73q-5 -7 -12 -7h-43q-6 0 -7.5 3.5z" />
    <glyph glyph-name="uni1ED6" unicode="&#x1ed6;" horiz-adv-x="456" 
d="M102.5 40q-47.5 48 -47.5 127v366q0 79 47.5 127t124.5 48q78 0 126 -48t48 -127v-366q0 -78 -48 -126.5t-126 -48.5q-77 0 -124.5 48zM301.5 84.5q28.5 30.5 28.5 78.5v373q0 49 -28.5 79.5t-74.5 30.5q-45 0 -73 -30.5t-28 -79.5v-373q0 -48 28 -78.5t73 -30.5
q46 0 74.5 30.5zM116.5 774.5q-1.5 3.5 1.5 8.5l65 103q5 7 12 7h60q7 0 12 -7l67 -103q2 -4 2 -6q0 -6 -8 -6h-44q-7 0 -12 7l-43 73q-1 2 -3 2t-3 -2l-44 -73q-5 -7 -12 -7h-43q-6 0 -7.5 3.5zM256 929.5q-11 5.5 -29 16.5q-4 3 -13 9t-16 8.5t-15 2.5q-14 0 -24.5 -5.5
t-20.5 -20.5q-6 -9 -14 -3l-18 13q-8 6 -4 14q27 52 76 52q16 0 29 -6t29 -17q2 -2 11 -8t17.5 -9.5t16.5 -3.5q13 0 23 6t20 22q2 4 6 5t8 -1l18 -12q4 -3 4 -8t-4 -12q-14 -25 -35 -36.5t-40 -11.5q-14 0 -25 5.5z" />
    <glyph glyph-name="uni1ED7" unicode="&#x1ed7;" horiz-adv-x="414" 
d="M92.5 34q-42.5 42 -42.5 111v215q0 68 43 111t114 43q72 0 115 -43t43 -111v-215q0 -69 -43 -111t-115 -42t-114.5 42zM269.5 81q24.5 26 24.5 69v206q0 43 -24.5 69.5t-62.5 26.5t-62 -26.5t-24 -69.5v-206q0 -43 24 -69t62 -26t62.5 26zM96.5 581.5q-1.5 3.5 1.5 8.5
l65 103q5 7 12 7h60q7 0 12 -7l67 -103q2 -4 2 -6q0 -6 -8 -6h-44q-7 0 -12 7l-43 73q-1 2 -3 2t-3 -2l-44 -73q-5 -7 -12 -7h-43q-6 0 -7.5 3.5zM236 736.5q-11 5.5 -29 16.5q-4 3 -13 9t-16 8.5t-15 2.5q-14 0 -24.5 -5.5t-20.5 -20.5q-6 -9 -14 -3l-18 13q-8 6 -4 14
q27 52 76 52q16 0 29 -6t29 -17q2 -2 11 -8t17.5 -9.5t16.5 -3.5q13 0 23 6t20 22q2 4 6 5t8 -1l18 -12q4 -3 4 -8t-4 -12q-14 -25 -35 -36.5t-40 -11.5q-14 0 -25 5.5z" />
    <glyph glyph-name="uni1ED8" unicode="&#x1ed8;" horiz-adv-x="456" 
d="M102.5 40q-47.5 48 -47.5 127v366q0 79 47.5 127t124.5 48q78 0 126 -48t48 -127v-366q0 -78 -48 -126.5t-126 -48.5q-77 0 -124.5 48zM301.5 84.5q28.5 30.5 28.5 78.5v373q0 49 -28.5 79.5t-74.5 30.5q-45 0 -73 -30.5t-28 -79.5v-373q0 -48 28 -78.5t73 -30.5
q46 0 74.5 30.5zM191 -176q-15 15 -15 38t15 38t38 15t38 -15t15 -38t-15 -38t-38 -15t-38 15zM117.5 774.5q-1.5 3.5 1.5 8.5l65 103q5 7 12 7h60q7 0 12 -7l67 -103q2 -4 2 -6q0 -6 -8 -6h-44q-7 0 -12 7l-43 73q-1 2 -3 2t-3 -2l-44 -73q-5 -7 -12 -7h-43q-6 0 -7.5 3.5z
" />
    <glyph glyph-name="uni1ED9" unicode="&#x1ed9;" horiz-adv-x="414" 
d="M92.5 34q-42.5 42 -42.5 111v215q0 68 43 111t114 43q72 0 115 -43t43 -111v-215q0 -69 -43 -111t-115 -42t-114.5 42zM269.5 81q24.5 26 24.5 69v206q0 43 -24.5 69.5t-62.5 26.5t-62 -26.5t-24 -69.5v-206q0 -43 24 -69t62 -26t62.5 26zM170 -176q-15 15 -15 38t15 38
t38 15t38 -15t15 -38t-15 -38t-38 -15t-38 15zM97.5 581.5q-1.5 3.5 1.5 8.5l65 103q5 7 12 7h60q7 0 12 -7l67 -103q2 -4 2 -6q0 -6 -8 -6h-44q-7 0 -12 7l-43 73q-1 2 -3 2t-3 -2l-44 -73q-5 -7 -12 -7h-43q-6 0 -7.5 3.5z" />
    <glyph glyph-name="uni1EDA" unicode="&#x1eda;" horiz-adv-x="456" 
d="M339 672q30 -23 46 -58.5t16 -80.5v-366q0 -78 -48 -126.5t-126 -48.5q-77 0 -124.5 48t-47.5 127v366q0 79 47.5 127t124.5 48q23 0 55 -7q1 -1 4 -1q25 2 42 20t20 50q0 10 10 10h23q5 0 7.5 -3.5t1.5 -9.5q-2 -31 -15.5 -54t-35.5 -36q-3 -2 0 -5zM330 536
q0 49 -28.5 79.5t-74.5 30.5q-45 0 -73 -30.5t-28 -79.5v-373q0 -48 28 -78.5t73 -30.5q46 0 74.5 30.5t28.5 78.5v373zM185 768.5q-2 3.5 1 8.5l62 109q5 7 12 7h41q6 0 7.5 -3.5t-1.5 -8.5l-70 -109q-5 -7 -12 -7h-32q-6 0 -8 3.5z" />
    <glyph glyph-name="uni1EDB" unicode="&#x1edb;" horiz-adv-x="414" 
d="M316 477q23 -20 36 -50.5t13 -66.5v-215q0 -69 -43 -111t-115 -42t-114.5 42t-42.5 111v215q0 68 43 111t114 43q24 0 54 -7q1 -1 4 -1q25 2 42.5 19.5t20.5 49.5q0 10 10 10h22q5 0 7.5 -3.5t1.5 -9.5q-2 -31 -16 -54.5t-37 -35.5q-3 -2 0 -5zM269.5 425.5
q-24.5 26.5 -62.5 26.5t-62 -26.5t-24 -69.5v-206q0 -43 24 -69t62 -26t62.5 26t24.5 69v206q0 43 -24.5 69.5zM165 575.5q-2 3.5 1 8.5l62 109q5 7 12 7h41q6 0 7.5 -3.5t-1.5 -8.5l-70 -109q-5 -7 -12 -7h-32q-6 0 -8 3.5z" />
    <glyph glyph-name="uni1EDC" unicode="&#x1edc;" horiz-adv-x="456" 
d="M339 672q30 -23 46 -58.5t16 -80.5v-366q0 -78 -48 -126.5t-126 -48.5q-77 0 -124.5 48t-47.5 127v366q0 79 47.5 127t124.5 48q23 0 55 -7q1 -1 4 -1q25 2 42 20t20 50q0 10 10 10h23q5 0 7.5 -3.5t1.5 -9.5q-2 -31 -15.5 -54t-35.5 -36q-3 -2 0 -5zM330 536
q0 49 -28.5 79.5t-74.5 30.5q-45 0 -73 -30.5t-28 -79.5v-373q0 -48 28 -78.5t73 -30.5q46 0 74.5 30.5t28.5 78.5v373zM250 771q0 -6 -9 -6h-32q-7 0 -12 7l-70 109q-2 4 -2 6q0 6 8 6h42q7 0 12 -7l61 -109q2 -4 2 -6z" />
    <glyph glyph-name="uni1EDD" unicode="&#x1edd;" horiz-adv-x="414" 
d="M316 477q23 -20 36 -50.5t13 -66.5v-215q0 -69 -43 -111t-115 -42t-114.5 42t-42.5 111v215q0 68 43 111t114 43q24 0 54 -7q1 -1 4 -1q25 2 42.5 19.5t20.5 49.5q0 10 10 10h22q5 0 7.5 -3.5t1.5 -9.5q-2 -31 -16 -54.5t-37 -35.5q-3 -2 0 -5zM269.5 425.5
q-24.5 26.5 -62.5 26.5t-62 -26.5t-24 -69.5v-206q0 -43 24 -69t62 -26t62.5 26t24.5 69v206q0 43 -24.5 69.5zM230 578q0 -6 -9 -6h-32q-7 0 -12 7l-70 109q-2 4 -2 6q0 6 8 6h42q7 0 12 -7l61 -109q2 -4 2 -6z" />
    <glyph glyph-name="uni1EDE" unicode="&#x1ede;" horiz-adv-x="456" 
d="M339 672q30 -23 46 -58.5t16 -80.5v-366q0 -78 -48 -126.5t-126 -48.5q-77 0 -124.5 48t-47.5 127v366q0 79 47.5 127t124.5 48q23 0 55 -7q1 -1 4 -1q25 2 42 20t20 50q0 10 10 10h23q5 0 7.5 -3.5t1.5 -9.5q-2 -31 -15.5 -54t-35.5 -36q-3 -2 0 -5zM330 536
q0 49 -28.5 79.5t-74.5 30.5q-45 0 -73 -30.5t-28 -79.5v-373q0 -48 28 -78.5t73 -30.5q46 0 74.5 30.5t28.5 78.5v373zM212.5 747.5q-1.5 3.5 0.5 7.5q10 23 34 47q13 13 19 22.5t6 24.5t-12.5 25.5t-29.5 10.5t-28.5 -8t-25.5 -28q-6 -8 -14 -2l-16 10q-8 6 -3 14
q20 29 38 41.5t51 12.5q37 0 60 -21t23 -55q0 -22 -9 -36.5t-28 -34.5q-21 -19 -28 -34q-4 -7 -13 -6l-18 4q-5 2 -6.5 5.5z" />
    <glyph glyph-name="uni1EDF" unicode="&#x1edf;" horiz-adv-x="414" 
d="M316 477q23 -20 36 -50.5t13 -66.5v-215q0 -69 -43 -111t-115 -42t-114.5 42t-42.5 111v215q0 68 43 111t114 43q24 0 54 -7q1 -1 4 -1q25 2 42.5 19.5t20.5 49.5q0 10 10 10h22q5 0 7.5 -3.5t1.5 -9.5q-2 -31 -16 -54.5t-37 -35.5q-3 -2 0 -5zM269.5 425.5
q-24.5 26.5 -62.5 26.5t-62 -26.5t-24 -69.5v-206q0 -43 24 -69t62 -26t62.5 26t24.5 69v206q0 43 -24.5 69.5zM192.5 554.5q-1.5 3.5 0.5 7.5q10 23 34 47q13 13 19 22.5t6 24.5t-12.5 25.5t-29.5 10.5t-28.5 -8t-25.5 -28q-6 -8 -14 -2l-16 10q-8 6 -3 14q20 29 38 41.5
t51 12.5q37 0 60 -21t23 -55q0 -22 -9 -36.5t-28 -34.5q-21 -19 -28 -34q-4 -7 -13 -6l-18 4q-5 2 -6.5 5.5z" />
    <glyph glyph-name="uni1EE0" unicode="&#x1ee0;" horiz-adv-x="456" 
d="M339 672q30 -23 46 -58.5t16 -80.5v-366q0 -78 -48 -126.5t-126 -48.5q-77 0 -124.5 48t-47.5 127v366q0 79 47.5 127t124.5 48q23 0 55 -7q1 -1 4 -1q25 2 42 20t20 50q0 10 10 10h23q5 0 7.5 -3.5t1.5 -9.5q-2 -31 -15.5 -54t-35.5 -36q-3 -2 0 -5zM330 536
q0 49 -28.5 79.5t-74.5 30.5q-45 0 -73 -30.5t-28 -79.5v-373q0 -48 28 -78.5t73 -30.5q46 0 74.5 30.5t28.5 78.5v373zM265 806.5q-11 5.5 -29 16.5q-4 3 -13 9t-16 8.5t-15 2.5q-14 0 -24.5 -5.5t-20.5 -20.5q-6 -9 -14 -3l-18 13q-8 6 -4 14q27 52 76 52q16 0 29 -6
t29 -17q2 -2 11 -8t17.5 -9.5t16.5 -3.5q13 0 23 6t20 22q2 4 6 5t8 -1l18 -12q4 -3 4 -8t-4 -12q-14 -25 -35 -36.5t-40 -11.5q-14 0 -25 5.5z" />
    <glyph glyph-name="uni1EE1" unicode="&#x1ee1;" horiz-adv-x="414" 
d="M316 477q23 -20 36 -50.5t13 -66.5v-215q0 -69 -43 -111t-115 -42t-114.5 42t-42.5 111v215q0 68 43 111t114 43q24 0 54 -7q1 -1 4 -1q25 2 42.5 19.5t20.5 49.5q0 10 10 10h22q5 0 7.5 -3.5t1.5 -9.5q-2 -31 -16 -54.5t-37 -35.5q-3 -2 0 -5zM269.5 425.5
q-24.5 26.5 -62.5 26.5t-62 -26.5t-24 -69.5v-206q0 -43 24 -69t62 -26t62.5 26t24.5 69v206q0 43 -24.5 69.5zM233 617.5q-11 5.5 -29 16.5q-4 3 -13 9t-16 8.5t-15 2.5q-14 0 -24.5 -5.5t-20.5 -20.5q-6 -9 -14 -3l-18 13q-8 6 -4 14q27 52 76 52q16 0 29 -6t29 -17
q2 -2 11 -8t17.5 -9.5t16.5 -3.5q13 0 23 6t20 22q2 4 6 5t8 -1l18 -12q4 -3 4 -8t-4 -12q-14 -25 -35 -36.5t-40 -11.5q-14 0 -25 5.5z" />
    <glyph glyph-name="uni1EE2" unicode="&#x1ee2;" horiz-adv-x="456" 
d="M339 672q30 -23 46 -58.5t16 -80.5v-366q0 -78 -48 -126.5t-126 -48.5q-77 0 -124.5 48t-47.5 127v366q0 79 47.5 127t124.5 48q23 0 55 -7q1 -1 4 -1q25 2 42 20t20 50q0 10 10 10h23q5 0 7.5 -3.5t1.5 -9.5q-2 -31 -15.5 -54t-35.5 -36q-3 -2 0 -5zM330 536
q0 49 -28.5 79.5t-74.5 30.5q-45 0 -73 -30.5t-28 -79.5v-373q0 -48 28 -78.5t73 -30.5q46 0 74.5 30.5t28.5 78.5v373zM191 -176q-15 15 -15 38t15 38t38 15t38 -15t15 -38t-15 -38t-38 -15t-38 15z" />
    <glyph glyph-name="uni1EE3" unicode="&#x1ee3;" horiz-adv-x="414" 
d="M316 477q23 -20 36 -50.5t13 -66.5v-215q0 -69 -43 -111t-115 -42t-114.5 42t-42.5 111v215q0 68 43 111t114 43q24 0 54 -7q1 -1 4 -1q25 2 42.5 19.5t20.5 49.5q0 10 10 10h22q5 0 7.5 -3.5t1.5 -9.5q-2 -31 -16 -54.5t-37 -35.5q-3 -2 0 -5zM269.5 425.5
q-24.5 26.5 -62.5 26.5t-62 -26.5t-24 -69.5v-206q0 -43 24 -69t62 -26t62.5 26t24.5 69v206q0 43 -24.5 69.5zM170 -176q-15 15 -15 38t15 38t38 15t38 -15t15 -38t-15 -38t-38 -15t-38 15z" />
    <glyph glyph-name="uni1EE4" unicode="&#x1ee4;" horiz-adv-x="476" 
d="M113 45q-47 53 -47 140v505q0 10 10 10h51q10 0 10 -10v-513q0 -55 27.5 -89t72.5 -34q46 0 74 34t28 89v513q0 10 10 10h51q10 0 10 -10v-505q0 -87 -47.5 -140t-125.5 -53q-77 0 -124 53zM201 -176q-15 15 -15 38t15 38t38 15t38 -15t15 -38t-15 -38t-38 -15t-38 15z
" />
    <glyph glyph-name="uni1EE5" unicode="&#x1ee5;" 
d="M302 506h51q10 0 10 -10v-486q0 -10 -10 -10h-51q-10 0 -10 10v34q0 3 -1.5 3t-3.5 -2q-31 -52 -100 -52q-60 0 -95.5 36.5t-35.5 110.5v356q0 10 10 10h51q10 0 10 -10v-340q0 -50 20.5 -75.5t59.5 -25.5q40 0 62.5 29t22.5 79v333q0 10 10 10zM171 -176q-15 15 -15 38
t15 38t38 15t38 -15t15 -38t-15 -38t-38 -15t-38 15z" />
    <glyph glyph-name="uni1EE6" unicode="&#x1ee6;" horiz-adv-x="476" 
d="M113 45q-47 53 -47 140v505q0 10 10 10h51q10 0 10 -10v-513q0 -55 27.5 -89t72.5 -34q46 0 74 34t28 89v513q0 10 10 10h51q10 0 10 -10v-505q0 -87 -47.5 -140t-125.5 -53q-77 0 -124 53zM222.5 748.5q-1.5 3.5 0.5 7.5q10 23 34 47q13 13 19 22.5t6 24.5t-12.5 25.5
t-29.5 10.5t-28.5 -8t-25.5 -28q-6 -8 -14 -2l-16 10q-8 6 -3 14q20 29 38 41.5t51 12.5q37 0 60 -21t23 -55q0 -22 -9 -36.5t-28 -34.5q-21 -19 -28 -34q-4 -7 -13 -6l-18 4q-5 2 -6.5 5.5z" />
    <glyph glyph-name="uni1EE7" unicode="&#x1ee7;" 
d="M302 506h51q10 0 10 -10v-486q0 -10 -10 -10h-51q-10 0 -10 10v34q0 3 -1.5 3t-3.5 -2q-31 -52 -100 -52q-60 0 -95.5 36.5t-35.5 110.5v356q0 10 10 10h51q10 0 10 -10v-340q0 -50 20.5 -75.5t59.5 -25.5q40 0 62.5 29t22.5 79v333q0 10 10 10zM193.5 554.5
q-1.5 3.5 0.5 7.5q10 23 34 47q13 13 19 22.5t6 24.5t-12.5 25.5t-29.5 10.5t-28.5 -8t-25.5 -28q-6 -8 -14 -2l-16 10q-8 6 -3 14q20 29 38 41.5t51 12.5q37 0 60 -21t23 -55q0 -22 -9 -36.5t-28 -34.5q-21 -19 -28 -34q-4 -7 -13 -6l-18 4q-5 2 -6.5 5.5z" />
    <glyph glyph-name="uni1EE8" unicode="&#x1ee8;" horiz-adv-x="476" 
d="M488 770q-3 -40 -23 -66.5t-52 -36.5q-3 -1 -3 -4v-478q0 -87 -47.5 -140t-125.5 -53q-77 0 -124 53t-47 140v505q0 10 10 10h51q10 0 10 -10v-513q0 -55 27.5 -89t72.5 -34q46 0 74 34t28 89v513q0 10 10 10h28q26 0 45.5 18t22.5 52q0 10 10 10h23q10 0 10 -10z
M195 769.5q-2 3.5 1 8.5l62 109q5 7 12 7h41q6 0 7.5 -3.5t-1.5 -8.5l-70 -109q-5 -7 -12 -7h-32q-6 0 -8 3.5z" />
    </font>
</defs>
</svg>
