<?xml version="1.0" standalone="no"?>
<!DOCTYPE svg PUBLIC "-//W3C//DTD SVG 1.1//EN" "http://www.w3.org/Graphics/SVG/1.1/DTD/svg11.dtd" >
<svg xmlns="http://www.w3.org/2000/svg" xmlns:xlink="http://www.w3.org/1999/xlink" version="1.1">
<metadata>
Created by FontForge 20201107 at Wed Nov  7 06:08:59 2018
 By 
Copyright 2017 The Barlow Project Authors (https://github.com/jpt/barlow)
</metadata>
<defs>
<font id="BarlowCondensed-Italic" horiz-adv-x="411" >
  <font-face 
    font-family="Barlow Condensed"
    font-weight="400"
    font-style="italic"
    font-stretch="condensed"
    units-per-em="1000"
    panose-1="0 0 5 6 0 0 0 0 0 0"
    ascent="800"
    descent="-200"
    x-height="506"
    cap-height="700"
    bbox="-509.083 -209 970 1074"
    underline-thickness="50"
    underline-position="-100"
    slope="-7"
    unicode-range="U+000D-FB02"
  />
<missing-glyph horiz-adv-x="331" 
d="M-18 1q1 -1 2 -1h323q2 0 3.5 1t1.5 3l85 692q0 4 -4 4h-323q-4 0 -4 -4l-85 -692q0 -2 1 -3zM146.5 235q-2.5 3 -1.5 7l5 39q4 31 17.5 50t39.5 44q29 25 44 48.5t15 63.5q0 29 -13 45.5t-35 16.5q-27 0 -46 -22t-24 -58l-3 -19q0 -4 -3 -7t-7 -3l-30 2q-9 0 -9 10l2 17
q7 57 42 92t84 35q43 0 67.5 -27.5t24.5 -75.5q0 -15 -1 -23q-6 -45 -23.5 -71t-47.5 -53q-21 -19 -31.5 -33t-13.5 -34l-4 -37q-2 -10 -11 -10h-30q-5 0 -7.5 3zM127.5 100.5q-9.5 9.5 -9.5 24.5q0 20 12.5 33t31.5 13q16 0 25 -10t9 -26q0 -18 -13 -31t-31 -13
q-15 0 -24.5 9.5z" />
    <glyph glyph-name="fi" unicode="fi" horiz-adv-x="470" 
d="M219.5 620.5q-18.5 -25.5 -25.5 -79.5l-3 -31q-1 -1 0 -2.5t3 -1.5h75q10 0 8 -10l-4 -33q-2 -10 -11 -10h-74q-2 0 -3.5 -1t-1.5 -3l-54 -439q0 -4 -3 -7t-8 -3h-48q-9 0 -9 10l54 439q1 1 0 2.5t-3 1.5h-39q-10 0 -8 10l4 33q0 4 3 7t8 3h38q2 0 3.5 1t1.5 3l4 32
q11 87 46.5 126t108.5 39h13q5 0 7.5 -3t1.5 -7l-6 -41q-1 -10 -11 -10h-12q-37 0 -55.5 -25.5zM386 614q-13 16 -11 40q4 25 21 40.5t41 15.5q21 0 34 -13t13 -34q0 -28 -17.5 -46.5t-43.5 -18.5q-24 0 -37 16zM317 10l59 486q1 4 4 7t7 3h50q10 0 8 -10l-59 -486
q-2 -10 -11 -10h-50q-10 0 -8 10z" />
    <glyph glyph-name="fl" unicode="fl" horiz-adv-x="444" 
d="M219.5 620.5q-18.5 -25.5 -25.5 -79.5l-3 -31q-1 -1 0 -2.5t3 -1.5h75q10 0 8 -10l-4 -33q-2 -10 -11 -10h-74q-2 0 -3.5 -1t-1.5 -3l-54 -439q0 -4 -3 -7t-8 -3h-48q-9 0 -9 10l54 439q1 1 0 2.5t-3 1.5h-39q-10 0 -8 10l4 33q0 4 3 7t8 3h38q2 0 3.5 1t1.5 3l4 32
q11 87 46.5 126t108.5 39h13q5 0 7.5 -3t1.5 -7l-6 -41q-1 -10 -11 -10h-12q-37 0 -55.5 -25.5zM304.5 3q-2.5 3 -1.5 7l84 680q0 4 3 7t8 3h49q9 0 9 -10l-84 -680q-2 -10 -11 -10h-49q-5 0 -7.5 3z" />
    <glyph glyph-name="I_J.liga" unicode="IJ" horiz-adv-x="621" 
d="M52 10l83 680q2 10 11 10h50q4 0 6.5 -3t1.5 -7l-83 -680q-1 -4 -4 -7t-7 -3h-50q-10 0 -8 10zM266.5 30q-38.5 38 -38.5 103q0 8 2 28l10 84q2 10 11 10h49q5 0 7.5 -3t1.5 -7l-11 -85q-1 -6 -1 -17q0 -41 21.5 -65t59.5 -24q41 0 70 29.5t35 76.5l65 530q2 10 11 10h49
q9 0 9 -10l-65 -529q-10 -76 -60 -122.5t-122 -46.5q-65 0 -103.5 38z" />
    <glyph glyph-name="f_f_i.liga" unicode="ffi" horiz-adv-x="722" 
d="M724.5 697q13.5 -13 13.5 -35q0 -27 -18 -45.5t-44 -18.5q-22 0 -35.5 13.5t-13.5 34.5q0 27 18.5 45.5t44.5 18.5q21 0 34.5 -13zM447 510q-1 -1 0 -2.5t3 -1.5h75q10 0 8 -10l-4 -33q0 -4 -3 -7t-8 -3h-74q-2 0 -3.5 -1t-1.5 -3l-54 -439q0 -4 -3 -7t-8 -3h-49
q-9 0 -9 10l54 439q1 1 0 2.5t-3 1.5h-178q-2 0 -3.5 -1t-1.5 -3l-54 -439q0 -4 -3 -7t-8 -3h-49q-9 0 -9 10l54 439q1 1 0 2.5t-3 1.5h-39q-10 0 -8 10l4 33q0 4 3 7t8 3h38q2 0 3.5 1t1.5 3l5 42q10 82 46.5 119t108.5 36h9q5 0 7.5 -3t1.5 -7l-4 -32q-2 -10 -11 -10h-10
q-38 -1 -55.5 -27.5t-24.5 -80.5l-4 -37q-1 -1 0 -2.5t3 -1.5h178q2 0 3.5 1t1.5 3l5 42q10 82 46.5 119t108.5 36h10q4 0 6.5 -3t1.5 -7l-4 -32q-2 -10 -11 -10h-9q-39 -1 -56.5 -27.5t-24.5 -80.5zM570 10l59 486q2 10 11 10h50q10 0 8 -10l-59 -486q-1 -4 -4 -7t-7 -3
h-50q-10 0 -8 10z" />
    <glyph glyph-name="f_f_l.liga" unicode="ffl" horiz-adv-x="701" 
d="M449 510q-1 -1 0 -2.5t3 -1.5h75q10 0 8 -10l-4 -33q-2 -10 -11 -10h-74q-2 0 -3.5 -1t-1.5 -3l-54 -439q0 -4 -3 -7t-8 -3h-49q-9 0 -9 10l54 439q1 1 0 2.5t-3 1.5h-180q-2 0 -3.5 -1t-1.5 -3l-54 -439q0 -4 -3 -7t-8 -3h-49q-9 0 -9 10l54 439q1 1 0 2.5t-3 1.5h-39
q-10 0 -8 10l4 33q0 4 3 7t8 3h38q2 0 3.5 1t1.5 3l5 42q10 82 46.5 119t108.5 36h9q5 0 7.5 -3t1.5 -7l-4 -32q-2 -10 -11 -10h-10q-38 -1 -55.5 -27.5t-24.5 -80.5l-4 -37q-1 -1 0 -2.5t3 -1.5h180q2 0 3.5 1t1.5 3l5 42q10 82 46.5 119t108.5 36h9q5 0 7.5 -3t1.5 -7
l-4 -32q-2 -10 -11 -10h-9q-39 -1 -56.5 -27.5t-24.5 -80.5zM648 697q3 3 7 3h50q10 0 8 -10l-83 -680q-2 -10 -11 -10h-50q-4 0 -6.5 3t-1.5 7l83 680q1 4 4 7z" />
    <glyph glyph-name="g_j.liga" unicode="gj" horiz-adv-x="594" 
d="M596.5 697q13.5 -13 13.5 -35q0 -27 -18 -45.5t-44 -18.5q-21 0 -34.5 13.5t-13.5 34.5q0 27 18 45.5t44 18.5q21 0 34.5 -13zM320 465l4 31q2 10 11 10h49q9 0 9 -10l-60 -486q-13 -107 -67.5 -162.5t-167.5 -50.5q-10 2 -8 11l5 43q2 10 11 10q77 -2 113 36.5t46 118.5
l4 30q0 2 -1.5 3t-3.5 -1q-20 -25 -47 -38t-56 -13q-55 0 -85 33.5t-30 89.5q0 10 2 30l25 211q9 70 49.5 111.5t101.5 41.5q30 0 54 -12.5t37 -37.5q3 -6 5 1zM501 496q2 10 11 10h49q10 0 8 -10l-66 -540q-10 -81 -46 -122t-112 -42q-10 0 -8 10l6 42q1 10 9 10
q33 1 55 28t28 74zM251 85.5q26 26.5 31 68.5l25 202q1 6 1 16q0 36 -19.5 58t-51.5 22q-37 0 -63.5 -26.5t-31.5 -69.5l-25 -202q-1 -5 -1 -16q0 -35 20 -57t53 -22q36 0 62 26.5z" />
    <glyph glyph-name="i_j.liga" unicode="ij" horiz-adv-x="391" 
d="M118 614q-13 16 -11 40q4 25 21 40.5t41 15.5q21 0 34 -13t13 -34q0 -28 -17.5 -46.5t-43.5 -18.5q-24 0 -37 16zM310 611.5q-13 13.5 -13 34.5q0 28 18 46t44 18q21 0 34.5 -13t13.5 -35q0 -27 -18 -45.5t-44 -18.5q-22 0 -35 13.5zM48 10l59 486q1 4 4 7t7 3h50
q10 0 8 -10l-59 -486q-2 -10 -11 -10h-50q-10 0 -8 10zM125.5 -205q-2.5 3 -1.5 7l5 42q2 10 11 10q80 3 91 102l67 540q0 4 3 7t8 3h49q10 0 8 -10l-66 -540q-10 -82 -46 -123t-121 -41q-5 0 -7.5 3z" />
    <glyph glyph-name="hyphen_hyphen.liga" unicode="&#x2d;&#x2d;" horiz-adv-x="575" 
d="M47 283l5 42q2 10 11 10h493q4 0 6.5 -3t1.5 -7l-5 -42q-2 -10 -11 -10h-493q-10 0 -8 10z" />
    <glyph glyph-name=".notdef" horiz-adv-x="331" 
d="M-18 1q1 -1 2 -1h323q2 0 3.5 1t1.5 3l85 692q0 4 -4 4h-323q-4 0 -4 -4l-85 -692q0 -2 1 -3zM146.5 235q-2.5 3 -1.5 7l5 39q4 31 17.5 50t39.5 44q29 25 44 48.5t15 63.5q0 29 -13 45.5t-35 16.5q-27 0 -46 -22t-24 -58l-3 -19q0 -4 -3 -7t-7 -3l-30 2q-9 0 -9 10l2 17
q7 57 42 92t84 35q43 0 67.5 -27.5t24.5 -75.5q0 -15 -1 -23q-6 -45 -23.5 -71t-47.5 -53q-21 -19 -31.5 -33t-13.5 -34l-4 -37q-2 -10 -11 -10h-30q-5 0 -7.5 3zM127.5 100.5q-9.5 9.5 -9.5 24.5q0 20 12.5 33t31.5 13q16 0 25 -10t9 -26q0 -18 -13 -31t-31 -13
q-15 0 -24.5 9.5z" />
    <glyph glyph-name=".null" horiz-adv-x="0" 
 />
    <glyph glyph-name="nonmarkingreturn" unicode="&#xd;" horiz-adv-x="194" 
 />
    <glyph glyph-name="NULL" horiz-adv-x="0" 
 />
    <glyph glyph-name="NULL" horiz-adv-x="0" 
 />
    <glyph glyph-name="space" unicode=" " horiz-adv-x="194" 
 />
    <glyph glyph-name="exclam" unicode="!" horiz-adv-x="244" 
d="M104 238l50 452q0 4 3 7t8 3h49q10 0 8 -10l-62 -452q-1 -10 -11 -10h-37q-9 0 -8 10zM68 17q-13 13 -13 34q0 28 18 46t44 18q21 0 34.5 -13t13.5 -35q0 -27 -18 -45t-44 -18q-22 0 -35 13z" />
    <glyph glyph-name="quotedbl" unicode="&#x22;" horiz-adv-x="228" 
d="M71 498l15 186q2 10 11 10h48q5 0 7.5 -3t1.5 -7l-31 -186q-1 -10 -11 -10h-33q-9 0 -8 10zM185 498l16 186q2 10 11 10h49q10 0 8 -10l-30 -186q-1 -10 -11 -10h-34q-10 0 -9 10z" />
    <glyph glyph-name="numbersign" unicode="#" horiz-adv-x="571" 
d="M549 432q-3 -3 -7 -3h-62q-1 0 -3 -1t-2 -3l-42 -159q0 -4 3 -4h53q9 0 9 -10l-6 -42q0 -4 -3 -7t-8 -3h-63q-5 0 -5 -4l-45 -171q-3 -9 -11 -9l-49 2q-4 0 -6.5 3t-1.5 8l44 167q0 4 -2 4h-142q-5 0 -5 -4l-45 -171q-3 -9 -11 -9l-49 2q-5 0 -7 3.5t-1 7.5l44 167
q0 4 -3 4h-55q-10 0 -8 10l5 42q2 10 11 10h64q5 0 5 4l42 159q0 4 -2 4h-57q-4 0 -6.5 3t-1.5 7l5 43q2 10 11 10h66q5 0 5 4l46 171q1 9 10 9l50 -2q4 0 6 -3.5t1 -7.5l-44 -167q0 -4 3 -4h141q5 0 6 4l45 171q3 9 11 9l49 -2q4 0 6.5 -3t0.5 -8l-44 -167q0 -4 3 -4h52
q9 0 9 -10l-6 -43q0 -4 -3 -7zM363 266l42 159q1 1 0 2.5t-2 1.5h-141q-5 0 -5 -4l-42 -159q0 -4 2 -4h141q5 0 5 4z" />
    <glyph glyph-name="dollar" unicode="$" horiz-adv-x="404" 
d="M317.5 54.5q-40.5 -47.5 -99.5 -58.5q-3 -1 -5 -5l-8 -70q-2 -10 -11 -10h-34q-9 0 -9 10l10 68q0 4 -3 4q-55 8 -86.5 47t-31.5 100q0 9 2 29l3 23q2 10 11 10h47q5 0 7.5 -3t1.5 -7l-3 -20q-1 -7 -1 -20q0 -45 22 -71.5t59 -26.5q41 0 71.5 31t37.5 82q1 7 1 19
q0 27 -11.5 48.5t-28.5 38.5t-58 52q-40 33 -63 57t-38 55.5t-15 72.5q0 83 44 135.5t113 61.5q4 0 4 4l8 74q1 4 4 7t7 3h34q5 0 7.5 -3t1.5 -7l-10 -76q-1 -3 2 -5q50 -10 78 -48t28 -97q0 -10 -2 -32l-3 -25q-2 -10 -11 -10h-48q-9 0 -9 10l3 26q2 16 2 23q0 44 -22 69.5
t-59 25.5q-40 0 -68 -28.5t-35 -80.5q-1 -7 -1 -20q0 -36 20 -62.5t73 -71.5q47 -40 71.5 -64.5t38 -52.5t13.5 -65q0 -8 -2 -28q-9 -71 -49.5 -118.5z" />
    <glyph glyph-name="percent" unicode="%" horiz-adv-x="758" 
d="M152.5 460q-33.5 35 -33.5 88q0 43 21.5 80t57 59t75.5 22q51 0 85 -35.5t34 -88.5q0 -43 -21.5 -80t-57 -58.5t-75.5 -21.5q-52 0 -85.5 35zM155 3.5q-2 3.5 2 8.5l439 681q4 7 13 7h31q6 0 8 -3.5t-2 -8.5l-440 -681q-3 -7 -12 -7h-31q-6 0 -8 3.5zM295.5 483
q24.5 16 39 42t14.5 56q0 37 -22.5 61.5t-58.5 24.5q-28 0 -52.5 -15.5t-39 -42t-14.5 -56.5q0 -37 23 -61.5t59 -24.5q27 0 51.5 16zM447.5 26.5q-33.5 35.5 -33.5 88.5q0 42 21.5 79t57 59t75.5 22q51 0 85 -35.5t34 -88.5q0 -43 -21.5 -80t-57 -58.5t-75.5 -21.5
q-52 0 -85.5 35.5zM590.5 48.5q24.5 15.5 39 42t14.5 57.5q0 36 -23 60.5t-58 24.5q-43 0 -74.5 -33.5t-31.5 -79.5q0 -38 23 -62.5t59 -24.5q27 0 51.5 15.5z" />
    <glyph glyph-name="ampersand" unicode="&#x26;" horiz-adv-x="526" 
d="M461 7q0 -7 -9 -7h-52q-9 0 -11 6l-33 60q0 2 -2 2t-4 -1q-40 -40 -81 -58t-88 -18q-67 0 -105 35t-38 99q0 9 2 31q8 67 45 116.5t97 96.5q3 1 1 5q-34 65 -46 96t-12 58q0 8 2 26q9 70 53 112t107 42q57 0 91.5 -35.5t34.5 -93.5q0 -16 -1 -24q-8 -61 -43.5 -104.5
t-97.5 -92.5q-2 -1 -2 -5q27 -47 47 -85l49 -88q1 -1 3 -1t3 1q19 24 57 81q2 4 6 5t8 -1l34 -22q4 -3 4 -6t-3 -8q-40 -64 -76 -105q-1 -3 0 -6l58 -106zM219 612q-25 -31 -25 -81q0 -19 9 -43t33 -72q2 -4 5 -1q50 40 76.5 75t26.5 80q0 33 -17.5 53t-45.5 20
q-37 0 -62 -31zM258.5 69.5q30.5 16.5 62.5 50.5q2 4 1 6l-38 69l-66 117q-2 3 -5 0q-51 -41 -78 -80.5t-27 -92.5q0 -39 23 -62.5t65 -23.5q32 0 62.5 16.5z" />
    <glyph glyph-name="quotesingle" unicode="'" horiz-adv-x="115" 
d="M71 503l15 185q1 4 4 7t7 3h52q10 0 8 -10l-30 -185q-1 -10 -11 -10h-36q-9 0 -9 10z" />
    <glyph glyph-name="parenleft" unicode="(" horiz-adv-x="215" 
d="M51 -97q-19 53 -30.5 124.5t-11.5 152.5q0 70 9 145q15 126 53 240t87 191q4 7 12 7h48q5 0 7 -3.5t-1 -7.5q-43 -80 -78 -192.5t-50 -233.5q-9 -78 -9 -150q0 -78 9 -147t25 -121v-3q0 -4 -3 -6.5t-7 -2.5h-49q-8 0 -11 7z" />
    <glyph glyph-name="parenright" unicode=")" horiz-adv-x="215" 
d="M205 756q20 -53 31.5 -124.5t11.5 -153.5q0 -69 -9 -144q-15 -126 -53.5 -240.5t-86.5 -190.5q-6 -7 -13 -7h-46q-5 0 -7 3t0 8q42 80 77.5 192.5t50.5 232.5q9 67 9 152q0 152 -33 268l-1 3q0 8 10 8h49q7 0 10 -7z" />
    <glyph glyph-name="asterisk" unicode="*" horiz-adv-x="350" 
d="M182 404l16 120q1 3 -0.5 3.5t-3.5 -0.5l-105 -61l-5 -2q-6 0 -8 6l-9 22q-1 2 -1 5q0 5 6 9l106 61q2 1 2 3t-1 3l-91 61q-4 2 -4 6t2 8l15 24q7 10 14 4l89 -62q5 -2 6 3l13 119q2 10 11 10h25q5 0 7.5 -3t1.5 -7l-15 -119q0 -2 2 -3t3 0l103 62q4 2 6 2q6 0 7 -6
l10 -24q1 -1 1 -4q0 -7 -6 -10l-106 -61q-1 -1 -1.5 -3t0.5 -3l91 -61q8 -6 2 -14l-16 -24q-2 -4 -6 -5t-8 1l-88 63q-1 1 -3 0t-2 -3l-15 -120q-2 -10 -11 -10h-25q-9 0 -9 10z" />
    <glyph glyph-name="plus" unicode="+" horiz-adv-x="428" 
d="M420 336l-5 -35q0 -4 -3 -7t-8 -3h-142q-3 0 -5 -4l-18 -147q0 -4 -3 -7t-8 -3h-35q-4 0 -6.5 3t-1.5 7l18 147q0 4 -3 4h-143q-10 0 -8 10l4 35q2 10 11 10h142q2 0 3.5 1t1.5 3l18 147q2 10 11 10h35q10 0 8 -10l-18 -147q0 -2 1 -3t2 -1h143q9 0 9 -10z" />
    <glyph glyph-name="comma" unicode="," horiz-adv-x="172" 
d="M11 -75.5q-2 3.5 -1 7.5l56 214q3 9 11 9h44q10 0 7 -11l-70 -214q-1 -9 -11 -9h-30q-4 0 -6 3.5z" />
    <glyph glyph-name="hyphen" unicode="-" horiz-adv-x="304" 
d="M47 290l5 42q1 4 4 7t7 3h222q5 0 7.5 -3t1.5 -7l-5 -42q-2 -10 -11 -10h-222q-9 0 -9 10z" />
    <glyph glyph-name="period" unicode="." horiz-adv-x="184" 
d="M38 15.5q-13 13.5 -13 34.5q0 28 18 46t44 18q21 0 34.5 -13t13.5 -35q0 -27 -18 -45.5t-44 -18.5q-22 0 -35 13.5z" />
    <glyph glyph-name="slash" unicode="/" horiz-adv-x="324" 
d="M6.5 3q-2.5 3 -0.5 8l259 680q4 9 12 9h49q5 0 7 -3t0 -8l-259 -680q-4 -9 -12 -9h-48q-5 0 -7.5 3z" />
    <glyph glyph-name="zero" unicode="0" horiz-adv-x="431" 
d="M88.5 30.5q-38.5 40.5 -38.5 108.5q0 10 2 30l44 362q10 80 61 129.5t125 49.5q67 0 106.5 -40.5t39.5 -109.5q0 -9 -2 -29l-44 -362q-11 -80 -62.5 -129.5t-125.5 -49.5q-67 0 -105.5 40.5zM276 83q30 31 36 82l46 370q1 7 1 20q0 43 -22.5 68t-61.5 25q-43 0 -73 -31
t-36 -82l-46 -370q-1 -7 -1 -20q0 -43 22 -68t60 -25q45 0 75 31z" />
    <glyph glyph-name="one" unicode="1" horiz-adv-x="248" 
d="M196 700h52q10 0 8 -10l-83 -680q-2 -10 -11 -10h-49q-5 0 -7.5 3t-1.5 7l74 606q1 2 -0.5 3t-3.5 0l-95 -31l-3 -1q-6 0 -8 9v37q0 7 8 12l107 52q6 3 13 3z" />
    <glyph glyph-name="two" unicode="2" horiz-adv-x="390" 
d="M113 62h228q5 0 7.5 -3t1.5 -7l-5 -42q-2 -10 -11 -10h-305q-10 0 -8 10l5 45q2 9 5 13q141 189 204 282q86 124 86 207q0 41 -19 65t-53 24q-37 0 -63.5 -31t-31.5 -80l-5 -38q0 -4 -3 -7t-8 -3h-50q-9 0 -9 10l5 40q11 77 59.5 124t116.5 47q60 0 95.5 -39.5
t35.5 -105.5q0 -9 -2 -31q-12 -95 -95 -212q-30 -43 -136 -189l-47 -64q-3 -5 2 -5z" />
    <glyph glyph-name="three" unicode="3" horiz-adv-x="396" 
d="M355 265q0 -24 -3 -53q-6 -54 -23 -97q-43 -123 -158 -123q-61 0 -96 35t-37 97q-2 35 3 77q2 10 11 10h50q4 0 6.5 -3t1.5 -7q-3 -24 -3 -43q0 -51 18 -77.5t53 -26.5q61 0 89 74q11 37 19 90q4 29 4 61q0 25 -3 44q-5 32 -22.5 48.5t-45.5 16.5q-9 0 -23 -6
q-10 -5 -13 1l-22 27q-2 4 -2 7t3 7l154 209q2 1 1 3t-3 2h-205q-4 0 -6.5 3t-1.5 7l5 42q2 10 11 10h283q9 0 9 -10l-6 -45q0 -3 -5 -13l-144 -194q-1 -1 -1 -3t2 -2q39 -4 63.5 -32.5t31.5 -74.5q5 -30 5 -61z" />
    <glyph glyph-name="four" unicode="4" horiz-adv-x="403" 
d="M390.5 253q2.5 -3 1.5 -7l-5 -44q-2 -10 -11 -10h-30q-2 0 -3.5 -1t-1.5 -3l-22 -178q0 -4 -3 -7t-8 -3h-49q-10 0 -8 10l21 178q1 1 0 2.5t-3 1.5h-234q-10 0 -8 10l4 38q2 8 4 12l199 440q5 8 13 8h53q12 0 7 -11l-193 -428q-1 -2 0 -3.5t3 -1.5h160q4 0 4 4l19 153
q2 10 11 10h49q5 0 7.5 -3t1.5 -7l-19 -153q0 -2 1 -3t2 -1h31q4 0 6.5 -3z" />
    <glyph glyph-name="five" unicode="5" horiz-adv-x="397" 
d="M372 275q0 -16 -4 -62q-6 -48 -16 -83q-18 -67 -61 -102.5t-106 -35.5q-62 0 -96.5 35t-36.5 105l1 30q0 10 10 10h49q10 0 10 -10v-24q4 -84 71 -84q63 0 89 80q10 30 17 80q4 40 4 55q0 13 -2 31q-4 34 -22 52t-47 18q-67 0 -92 -69q-4 -9 -12 -9h-50q-5 0 -7.5 3
t-1.5 7l48 388q0 4 3 7t8 3h274q9 0 9 -10l-6 -42q0 -4 -3 -7t-7 -3h-212q-4 0 -4 -4l-32 -248q0 -2 1.5 -3t3.5 1q19 24 46 36.5t59 12.5q52 0 80.5 -32t32.5 -92q2 -20 2 -34z" />
    <glyph glyph-name="six" unicode="6" horiz-adv-x="397" 
d="M373 275q0 -31 -4 -62q-7 -49 -13 -74q-17 -72 -61 -109.5t-109 -37.5q-60 0 -94.5 35t-35.5 103q-1 8 -1 24q0 28 4 55l39 328q10 78 58 124.5t118 46.5q57 0 92 -38.5t35 -103.5q0 -9 -2 -29l-2 -16q-2 -10 -11 -10h-50q-10 0 -8 10l2 14q1 7 1 21q0 39 -18.5 63.5
t-46.5 24.5q-38 0 -65 -30t-33 -79l-17 -134q0 -2 1.5 -2.5t3.5 1.5q16 20 38.5 30.5t48.5 10.5q59 0 93 -37t36 -102q1 -8 1 -27zM300 218q4 36 4 53q0 11 -2 33q-8 75 -68 75q-63 0 -89 -79q-10 -31 -16 -82q-6 -44 -5 -78q6 -86 70 -86q32 0 55.5 23t36.5 68q10 41 14 73
z" />
    <glyph glyph-name="seven" unicode="7" horiz-adv-x="355" 
d="M81 11l242 623q1 1 0 2.5t-3 1.5h-178q-4 0 -4 -4l-5 -41q-2 -10 -11 -10h-38q-10 0 -8 10l12 97q0 4 3 7t8 3h296q5 0 7.5 -3t1.5 -7l-6 -46q0 -3 -1 -6l-2 -6l-242 -623q-1 -4 -4 -6.5t-7 -2.5h-54q-12 0 -7 11z" />
    <glyph glyph-name="eight" unicode="8" horiz-adv-x="410" 
d="M312 368q33 -19 44 -57q10 -29 10 -71q0 -21 -3 -45q-6 -53 -25 -95q-23 -51 -63.5 -79.5t-91.5 -28.5q-49 0 -82 28t-44 79q-5 25 -5 50q0 23 3 47q7 62 32 108q21 42 62 64q4 3 1 6q-30 17 -45 54q-11 30 -11 68q0 10 2 34q8 61 34 102q22 37 59 57.5t82 20.5
q46 0 77.5 -19.5t45.5 -56.5q13 -31 13 -68q0 -17 -3 -37q-6 -59 -32 -99q-24 -36 -59 -56q-5 -3 -1 -6zM162 499q0 -33 8 -50q14 -49 63 -49q27 0 47.5 14t33.5 39q18 31 22 72q2 20 2 28q0 27 -9 48q-16 47 -65 47q-25 0 -44.5 -13t-32.5 -37q-25 -43 -25 -99zM296 199
q2 14 2 39q0 31 -5 47q-14 58 -67 58t-81 -62q-16 -36 -22 -82q-2 -28 -2 -39q0 -12 2 -34q4 -34 22 -53t46 -19q30 0 52.5 19.5t36.5 55.5q12 34 16 70z" />
    <glyph glyph-name="nine" unicode="9" horiz-adv-x="391" 
d="M340 163q-10 -78 -58 -124.5t-118 -46.5q-57 0 -92 38.5t-35 103.5q0 9 2 29l2 16q2 10 11 10h50q10 0 8 -10l-1 -14q-1 -7 -1 -21q0 -39 18 -63.5t46 -24.5q38 0 65.5 30t33.5 79l16 134q0 5 -4 1q-35 -41 -88 -41q-59 0 -93 37t-36 102q-2 47 3 89q7 49 13 74
q17 72 61 109.5t109 37.5q60 0 94.5 -35t35.5 -103q1 -8 1 -24q0 -28 -4 -55zM294 400q9 32 15 82q6 44 5 78q-6 86 -70 86q-32 0 -55.5 -23t-36.5 -68q-10 -41 -14 -73q-4 -36 -4 -53q0 -11 2 -33q4 -37 21.5 -56t46.5 -19q63 0 90 79z" />
    <glyph glyph-name="colon" unicode=":" horiz-adv-x="205" 
d="M90 353.5q-13 13.5 -13 34.5q0 28 18 46t44 18q21 0 34.5 -13t13.5 -35q0 -27 -18 -45.5t-44 -18.5q-22 0 -35 13.5zM49 17.5q-13 13.5 -13 34.5q0 28 18 46t44 18q21 0 34.5 -13t13.5 -35q0 -27 -18 -45.5t-44 -18.5q-22 0 -35 13.5z" />
    <glyph glyph-name="semicolon" unicode=";" horiz-adv-x="187" 
d="M83 361.5q-13 14.5 -13 36.5q0 27 19 47t43 20q19 0 32.5 -14.5t13.5 -36.5q0 -27 -18.5 -47t-42.5 -20q-21 0 -34 14.5zM17.5 -72q-2.5 3 -1.5 7l46 207q3 9 12 9h43q4 0 6.5 -3t0.5 -8l-58 -206q-3 -9 -12 -9h-29q-5 0 -7.5 3z" />
    <glyph glyph-name="less" unicode="&#x3c;" horiz-adv-x="428" 
d="M382.5 63.5q-3.5 -2.5 -7.5 0.5l-327 176q-7 4 -5 12l5 48q2 8 9 12l370 176l5 2q3 0 4.5 -2.5t0.5 -6.5l-6 -49q0 -7 -8 -12l-306 -141q-5 -3 -1 -6l272 -141q6 -5 5 -12l-6 -49q-1 -5 -4.5 -7.5z" />
    <glyph glyph-name="equal" unicode="=" horiz-adv-x="428" 
d="M62 415l5 35q0 4 3 7t8 3h347q10 0 8 -10l-4 -35q-2 -10 -11 -10h-347q-9 0 -9 10zM37 209l5 35q0 4 3 7t8 3h347q10 0 8 -10l-4 -35q-2 -10 -11 -10h-347q-9 0 -9 10z" />
    <glyph glyph-name="greater" unicode="&#x3e;" horiz-adv-x="428" 
d="M26 62q-3 0 -5 2.5t-1 6.5l6 49q2 8 9 12l306 141q4 3 1 6l-272 141q-6 5 -5 12l6 49q1 5 4.5 7.5t7.5 -0.5l327 -176q6 -5 5 -12l-6 -48q0 -7 -8 -12l-370 -176z" />
    <glyph glyph-name="question" unicode="?" horiz-adv-x="358" 
d="M137 210l8 59q5 43 24.5 70.5t55.5 60.5q37 34 56.5 61.5t24.5 71.5q1 8 1 23q0 41 -18 64.5t-49 23.5q-38 0 -65 -31t-33 -81l-4 -31q-2 -10 -11 -10l-49 3q-10 0 -8 10l3 28q10 79 58.5 128t117.5 49q61 0 95 -38.5t34 -105.5q0 -10 -2 -32q-6 -44 -21 -76t-32.5 -52
t-45.5 -46q-29 -25 -44.5 -45.5t-18.5 -48.5l-7 -55q-2 -10 -11 -10h-50q-9 0 -9 10zM112.5 15.5q-13.5 13.5 -13.5 34.5q0 27 18 45.5t44 18.5q21 0 34.5 -13t13.5 -35q0 -27 -17.5 -45.5t-43.5 -18.5q-22 0 -35.5 13.5z" />
    <glyph glyph-name="at" unicode="@" horiz-adv-x="738" 
d="M647.5 552q67.5 -64 67.5 -173q0 -48 -13 -97q-24 -94 -75.5 -146.5t-119.5 -52.5q-64 0 -87 45q-2 3 -5 0q-17 -24 -40.5 -35.5t-47.5 -11.5q-39 0 -63 22t-24 60q0 13 3 26l19 78q8 37 18 71q13 50 44.5 79t76.5 29q37 0 58 -28q1 -2 2.5 -1t2.5 3l2 12q3 9 11 9h31
q5 0 7 -3.5t1 -7.5l-50 -204q-4 -16 -4 -32q0 -29 15 -46t43 -17q43 0 77 40t52 111q11 43 11 86q0 93 -55 146.5t-151 53.5q-74 0 -144 -39t-122 -109.5t-74 -159.5q-11 -44 -11 -89q0 -64 25.5 -111.5t70 -72t101.5 -24.5q47 0 88 13.5t69 32.5q2 2 6 2t7 -4l13 -23
q1 -2 1 -5q0 -4 -5 -9q-36 -24 -86.5 -40t-107.5 -16q-70 0 -123 29.5t-82 84.5t-29 130q0 50 13 105q25 103 86 183.5t144 125t172 44.5q114 0 181.5 -64zM415 218l16 65l12 53q2 7 2 20q0 21 -11 33t-32 12q-25 0 -45 -18t-28 -47l-8 -33l-9 -40q-11 -48 -18 -71
q-2 -12 -2 -17q0 -22 11.5 -35t32.5 -13q25 0 44.5 18t27.5 47z" />
    <glyph glyph-name="A" unicode="A" horiz-adv-x="397" 
d="M297 9l-9 124q0 4 -4 4h-176q-2 0 -3.5 -1t-1.5 -3l-40 -124q-3 -9 -12 -9h-49q-5 0 -7 3t0 8l229 680q2 9 11 9h59q9 0 9 -9l64 -680q0 -11 -10 -11h-50q-10 0 -10 9zM126 195h153q3 0 3 4l-29 393q0 3 -1 3t-3 -3l-126 -393q0 -4 3 -4z" />
    <glyph glyph-name="B" unicode="B" horiz-adv-x="435" 
d="M341.5 50q-53.5 -50 -132.5 -50h-149q-10 0 -8 10l83 680q2 10 11 10h140q75 0 116.5 -39t41.5 -112q0 -10 -2 -32q-13 -112 -100 -153q-2 -1 -2 -2t1 -2q67 -44 67 -137q0 -9 -2 -33q-11 -90 -64.5 -140zM198.5 637q-1.5 -1 -1.5 -3l-29 -241q-1 -1 0 -2.5t3 -1.5h77
q58 0 92.5 39.5t34.5 108.5q0 48 -25.5 74.5t-71.5 26.5h-76q-2 0 -3.5 -1zM296.5 98.5q33.5 35.5 41.5 99.5q2 20 2 28q0 52 -24.5 80.5t-70.5 28.5h-81q-4 0 -4 -4l-32 -264q-1 -1 0 -2.5t3 -1.5h80q52 0 85.5 35.5z" />
    <glyph glyph-name="C" unicode="C" horiz-adv-x="432" 
d="M91.5 31q-39.5 39 -39.5 106q0 8 2 28l46 371q10 78 60.5 125t125.5 47q68 0 107.5 -39t39.5 -106q0 -9 -2 -27l-3 -17q0 -4 -3 -7t-7 -3l-51 -3q-9 0 -9 10l3 25q1 6 1 18q0 40 -22.5 63.5t-61.5 23.5q-43 0 -73 -29t-36 -76l-47 -382q-1 -6 -1 -16q0 -40 22.5 -64.5
t61.5 -24.5q44 0 74 29t35 76l3 25q1 4 4 7t7 3l50 -3q5 0 7.5 -3t1.5 -7l-2 -16q-10 -79 -61 -126t-126 -47q-67 0 -106.5 39z" />
    <glyph glyph-name="D" unicode="D" horiz-adv-x="451" 
d="M52 10l83 680q2 10 11 10h149q67 0 105.5 -40.5t38.5 -111.5q0 -10 -2 -34l-41 -328q-10 -85 -61 -135.5t-125 -50.5h-150q-10 0 -8 10zM131 62l85 1q43 0 73 33.5t38 92.5l39 322q2 20 2 28q0 47 -21.5 73t-59.5 26h-85q-2 0 -3.5 -1t-1.5 -3l-70 -568q0 -4 4 -4z" />
    <glyph glyph-name="E" unicode="E" horiz-adv-x="416" 
d="M434 641q-3 -3 -7 -3h-225q-2 0 -3.5 -1t-1.5 -3l-30 -248q-1 -1 0 -2.5t3 -1.5h142q10 0 8 -10l-5 -43q-2 -10 -11 -10h-142q-4 0 -4 -4l-31 -249q0 -4 4 -4h225q10 0 8 -10l-5 -42q-2 -10 -11 -10h-288q-10 0 -8 10l83 680q2 10 11 10h288q9 0 9 -10l-6 -42q0 -4 -3 -7
z" />
    <glyph glyph-name="F" unicode="F" horiz-adv-x="392" 
d="M432 641q-3 -3 -7 -3h-223q-2 0 -3.5 -1t-1.5 -3l-30 -248q-1 -1 0 -2.5t3 -1.5h141q10 0 8 -10l-5 -43q-2 -10 -11 -10h-141q-4 0 -4 -4l-37 -305q-1 -4 -4 -7t-7 -3h-50q-10 0 -8 10l83 680q2 10 11 10h286q9 0 9 -10l-5 -42q-1 -4 -4 -7z" />
    <glyph glyph-name="G" unicode="G" horiz-adv-x="437" 
d="M91.5 30q-39.5 38 -39.5 103q0 8 2 26l47 382q10 76 60.5 121.5t124.5 45.5q67 0 106.5 -37.5t39.5 -102.5q0 -8 -2 -28l-5 -43q-2 -10 -11 -10h-50q-4 0 -6.5 3t-1.5 7l5 45q1 6 1 18q0 39 -22.5 62.5t-61.5 23.5q-43 0 -73 -28.5t-36 -75.5l-47 -384q-1 -6 -1 -16
q0 -40 22.5 -64t61.5 -24q44 0 74 28.5t35 75.5l16 128q0 4 -3 4h-84q-10 0 -8 10l5 42q2 10 11 10h146q9 0 9 -10l-23 -183q-9 -76 -60 -121.5t-125 -45.5q-67 0 -106.5 38z" />
    <glyph glyph-name="H" unicode="H" horiz-adv-x="458" 
d="M388 697q3 3 7 3h50q10 0 8 -10l-83 -680q-2 -10 -11 -10h-50q-4 0 -6.5 3t-1.5 7l37 305q1 1 0 2.5t-3 1.5h-173q-4 0 -4 -4l-37 -305q-1 -4 -4 -7t-7 -3h-50q-10 0 -8 10l83 680q2 10 11 10h50q4 0 6.5 -3t1.5 -7l-37 -304q-1 -1 0 -2.5t3 -1.5h173q4 0 4 4l37 304
q1 4 4 7z" />
    <glyph glyph-name="I" unicode="I" horiz-adv-x="208" 
d="M52 10l83 680q2 10 11 10h50q4 0 6.5 -3t1.5 -7l-83 -680q-1 -4 -4 -7t-7 -3h-50q-10 0 -8 10z" />
    <glyph glyph-name="J" unicode="J" horiz-adv-x="413" 
d="M58.5 30q-38.5 38 -38.5 103q0 8 2 28l10 84q2 10 11 10h49q5 0 7.5 -3t1.5 -7l-11 -85q-1 -6 -1 -17q0 -41 21.5 -65t59.5 -24q41 0 70 29.5t35 76.5l65 530q2 10 11 10h49q9 0 9 -10l-65 -529q-10 -76 -60 -122.5t-122 -46.5q-65 0 -103.5 38z" />
    <glyph glyph-name="K" unicode="K" horiz-adv-x="439" 
d="M52 10l83 680q2 10 11 10h50q4 0 6.5 -3t1.5 -7l-40 -324q0 -3 1.5 -4t3.5 2l227 329q7 7 13 7h54q6 0 7.5 -3.5t-1.5 -8.5l-185 -271q-2 -4 -2 -6l118 -399l1 -3q0 -9 -10 -9h-55q-9 0 -10 8l-98 340q-1 4 -5 0l-72 -96q-1 -1 -1 -5l-29 -237q-1 -4 -4 -7t-7 -3h-50
q-10 0 -8 10z" />
    <glyph glyph-name="L" unicode="L" horiz-adv-x="384" 
d="M52 10l83 680q2 10 11 10h50q4 0 6.5 -3t1.5 -7l-77 -624q0 -4 4 -4h222q10 0 8 -10l-5 -42q0 -4 -3 -7t-8 -3h-285q-10 0 -8 10z" />
    <glyph glyph-name="M" unicode="M" horiz-adv-x="505" 
d="M444 700h50q5 0 7.5 -3t1.5 -7l-84 -680q0 -4 -3 -7t-8 -3h-49q-9 0 -9 10l66 536q1 3 -0.5 3t-3.5 -2l-128 -216q-3 -7 -10 -7q-9 0 -10 7l-75 215q-1 2 -2.5 2t-2.5 -3l-65 -535q-1 -4 -4 -7t-7 -3h-50q-10 0 -8 10l83 680q2 10 11 10h51q9 0 10 -7l83 -231q0 -2 2 -2
t3 2l138 231q4 7 13 7z" />
    <glyph glyph-name="N" unicode="N" horiz-adv-x="479" 
d="M410 697q3 3 8 3h48q9 0 9 -10l-84 -680q-2 -10 -11 -10h-57q-7 0 -10 8l-125 517q-1 3 -3 2.5t-2 -3.5l-62 -514q-1 -4 -4 -7t-7 -3h-50q-10 0 -8 10l83 680q2 10 11 10h56q9 0 10 -8l127 -518q0 -3 2 -2.5t3 3.5l63 515q0 4 3 7z" />
    <glyph glyph-name="O" unicode="O" horiz-adv-x="442" 
d="M92 32.5q-40 40.5 -40 108.5q0 8 2 26l45 366q10 78 62.5 126.5t126.5 48.5q68 0 108.5 -40t40.5 -107q0 -8 -2 -28l-45 -366q-10 -79 -62.5 -127t-127.5 -48q-68 0 -108 40.5zM283.5 84.5q31.5 30.5 37.5 78.5l46 373q1 6 1 16q0 42 -24 68t-64 26q-43 0 -74 -30.5
t-37 -79.5l-46 -373q-1 -6 -1 -18q0 -41 23 -66t62 -25q45 0 76.5 30.5z" />
    <glyph glyph-name="P" unicode="P" horiz-adv-x="429" 
d="M405 658q37 -43 37 -116q0 -11 -2 -35q-11 -86 -60 -138.5t-119 -52.5h-100q-4 0 -4 -4l-37 -302q-1 -4 -4 -7t-7 -3h-50q-10 0 -8 10l83 681q2 10 11 10h160q63 0 100 -43zM332.5 410q31.5 36 38.5 96q2 18 2 27q0 49 -23 77.5t-61 28.5h-88q-3 0 -5 -4l-31 -257
q0 -4 3 -4h88q45 0 76.5 36z" />
    <glyph glyph-name="Q" unicode="Q" horiz-adv-x="430" 
d="M386 667.5q38 -40.5 38 -107.5q0 -10 -2 -30l-44 -360q-8 -68 -47.5 -115t-97.5 -59q-4 -1 -4 -5l-12 -96q-2 -10 -11 -10h-49q-5 0 -7.5 3t-1.5 7l12 96q0 3 -3 5q-49 11 -76.5 49.5t-27.5 95.5q0 9 2 29l44 360q10 79 61 128.5t123 49.5q65 0 103 -40.5zM354 537
q1 7 1 19q0 41 -21.5 65.5t-58.5 24.5q-41 0 -70.5 -30.5t-35.5 -78.5l-46 -374q-1 -7 -1 -19q0 -41 22 -65.5t59 -24.5q41 0 70 30.5t35 78.5z" />
    <glyph glyph-name="R" unicode="R" horiz-adv-x="430" 
d="M311 8l-61 309q0 3 -3 3h-85q-1 0 -2.5 -1t-1.5 -3l-37 -306q-1 -4 -4 -7t-7 -3h-50q-10 0 -8 10l83 680q2 10 11 10h160q63 0 100 -43t37 -115q0 -11 -2 -35q-8 -65 -41 -112t-82 -66q-4 -1 -4 -5l68 -313v-2q0 -9 -10 -9h-50q-8 0 -11 8zM198.5 637q-1.5 -1 -1.5 -3
l-31 -253q0 -2 1 -3t2 -1h88q44 0 76 35.5t39 94.5q1 9 1 25q0 49 -22.5 77.5t-61.5 28.5h-87q-2 0 -3.5 -1z" />
    <glyph glyph-name="S" unicode="S" horiz-adv-x="404" 
d="M78.5 32q-38.5 40 -38.5 108q0 9 2 29l3 23q2 10 11 10h47q5 0 7.5 -3t1.5 -7l-3 -20q-1 -7 -1 -20q0 -45 22 -71.5t59 -26.5q41 0 71.5 31t37.5 82q1 7 1 19q0 27 -11.5 48.5t-28.5 38.5t-58 52q-40 33 -63 57t-38 55.5t-15 72.5q0 9 2 29q10 78 58.5 123.5t118.5 45.5
q66 0 104 -40.5t38 -108.5q0 -10 -2 -32l-3 -25q-2 -10 -11 -10h-48q-9 0 -9 10l3 26q2 16 2 23q0 44 -22 69.5t-59 25.5q-40 0 -68 -28.5t-35 -80.5q-1 -7 -1 -20q0 -36 20 -62.5t73 -71.5q47 -40 71.5 -64.5t38 -52.5t13.5 -65q0 -8 -2 -28q-10 -82 -62 -131.5t-124 -49.5
q-64 0 -102.5 40z" />
    <glyph glyph-name="T" unicode="T" horiz-adv-x="410" 
d="M443 690l-6 -42q0 -4 -3 -7t-7 -3h-128q-2 0 -3.5 -1t-1.5 -3l-76 -624q-1 -4 -4 -7t-7 -3h-50q-10 0 -8 10l76 624q1 1 0 2.5t-3 1.5h-120q-5 0 -7.5 3t-1.5 7l5 42q2 10 11 10h325q9 0 9 -10z" />
    <glyph glyph-name="U" unicode="U" horiz-adv-x="462" 
d="M104 35q-39 43 -39 117q0 9 2 33l62 505q2 10 11 10h50q10 0 8 -10l-63 -513q-1 -8 -1 -23q0 -45 22 -72.5t61 -27.5q44 0 75.5 34t38.5 89l63 513q2 10 11 10h50q4 0 6.5 -3t1.5 -7l-62 -505q-10 -87 -63 -140t-128 -53q-67 0 -106 43z" />
    <glyph glyph-name="V" unicode="V" horiz-adv-x="426" 
d="M156 9l-57 680q0 11 10 11h55q9 0 9 -9l36 -559q1 -2 2 -2t2 2l173 559q2 9 11 9h53q10 0 7 -11l-224 -680q-3 -9 -12 -9h-55q-8 0 -10 9z" />
    <glyph glyph-name="W" unicode="W" horiz-adv-x="604" 
d="M138 9l-45 680q0 5 3 8t7 3h52q9 0 9 -9l27 -526q1 -2 2 -2t2 2l143 526q3 9 11 9h44q9 0 9 -9l18 -526q1 -4 4 0l148 526q2 9 11 9h51q5 0 7 -3t0 -8l-203 -680q-3 -9 -12 -9h-48q-8 0 -8 9l-17 528q-1 2 -2 2t-2 -2l-144 -528q-3 -9 -11 -9h-47q-9 0 -9 9z" />
    <glyph glyph-name="X" unicode="X" horiz-adv-x="421" 
d="M18 3.5q-2 3.5 1 8.5l177 335q1 2 1 6l-95 335l-1 3q0 9 10 9h52q8 0 9 -8l68 -266q1 -3 3 -3t3 3l134 266q4 8 11 8h52q5 0 7 -3.5t-1 -8.5l-178 -336q-1 -2 -1 -6l96 -334l1 -3q0 -9 -10 -9h-51q-9 0 -10 8l-68 265q-1 3 -3 3t-3 -3l-134 -265q-3 -8 -11 -8h-52
q-5 0 -7 3.5z" />
    <glyph glyph-name="Y" unicode="Y" 
d="M154 11l36 299q0 1 0.5 2.5t-0.5 2.5l-89 373v3q0 9 9 9h53q3 0 6 -2t4 -6l59 -293q1 -2 3 -2t3 2l131 293q5 8 13 8h52q5 0 6.5 -3.5t-0.5 -8.5l-179 -373q-2 -2 -2 -5l-36 -299q-1 -4 -4 -7t-7 -3h-50q-10 0 -8 10z" />
    <glyph glyph-name="Z" unicode="Z" horiz-adv-x="383" 
d="M14 10l5 46q2 6 5 12l305 565q1 2 0.5 3.5t-2.5 1.5h-226q-5 0 -7.5 3t-1.5 7l5 42q2 10 11 10h294q9 0 9 -10l-6 -46q0 -2 -4 -12l-305 -565q-1 -2 0 -3.5t3 -1.5h225q10 0 8 -10l-5 -42q-2 -10 -11 -10h-294q-10 0 -8 10z" />
    <glyph glyph-name="bracketleft" unicode="[" horiz-adv-x="293" 
d="M-6.5 -118q-2.5 3 -1.5 7l108 875q0 4 3 7t8 3h150q10 0 8 -10l-5 -42q-2 -10 -11 -10h-87q-4 0 -4 -4l-94 -763q0 -4 3 -4h89q4 0 6.5 -3t1.5 -7l-5 -42q-2 -10 -11 -10h-151q-5 0 -7.5 3z" />
    <glyph glyph-name="backslash" unicode="\" horiz-adv-x="324" 
d="M282 9q0 -4 -3 -6.5t-7 -2.5h-49q-9 0 -9 9l-93 680v2q0 9 11 9h48q8 0 10 -9l92 -680v-2z" />
    <glyph glyph-name="bracketright" unicode="]" horiz-adv-x="293" 
d="M225 -121h-153q-4 0 -6.5 3t-1.5 7l5 42q2 10 11 10h89q3 0 5 4l93 763q1 1 0 2.5t-3 1.5h-88q-5 0 -7.5 3t-1.5 7l5 42q2 10 11 10h152q4 0 6.5 -3t1.5 -7l-107 -875q-2 -10 -11 -10z" />
    <glyph glyph-name="asciicircum" unicode="^" horiz-adv-x="384" 
d="M55 318l169 374q3 8 12 8h44q8 0 11 -8l78 -374v-2q0 -9 -9 -9h-40q-8 0 -11 8l-58 303q0 2 -2 2t-3 -2l-133 -303q-3 -8 -12 -8h-40q-11 0 -6 11z" />
    <glyph glyph-name="underscore" unicode="_" horiz-adv-x="365" 
d="M4.5 3q-2.5 3 -1.5 7l5 37q0 4 3 7t8 3h302q9 0 9 -10l-5 -37q-2 -10 -11 -10h-302q-5 0 -7.5 3z" />
    <glyph glyph-name="grave" unicode="`" horiz-adv-x="175" 
d="M200 579q0 -7 -9 -7h-31q-6 0 -11 7l-54 109q-1 2 -1 6q0 6 8 6h41q6 0 11 -7l45 -109q1 -2 1 -5z" />
    <glyph glyph-name="a" unicode="a" horiz-adv-x="410" 
d="M335 506h49q9 0 9 -10l-60 -486q-2 -10 -11 -10h-49q-5 0 -7.5 3t-1.5 7l5 37q0 3 -2 3.5t-3 -2.5q-20 -28 -47 -42t-58 -14q-55 0 -84.5 33.5t-29.5 90.5q0 9 2 29l26 216q9 70 49 111.5t101 41.5q31 0 55 -14t36 -42q1 -3 3 -2.5t2 3.5l5 37q2 10 11 10zM250.5 80.5
q25.5 26.5 30.5 69.5l26 206q1 6 1 16q0 36 -19.5 58t-51.5 22q-37 0 -63.5 -26.5t-31.5 -69.5l-26 -206q-1 -6 -1 -16q0 -36 20 -58t53 -22q37 0 62.5 26.5z" />
    <glyph glyph-name="b" unicode="b" horiz-adv-x="410" 
d="M357 479.5q32 -34.5 32 -92.5q0 -8 -2 -26l-27 -216q-8 -68 -50 -110.5t-104 -42.5q-26 0 -49.5 10.5t-38.5 31.5q-2 2 -3.5 1t-1.5 -3l-3 -22q-2 -10 -11 -10h-50q-4 0 -6.5 3t-1.5 7l83 680q1 4 4 7t7 3h50q10 0 8 -10l-26 -216q-1 -2 1 -3t4 2q21 20 46.5 30.5
t51.5 10.5q55 0 87 -34.5zM318 372q0 36 -19.5 58t-53.5 22q-36 0 -62 -26.5t-31 -69.5l-25 -207q-1 -6 -1 -17q0 -35 19 -56.5t51 -21.5q37 0 64 26.5t32 68.5l25 207q1 6 1 16z" />
    <glyph glyph-name="c" unicode="c" horiz-adv-x="390" 
d="M81.5 27q-35.5 35 -35.5 94q0 16 1 24l26 216q8 68 55 110.5t116 42.5q63 0 100 -35t37 -87q0 -11 -1 -17l-2 -10q0 -4 -3 -7t-7 -3l-50 -2q-9 0 -9 10l1 7q1 4 1 11q0 30 -20.5 50.5t-54.5 20.5q-37 0 -63 -26.5t-31 -69.5l-26 -206q-1 -6 -1 -16q0 -36 20 -58t52 -22
q36 0 63 24.5t32 57.5v7q2 10 11 10l50 -1q4 0 6.5 -3t1.5 -7l-1 -11q-8 -60 -55 -99.5t-116 -39.5q-62 0 -97.5 35z" />
    <glyph glyph-name="d" unicode="d" horiz-adv-x="410" 
d="M351 697q3 3 8 3h49q10 0 8 -10l-83 -680q-2 -10 -11 -10h-49q-5 0 -7.5 3t-1.5 7l3 22q0 2 -1.5 3t-3.5 -1q-20 -21 -45.5 -31.5t-52.5 -10.5q-56 0 -87.5 34.5t-31.5 91.5q0 9 2 27l26 216q9 70 51 111.5t104 41.5q27 0 50 -10.5t38 -32.5q1 -2 3 -1t2 3l27 217
q0 4 3 7zM250.5 80.5q25.5 26.5 30.5 68.5l26 207q1 6 1 16q0 36 -19.5 58t-51.5 22q-37 0 -64 -26.5t-32 -69.5l-26 -207q-1 -5 -1 -15q0 -36 20.5 -58t53.5 -22q37 0 62.5 26.5z" />
    <glyph glyph-name="e" unicode="e" horiz-adv-x="395" 
d="M351 226h-221q-2 0 -3.5 -1t-1.5 -3l-9 -73q-1 -5 -1 -16q0 -35 20 -57t52 -22q31 0 55 19.5t35 50.5q5 9 12 9l48 -2q4 0 6.5 -3t0.5 -8q-14 -59 -57.5 -93.5t-107.5 -34.5q-62 0 -97.5 35t-35.5 94q0 16 1 24l26 216q8 68 55 110.5t116 42.5q63 0 99 -35t36 -94
q0 -8 -2 -24l-15 -125q-2 -10 -11 -10zM173 425.5q-26 -26.5 -31 -69.5l-9 -67q0 -4 4 -4h159q4 0 4 4l9 67q1 6 1 16q0 36 -20 58t-54 22q-37 0 -63 -26.5z" />
    <glyph glyph-name="f" unicode="f" horiz-adv-x="269" 
d="M219.5 620.5q-18.5 -25.5 -25.5 -79.5l-3 -31q-1 -1 0 -2.5t3 -1.5h75q10 0 8 -10l-4 -33q-2 -10 -11 -10h-74q-2 0 -3.5 -1t-1.5 -3l-54 -439q0 -4 -3 -7t-8 -3h-48q-9 0 -9 10l54 439q1 1 0 2.5t-3 1.5h-39q-10 0 -8 10l4 33q0 4 3 7t8 3h38q2 0 3.5 1t1.5 3l4 32
q11 87 46.5 126t108.5 39h13q5 0 7.5 -3t1.5 -7l-6 -41q-1 -10 -11 -10h-12q-37 0 -55.5 -25.5z" />
    <glyph glyph-name="g" unicode="g" horiz-adv-x="401" 
d="M335 506h49q9 0 9 -10l-60 -486q-13 -107 -67.5 -162.5t-167.5 -50.5q-10 2 -8 11l5 43q2 10 11 10q77 -2 113 36.5t46 118.5l4 30q0 2 -1.5 3t-3.5 -1q-20 -25 -47 -38t-56 -13q-55 0 -85 33.5t-30 89.5q0 10 2 30l25 211q9 70 49.5 111.5t101.5 41.5q30 0 54 -12.5
t37 -37.5q3 -6 5 1l4 31q2 10 11 10zM251 85.5q26 26.5 31 68.5l25 202q1 6 1 16q0 36 -19.5 58t-51.5 22q-37 0 -63.5 -26.5t-31.5 -69.5l-25 -202q-1 -5 -1 -16q0 -35 20 -57t53 -22q36 0 62 26.5z" />
    <glyph glyph-name="h" unicode="h" 
d="M356.5 481q27.5 -32 27.5 -92q0 -11 -2 -35l-42 -344q-2 -10 -11 -10h-50q-4 0 -6.5 3t-1.5 7l41 338q2 16 2 23q0 38 -17.5 59t-50.5 21q-38 0 -63.5 -29t-31.5 -79l-41 -333q-2 -10 -11 -10h-50q-4 0 -6.5 3t-1.5 7l83 680q1 4 4 7t7 3h50q10 0 8 -10l-27 -226
q-1 -2 1 -3t4 2q20 25 47.5 37.5t58.5 12.5q52 0 79.5 -32z" />
    <glyph glyph-name="i" unicode="i" horiz-adv-x="201" 
d="M118 614q-13 16 -11 40q4 25 21 40.5t41 15.5q21 0 34 -13t13 -34q0 -28 -17.5 -46.5t-43.5 -18.5q-24 0 -37 16zM49 10l59 486q1 4 4 7t7 3h50q10 0 8 -10l-59 -486q-2 -10 -11 -10h-50q-10 0 -8 10z" />
    <glyph glyph-name="j" unicode="j" horiz-adv-x="194" 
d="M112.5 611.5q-13.5 13.5 -13.5 34.5q0 27 18.5 45.5t43.5 18.5q22 0 35 -13t13 -34q0 -28 -18 -46.5t-44 -18.5q-21 0 -34.5 13.5zM-71.5 -205q-2.5 3 -1.5 7l5 42q2 10 11 10q80 3 91 102l67 540q0 4 3 7t8 3h49q9 0 9 -10l-67 -540q-10 -82 -46 -123t-121 -41
q-5 0 -7.5 3z" />
    <glyph glyph-name="k" unicode="k" horiz-adv-x="393" 
d="M42.5 3q-2.5 3 -1.5 7l83 680q1 4 4 7t7 3h50q10 0 8 -10l-49 -402q0 -2 1.5 -3t3.5 1l171 214q5 6 13 6h50q6 0 7.5 -3.5t-2.5 -8.5l-114 -142q-2 -2 -2 -6l74 -335v-2q0 -9 -9 -9h-52q-8 0 -10 8l-53 278q0 3 -2 3t-3 -2l-84 -104l-3 -5l-20 -168q-2 -10 -11 -10h-50
q-4 0 -6.5 3z" />
    <glyph glyph-name="l" unicode="l" horiz-adv-x="176" 
d="M36.5 3q-2.5 3 -1.5 7l84 680q0 4 3 7t8 3h49q9 0 9 -10l-84 -680q-2 -10 -11 -10h-49q-5 0 -7.5 3z" />
    <glyph glyph-name="m" unicode="m" horiz-adv-x="628" 
d="M573 479.5q27 -33.5 27 -93.5q0 -18 -3 -39l-41 -337q-2 -10 -11 -10h-48q-5 0 -7.5 3t-1.5 7l41 331q1 8 1 24q0 40 -17 63t-46 23q-37 0 -62 -29t-31 -79l-41 -333q-2 -10 -11 -10h-49q-5 0 -7.5 3t-1.5 7l41 331q1 8 1 24q0 40 -16.5 63t-45.5 23q-38 0 -63 -29
t-31 -79l-41 -333q-2 -10 -11 -10h-49q-4 0 -6.5 3t-1.5 7l60 486q0 4 3 7t8 3h48q9 0 9 -10l-4 -31q-1 -2 0.5 -2.5t3.5 1.5q22 25 49 37t55 12q36 0 61 -18.5t36 -52.5q0 -2 2 -2t3 3q22 36 54.5 53t66.5 17q50 0 77 -33.5z" />
    <glyph glyph-name="n" unicode="n" 
d="M356.5 481q27.5 -32 27.5 -92q0 -11 -2 -35l-42 -344q-2 -10 -11 -10h-50q-4 0 -6.5 3t-1.5 7l41 338q2 16 2 23q0 38 -17.5 59t-50.5 21q-38 0 -63.5 -29t-31.5 -79l-41 -333q-2 -10 -11 -10h-50q-4 0 -6.5 3t-1.5 7l60 486q0 4 3 7t8 3h49q9 0 9 -10l-4 -32q-1 -2 1 -3
t4 2q20 25 47.5 37.5t58.5 12.5q52 0 79.5 -32z" />
    <glyph glyph-name="o" unicode="o" horiz-adv-x="402" 
d="M81.5 27q-35.5 35 -35.5 94q0 16 1 24l26 215q8 68 55 111t117 43q63 0 99 -35.5t36 -94.5q0 -16 -1 -24l-27 -215q-8 -69 -55 -111t-117 -42q-63 0 -98.5 35zM252.5 81q26.5 26 31.5 69l25 206q1 6 1 16q0 36 -20 58t-53 22q-37 0 -63.5 -26.5t-31.5 -69.5l-26 -206
q-1 -6 -1 -16q0 -36 20 -57.5t53 -21.5q38 0 64.5 26z" />
    <glyph glyph-name="p" unicode="p" horiz-adv-x="415" 
d="M362.5 479.5q31.5 -34.5 31.5 -92.5q0 -8 -2 -26l-27 -216q-8 -70 -50 -111.5t-104 -41.5q-26 0 -49.5 10.5t-38.5 32.5q-2 2 -3.5 1t-1.5 -3l-27 -217q-2 -10 -11 -10h-50q-4 0 -6.5 3t-1.5 7l84 680q0 4 3 7t7 3h50q10 0 8 -10l-2 -23q-1 -2 1 -2.5t4 1.5
q20 21 46 31.5t53 10.5q55 0 86.5 -34.5zM324 372q0 36 -20 58t-54 22q-36 0 -62 -26.5t-31 -69.5l-25 -206q-1 -6 -1 -17q0 -36 19 -57.5t52 -21.5q37 0 64 26.5t32 69.5l25 206q1 6 1 16z" />
    <glyph glyph-name="q" unicode="q" horiz-adv-x="415" 
d="M335 506h49q9 0 9 -10l-84 -680q-2 -10 -11 -10h-49q-9 0 -9 10l27 217q0 6 -5 2q-20 -22 -45.5 -32.5t-52.5 -10.5q-55 0 -87 33.5t-32 91.5q0 8 2 28l26 216q8 68 50.5 110.5t104.5 42.5q27 0 50 -10.5t38 -31.5q2 -2 3.5 -1t1.5 3l3 22q2 10 11 10zM250.5 80.5
q25.5 26.5 30.5 69.5l26 206q1 6 1 16q0 36 -19.5 58t-51.5 22q-37 0 -64 -26.5t-32 -69.5l-26 -206q-1 -5 -1 -16q0 -36 20.5 -58t53.5 -22q37 0 62.5 26.5z" />
    <glyph glyph-name="r" unicode="r" horiz-adv-x="284" 
d="M309 500q6 -5 3 -13l-18 -52q-3 -9 -12 -6q-11 6 -28 6q-9 0 -13 -1q-34 -2 -61 -37.5t-33 -86.5l-37 -300q-2 -10 -11 -10h-50q-4 0 -6.5 3t-1.5 7l60 486q0 4 3 7t8 3h49q9 0 9 -10l-8 -60q0 -3 1.5 -3t2.5 2q39 76 102 76q23 0 41 -11z" />
    <glyph glyph-name="s" unicode="s" horiz-adv-x="363" 
d="M70 25q-35 30 -35 81q0 13 1 19l1 7q0 4 3 7t8 3h46q9 0 9 -10l-1 -6q-4 -32 16 -54t57 -22q38 0 63 25.5t25 63.5q0 22 -12 37.5t-27 24t-49 24.5q-32 14 -53.5 28t-37 38t-15.5 60q0 14 1 22q8 64 51 101t108 37q60 0 93.5 -32t33.5 -86q0 -14 -1 -21v-3
q-2 -10 -11 -10h-45q-10 0 -8 10v6q1 4 1 12q0 29 -19 47.5t-51 18.5q-34 0 -57.5 -22.5t-28.5 -55.5q-3 -24 7.5 -40.5t27.5 -27.5t49 -25q35 -16 57 -30.5t38.5 -39t16.5 -60.5q0 -71 -46 -114t-119 -43q-62 0 -97 30z" />
    <glyph glyph-name="t" unicode="t" horiz-adv-x="259" 
d="M266 456q-3 -3 -8 -3h-73q-3 0 -5 -4l-37 -306q-2 -18 -2 -25q0 -32 13.5 -44t41.5 -11h10q4 0 6.5 -3t1.5 -7l-5 -43q-2 -10 -11 -10h-24q-51 0 -77.5 19.5t-26.5 72.5q0 8 2 30l40 327q1 1 0 2.5t-3 1.5h-38q-10 0 -8 10l4 33q0 4 3 7t8 3h37q2 0 3.5 1t1.5 3l14 112
q0 4 3 7t8 3h48q9 0 9 -10l-14 -112q0 -4 3 -4h74q10 0 8 -10l-4 -33q0 -4 -3 -7z" />
    <glyph glyph-name="u" unicode="u" 
d="M328 503q3 3 8 3h49q9 0 9 -10l-60 -486q-2 -10 -11 -10h-49q-5 0 -7.5 3t-1.5 7l4 34q1 3 -0.5 3t-3.5 -2q-37 -52 -104 -52q-52 0 -81.5 29t-29.5 88q0 8 2 30l44 356q2 10 11 10h49q9 0 9 -10l-42 -340q-2 -18 -2 -24q0 -77 67 -77q39 0 64.5 29t31.5 79l41 333
q0 4 3 7z" />
    <glyph glyph-name="v" unicode="v" horiz-adv-x="367" 
d="M126 9l-60 486v2q0 9 9 9h56q8 0 10 -9l36 -379q1 -3 2 -3t2 3l129 379q3 9 12 9l56 -1q5 0 7 -3t0 -8l-179 -485q-3 -9 -12 -9h-58q-10 0 -10 9z" />
    <glyph glyph-name="w" unicode="w" horiz-adv-x="538" 
d="M108 9l-43 486q0 11 10 11h47q10 0 10 -9l23 -382q0 -2 1.5 -2t2.5 2l118 382q3 9 12 9h44q9 0 9 -9l25 -382q1 -2 2 -2t2 2l119 382q2 9 12 9l46 -1q10 0 7 -11l-162 -485q-3 -9 -12 -9h-49q-10 0 -10 9l-27 366q0 3 -1 3t-3 -3l-113 -366q-3 -9 -12 -9h-49q-9 0 -9 9z
" />
    <glyph glyph-name="x" unicode="x" horiz-adv-x="364" 
d="M3.5 3.5q-1.5 3.5 0.5 8.5l148 238q1 2 1 6l-89 238l-1 4q0 8 9 8h54q10 0 11 -7l62 -178q1 -2 3 -2t3 2l107 178q3 7 12 7h54q5 0 6.5 -3.5t-0.5 -8.5l-148 -238q-1 -2 -1 -6l89 -238l1 -4q0 -8 -9 -8h-54q-10 0 -11 7l-62 179q-1 2 -3 2t-3 -2l-106 -179q-4 -7 -13 -7
h-54q-5 0 -6.5 3.5z" />
    <glyph glyph-name="y" unicode="y" horiz-adv-x="357" 
d="M-5 -197q-2 3 -1 7l5 40q2 10 11 10q30 1 48 12t32.5 39t32.5 86q1 1 0.5 3t0.5 3l-63 492v2q0 9 10 9h52q10 0 10 -9l37 -393q0 -3 1.5 -3t2.5 3l132 393q3 9 12 9l54 -1q5 0 7 -3t0 -8l-201 -538q-26 -67 -47 -99t-49.5 -44.5t-77.5 -12.5h-5q-2 0 -4 3z" />
    <glyph glyph-name="z" unicode="z" horiz-adv-x="350" 
d="M14 10l6 48q0 5 4 13l244 365q1 2 0.5 3.5t-1.5 1.5h-187q-4 0 -6.5 3t-1.5 7l5 45q2 10 11 10h262q9 0 9 -10l-6 -48q-2 -10 -5 -13l-245 -365q-2 -2 -1 -3.5t3 -1.5h193q10 0 8 -10l-5 -45q-2 -10 -11 -10h-268q-10 0 -8 10z" />
    <glyph glyph-name="braceleft" unicode="{" horiz-adv-x="265" 
d="M81.5 -100q-20.5 21 -20.5 65q0 8 2 28l27 217q2 20 2 27q0 54 -41 63q-8 2 -7 10l5 40q1 9 10 10q26 5 40.5 26.5t19.5 62.5l26 212q8 58 35 85.5t76 27.5h50q4 0 6.5 -3t1.5 -7l-5 -42q-2 -10 -11 -10h-25q-53 0 -62 -74l-24 -194q-5 -45 -20 -72t-40 -40q-2 -1 -2 -2
t2 -2q34 -22 34 -79q0 -22 -2 -34l-24 -199q-1 -8 -1 -21q0 -28 10.5 -41t33.5 -13h25q9 0 9 -10l-5 -42q-1 -4 -4 -7t-7 -3h-50q-44 0 -64.5 21z" />
    <glyph glyph-name="bar" unicode="|" horiz-adv-x="139" 
d="M8.5 -77q-2.5 3 -1.5 7l101 820q0 4 3 7t8 3h49q10 0 8 -10l-100 -820q-2 -10 -11 -10h-50q-4 0 -6.5 3z" />
    <glyph glyph-name="braceright" unicode="}" horiz-adv-x="265" 
d="M1 -121q-5 0 -7.5 3t-1.5 7l5 42q2 10 11 10h25q53 0 62 75l25 199q10 86 60 113q2 1 2 2t-2 2q-34 22 -34 78q0 22 2 34l23 194q2 16 2 22q0 52 -45 52h-25q-9 0 -9 10l6 42q0 4 3 7t8 3h49q85 0 85 -84q0 -9 -2 -29l-26 -212q-2 -20 -2 -26q0 -54 41 -63q8 -2 7 -10
l-5 -40q0 -8 -10 -10q-26 -5 -40.5 -26.5t-19.5 -63.5l-27 -217q-7 -58 -34 -86t-77 -28h-49z" />
    <glyph glyph-name="asciitilde" unicode="~" horiz-adv-x="447" 
d="M273.5 240.5q-18.5 8.5 -43.5 25.5q-21 13 -34.5 19.5t-30.5 6.5q-44 0 -75 -41q-7 -10 -14 -4l-24 16q-8 5 -3 14q20 35 51 56.5t67 21.5q23 0 39.5 -7t35.5 -20q24 -17 41 -25t41 -8q19 0 33.5 10t30.5 30q8 8 14 3l26 -19q7 -5 2 -13q-52 -74 -111 -74
q-27 0 -45.5 8.5z" />
    <glyph glyph-name="uni00A0" unicode="&#xa0;" horiz-adv-x="194" 
 />
    <glyph glyph-name="exclamdown" unicode="&#xa1;" horiz-adv-x="244" 
d="M224.5 694.5q13.5 -13.5 13.5 -34.5q0 -27 -18.5 -45.5t-43.5 -18.5q-22 0 -35 13t-13 34q0 28 18 46.5t44 18.5q21 0 34.5 -13.5zM144 483h37q9 0 8 -10l-49 -451q0 -4 -3 -7t-7 -3h-50q-10 0 -8 10l61 451q1 10 11 10z" />
    <glyph glyph-name="cent" unicode="&#xa2;" horiz-adv-x="390" 
d="M386 448q-3 -3 -7 -3l-50 -2q-9 0 -9 10l1 7q1 4 1 11q0 30 -20.5 50.5t-54.5 20.5q-37 0 -63 -26.5t-31 -69.5l-26 -206q-1 -6 -1 -16q0 -36 20 -58t52 -22q37 0 63.5 24t31.5 58v7q1 4 4 7t7 3l50 -1q10 0 8 -10l-1 -11q-7 -52 -44.5 -89.5t-93.5 -46.5q-4 -1 -5 -5
l-6 -69q-2 -10 -11 -10h-41q-10 0 -8 10l10 69q0 4 -3 5q-49 8 -76 41.5t-27 84.5q0 8 2 24l26 216q8 59 45 99.5t93 50.5q4 1 5 5l6 69q2 10 11 10h41q10 0 8 -10l-10 -69q0 -4 3 -5q49 -9 77.5 -42t28.5 -77q0 -11 -1 -17l-1 -10q-1 -4 -4 -7z" />
    <glyph glyph-name="sterling" unicode="&#xa3;" horiz-adv-x="488" 
d="M166 62h268q5 0 7.5 -3t1.5 -7l-5 -42q-2 -10 -11 -10h-341q-4 0 -6.5 3t-1.5 7l5 44q2 8 8 12q20 16 33.5 47.5t18.5 73.5l15 117q0 4 -4 4h-56q-9 0 -9 10l5 39q2 10 11 10h56q2 0 3.5 1t1.5 3l17 141q11 92 60.5 144t124.5 52q57 0 89 -34.5t40 -101.5q0 -10 -9 -12
l-48 -7h-2q-8 0 -8 9q-5 43 -23 63.5t-49 20.5q-44 0 -72 -34t-36 -97l-17 -144q0 -4 3 -4h140q10 0 8 -10l-4 -39q-1 -4 -4 -7t-7 -3h-140q-4 0 -4 -4l-15 -115q-4 -40 -16.5 -72t-29.5 -50q-3 -5 2 -5z" />
    <glyph glyph-name="currency" unicode="&#xa4;" horiz-adv-x="496" 
d="M443.5 253q-13.5 -36 -37.5 -65q-1 -1 -0.5 -3.5l0.5 -2.5l56 -64q2 -2 2 -5q0 -4 -5 -9l-35 -28q-7 -7 -13 1l-54 61q0 1 -1.5 1.5t-3.5 -0.5q-54 -35 -114 -35q-59 0 -103 33q-3 2 -6 -1l-64 -59q-4 -3 -8 -3.5t-6 2.5l-28 28q-3 3 -3 6q0 4 4 8l67 60q3 3 1 6
q-25 42 -25 93q0 75 51 138q1 1 0.5 3.5l-0.5 2.5l-55 64q-2 4 -2 5q0 4 5 9l34 28q7 7 13 -1l53 -62q0 -1 1.5 -1.5t3.5 0.5q55 36 115 36q65 0 110 -39q3 -2 6 1l71 65q8 8 14 1l26 -28q7 -7 0 -14l-76 -68q-3 -3 -1 -6q21 -39 21 -84q0 -38 -13.5 -74zM161.5 199.5
q33.5 -34.5 83.5 -34.5q39 0 73.5 21t55.5 56t21 76q0 51 -33 85.5t-83 34.5q-39 0 -73.5 -21t-56 -56.5t-21.5 -76.5q0 -50 33.5 -84.5z" />
    <glyph glyph-name="yen" unicode="&#xa5;" horiz-adv-x="508" 
d="M438 297h-132q-4 0 -4 -4l-9 -68q0 -4 4 -4h132q10 0 8 -10l-3 -23q0 -4 -3 -7t-8 -3h-131q-2 0 -3.5 -1t-1.5 -3l-20 -163q-2 -10 -11 -10h-49q-9 0 -9 10l20 163q1 1 0 2.5t-3 1.5h-127q-9 0 -9 10l3 23q2 10 11 10h127q3 0 5 4l8 68q0 4 -4 4h-127q-4 0 -6.5 3t-1.5 7
l3 23q2 10 11 10h116q4 0 4 5l-81 343l-1 3q0 9 10 9h51q4 0 7 -2t4 -6l60 -293q1 -2 3 -2t3 2l131 293q1 4 5 6t7 2h52q5 0 6.5 -3.5t-0.5 -8.5l-165 -343q-1 -2 -0.5 -3.5t2.5 -1.5h121q5 0 7.5 -3t1.5 -7l-3 -23q-2 -10 -11 -10z" />
    <glyph glyph-name="brokenbar" unicode="&#xa6;" horiz-adv-x="139" 
d="M65.5 388q-2.5 3 -1.5 7l44 355q0 4 3 7t8 3h49q10 0 8 -10l-43 -355q-2 -10 -11 -10h-50q-4 0 -6.5 3zM8.5 -77q-2.5 3 -1.5 7l43 348q0 4 3 7t8 3h49q9 0 9 -10l-43 -348q-2 -10 -11 -10h-50q-4 0 -6.5 3z" />
    <glyph glyph-name="section" unicode="&#xa7;" horiz-adv-x="376" 
d="M52 -170.5q-34 35.5 -34 95.5q0 8 2 26l2 14q2 10 11 10h49q9 0 9 -10l-1 -10q-1 -7 -1 -19q0 -36 16.5 -58t45.5 -22q32 0 56.5 28t29.5 69q1 5 1 15q0 29 -14 49t-31 31t-47 26q-38 19 -59 37.5t-30 51.5q-7 25 -7 52q0 13 2 31q6 51 35 93q27 43 66 57q6 2 2 5
q-30 20 -47.5 52t-17.5 74q0 50 21.5 91.5t59 65.5t83.5 24q57 0 90.5 -37t33.5 -99q0 -16 -1 -24l-2 -12q0 -4 -3 -7t-8 -3h-50q-9 0 -9 10l2 9q1 7 1 19q0 37 -17 59.5t-45 22.5q-37 0 -62 -34t-25 -84q0 -38 21 -61.5t64 -42.5q37 -19 57 -33t33 -40q16 -32 16 -68
q0 -66 -32 -122q-30 -48 -73 -62q-5 -1 -1 -5q63 -41 63 -118q0 -51 -21.5 -92.5t-59 -65.5t-83.5 -24q-57 0 -91 35.5zM258 185q10 18 16 41t6 45q0 30 -11 52q-9 15 -24.5 24.5t-33.5 9.5q-22 0 -41 -14t-29 -33q-15 -27 -19 -62q-2 -14 -2 -24q0 -20 6 -40q14 -44 60 -44
q47 0 72 45z" />
    <glyph glyph-name="dieresis" unicode="&#xa8;" horiz-adv-x="297" 
d="M240 611.5q-13 13.5 -13 34.5q0 28 18 46t44 18q21 0 34.5 -13t13.5 -35q0 -27 -18 -45.5t-44 -18.5q-22 0 -35 13.5zM94 611.5q-13 13.5 -13 34.5q0 28 18 46t44 18q21 0 34.5 -13t13.5 -35q0 -27 -18 -45.5t-44 -18.5q-22 0 -35 13.5z" />
    <glyph glyph-name="copyright" unicode="&#xa9;" horiz-adv-x="810" 
d="M223 32q-71 40 -110 111t-39 159q0 24 3 48q12 99 68.5 181t142.5 129.5t184 47.5q91 0 161.5 -40t109.5 -111t39 -159q0 -24 -3 -48q-12 -99 -68 -181t-142 -129.5t-185 -47.5q-90 0 -161 40zM551 77.5q75 41.5 124 113.5t60 159q2 14 2 41q0 77 -34 139.5t-95.5 98
t-140.5 35.5q-86 0 -161.5 -41.5t-124.5 -113.5t-59 -159q-3 -21 -3 -43q0 -77 34.5 -139t96 -97t140.5 -35q86 0 161 41.5zM354 199.5q-20 18.5 -20 50.5q0 8 1 12l21 171q4 37 29.5 58.5t63.5 21.5q35 0 55.5 -18.5t20.5 -49.5l-1 -12l-1 -6q-2 -10 -11 -10l-22 -1
q-5 0 -7.5 3t-1.5 7l1 10q2 17 -8.5 28t-29.5 11t-32 -11t-15 -28l-22 -177q-2 -18 8.5 -28.5t29.5 -10.5t32.5 10.5t15.5 28.5l1 10q2 10 11 10l22 -1q10 0 8 -10v-6q-4 -37 -30.5 -59t-64.5 -22q-34 0 -54 18.5z" />
    <glyph glyph-name="ordfeminine" unicode="&#xaa;" horiz-adv-x="267" 
d="M227 562q4 0 4 4l4 29q1 5 1 15q0 25 -11.5 39.5t-33.5 14.5q-18 0 -34 -11.5t-21 -29.5q-3 -11 -12 -9l-30 2q-10 1 -8 11q9 36 40 58.5t70 22.5q43 0 66.5 -24t23.5 -66q0 -12 -1 -19l-27 -220q-2 -10 -11 -10h-30q-10 0 -8 10l1 13q0 5 -4 1q-26 -29 -69 -29
q-34 0 -57 17t-23 61q0 11 1 18q13 102 125 102h44zM195.5 422q19.5 16 23.5 46l6 49q1 1 0 2.5t-3 1.5h-43q-32 0 -52 -19t-20 -54q0 -22 11.5 -32t31.5 -10q26 0 45.5 16zM42 314q3 3 8 3h202q5 0 7.5 -3t1.5 -7l-4 -27q0 -4 -3 -7t-7 -3h-203q-9 0 -9 10l4 27q0 4 3 7z
" />
    <glyph glyph-name="guillemotleft" unicode="&#xab;" horiz-adv-x="458" 
d="M232 115q0 -3 -2.5 -5.5t-6.5 -2.5h-44q-6 0 -11 6l-83 161q-1 2 -1 6q0 5 3 8l122 161q6 6 13 6h43q6 0 7.5 -3.5t-1.5 -8.5l-122 -159q-1 -3 0 -6l82 -159q1 -1 1 -4zM377 114q0 -7 -10 -7h-44q-7 0 -11 7l-82 160q-2 4 -2 6q0 5 3 8l122 160q5 7 12 7h45q6 0 7.5 -3.5
t-2.5 -8.5l-122 -159q-2 -4 -1 -6l83 -159q2 -4 2 -5z" />
    <glyph glyph-name="logicalnot" unicode="&#xac;" horiz-adv-x="428" 
d="M419 334l-4 -35l-2 -10h-1l-13 -102q0 -4 -3 -7t-8 -3h-35q-5 0 -7.5 3t-1.5 7l12 98q0 4 -3 4h-296q-9 0 -9 10l5 35q0 4 3 7t8 3h347q10 0 8 -10z" />
    <glyph glyph-name="uni00AD" unicode="&#xad;" horiz-adv-x="304" 
d="M47 290l5 42q1 4 4 7t7 3h222q5 0 7.5 -3t1.5 -7l-5 -42q-2 -10 -11 -10h-222q-9 0 -9 10z" />
    <glyph glyph-name="registered" unicode="&#xae;" horiz-adv-x="425" 
d="M367.5 692q38.5 -22 60 -61t21.5 -87q0 -59 -30 -109.5t-79.5 -80.5t-106.5 -30q-48 0 -86.5 22t-60.5 61t-22 87q0 58 30 109t80 81t107 30q48 0 86.5 -22zM323.5 385.5q40.5 24.5 64.5 65.5t24 89q0 59 -38.5 98t-97.5 39q-46 0 -86 -24.5t-64 -65t-24 -88.5
q0 -60 38 -99t97 -39q46 0 86.5 24.5zM314.5 530q-8.5 -14 -22.5 -20q-5 -3 -4 -6l17 -63l1 -3q0 -9 -10 -9h-12q-9 0 -10 8l-17 64q0 3 -3 3h-16q-4 0 -4 -4l-7 -61q-1 -4 -4 -7t-7 -3h-11q-9 0 -9 10l20 159q2 10 11 10h51q20 0 32.5 -12.5t12.5 -32.5q0 -19 -8.5 -33z
M244 577l-6 -45q0 -4 3 -4h24q12 0 19.5 8.5t7.5 22.5q0 10 -5.5 16t-15.5 6h-23q-4 0 -4 -4z" />
    <glyph glyph-name="macron" unicode="&#xaf;" horiz-adv-x="476" 
d="M194 605l4 32q0 4 3 7t7 3h178q10 0 8 -10l-3 -32q-1 -4 -4 -7t-7 -3h-178q-10 0 -8 10z" />
    <glyph glyph-name="degree" unicode="&#xb0;" horiz-adv-x="348" 
d="M118.5 529q-37.5 39 -37.5 99q0 48 23.5 89.5t63.5 66t85 24.5q59 0 96.5 -39t37.5 -99q0 -49 -23.5 -90t-63.5 -65.5t-86 -24.5q-58 0 -95.5 39zM279 557q27 17 43.5 45t16.5 61q0 41 -26 68.5t-66 27.5q-30 0 -57.5 -16.5t-44 -45t-16.5 -62.5q0 -41 26 -68t66 -27
q31 0 58 17z" />
    <glyph glyph-name="plusminus" unicode="&#xb1;" horiz-adv-x="428" 
d="M424 368l-5 -35q0 -4 -3 -7t-8 -3h-142q-3 0 -5 -4l-18 -147q0 -4 -3 -7t-8 -3h-35q-4 0 -6.5 3t-1.5 7l18 147q0 4 -3 4h-143q-10 0 -8 10l4 35q2 10 11 10h142q2 0 3.5 1t1.5 3l18 147q2 10 11 10h35q10 0 8 -10l-18 -147q0 -2 1 -3t2 -1h143q9 0 9 -10zM16 38l5 35
q0 4 3 7t8 3h347q10 0 8 -10l-4 -35q-2 -10 -11 -10h-347q-9 0 -9 10z" />
    <glyph glyph-name="uni00B2" unicode="&#xb2;" horiz-adv-x="237" 
d="M58.5 445q-2.5 3 -1.5 7l3 27q2 8 6 13l40 53q56 74 82 110q49 70 49 116q0 25 -10.5 38t-29.5 13q-20 0 -35 -17t-18 -44l-3 -19q0 -4 -3 -7t-8 -3h-30q-10 0 -8 10l2 21q7 48 37 76t72 28q38 0 60.5 -23t22.5 -66q0 -34 -12.5 -68t-38.5 -73q-18 -28 -70 -99l-34 -47
q-3 -5 2 -5h119q5 0 7.5 -3t1.5 -7l-3 -24q-2 -10 -11 -10h-181q-5 0 -7.5 3z" />
    <glyph glyph-name="uni00B3" unicode="&#xb3;" horiz-adv-x="255" 
d="M272 602q0 -20 -2 -32q-5 -37 -15 -62q-11 -33 -37.5 -52t-61.5 -19q-39 0 -62 24.5t-23 63.5q0 13 2 35q1 10 11 10h29q9 0 9 -10q-1 -9 -1 -26q0 -24 10.5 -38t29.5 -14q33 0 50 37q8 20 13 56q3 20 3 34q0 62 -42 62q-6 0 -11 -3q-2 -1 -7 -1q-4 0 -7 3l-12 15
q-5 6 0 14l91 114q2 2 1 3.5t-3 1.5h-120q-4 0 -6.5 3t-1.5 7l3 24q2 10 11 10h171q4 0 6.5 -3t1.5 -7l-3 -27q-2 -9 -6 -13l-79 -103q-2 -1 -1.5 -2.5t2.5 -1.5q25 -4 39.5 -26t16.5 -54q1 -7 1 -23z" />
    <glyph glyph-name="acute" unicode="&#xb4;" horiz-adv-x="175" 
d="M79 575.5q-2 3.5 2 8.5l74 109q5 7 12 7h40q6 0 7 -3.5t-3 -8.5l-81 -109q-7 -7 -13 -7h-31q-5 0 -7 3.5z" />
    <glyph glyph-name="uni00B5" unicode="&#xb5;" horiz-adv-x="417" 
d="M334 503q3 3 7 3h50q10 0 8 -10l-59 -486q-2 -10 -11 -10h-50q-4 0 -6.5 3t-1.5 7l4 34q1 3 -0.5 3.5t-3.5 -1.5q-38 -53 -104 -53q-32 0 -53 10q-5 2 -5 -3l-24 -190q0 -4 -3 -7t-8 -3h-49q-9 0 -9 10l85 686q0 4 3 7t8 3h49q9 0 9 -10l-42 -340q-2 -18 -2 -26
q0 -37 17.5 -56t50.5 -19q38 0 63.5 29t32.5 79l41 333q0 4 3 7z" />
    <glyph glyph-name="paragraph" unicode="&#xb6;" horiz-adv-x="456" 
d="M443 700q10 0 8 -10l-108 -880q0 -4 -3 -7t-8 -3h-38q-5 0 -7.5 3t-1.5 7l102 827q0 4 -4 4h-76q-3 0 -5 -4l-101 -827q-2 -10 -11 -10h-40q-10 0 -8 10l53 437q0 4 -3 4q-58 7 -91 56.5t-33 124.5q0 21 3 43q8 63 35 114.5t68.5 81t90.5 29.5h178z" />
    <glyph glyph-name="periodcentered" unicode="&#xb7;" horiz-adv-x="190" 
d="M68 235.5q-13 13.5 -13 34.5q0 28 18 46t44 18q21 0 34.5 -13t13.5 -35q0 -27 -18 -45.5t-44 -18.5q-22 0 -35 13.5z" />
    <glyph glyph-name="cedilla" unicode="&#xb8;" horiz-adv-x="117" 
d="M-36.5 -178q-1.5 3 0.5 8l5 21q3 8 11 8q1 -1 4 -1q22 -3 38 10.5t16 47.5q0 35 -30 72q-3 3 -3 6q0 6 9 6h26q6 0 9 -3q3 -2 3 -4q34 -35 34 -83q0 -16 -5 -36q-10 -32 -33 -45.5t-50 -13.5q-17 0 -29 3q-4 1 -5.5 4z" />
    <glyph glyph-name="uni00B9" unicode="&#xb9;" horiz-adv-x="141" 
d="M155 862h33q10 0 8 -10l-49 -400q0 -4 -3 -7t-8 -3h-30q-4 0 -6.5 3t-1.5 7l44 357q0 2 -1.5 3.5t-2.5 0.5l-29 -8l-3 -1q-8 0 -6 10l2 18q0 9 8 12l32 15q6 3 13 3z" />
    <glyph glyph-name="ordmasculine" unicode="&#xba;" horiz-adv-x="272" 
d="M94 386q-24 23 -24 63q0 11 1 17l17 140q5 46 36 74t78 28q44 0 68.5 -23.5t24.5 -63.5q0 -10 -1 -15l-18 -140q-5 -47 -36.5 -75t-79.5 -28q-42 0 -66 23zM206.5 424q17.5 17 20.5 44l17 134q3 27 -10 44.5t-37 17.5q-23 0 -40.5 -17.5t-20.5 -44.5l-16 -134
q-1 -4 -1 -11q0 -23 12.5 -36.5t33.5 -13.5q24 0 41.5 17zM40.5 273q-2.5 3 -1.5 7l4 28q0 4 3 7t8 3h203q5 0 7.5 -3t1.5 -7l-4 -28q0 -4 -3 -7t-8 -3h-203q-5 0 -7.5 3z" />
    <glyph glyph-name="guillemotright" unicode="&#xbb;" horiz-adv-x="458" 
d="M70.5 110.5q-1.5 3.5 2.5 8.5l121 159q2 4 1 6l-82 159q-2 4 -2 5q0 7 10 7h44q7 0 10 -6l83 -161q2 -4 2 -6q0 -5 -3 -8l-123 -161q-4 -6 -12 -6h-44q-6 0 -7.5 3.5zM214.5 110.5q-1.5 3.5 2.5 8.5l121 159q2 4 1 6l-82 159q-2 4 -2 5q0 7 10 7h44q7 0 10 -6l83 -161
q2 -4 2 -6q0 -5 -3 -8l-123 -161q-4 -6 -12 -6h-44q-6 0 -7.5 3.5z" />
    <glyph glyph-name="onequarter" unicode="&#xbc;" horiz-adv-x="643" 
d="M135 700h33q10 0 8 -10l-49 -400q0 -4 -3 -7t-8 -3h-30q-4 0 -6.5 3t-1.5 7l44 357q0 2 -1.5 3.5t-2.5 0.5l-29 -8l-3 -1q-8 0 -6 10l2 18q0 9 8 12l32 15q6 3 13 3zM46 3.5q-1 3.5 3 8.5l502 681q5 7 12 7h32q6 0 7 -3.5t-3 -8.5l-501 -681q-7 -7 -13 -7h-32
q-6 0 -7 3.5zM627.5 156q2.5 -3 1.5 -7l-3 -26q-1 -4 -4 -7t-7 -3h-13q-4 0 -4 -4l-12 -99q-1 -4 -4 -7t-7 -3h-29q-5 0 -7.5 3t-1.5 7l12 99q0 4 -3 4h-130q-9 0 -9 10l3 23q2 8 4 12l114 254q5 8 13 8h32q11 0 6 -11l-108 -245q-1 -1 0 -3t3 -2h77q2 0 3.5 1t1.5 3l10 81
q0 4 3 7t8 3h29q10 0 8 -10l-10 -81q0 -4 4 -4h12q5 0 7.5 -3z" />
    <glyph glyph-name="onehalf" unicode="&#xbd;" horiz-adv-x="645" 
d="M135 700h33q10 0 8 -10l-49 -400q0 -4 -3 -7t-8 -3h-30q-4 0 -6.5 3t-1.5 7l44 357q0 2 -1.5 3.5t-2.5 0.5l-29 -8l-3 -1q-8 0 -6 10l2 18q0 9 8 12l32 15q6 3 13 3zM46 3.5q-1 3.5 3 8.5l502 681q5 7 12 7h32q6 0 7 -3.5t-3 -8.5l-501 -681q-7 -7 -13 -7h-32
q-6 0 -7 3.5zM411.5 3q-2.5 3 -1.5 7l3 27q2 8 6 13l40 53q56 74 82 110q49 70 49 116q0 25 -10.5 38t-29.5 13q-20 0 -35 -17t-18 -44l-3 -19q0 -4 -3 -7t-8 -3h-30q-10 0 -8 10l2 21q7 48 37 76t72 28q38 0 60.5 -23t22.5 -66q0 -34 -12.5 -68t-38.5 -73q-18 -28 -70 -99
l-34 -47q-3 -5 2 -5h119q5 0 7.5 -3t1.5 -7l-3 -24q-2 -10 -11 -10h-181q-5 0 -7.5 3z" />
    <glyph glyph-name="threequarters" unicode="&#xbe;" horiz-adv-x="710" 
d="M252 438q0 -20 -2 -32q-5 -37 -15 -62q-11 -33 -37.5 -52t-61.5 -19q-39 0 -62 24.5t-23 63.5q0 13 2 35q1 10 11 10h29q9 0 9 -10q-1 -9 -1 -26q0 -24 10.5 -38t29.5 -14q33 0 50 37q8 20 13 56q3 20 3 34q0 62 -42 62q-6 0 -11 -3q-2 -1 -7 -1q-4 0 -7 3l-12 15
q-5 6 0 14l91 114q2 2 1 3.5t-3 1.5h-120q-4 0 -6.5 3t-1.5 7l3 24q2 10 11 10h171q4 0 6.5 -3t1.5 -7l-3 -27q-2 -9 -6 -13l-79 -103q-2 -1 -1.5 -2.5t2.5 -1.5q25 -4 39.5 -26t16.5 -54q1 -7 1 -23zM113 3.5q-1 3.5 3 8.5l502 681q5 7 12 7h32q6 0 7 -3.5t-3 -8.5
l-501 -681q-7 -7 -13 -7h-32q-6 0 -7 3.5zM695.5 156q2.5 -3 1.5 -7l-3 -26q-1 -4 -4 -7t-7 -3h-13q-4 0 -4 -4l-12 -99q-1 -4 -4 -7t-7 -3h-29q-5 0 -7.5 3t-1.5 7l12 99q0 4 -3 4h-130q-9 0 -9 10l3 23q2 8 4 12l114 254q5 8 13 8h32q11 0 6 -11l-108 -245q-1 -1 0 -3
t3 -2h77q2 0 3.5 1t1.5 3l10 81q0 4 3 7t8 3h29q10 0 8 -10l-10 -81q0 -4 4 -4h12q5 0 7.5 -3z" />
    <glyph glyph-name="questiondown" unicode="&#xbf;" horiz-adv-x="358" 
d="M268.5 484.5q13.5 -13.5 13.5 -34.5q0 -27 -18.5 -45.5t-43.5 -18.5q-22 0 -35 13t-13 34q0 28 18 46.5t44 18.5q21 0 34.5 -13.5zM244 290l-7 -59q-5 -43 -25 -71t-56 -60q-37 -35 -56.5 -62t-24.5 -71q-2 -16 -2 -24q0 -40 18.5 -63.5t49.5 -23.5q39 0 65.5 30.5
t33.5 81.5l3 31q2 10 11 10l49 -3q5 0 7.5 -3t1.5 -7l-4 -28q-10 -79 -58.5 -128t-117.5 -49q-60 0 -94 38.5t-34 104.5q0 11 2 33q5 44 20 76t33 52.5t46 45.5q30 27 45 46.5t18 47.5l6 55q2 10 11 10h51q10 0 8 -10z" />
    <glyph glyph-name="Agrave" unicode="&#xc0;" horiz-adv-x="397" 
d="M297 9l-9 124q0 4 -4 4h-176q-2 0 -3.5 -1t-1.5 -3l-40 -124q-3 -9 -12 -9h-49q-5 0 -7 3t0 8l229 680q2 9 11 9h59q9 0 9 -9l64 -680q0 -11 -10 -11h-50q-10 0 -10 9zM126 195h153q3 0 3 4l-29 393q0 3 -1 3t-3 -3l-126 -393q0 -4 3 -4zM296 773q0 -7 -9 -7h-31
q-6 0 -11 7l-54 109q-1 2 -1 6q0 6 8 6h41q6 0 11 -7l45 -109q1 -2 1 -5z" />
    <glyph glyph-name="Aacute" unicode="&#xc1;" horiz-adv-x="397" 
d="M297 9l-9 124q0 4 -4 4h-176q-2 0 -3.5 -1t-1.5 -3l-40 -124q-3 -9 -12 -9h-49q-5 0 -7 3t0 8l229 680q2 9 11 9h59q9 0 9 -9l64 -680q0 -11 -10 -11h-50q-10 0 -10 9zM126 195h153q3 0 3 4l-29 393q0 3 -1 3t-3 -3l-126 -393q0 -4 3 -4zM232 769.5q-2 3.5 2 8.5l74 109
q5 7 12 7h40q6 0 7 -3.5t-3 -8.5l-81 -109q-7 -7 -13 -7h-31q-5 0 -7 3.5z" />
    <glyph glyph-name="Acircumflex" unicode="&#xc2;" horiz-adv-x="397" 
d="M297 9l-9 124q0 4 -4 4h-176q-2 0 -3.5 -1t-1.5 -3l-40 -124q-3 -9 -12 -9h-49q-5 0 -7 3t0 8l229 680q2 9 11 9h59q9 0 9 -9l64 -680q0 -11 -10 -11h-50q-10 0 -10 9zM126 195h153q3 0 3 4l-29 393q0 3 -1 3t-3 -3l-126 -393q0 -4 3 -4zM167.5 775.5q-1.5 3.5 2.5 8.5
l76 103q5 7 12 7h59q6 0 10 -7l53 -103q1 -2 1 -5q0 -7 -9 -7h-42q-8 0 -11 7l-33 73q-1 2 -3 1.5t-3 -1.5l-51 -73q-7 -7 -13 -7h-42q-5 0 -6.5 3.5z" />
    <glyph glyph-name="Atilde" unicode="&#xc3;" horiz-adv-x="397" 
d="M297 9l-9 124q0 4 -4 4h-176q-2 0 -3.5 -1t-1.5 -3l-40 -124q-3 -9 -12 -9h-49q-5 0 -7 3t0 8l229 680q2 9 11 9h59q9 0 9 -9l64 -680q0 -11 -10 -11h-50q-10 0 -10 9zM126 195h153q3 0 3 4l-29 393q0 3 -1 3t-3 -3l-126 -393q0 -4 3 -4zM314 807.5q-10 5.5 -26 16.5
q-3 2 -11 8.5t-15 9t-14 2.5q-14 0 -25 -5.5t-22 -20.5q-8 -9 -14 -3l-16 13q-7 7 -2 14q32 52 80 52q25 0 54 -23q14 -12 21.5 -16.5t19.5 -4.5q25 0 45 28q2 4 6 5t8 -1l16 -12q3 -3 3 -6q0 -4 -5 -14q-17 -25 -39 -36.5t-40 -11.5q-14 0 -24 5.5z" />
    <glyph glyph-name="Adieresis" unicode="&#xc4;" horiz-adv-x="397" 
d="M297 9l-9 124q0 4 -4 4h-176q-2 0 -3.5 -1t-1.5 -3l-40 -124q-3 -9 -12 -9h-49q-5 0 -7 3t0 8l229 680q2 9 11 9h59q9 0 9 -9l64 -680q0 -11 -10 -11h-50q-10 0 -10 9zM126 195h153q3 0 3 4l-29 393q0 3 -1 3t-3 -3l-126 -393q0 -4 3 -4zM314 805.5q-13 13.5 -13 34.5
q0 28 18 46t44 18q21 0 34.5 -13t13.5 -35q0 -27 -18 -45.5t-44 -18.5q-22 0 -35 13.5zM168 805.5q-13 13.5 -13 34.5q0 28 18 46t44 18q21 0 34.5 -13t13.5 -35q0 -27 -18 -45.5t-44 -18.5q-22 0 -35 13.5z" />
    <glyph glyph-name="Aring" unicode="&#xc5;" horiz-adv-x="397" 
d="M297 9l-9 124q0 4 -4 4h-176q-2 0 -3.5 -1t-1.5 -3l-40 -124q-3 -9 -12 -9h-49q-5 0 -7 3t0 8l229 680q2 9 11 9h59q9 0 9 -9l64 -680q0 -11 -10 -11h-50q-10 0 -10 9zM126 195h153q3 0 3 4l-29 393q0 3 -1 3t-3 -3l-126 -393q0 -4 3 -4zM208.5 799.5
q-25.5 26.5 -25.5 67.5q0 32 16.5 60t43.5 45t57 17q39 0 65 -27t26 -67q0 -33 -16 -61t-43 -44.5t-58 -16.5q-40 0 -65.5 26.5zM328 838q21 22 21 53q0 24 -15.5 40t-38.5 16q-28 0 -49 -22.5t-21 -53.5q0 -24 15.5 -39.5t38.5 -15.5q28 0 49 22z" />
    <glyph glyph-name="AE" unicode="&#xc6;" horiz-adv-x="678" 
d="M696 641q-3 -3 -8 -3h-225q-4 0 -4 -4l-30 -248q-1 -1 0 -2.5t3 -1.5h142q4 0 6.5 -3t1.5 -7l-5 -43q-2 -10 -11 -10h-142q-4 0 -4 -4l-31 -249q0 -4 4 -4h225q10 0 8 -10l-5 -42q-2 -10 -11 -10h-289q-10 0 -8 10l15 123q0 4 -4 4h-185q-2 0 -4 -3l-68 -126
q-4 -8 -12 -8h-51q-5 0 -7 3.5t1 8.5l371 680q4 8 12 8h315q9 0 9 -10l-6 -42q0 -4 -3 -7zM169.5 196.5q0.5 -1.5 2.5 -1.5h159q2 0 3.5 1t1.5 3l49 392q0 3 -1.5 3t-3.5 -2l-210 -392q-1 -2 -0.5 -3.5z" />
    <glyph glyph-name="Ccedilla" unicode="&#xc7;" horiz-adv-x="432" 
d="M425 512q-3 -3 -7 -3l-51 -3q-9 0 -9 10l3 25q1 6 1 18q0 40 -22.5 63.5t-61.5 23.5q-43 0 -73 -29t-36 -76l-47 -382q-1 -6 -1 -16q0 -40 22.5 -64.5t61.5 -24.5q44 0 74 29t35 76l3 25q1 4 4 7t7 3l50 -3q5 0 7.5 -3t1.5 -7l-2 -16q-9 -70 -51 -115.5t-105 -54.5
q-5 -2 -2 -5q28 -35 28 -77q0 -20 -6 -39q-10 -32 -32.5 -45t-49.5 -13q-16 0 -28 3q-8 1 -7 11l6 22q1 4 4 6t7 2q1 -1 4 -1q18 -2 32 6t19 29q3 10 3 22q0 36 -32 76q-2 2 -5 2q-55 8 -86.5 46t-31.5 98q0 9 2 27l46 371q10 78 60.5 125t125.5 47q68 0 107.5 -39
t39.5 -106q0 -9 -2 -27l-3 -17q0 -4 -3 -7z" />
    <glyph glyph-name="Egrave" unicode="&#xc8;" horiz-adv-x="416" 
d="M434 641q-3 -3 -7 -3h-225q-2 0 -3.5 -1t-1.5 -3l-30 -248q-1 -1 0 -2.5t3 -1.5h142q10 0 8 -10l-5 -43q-2 -10 -11 -10h-142q-4 0 -4 -4l-31 -249q0 -4 4 -4h225q10 0 8 -10l-5 -42q-2 -10 -11 -10h-288q-10 0 -8 10l83 680q2 10 11 10h288q9 0 9 -10l-6 -42q0 -4 -3 -7
zM321 773q0 -7 -9 -7h-31q-6 0 -11 7l-54 109q-1 2 -1 6q0 6 8 6h41q6 0 11 -7l45 -109q1 -2 1 -5z" />
    <glyph glyph-name="Eacute" unicode="&#xc9;" horiz-adv-x="416" 
d="M434 641q-3 -3 -7 -3h-225q-2 0 -3.5 -1t-1.5 -3l-30 -248q-1 -1 0 -2.5t3 -1.5h142q10 0 8 -10l-5 -43q-2 -10 -11 -10h-142q-4 0 -4 -4l-31 -249q0 -4 4 -4h225q10 0 8 -10l-5 -42q-2 -10 -11 -10h-288q-10 0 -8 10l83 680q2 10 11 10h288q9 0 9 -10l-6 -42q0 -4 -3 -7
zM257 769.5q-2 3.5 2 8.5l74 109q5 7 12 7h40q6 0 7 -3.5t-3 -8.5l-81 -109q-7 -7 -13 -7h-31q-5 0 -7 3.5z" />
    <glyph glyph-name="Ecircumflex" unicode="&#xca;" horiz-adv-x="416" 
d="M434 641q-3 -3 -7 -3h-225q-2 0 -3.5 -1t-1.5 -3l-30 -248q-1 -1 0 -2.5t3 -1.5h142q10 0 8 -10l-5 -43q-2 -10 -11 -10h-142q-4 0 -4 -4l-31 -249q0 -4 4 -4h225q10 0 8 -10l-5 -42q-2 -10 -11 -10h-288q-10 0 -8 10l83 680q2 10 11 10h288q9 0 9 -10l-6 -42q0 -4 -3 -7
zM192.5 775.5q-1.5 3.5 2.5 8.5l76 103q5 7 12 7h59q6 0 10 -7l53 -103q1 -2 1 -5q0 -7 -9 -7h-42q-8 0 -11 7l-33 73q-1 2 -3 1.5t-3 -1.5l-51 -73q-7 -7 -13 -7h-42q-5 0 -6.5 3.5z" />
    <glyph glyph-name="Edieresis" unicode="&#xcb;" horiz-adv-x="416" 
d="M434 641q-3 -3 -7 -3h-225q-2 0 -3.5 -1t-1.5 -3l-30 -248q-1 -1 0 -2.5t3 -1.5h142q10 0 8 -10l-5 -43q-2 -10 -11 -10h-142q-4 0 -4 -4l-31 -249q0 -4 4 -4h225q10 0 8 -10l-5 -42q-2 -10 -11 -10h-288q-10 0 -8 10l83 680q2 10 11 10h288q9 0 9 -10l-6 -42q0 -4 -3 -7
zM339 805.5q-13 13.5 -13 34.5q0 28 18 46t44 18q21 0 34.5 -13t13.5 -35q0 -27 -18 -45.5t-44 -18.5q-22 0 -35 13.5zM193 805.5q-13 13.5 -13 34.5q0 28 18 46t44 18q21 0 34.5 -13t13.5 -35q0 -27 -18 -45.5t-44 -18.5q-22 0 -35 13.5z" />
    <glyph glyph-name="Igrave" unicode="&#xcc;" horiz-adv-x="208" 
d="M52 10l83 680q2 10 11 10h50q4 0 6.5 -3t1.5 -7l-83 -680q-1 -4 -4 -7t-7 -3h-50q-10 0 -8 10zM201 773q0 -7 -9 -7h-31q-6 0 -11 7l-54 109q-1 2 -1 6q0 6 8 6h41q6 0 11 -7l45 -109q1 -2 1 -5z" />
    <glyph glyph-name="Iacute" unicode="&#xcd;" horiz-adv-x="208" 
d="M52 10l83 680q2 10 11 10h50q4 0 6.5 -3t1.5 -7l-83 -680q-1 -4 -4 -7t-7 -3h-50q-10 0 -8 10zM138 769.5q-2 3.5 2 8.5l74 109q5 7 12 7h40q6 0 7 -3.5t-3 -8.5l-81 -109q-7 -7 -13 -7h-31q-5 0 -7 3.5z" />
    <glyph glyph-name="Icircumflex" unicode="&#xce;" horiz-adv-x="208" 
d="M52 10l83 680q2 10 11 10h50q4 0 6.5 -3t1.5 -7l-83 -680q-1 -4 -4 -7t-7 -3h-50q-10 0 -8 10zM72.5 775.5q-1.5 3.5 2.5 8.5l76 103q5 7 12 7h59q6 0 10 -7l53 -103q1 -2 1 -5q0 -7 -9 -7h-42q-8 0 -11 7l-33 73q-1 2 -3 1.5t-3 -1.5l-51 -73q-7 -7 -13 -7h-42
q-5 0 -6.5 3.5z" />
    <glyph glyph-name="Idieresis" unicode="&#xcf;" horiz-adv-x="208" 
d="M52 10l83 680q2 10 11 10h50q4 0 6.5 -3t1.5 -7l-83 -680q-1 -4 -4 -7t-7 -3h-50q-10 0 -8 10zM220 805.5q-13 13.5 -13 34.5q0 28 18 46t44 18q21 0 34.5 -13t13.5 -35q0 -27 -18 -45.5t-44 -18.5q-22 0 -35 13.5zM74 805.5q-13 13.5 -13 34.5q0 28 18 46t44 18
q21 0 34.5 -13t13.5 -35q0 -27 -18 -45.5t-44 -18.5q-22 0 -35 13.5z" />
    <glyph glyph-name="Eth" unicode="&#xd0;" horiz-adv-x="493" 
d="M442 659.5q38 -40.5 38 -111.5q0 -10 -2 -34l-40 -328q-10 -85 -61 -135.5t-126 -50.5h-149q-9 0 -9 10l41 329q0 4 -4 4h-28q-10 0 -8 10l3 26q2 10 11 10h28q4 0 4 4l37 297q2 10 11 10h149q67 0 105 -40.5zM408 511q2 20 2 28q0 47 -21.5 73t-59.5 26h-86q-4 0 -4 -4
l-30 -241q0 -4 4 -4h72q5 0 7.5 -3t1.5 -7l-3 -26q-2 -10 -11 -10h-73q-4 0 -4 -4l-34 -273q0 -4 4 -4l86 1q43 0 72.5 34t37.5 92z" />
    <glyph glyph-name="Ntilde" unicode="&#xd1;" horiz-adv-x="479" 
d="M410 697q3 3 8 3h48q9 0 9 -10l-84 -680q-2 -10 -11 -10h-57q-7 0 -10 8l-125 517q-1 3 -3 2.5t-2 -3.5l-62 -514q-1 -4 -4 -7t-7 -3h-50q-10 0 -8 10l83 680q2 10 11 10h56q9 0 10 -8l127 -518q0 -3 2 -2.5t3 3.5l63 515q0 4 3 7zM355 814.5q-10 5.5 -26 16.5
q-3 2 -11 8.5t-15 9t-14 2.5q-14 0 -25 -5.5t-22 -20.5q-8 -9 -14 -3l-16 13q-7 7 -2 14q32 52 80 52q25 0 54 -23q14 -12 21.5 -16.5t19.5 -4.5q25 0 45 28q2 4 6 5t8 -1l16 -12q3 -3 3 -6q0 -4 -5 -14q-17 -25 -39 -36.5t-40 -11.5q-14 0 -24 5.5z" />
    <glyph glyph-name="Ograve" unicode="&#xd2;" horiz-adv-x="442" 
d="M92 32.5q-40 40.5 -40 108.5q0 8 2 26l45 366q10 78 62.5 126.5t126.5 48.5q68 0 108.5 -40t40.5 -107q0 -8 -2 -28l-45 -366q-10 -79 -62.5 -127t-127.5 -48q-68 0 -108 40.5zM283.5 84.5q31.5 30.5 37.5 78.5l46 373q1 6 1 16q0 42 -24 68t-64 26q-43 0 -74 -30.5
t-37 -79.5l-46 -373q-1 -6 -1 -18q0 -41 23 -66t62 -25q45 0 76.5 30.5zM317 772q0 -7 -9 -7h-31q-6 0 -11 7l-54 109q-1 2 -1 6q0 6 8 6h41q6 0 11 -7l45 -109q1 -2 1 -5z" />
    <glyph glyph-name="Oacute" unicode="&#xd3;" horiz-adv-x="442" 
d="M92 32.5q-40 40.5 -40 108.5q0 8 2 26l45 366q10 78 62.5 126.5t126.5 48.5q68 0 108.5 -40t40.5 -107q0 -8 -2 -28l-45 -366q-10 -79 -62.5 -127t-127.5 -48q-68 0 -108 40.5zM283.5 84.5q31.5 30.5 37.5 78.5l46 373q1 6 1 16q0 42 -24 68t-64 26q-43 0 -74 -30.5
t-37 -79.5l-46 -373q-1 -6 -1 -18q0 -41 23 -66t62 -25q45 0 76.5 30.5zM254 768.5q-2 3.5 2 8.5l74 109q5 7 12 7h40q6 0 7 -3.5t-3 -8.5l-81 -109q-7 -7 -13 -7h-31q-5 0 -7 3.5z" />
    <glyph glyph-name="Ocircumflex" unicode="&#xd4;" horiz-adv-x="442" 
d="M92 32.5q-40 40.5 -40 108.5q0 8 2 26l45 366q10 78 62.5 126.5t126.5 48.5q68 0 108.5 -40t40.5 -107q0 -8 -2 -28l-45 -366q-10 -79 -62.5 -127t-127.5 -48q-68 0 -108 40.5zM283.5 84.5q31.5 30.5 37.5 78.5l46 373q1 6 1 16q0 42 -24 68t-64 26q-43 0 -74 -30.5
t-37 -79.5l-46 -373q-1 -6 -1 -18q0 -41 23 -66t62 -25q45 0 76.5 30.5zM189.5 774.5q-1.5 3.5 2.5 8.5l76 103q5 7 12 7h59q6 0 10 -7l53 -103q1 -2 1 -5q0 -7 -9 -7h-42q-8 0 -11 7l-33 73q-1 2 -3 1.5t-3 -1.5l-51 -73q-7 -7 -13 -7h-42q-5 0 -6.5 3.5z" />
    <glyph glyph-name="Otilde" unicode="&#xd5;" horiz-adv-x="442" 
d="M92 32.5q-40 40.5 -40 108.5q0 8 2 26l45 366q10 78 62.5 126.5t126.5 48.5q68 0 108.5 -40t40.5 -107q0 -8 -2 -28l-45 -366q-10 -79 -62.5 -127t-127.5 -48q-68 0 -108 40.5zM283.5 84.5q31.5 30.5 37.5 78.5l46 373q1 6 1 16q0 42 -24 68t-64 26q-43 0 -74 -30.5
t-37 -79.5l-46 -373q-1 -6 -1 -18q0 -41 23 -66t62 -25q45 0 76.5 30.5zM336 806.5q-10 5.5 -26 16.5q-3 2 -11 8.5t-15 9t-14 2.5q-14 0 -25 -5.5t-22 -20.5q-8 -9 -14 -3l-16 13q-7 7 -2 14q32 52 80 52q25 0 54 -23q14 -12 21.5 -16.5t19.5 -4.5q25 0 45 28q2 4 6 5t8 -1
l16 -12q3 -3 3 -6q0 -4 -5 -14q-17 -25 -39 -36.5t-40 -11.5q-14 0 -24 5.5z" />
    <glyph glyph-name="Odieresis" unicode="&#xd6;" horiz-adv-x="442" 
d="M92 32.5q-40 40.5 -40 108.5q0 8 2 26l45 366q10 78 62.5 126.5t126.5 48.5q68 0 108.5 -40t40.5 -107q0 -8 -2 -28l-45 -366q-10 -79 -62.5 -127t-127.5 -48q-68 0 -108 40.5zM283.5 84.5q31.5 30.5 37.5 78.5l46 373q1 6 1 16q0 42 -24 68t-64 26q-43 0 -74 -30.5
t-37 -79.5l-46 -373q-1 -6 -1 -18q0 -41 23 -66t62 -25q45 0 76.5 30.5zM336 804.5q-13 13.5 -13 34.5q0 28 18 46t44 18q21 0 34.5 -13t13.5 -35q0 -27 -18 -45.5t-44 -18.5q-22 0 -35 13.5zM190 804.5q-13 13.5 -13 34.5q0 28 18 46t44 18q21 0 34.5 -13t13.5 -35
q0 -27 -18 -45.5t-44 -18.5q-22 0 -35 13.5z" />
    <glyph glyph-name="multiply" unicode="&#xd7;" horiz-adv-x="359" 
d="M357 427q0 -5 -4 -9l-114 -104q-3 -3 0 -6l88 -104q2 -4 2 -5q0 -5 -4 -9l-27 -25q-4 -3 -8 -3t-6 3l-88 104q-3 3 -6 0l-113 -104q-4 -3 -8 -3t-6 3l-21 25q-3 3 -3 6q0 4 4 8l114 104q4 4 1 6l-88 104q-3 3 -3 6q0 4 4 8l28 25q3 3 7 3t6 -3l88 -104q3 -3 6 0l114 104
q3 3 7 3t7 -3l21 -25q2 -4 2 -5z" />
    <glyph glyph-name="Oslash" unicode="&#xd8;" horiz-adv-x="508" 
d="M460 701l-36 -67q-1 -3 0 -6q14 -30 14 -67q0 -8 -2 -28l-45 -366q-10 -79 -62.5 -127t-127.5 -48q-60 0 -97 31q-4 3 -6 -1l-27 -50q-1 -4 -5 -5.5t-8 0.5l-26 15q-7 4 -4 13l38 71q3 3 0 6q-13 31 -13 68q0 9 2 27l45 366q10 78 62.5 126.5t126.5 48.5q61 0 99 -32
q3 -2 6 1l26 50q6 11 13 5l25 -17q7 -4 2 -14zM127 189q0 -3 1.5 -3t3.5 2l222 416q3 3 0 5q-24 37 -73 37q-43 0 -74 -30.5t-37 -79.5zM365 512q0 3 -2 3t-3 -2l-223 -417q-1 -3 0 -6q23 -36 71 -36q45 0 76.5 30.5t37.5 78.5z" />
    <glyph glyph-name="Ugrave" unicode="&#xd9;" horiz-adv-x="462" 
d="M104 35q-39 43 -39 117q0 9 2 33l62 505q2 10 11 10h50q10 0 8 -10l-63 -513q-1 -8 -1 -23q0 -45 22 -72.5t61 -27.5q44 0 75.5 34t38.5 89l63 513q2 10 11 10h50q4 0 6.5 -3t1.5 -7l-62 -505q-10 -87 -63 -140t-128 -53q-67 0 -106 43zM328 773q0 -7 -9 -7h-31
q-6 0 -11 7l-54 109q-1 2 -1 6q0 6 8 6h41q6 0 11 -7l45 -109q1 -2 1 -5z" />
    <glyph glyph-name="Uacute" unicode="&#xda;" horiz-adv-x="462" 
d="M104 35q-39 43 -39 117q0 9 2 33l62 505q2 10 11 10h50q10 0 8 -10l-63 -513q-1 -8 -1 -23q0 -45 22 -72.5t61 -27.5q44 0 75.5 34t38.5 89l63 513q2 10 11 10h50q4 0 6.5 -3t1.5 -7l-62 -505q-10 -87 -63 -140t-128 -53q-67 0 -106 43zM264 769.5q-2 3.5 2 8.5l74 109
q5 7 12 7h40q6 0 7 -3.5t-3 -8.5l-81 -109q-7 -7 -13 -7h-31q-5 0 -7 3.5z" />
    <glyph glyph-name="Ucircumflex" unicode="&#xdb;" horiz-adv-x="462" 
d="M104 35q-39 43 -39 117q0 9 2 33l62 505q2 10 11 10h50q10 0 8 -10l-63 -513q-1 -8 -1 -23q0 -45 22 -72.5t61 -27.5q44 0 75.5 34t38.5 89l63 513q2 10 11 10h50q4 0 6.5 -3t1.5 -7l-62 -505q-10 -87 -63 -140t-128 -53q-67 0 -106 43zM199.5 775.5q-1.5 3.5 2.5 8.5
l76 103q5 7 12 7h59q6 0 10 -7l53 -103q1 -2 1 -5q0 -7 -9 -7h-42q-8 0 -11 7l-33 73q-1 2 -3 1.5t-3 -1.5l-51 -73q-7 -7 -13 -7h-42q-5 0 -6.5 3.5z" />
    <glyph glyph-name="Udieresis" unicode="&#xdc;" horiz-adv-x="462" 
d="M104 35q-39 43 -39 117q0 9 2 33l62 505q2 10 11 10h50q10 0 8 -10l-63 -513q-1 -8 -1 -23q0 -45 22 -72.5t61 -27.5q44 0 75.5 34t38.5 89l63 513q2 10 11 10h50q4 0 6.5 -3t1.5 -7l-62 -505q-10 -87 -63 -140t-128 -53q-67 0 -106 43zM346 805.5q-13 13.5 -13 34.5
q0 28 18 46t44 18q21 0 34.5 -13t13.5 -35q0 -27 -18 -45.5t-44 -18.5q-22 0 -35 13.5zM200 805.5q-13 13.5 -13 34.5q0 28 18 46t44 18q21 0 34.5 -13t13.5 -35q0 -27 -18 -45.5t-44 -18.5q-22 0 -35 13.5z" />
    <glyph glyph-name="Yacute" unicode="&#xdd;" 
d="M154 11l36 299q0 1 0.5 2.5t-0.5 2.5l-89 373v3q0 9 9 9h53q3 0 6 -2t4 -6l59 -293q1 -2 3 -2t3 2l131 293q5 8 13 8h52q5 0 6.5 -3.5t-0.5 -8.5l-179 -373q-2 -2 -2 -5l-36 -299q-1 -4 -4 -7t-7 -3h-50q-10 0 -8 10zM240 769.5q-2 3.5 2 8.5l74 109q5 7 12 7h40
q6 0 7 -3.5t-3 -8.5l-81 -109q-7 -7 -13 -7h-31q-5 0 -7 3.5z" />
    <glyph glyph-name="Thorn" unicode="&#xde;" horiz-adv-x="429" 
d="M385.5 501.5q36.5 -42.5 36.5 -114.5q0 -24 -2 -37q-10 -86 -59 -138.5t-119 -52.5h-100q-3 0 -5 -4l-17 -145q-1 -4 -4 -7t-7 -3h-50q-10 0 -8 10l83 680q2 10 11 10h50q4 0 6.5 -3t1.5 -7l-17 -142q-1 -1 0 -2.5t3 -1.5h97q63 0 99.5 -42.5zM319.5 261
q33.5 44 33.5 115q0 49 -22.5 77.5t-61.5 28.5h-88q-4 0 -4 -4l-32 -257q0 -4 4 -4h87q50 0 83.5 44z" />
    <glyph glyph-name="germandbls" unicode="&#xdf;" horiz-adv-x="417" 
d="M42.5 3q-2.5 3 -1.5 7l61 500q12 94 57 146.5t115 52.5q65 0 100.5 -41t35.5 -114q0 -10 -2 -30q-7 -56 -29.5 -94.5t-56.5 -56.5q-5 -2 0 -5q26 -17 40.5 -51t14.5 -82q0 -20 -3 -41q-11 -91 -61.5 -142.5t-129.5 -51.5h-28q-10 0 -8 10l5 41q0 4 3 7t8 3l29 1
q47 1 77 37t38 102q3 21 3 38q0 48 -18.5 74.5t-52.5 27.5h-29q-5 0 -7.5 3t-1.5 7l5 38q2 10 11 10h29q38 0 62.5 32t30.5 89q1 9 1 27q0 47 -19 73.5t-53 26.5q-38 0 -63.5 -33.5t-32.5 -94.5l-62 -509q-2 -10 -11 -10h-50q-4 0 -6.5 3z" />
    <glyph glyph-name="agrave" unicode="&#xe0;" horiz-adv-x="399" 
d="M335 506h49q9 0 9 -10l-60 -486q-2 -10 -11 -10h-49q-5 0 -7.5 3t-1.5 7l5 37q0 3 -2 3.5t-3 -2.5q-20 -28 -47 -42t-58 -14q-55 0 -84.5 33.5t-29.5 90.5q0 9 2 29l26 216q9 70 49 111.5t101 41.5q31 0 55 -14t36 -42q1 -3 3 -2.5t2 3.5l5 37q2 10 11 10zM250.5 80.5
q25.5 26.5 30.5 69.5l26 206q1 6 1 16q0 36 -19.5 58t-51.5 22q-37 0 -63.5 -26.5t-31.5 -69.5l-26 -206q-1 -6 -1 -16q0 -36 20 -58t53 -22q37 0 62.5 26.5zM273 579q0 -7 -9 -7h-31q-6 0 -11 7l-54 109q-1 2 -1 6q0 6 8 6h41q6 0 11 -7l45 -109q1 -2 1 -5z" />
    <glyph glyph-name="aacute" unicode="&#xe1;" horiz-adv-x="399" 
d="M335 506h49q9 0 9 -10l-60 -486q-2 -10 -11 -10h-49q-5 0 -7.5 3t-1.5 7l5 37q0 3 -2 3.5t-3 -2.5q-20 -28 -47 -42t-58 -14q-55 0 -84.5 33.5t-29.5 90.5q0 9 2 29l26 216q9 70 49 111.5t101 41.5q31 0 55 -14t36 -42q1 -3 3 -2.5t2 3.5l5 37q2 10 11 10zM250.5 80.5
q25.5 26.5 30.5 69.5l26 206q1 6 1 16q0 36 -19.5 58t-51.5 22q-37 0 -63.5 -26.5t-31.5 -69.5l-26 -206q-1 -6 -1 -16q0 -36 20 -58t53 -22q37 0 62.5 26.5zM210 575.5q-2 3.5 2 8.5l74 109q5 7 12 7h40q6 0 7 -3.5t-3 -8.5l-81 -109q-7 -7 -13 -7h-31q-5 0 -7 3.5z" />
    <glyph glyph-name="acircumflex" unicode="&#xe2;" horiz-adv-x="399" 
d="M335 506h49q9 0 9 -10l-60 -486q-2 -10 -11 -10h-49q-5 0 -7.5 3t-1.5 7l5 37q0 3 -2 3.5t-3 -2.5q-20 -28 -47 -42t-58 -14q-55 0 -84.5 33.5t-29.5 90.5q0 9 2 29l26 216q9 70 49 111.5t101 41.5q31 0 55 -14t36 -42q1 -3 3 -2.5t2 3.5l5 37q2 10 11 10zM250.5 80.5
q25.5 26.5 30.5 69.5l26 206q1 6 1 16q0 36 -19.5 58t-51.5 22q-37 0 -63.5 -26.5t-31.5 -69.5l-26 -206q-1 -6 -1 -16q0 -36 20 -58t53 -22q37 0 62.5 26.5zM144.5 581.5q-1.5 3.5 2.5 8.5l76 103q5 7 12 7h59q6 0 10 -7l53 -103q1 -2 1 -5q0 -7 -9 -7h-42q-8 0 -11 7
l-33 73q-1 2 -3 1.5t-3 -1.5l-51 -73q-7 -7 -13 -7h-42q-5 0 -6.5 3.5z" />
    <glyph glyph-name="atilde" unicode="&#xe3;" horiz-adv-x="399" 
d="M335 506h49q9 0 9 -10l-60 -486q-2 -10 -11 -10h-49q-5 0 -7.5 3t-1.5 7l5 37q0 3 -2 3.5t-3 -2.5q-20 -28 -47 -42t-58 -14q-55 0 -84.5 33.5t-29.5 90.5q0 9 2 29l26 216q9 70 49 111.5t101 41.5q31 0 55 -14t36 -42q1 -3 3 -2.5t2 3.5l5 37q2 10 11 10zM250.5 80.5
q25.5 26.5 30.5 69.5l26 206q1 6 1 16q0 36 -19.5 58t-51.5 22q-37 0 -63.5 -26.5t-31.5 -69.5l-26 -206q-1 -6 -1 -16q0 -36 20 -58t53 -22q37 0 62.5 26.5zM291 613.5q-10 5.5 -26 16.5q-3 2 -11 8.5t-15 9t-14 2.5q-14 0 -25 -5.5t-22 -20.5q-8 -9 -14 -3l-16 13
q-7 7 -2 14q32 52 80 52q25 0 54 -23q14 -12 21.5 -16.5t19.5 -4.5q25 0 45 28q2 4 6 5t8 -1l16 -12q3 -3 3 -6q0 -4 -5 -14q-17 -25 -39 -36.5t-40 -11.5q-14 0 -24 5.5z" />
    <glyph glyph-name="adieresis" unicode="&#xe4;" horiz-adv-x="399" 
d="M335 506h49q9 0 9 -10l-60 -486q-2 -10 -11 -10h-49q-5 0 -7.5 3t-1.5 7l5 37q0 3 -2 3.5t-3 -2.5q-20 -28 -47 -42t-58 -14q-55 0 -84.5 33.5t-29.5 90.5q0 9 2 29l26 216q9 70 49 111.5t101 41.5q31 0 55 -14t36 -42q1 -3 3 -2.5t2 3.5l5 37q2 10 11 10zM250.5 80.5
q25.5 26.5 30.5 69.5l26 206q1 6 1 16q0 36 -19.5 58t-51.5 22q-37 0 -63.5 -26.5t-31.5 -69.5l-26 -206q-1 -6 -1 -16q0 -36 20 -58t53 -22q37 0 62.5 26.5zM292 611.5q-13 13.5 -13 34.5q0 28 18 46t44 18q21 0 34.5 -13t13.5 -35q0 -27 -18 -45.5t-44 -18.5
q-22 0 -35 13.5zM146 611.5q-13 13.5 -13 34.5q0 28 18 46t44 18q21 0 34.5 -13t13.5 -35q0 -27 -18 -45.5t-44 -18.5q-22 0 -35 13.5z" />
    <glyph glyph-name="aring" unicode="&#xe5;" horiz-adv-x="399" 
d="M335 506h49q9 0 9 -10l-60 -486q-2 -10 -11 -10h-49q-5 0 -7.5 3t-1.5 7l5 37q0 3 -2 3.5t-3 -2.5q-20 -28 -47 -42t-58 -14q-55 0 -84.5 33.5t-29.5 90.5q0 9 2 29l26 216q9 70 49 111.5t101 41.5q31 0 55 -14t36 -42q1 -3 3 -2.5t2 3.5l5 37q2 10 11 10zM250.5 80.5
q25.5 26.5 30.5 69.5l26 206q1 6 1 16q0 36 -19.5 58t-51.5 22q-37 0 -63.5 -26.5t-31.5 -69.5l-26 -206q-1 -6 -1 -16q0 -36 20 -58t53 -22q37 0 62.5 26.5zM186.5 605.5q-25.5 26.5 -25.5 67.5q0 32 16.5 60t43.5 45t57 17q39 0 65 -27t26 -67q0 -33 -16 -61t-43 -44.5
t-58 -16.5q-40 0 -65.5 26.5zM306 644q21 22 21 53q0 24 -15.5 40t-38.5 16q-28 0 -49 -22.5t-21 -53.5q0 -24 15.5 -39.5t38.5 -15.5q28 0 49 22z" />
    <glyph glyph-name="ae" unicode="&#xe6;" horiz-adv-x="633" 
d="M34 103q0 9 2 31q10 84 58 119.5t126 35.5h74q1 0 2.5 1t1.5 3l6 49q2 18 2 24q0 40 -18 63t-53 23q-31 0 -57 -19.5t-33 -51.5q-3 -10 -12 -10l-49 3q-10 0 -8 10q12 59 58.5 94.5t107.5 35.5q78 0 106 -68q2 -5 5 0q22 32 56 50t74 18q61 0 97 -35.5t36 -94.5
q0 -15 -1 -23l-15 -122q-2 -10 -11 -10h-222q-3 0 -5 -4l-9 -76q-1 -4 -1 -13q0 -34 20 -56t53 -22q30 0 54.5 19t35.5 48q5 9 12 8l47 -5q5 -1 7 -4t1 -7q-16 -58 -58 -91.5t-102 -33.5q-47 0 -78.5 21.5t-38.5 53.5q-2 5 -3 2q-18 -35 -60 -56t-94 -21q-114 0 -114 111z
M371 290.5q1 -1.5 3 -1.5h159q4 0 4 4l8 63q1 6 1 16q0 36 -19.5 58t-52.5 22q-37 0 -64 -26.5t-32 -69.5l-7 -63q-1 -1 0 -2.5zM242.5 75q31.5 25 37.5 70l9 79q1 1 0 2.5t-3 1.5h-68q-51 0 -82 -27t-31 -82q0 -35 18 -52t49 -17q39 0 70.5 25z" />
    <glyph glyph-name="ccedilla" unicode="&#xe7;" horiz-adv-x="390" 
d="M375 358q-3 -3 -7 -3l-50 -2q-9 0 -9 10l1 7q1 4 1 11q0 30 -20.5 50.5t-54.5 20.5q-37 0 -63 -26.5t-31 -69.5l-26 -206q-1 -6 -1 -16q0 -36 20 -58t52 -22q36 0 63 24.5t32 57.5v7q2 10 11 10l50 -1q4 0 6.5 -3t1.5 -7l-1 -11q-7 -52 -44.5 -89.5t-94.5 -46.5
q-5 -2 -3 -5q30 -37 30 -79q0 -19 -6 -37q-10 -32 -32.5 -45t-50.5 -13q-16 0 -29 3q-8 2 -5 11l6 22q2 8 10 8q1 -1 4 -1q40 -5 52 35q3 10 3 21q0 35 -33 77l-4 2q-51 7 -79.5 40.5t-28.5 86.5q0 8 2 24l26 216q8 68 55 110.5t116 42.5q63 0 100 -35t37 -87q0 -11 -1 -17
l-2 -10q0 -4 -3 -7z" />
    <glyph glyph-name="egrave" unicode="&#xe8;" horiz-adv-x="396" 
d="M351 226h-221q-2 0 -3.5 -1t-1.5 -3l-9 -73q-1 -5 -1 -16q0 -35 20 -57t52 -22q31 0 55 19.5t35 50.5q5 9 12 9l48 -2q4 0 6.5 -3t0.5 -8q-14 -59 -57.5 -93.5t-107.5 -34.5q-62 0 -97.5 35t-35.5 94q0 16 1 24l26 216q8 68 55 110.5t116 42.5q63 0 99 -35t36 -94
q0 -8 -2 -24l-15 -125q-2 -10 -11 -10zM173 425.5q-26 -26.5 -31 -69.5l-9 -67q0 -4 4 -4h159q4 0 4 4l9 67q1 6 1 16q0 36 -20 58t-54 22q-37 0 -63 -26.5zM271 579q0 -7 -9 -7h-31q-6 0 -11 7l-54 109q-1 2 -1 6q0 6 8 6h41q6 0 11 -7l45 -109q1 -2 1 -5z" />
    <glyph glyph-name="eacute" unicode="&#xe9;" horiz-adv-x="396" 
d="M351 226h-221q-2 0 -3.5 -1t-1.5 -3l-9 -73q-1 -5 -1 -16q0 -35 20 -57t52 -22q31 0 55 19.5t35 50.5q5 9 12 9l48 -2q4 0 6.5 -3t0.5 -8q-14 -59 -57.5 -93.5t-107.5 -34.5q-62 0 -97.5 35t-35.5 94q0 16 1 24l26 216q8 68 55 110.5t116 42.5q63 0 99 -35t36 -94
q0 -8 -2 -24l-15 -125q-2 -10 -11 -10zM173 425.5q-26 -26.5 -31 -69.5l-9 -67q0 -4 4 -4h159q4 0 4 4l9 67q1 6 1 16q0 36 -20 58t-54 22q-37 0 -63 -26.5zM208 575.5q-2 3.5 2 8.5l74 109q5 7 12 7h40q6 0 7 -3.5t-3 -8.5l-81 -109q-7 -7 -13 -7h-31q-5 0 -7 3.5z" />
    <glyph glyph-name="ecircumflex" unicode="&#xea;" horiz-adv-x="396" 
d="M351 226h-221q-2 0 -3.5 -1t-1.5 -3l-9 -73q-1 -5 -1 -16q0 -35 20 -57t52 -22q31 0 55 19.5t35 50.5q5 9 12 9l48 -2q4 0 6.5 -3t0.5 -8q-14 -59 -57.5 -93.5t-107.5 -34.5q-62 0 -97.5 35t-35.5 94q0 16 1 24l26 216q8 68 55 110.5t116 42.5q63 0 99 -35t36 -94
q0 -8 -2 -24l-15 -125q-2 -10 -11 -10zM173 425.5q-26 -26.5 -31 -69.5l-9 -67q0 -4 4 -4h159q4 0 4 4l9 67q1 6 1 16q0 36 -20 58t-54 22q-37 0 -63 -26.5zM142.5 581.5q-1.5 3.5 2.5 8.5l76 103q5 7 12 7h59q6 0 10 -7l53 -103q1 -2 1 -5q0 -7 -9 -7h-42q-8 0 -11 7
l-33 73q-1 2 -3 1.5t-3 -1.5l-51 -73q-7 -7 -13 -7h-42q-5 0 -6.5 3.5z" />
    <glyph glyph-name="edieresis" unicode="&#xeb;" horiz-adv-x="396" 
d="M351 226h-221q-2 0 -3.5 -1t-1.5 -3l-9 -73q-1 -5 -1 -16q0 -35 20 -57t52 -22q31 0 55 19.5t35 50.5q5 9 12 9l48 -2q4 0 6.5 -3t0.5 -8q-14 -59 -57.5 -93.5t-107.5 -34.5q-62 0 -97.5 35t-35.5 94q0 16 1 24l26 216q8 68 55 110.5t116 42.5q63 0 99 -35t36 -94
q0 -8 -2 -24l-15 -125q-2 -10 -11 -10zM173 425.5q-26 -26.5 -31 -69.5l-9 -67q0 -4 4 -4h159q4 0 4 4l9 67q1 6 1 16q0 36 -20 58t-54 22q-37 0 -63 -26.5zM290 611.5q-13 13.5 -13 34.5q0 28 18 46t44 18q21 0 34.5 -13t13.5 -35q0 -27 -18 -45.5t-44 -18.5
q-22 0 -35 13.5zM144 611.5q-13 13.5 -13 34.5q0 28 18 46t44 18q21 0 34.5 -13t13.5 -35q0 -27 -18 -45.5t-44 -18.5q-22 0 -35 13.5z" />
    <glyph glyph-name="igrave" unicode="&#xec;" horiz-adv-x="164" 
d="M29 10l60 486q2 10 11 10h49q5 0 7.5 -3t1.5 -7l-60 -486q-2 -10 -11 -10h-49q-9 0 -9 10zM155 579q0 -7 -9 -7h-31q-6 0 -11 7l-54 109q-1 2 -1 6q0 6 8 6h41q6 0 11 -7l45 -109q1 -2 1 -5z" />
    <glyph glyph-name="iacute" unicode="&#xed;" horiz-adv-x="164" 
d="M29 10l60 486q2 10 11 10h49q5 0 7.5 -3t1.5 -7l-60 -486q-2 -10 -11 -10h-49q-9 0 -9 10zM92 575.5q-2 3.5 2 8.5l74 109q5 7 12 7h40q6 0 7 -3.5t-3 -8.5l-81 -109q-7 -7 -13 -7h-31q-5 0 -7 3.5z" />
    <glyph glyph-name="icircumflex" unicode="&#xee;" horiz-adv-x="164" 
d="M29 10l60 486q2 10 11 10h49q5 0 7.5 -3t1.5 -7l-60 -486q-2 -10 -11 -10h-49q-9 0 -9 10zM26.5 581.5q-1.5 3.5 2.5 8.5l76 103q5 7 12 7h59q6 0 10 -7l53 -103q1 -2 1 -5q0 -7 -9 -7h-42q-8 0 -11 7l-33 73q-1 2 -3 1.5t-3 -1.5l-51 -73q-7 -7 -13 -7h-42
q-5 0 -6.5 3.5z" />
    <glyph glyph-name="idieresis" unicode="&#xef;" horiz-adv-x="164" 
d="M29 10l60 486q2 10 11 10h49q5 0 7.5 -3t1.5 -7l-60 -486q-2 -10 -11 -10h-49q-9 0 -9 10zM174 611.5q-13 13.5 -13 34.5q0 28 18 46t44 18q21 0 34.5 -13t13.5 -35q0 -27 -18 -45.5t-44 -18.5q-22 0 -35 13.5zM28 611.5q-13 13.5 -13 34.5q0 28 18 46t44 18
q21 0 34.5 -13t13.5 -35q0 -27 -18 -45.5t-44 -18.5q-22 0 -35 13.5z" />
    <glyph glyph-name="eth" unicode="&#xf0;" horiz-adv-x="419" 
d="M418 618l-69 -20q-3 -2 -2 -5q34 -78 34 -179q0 -30 -3 -65l-26 -204q-8 -69 -55 -111t-117 -42q-63 0 -98.5 35t-35.5 94q0 16 1 24l25 204q8 67 53.5 110t107.5 43q28 0 46.5 -9t31.5 -25q3 -2 4 2q-3 50 -26 107q-2 3 -5 2l-74 -21l-4 -1q-6 0 -8 8l-2 16v2q0 7 9 11
l61 18q4 2 3 5q-23 42 -46 71q-2 2 -2 5q0 7 9 7h45q6 0 11 -6q25 -32 40 -61q2 -4 5 -2l82 24l4 1q5 0 7 -8l3 -18q0 -9 -9 -12zM309 360q0 36 -20 58t-54 22q-37 0 -63.5 -26.5t-31.5 -69.5l-24 -194q-1 -6 -1 -16q0 -36 20 -58t53 -22q37 0 64 26.5t32 69.5l24 194
q1 6 1 16z" />
    <glyph glyph-name="ntilde" unicode="&#xf1;" 
d="M217.5 644.5q-9.5 -5.5 -19.5 -19.5q-8 -9 -14 -3l-13 12q-7 5 -2 13q29 53 71 53q14 0 24.5 -6t22.5 -17q2 -2 9 -8t13.5 -9.5t13.5 -3.5q11 0 20 6t19 21q3 5 7 6t7 -2l14 -11q6 -5 1 -13q-16 -29 -36.5 -42t-38.5 -13q-11 0 -20.5 5.5t-22.5 16.5q-3 3 -10 9
t-12.5 8.5t-11.5 2.5q-12 0 -21.5 -5.5zM356.5 481q27.5 -32 27.5 -92q0 -11 -2 -35l-42 -344q-2 -10 -11 -10h-50q-4 0 -6.5 3t-1.5 7l41 338q2 16 2 23q0 38 -17.5 59t-50.5 21q-38 0 -63.5 -29t-31.5 -79l-41 -333q-2 -10 -11 -10h-50q-4 0 -6.5 3t-1.5 7l60 486q0 4 3 7
t8 3h49q9 0 9 -10l-4 -32q-1 -2 1 -3t4 2q20 25 47.5 37.5t58.5 12.5q52 0 79.5 -32z" />
    <glyph glyph-name="ograve" unicode="&#xf2;" horiz-adv-x="402" 
d="M81.5 27q-35.5 35 -35.5 94q0 16 1 24l26 215q8 68 55 111t117 43q63 0 99 -35.5t36 -94.5q0 -16 -1 -24l-27 -215q-8 -69 -55 -111t-117 -42q-63 0 -98.5 35zM252.5 81q26.5 26 31.5 69l25 206q1 6 1 16q0 36 -20 58t-53 22q-37 0 -63.5 -26.5t-31.5 -69.5l-26 -206
q-1 -6 -1 -16q0 -36 20 -57.5t53 -21.5q38 0 64.5 26zM274 579q0 -7 -9 -7h-31q-6 0 -11 7l-54 109q-1 2 -1 6q0 6 8 6h41q6 0 11 -7l45 -109q1 -2 1 -5z" />
    <glyph glyph-name="oacute" unicode="&#xf3;" horiz-adv-x="402" 
d="M81.5 27q-35.5 35 -35.5 94q0 16 1 24l26 215q8 68 55 111t117 43q63 0 99 -35.5t36 -94.5q0 -16 -1 -24l-27 -215q-8 -69 -55 -111t-117 -42q-63 0 -98.5 35zM252.5 81q26.5 26 31.5 69l25 206q1 6 1 16q0 36 -20 58t-53 22q-37 0 -63.5 -26.5t-31.5 -69.5l-26 -206
q-1 -6 -1 -16q0 -36 20 -57.5t53 -21.5q38 0 64.5 26zM211 575.5q-2 3.5 2 8.5l74 109q5 7 12 7h40q6 0 7 -3.5t-3 -8.5l-81 -109q-7 -7 -13 -7h-31q-5 0 -7 3.5z" />
    <glyph glyph-name="ocircumflex" unicode="&#xf4;" horiz-adv-x="402" 
d="M81.5 27q-35.5 35 -35.5 94q0 16 1 24l26 215q8 68 55 111t117 43q63 0 99 -35.5t36 -94.5q0 -16 -1 -24l-27 -215q-8 -69 -55 -111t-117 -42q-63 0 -98.5 35zM252.5 81q26.5 26 31.5 69l25 206q1 6 1 16q0 36 -20 58t-53 22q-37 0 -63.5 -26.5t-31.5 -69.5l-26 -206
q-1 -6 -1 -16q0 -36 20 -57.5t53 -21.5q38 0 64.5 26zM145.5 581.5q-1.5 3.5 2.5 8.5l76 103q5 7 12 7h59q6 0 10 -7l53 -103q1 -2 1 -5q0 -7 -9 -7h-42q-8 0 -11 7l-33 73q-1 2 -3 1.5t-3 -1.5l-51 -73q-7 -7 -13 -7h-42q-5 0 -6.5 3.5z" />
    <glyph glyph-name="otilde" unicode="&#xf5;" horiz-adv-x="402" 
d="M81.5 27q-35.5 35 -35.5 94q0 16 1 24l26 215q8 68 55 111t117 43q63 0 99 -35.5t36 -94.5q0 -16 -1 -24l-27 -215q-8 -69 -55 -111t-117 -42q-63 0 -98.5 35zM252.5 81q26.5 26 31.5 69l25 206q1 6 1 16q0 36 -20 58t-53 22q-37 0 -63.5 -26.5t-31.5 -69.5l-26 -206
q-1 -6 -1 -16q0 -36 20 -57.5t53 -21.5q38 0 64.5 26zM292 613.5q-10 5.5 -26 16.5q-3 2 -11 8.5t-15 9t-14 2.5q-14 0 -25 -5.5t-22 -20.5q-8 -9 -14 -3l-16 13q-7 7 -2 14q32 52 80 52q25 0 54 -23q14 -12 21.5 -16.5t19.5 -4.5q25 0 45 28q2 4 6 5t8 -1l16 -12q3 -3 3 -6
q0 -4 -5 -14q-17 -25 -39 -36.5t-40 -11.5q-14 0 -24 5.5z" />
    <glyph glyph-name="odieresis" unicode="&#xf6;" horiz-adv-x="402" 
d="M81.5 27q-35.5 35 -35.5 94q0 16 1 24l26 215q8 68 55 111t117 43q63 0 99 -35.5t36 -94.5q0 -16 -1 -24l-27 -215q-8 -69 -55 -111t-117 -42q-63 0 -98.5 35zM252.5 81q26.5 26 31.5 69l25 206q1 6 1 16q0 36 -20 58t-53 22q-37 0 -63.5 -26.5t-31.5 -69.5l-26 -206
q-1 -6 -1 -16q0 -36 20 -57.5t53 -21.5q38 0 64.5 26zM293 611.5q-13 13.5 -13 34.5q0 28 18 46t44 18q21 0 34.5 -13t13.5 -35q0 -27 -18 -45.5t-44 -18.5q-22 0 -35 13.5zM147 611.5q-13 13.5 -13 34.5q0 28 18 46t44 18q21 0 34.5 -13t13.5 -35q0 -27 -18 -45.5
t-44 -18.5q-22 0 -35 13.5z" />
    <glyph glyph-name="divide" unicode="&#xf7;" horiz-adv-x="428" 
d="M214.5 439q-12.5 13 -12.5 33q0 24 17.5 41t39.5 17q20 0 32.5 -12.5t12.5 -32.5q0 -24 -17.5 -41.5t-40.5 -17.5q-19 0 -31.5 13zM49 308l5 35q0 4 3 7t8 3h347q10 0 8 -10l-4 -35q-2 -10 -11 -10h-347q-9 0 -9 10zM177 136q-13 13 -13 32q0 23 18 41t40 18
q19 0 32 -13.5t13 -32.5q0 -24 -17.5 -41t-40.5 -17q-19 0 -32 13z" />
    <glyph glyph-name="oslash" unicode="&#xf8;" horiz-adv-x="417" 
d="M399 522l-35 -62q-1 -3 0 -6q17 -31 17 -72q0 -14 -1 -22l-27 -215q-8 -69 -55 -111t-116 -42q-40 0 -67 13q-5 2 -6 -2l-25 -45q-5 -10 -13 -5l-32 19q-6 4 -2 14l31 54q1 1 0.5 3l-0.5 2q-22 33 -22 76q0 8 2 24l26 215q8 68 55.5 111t116.5 43q43 0 71 -16q5 -2 6 2
l29 51q6 11 13 5l32 -20q6 -4 2 -14zM117 138q-1 -3 1 -2.5t4 2.5l164 294q1 3 -1 5q-18 15 -46 15q-37 0 -64 -26.5t-32 -69.5l-26 -206v-12zM309 357q-2 0 -4 -2l-157 -284q-1 -4 1 -5q17 -11 41 -11q38 0 64 26t31 69l25 204q1 3 -1 3z" />
    <glyph glyph-name="ugrave" unicode="&#xf9;" 
d="M328 503q3 3 8 3h49q9 0 9 -10l-60 -486q-2 -10 -11 -10h-49q-5 0 -7.5 3t-1.5 7l4 34q1 3 -0.5 3t-3.5 -2q-37 -52 -104 -52q-52 0 -81.5 29t-29.5 88q0 8 2 30l44 356q2 10 11 10h49q9 0 9 -10l-42 -340q-2 -18 -2 -24q0 -77 67 -77q39 0 64.5 29t31.5 79l41 333
q0 4 3 7zM276 579q0 -7 -9 -7h-31q-6 0 -11 7l-54 109q-1 2 -1 6q0 6 8 6h41q6 0 11 -7l45 -109q1 -2 1 -5z" />
    <glyph glyph-name="uacute" unicode="&#xfa;" 
d="M328 503q3 3 8 3h49q9 0 9 -10l-60 -486q-2 -10 -11 -10h-49q-5 0 -7.5 3t-1.5 7l4 34q1 3 -0.5 3t-3.5 -2q-37 -52 -104 -52q-52 0 -81.5 29t-29.5 88q0 8 2 30l44 356q2 10 11 10h49q9 0 9 -10l-42 -340q-2 -18 -2 -24q0 -77 67 -77q39 0 64.5 29t31.5 79l41 333
q0 4 3 7zM212 575.5q-2 3.5 2 8.5l74 109q5 7 12 7h40q6 0 7 -3.5t-3 -8.5l-81 -109q-7 -7 -13 -7h-31q-5 0 -7 3.5z" />
    <glyph glyph-name="ucircumflex" unicode="&#xfb;" 
d="M328 503q3 3 8 3h49q9 0 9 -10l-60 -486q-2 -10 -11 -10h-49q-5 0 -7.5 3t-1.5 7l4 34q1 3 -0.5 3t-3.5 -2q-37 -52 -104 -52q-52 0 -81.5 29t-29.5 88q0 8 2 30l44 356q2 10 11 10h49q9 0 9 -10l-42 -340q-2 -18 -2 -24q0 -77 67 -77q39 0 64.5 29t31.5 79l41 333
q0 4 3 7zM147.5 581.5q-1.5 3.5 2.5 8.5l76 103q5 7 12 7h59q6 0 10 -7l53 -103q1 -2 1 -5q0 -7 -9 -7h-42q-8 0 -11 7l-33 73q-1 2 -3 1.5t-3 -1.5l-51 -73q-7 -7 -13 -7h-42q-5 0 -6.5 3.5z" />
    <glyph glyph-name="udieresis" unicode="&#xfc;" 
d="M328 503q3 3 8 3h49q9 0 9 -10l-60 -486q-2 -10 -11 -10h-49q-5 0 -7.5 3t-1.5 7l4 34q1 3 -0.5 3t-3.5 -2q-37 -52 -104 -52q-52 0 -81.5 29t-29.5 88q0 8 2 30l44 356q2 10 11 10h49q9 0 9 -10l-42 -340q-2 -18 -2 -24q0 -77 67 -77q39 0 64.5 29t31.5 79l41 333
q0 4 3 7zM294 611.5q-13 13.5 -13 34.5q0 28 18 46t44 18q21 0 34.5 -13t13.5 -35q0 -27 -18 -45.5t-44 -18.5q-22 0 -35 13.5zM148 611.5q-13 13.5 -13 34.5q0 28 18 46t44 18q21 0 34.5 -13t13.5 -35q0 -27 -18 -45.5t-44 -18.5q-22 0 -35 13.5z" />
    <glyph glyph-name="yacute" unicode="&#xfd;" horiz-adv-x="356" 
d="M-5 -197q-2 3 -1 7l5 40q2 10 11 10q30 1 48 12t32.5 39t32.5 86q1 1 0.5 3t0.5 3l-63 492v2q0 9 10 9h52q10 0 10 -9l37 -393q0 -3 1.5 -3t2.5 3l132 393q3 9 12 9l54 -1q5 0 7 -3t0 -8l-201 -538q-26 -67 -47 -99t-49.5 -44.5t-77.5 -12.5h-5q-2 0 -4 3zM188 575.5
q-2 3.5 2 8.5l74 109q5 7 12 7h40q6 0 7 -3.5t-3 -8.5l-81 -109q-7 -7 -13 -7h-31q-5 0 -7 3.5z" />
    <glyph glyph-name="thorn" unicode="&#xfe;" horiz-adv-x="405" 
d="M354 480.5q30 -33.5 30 -91.5q0 -8 -2 -28l-27 -216q-8 -69 -48 -111t-101 -42q-31 0 -55.5 14t-36.5 42q-1 3 -3 2.5t-2 -3.5l-30 -237q0 -4 -3 -7t-7 -3h-50q-10 0 -8 10l108 880q0 4 3 7t8 3h49q9 0 9 -10l-29 -233q-1 -3 1 -3t4 3q20 28 47.5 42.5t58.5 14.5
q54 0 84 -33.5zM313 372q0 36 -20 58t-53 22q-36 0 -61.5 -26.5t-30.5 -69.5l-26 -206q-1 -6 -1 -17q0 -36 19 -57.5t51 -21.5q37 0 64 26.5t32 69.5l25 206q1 6 1 16z" />
    <glyph glyph-name="ydieresis" unicode="&#xff;" horiz-adv-x="356" 
d="M-5 -197q-2 3 -1 7l5 40q2 10 11 10q30 1 48 12t32.5 39t32.5 86q1 1 0.5 3t0.5 3l-63 492v2q0 9 10 9h52q10 0 10 -9l37 -393q0 -3 1.5 -3t2.5 3l132 393q3 9 12 9l54 -1q5 0 7 -3t0 -8l-201 -538q-26 -67 -47 -99t-49.5 -44.5t-77.5 -12.5h-5q-2 0 -4 3zM270 611.5
q-13 13.5 -13 34.5q0 28 18 46t44 18q21 0 34.5 -13t13.5 -35q0 -27 -18 -45.5t-44 -18.5q-22 0 -35 13.5zM124 611.5q-13 13.5 -13 34.5q0 28 18 46t44 18q21 0 34.5 -13t13.5 -35q0 -27 -18 -45.5t-44 -18.5q-22 0 -35 13.5z" />
    <glyph glyph-name="Amacron" unicode="&#x100;" horiz-adv-x="397" 
d="M297 9l-9 124q0 4 -4 4h-176q-2 0 -3.5 -1t-1.5 -3l-40 -124q-3 -9 -12 -9h-49q-5 0 -7 3t0 8l229 680q2 9 11 9h59q9 0 9 -9l64 -680q0 -11 -10 -11h-50q-10 0 -10 9zM126 195h153q3 0 3 4l-29 393q0 3 -1 3t-3 -3l-126 -393q0 -4 3 -4zM178 799l4 32q0 4 3 7t7 3h178
q10 0 8 -10l-3 -32q-1 -4 -4 -7t-7 -3h-178q-10 0 -8 10z" />
    <glyph glyph-name="amacron" unicode="&#x101;" horiz-adv-x="399" 
d="M335 506h49q9 0 9 -10l-60 -486q-2 -10 -11 -10h-49q-5 0 -7.5 3t-1.5 7l5 37q0 3 -2 3.5t-3 -2.5q-20 -28 -47 -42t-58 -14q-55 0 -84.5 33.5t-29.5 90.5q0 9 2 29l26 216q9 70 49 111.5t101 41.5q31 0 55 -14t36 -42q1 -3 3 -2.5t2 3.5l5 37q2 10 11 10zM250.5 80.5
q25.5 26.5 30.5 69.5l26 206q1 6 1 16q0 36 -19.5 58t-51.5 22q-37 0 -63.5 -26.5t-31.5 -69.5l-26 -206q-1 -6 -1 -16q0 -36 20 -58t53 -22q37 0 62.5 26.5zM155 605l4 32q0 4 3 7t7 3h178q10 0 8 -10l-3 -32q-1 -4 -4 -7t-7 -3h-178q-10 0 -8 10z" />
    <glyph glyph-name="Abreve" unicode="&#x102;" horiz-adv-x="397" 
d="M297 9l-9 124q0 4 -4 4h-176q-2 0 -3.5 -1t-1.5 -3l-40 -124q-3 -9 -12 -9h-49q-5 0 -7 3t0 8l229 680q2 9 11 9h59q9 0 9 -9l64 -680q0 -11 -10 -11h-50q-10 0 -10 9zM126 195h153q3 0 3 4l-29 393q0 3 -1 3t-3 -3l-126 -393q0 -4 3 -4zM204.5 779q-25.5 27 -23.5 68
q2 10 11 10h22q9 0 9 -8q0 -26 14.5 -42.5t38.5 -16.5q23 0 41.5 16t24.5 41q3 10 12 10h22q5 0 7 -3t1 -7q-8 -42 -39.5 -68.5t-73.5 -26.5q-41 0 -66.5 27z" />
    <glyph glyph-name="abreve" unicode="&#x103;" horiz-adv-x="399" 
d="M335 506h49q9 0 9 -10l-60 -486q-2 -10 -11 -10h-49q-5 0 -7.5 3t-1.5 7l5 37q0 3 -2 3.5t-3 -2.5q-20 -28 -47 -42t-58 -14q-55 0 -84.5 33.5t-29.5 90.5q0 9 2 29l26 216q9 70 49 111.5t101 41.5q31 0 55 -14t36 -42q1 -3 3 -2.5t2 3.5l5 37q2 10 11 10zM250.5 80.5
q25.5 26.5 30.5 69.5l26 206q1 6 1 16q0 36 -19.5 58t-51.5 22q-37 0 -63.5 -26.5t-31.5 -69.5l-26 -206q-1 -6 -1 -16q0 -36 20 -58t53 -22q37 0 62.5 26.5zM181.5 585q-25.5 27 -23.5 68q2 10 11 10h22q9 0 9 -8q0 -26 14.5 -42.5t38.5 -16.5q23 0 41.5 16t24.5 41
q3 10 12 10h22q5 0 7 -3t1 -7q-8 -42 -39.5 -68.5t-73.5 -26.5q-41 0 -66.5 27z" />
    <glyph glyph-name="Aogonek" unicode="&#x104;" horiz-adv-x="397" 
d="M297 9l-9 124q0 4 -4 4h-176q-2 0 -3.5 -1t-1.5 -3l-40 -124q-3 -9 -12 -9h-49q-5 0 -7 3t0 8l229 680q2 9 11 9h59q9 0 9 -9l64 -680q0 -11 -10 -11h-50q-10 0 -10 9zM126 195h153q3 0 3 4l-29 393q0 3 -1 3t-3 -3l-126 -393q0 -4 3 -4zM351 -182q-13 -3 -29 -3
q-68 0 -68 68q0 28 13.5 56.5t42.5 53.5q4 3 4 4q5 3 11 3h26q8 0 8 -5q0 -4 -4 -7q-24 -22 -38 -46.5t-14 -47.5q1 -37 35 -37q6 0 10 1l4 1q7 0 7 -8v-21q0 -9 -8 -12z" />
    <glyph glyph-name="aogonek" unicode="&#x105;" horiz-adv-x="426" 
d="M325 -141q9 0 9 -8v-21q0 -9 -9 -12q-13 -3 -29 -3q-29 0 -48.5 15.5t-19.5 52.5q0 62 58 112q2 2 1.5 3.5t-2.5 1.5h-2q-10 0 -8 10l4 37q1 3 -1 3.5t-3 -2.5q-20 -28 -47 -42t-58 -14q-55 0 -84.5 33t-29.5 89q0 9 2 31l26 216q8 70 48 111.5t102 41.5q31 0 55 -14
t36 -42q1 -3 2.5 -2.5t2.5 3.5l4 37q1 4 4 7t7 3h50q10 0 8 -10l-60 -489q0 -5 -7 -12q-27 -23 -43 -49.5t-15 -51.5q0 -22 12 -30t31 -6q3 0 4 1zM261 80.5q26 26.5 31 69.5l25 206q1 6 1 17q0 36 -19 57.5t-51 21.5q-37 0 -64 -26.5t-32 -69.5l-25 -206q-1 -6 -1 -16
q0 -36 19.5 -58t53.5 -22q36 0 62 26.5z" />
    <glyph glyph-name="Cacute" unicode="&#x106;" horiz-adv-x="432" 
d="M91.5 31q-39.5 39 -39.5 106q0 8 2 28l46 371q10 78 60.5 125t125.5 47q68 0 107.5 -39t39.5 -106q0 -9 -2 -27l-3 -17q0 -4 -3 -7t-7 -3l-51 -3q-9 0 -9 10l3 25q1 6 1 18q0 40 -22.5 63.5t-61.5 23.5q-43 0 -73 -29t-36 -76l-47 -382q-1 -6 -1 -16q0 -40 22.5 -64.5
t61.5 -24.5q44 0 74 29t35 76l3 25q1 4 4 7t7 3l50 -3q5 0 7.5 -3t1.5 -7l-2 -16q-10 -79 -61 -126t-126 -47q-67 0 -106.5 39zM252 769.5q-2 3.5 2 8.5l74 109q5 7 12 7h40q6 0 7 -3.5t-3 -8.5l-81 -109q-7 -7 -13 -7h-31q-5 0 -7 3.5z" />
    <glyph glyph-name="cacute" unicode="&#x107;" horiz-adv-x="390" 
d="M81.5 27q-35.5 35 -35.5 94q0 16 1 24l26 216q8 68 55 110.5t116 42.5q63 0 100 -35t37 -87q0 -11 -1 -17l-2 -10q0 -4 -3 -7t-7 -3l-50 -2q-9 0 -9 10l1 7q1 4 1 11q0 30 -20.5 50.5t-54.5 20.5q-37 0 -63 -26.5t-31 -69.5l-26 -206q-1 -6 -1 -16q0 -36 20 -58t52 -22
q36 0 63 24.5t32 57.5v7q2 10 11 10l50 -1q4 0 6.5 -3t1.5 -7l-1 -11q-8 -60 -55 -99.5t-116 -39.5q-62 0 -97.5 35zM210 575.5q-2 3.5 2 8.5l74 109q5 7 12 7h40q6 0 7 -3.5t-3 -8.5l-81 -109q-7 -7 -13 -7h-31q-5 0 -7 3.5z" />
    <glyph glyph-name="Ccircumflex" unicode="&#x108;" horiz-adv-x="432" 
d="M91.5 31q-39.5 39 -39.5 106q0 8 2 28l46 371q10 78 60.5 125t125.5 47q68 0 107.5 -39t39.5 -106q0 -9 -2 -27l-3 -17q0 -4 -3 -7t-7 -3l-51 -3q-9 0 -9 10l3 25q1 6 1 18q0 40 -22.5 63.5t-61.5 23.5q-43 0 -73 -29t-36 -76l-47 -382q-1 -6 -1 -16q0 -40 22.5 -64.5
t61.5 -24.5q44 0 74 29t35 76l3 25q1 4 4 7t7 3l50 -3q5 0 7.5 -3t1.5 -7l-2 -16q-10 -79 -61 -126t-126 -47q-67 0 -106.5 39zM186.5 775.5q-1.5 3.5 2.5 8.5l76 103q5 7 12 7h59q6 0 10 -7l53 -103q1 -2 1 -5q0 -7 -9 -7h-42q-8 0 -11 7l-33 73q-1 2 -3 1.5t-3 -1.5
l-51 -73q-7 -7 -13 -7h-42q-5 0 -6.5 3.5z" />
    <glyph glyph-name="ccircumflex" unicode="&#x109;" horiz-adv-x="390" 
d="M81.5 27q-35.5 35 -35.5 94q0 16 1 24l26 216q8 68 55 110.5t116 42.5q63 0 100 -35t37 -87q0 -11 -1 -17l-2 -10q0 -4 -3 -7t-7 -3l-50 -2q-9 0 -9 10l1 7q1 4 1 11q0 30 -20.5 50.5t-54.5 20.5q-37 0 -63 -26.5t-31 -69.5l-26 -206q-1 -6 -1 -16q0 -36 20 -58t52 -22
q36 0 63 24.5t32 57.5v7q2 10 11 10l50 -1q4 0 6.5 -3t1.5 -7l-1 -11q-8 -60 -55 -99.5t-116 -39.5q-62 0 -97.5 35zM145.5 581.5q-1.5 3.5 2.5 8.5l76 103q5 7 12 7h59q6 0 10 -7l53 -103q1 -2 1 -5q0 -7 -9 -7h-42q-8 0 -11 7l-33 73q-1 2 -3 1.5t-3 -1.5l-51 -73
q-7 -7 -13 -7h-42q-5 0 -6.5 3.5z" />
    <glyph glyph-name="Cdotaccent" unicode="&#x10a;" horiz-adv-x="432" 
d="M91.5 31q-39.5 39 -39.5 106q0 8 2 28l46 371q10 78 60.5 125t125.5 47q68 0 107.5 -39t39.5 -106q0 -9 -2 -27l-3 -17q0 -4 -3 -7t-7 -3l-51 -3q-9 0 -9 10l3 25q1 6 1 18q0 40 -22.5 63.5t-61.5 23.5q-43 0 -73 -29t-36 -76l-47 -382q-1 -6 -1 -16q0 -40 22.5 -64.5
t61.5 -24.5q44 0 74 29t35 76l3 25q1 4 4 7t7 3l50 -3q5 0 7.5 -3t1.5 -7l-2 -16q-10 -79 -61 -126t-126 -47q-67 0 -106.5 39zM261 805.5q-13 13.5 -13 34.5q0 28 18 46t44 18q21 0 34.5 -13t13.5 -35q0 -27 -18 -45.5t-44 -18.5q-22 0 -35 13.5z" />
    <glyph glyph-name="cdotaccent" unicode="&#x10b;" horiz-adv-x="390" 
d="M81.5 27q-35.5 35 -35.5 94q0 16 1 24l26 216q8 68 55 110.5t116 42.5q63 0 100 -35t37 -87q0 -11 -1 -17l-2 -10q0 -4 -3 -7t-7 -3l-50 -2q-9 0 -9 10l1 7q1 4 1 11q0 30 -20.5 50.5t-54.5 20.5q-37 0 -63 -26.5t-31 -69.5l-26 -206q-1 -6 -1 -16q0 -36 20 -58t52 -22
q36 0 63 24.5t32 57.5v7q2 10 11 10l50 -1q4 0 6.5 -3t1.5 -7l-1 -11q-8 -60 -55 -99.5t-116 -39.5q-62 0 -97.5 35zM219 611.5q-13 13.5 -13 34.5q0 28 18 46t44 18q21 0 34.5 -13t13.5 -35q0 -27 -18 -45.5t-44 -18.5q-22 0 -35 13.5z" />
    <glyph glyph-name="Ccaron" unicode="&#x10c;" horiz-adv-x="432" 
d="M91.5 31q-39.5 39 -39.5 106q0 8 2 28l46 371q10 78 60.5 125t125.5 47q68 0 107.5 -39t39.5 -106q0 -9 -2 -27l-3 -17q0 -4 -3 -7t-7 -3l-51 -3q-9 0 -9 10l3 25q1 6 1 18q0 40 -22.5 63.5t-61.5 23.5q-43 0 -73 -29t-36 -76l-47 -382q-1 -6 -1 -16q0 -40 22.5 -64.5
t61.5 -24.5q44 0 74 29t35 76l3 25q1 4 4 7t7 3l50 -3q5 0 7.5 -3t1.5 -7l-2 -16q-10 -79 -61 -126t-126 -47q-67 0 -106.5 39zM203 887q0 7 8 7h42q8 0 11 -7l34 -73q0 -1 2 -1t3 1l51 73q7 7 13 7h42q12 0 5 -12l-78 -103q-5 -7 -12 -7h-59q-6 0 -10 7l-51 103q-1 2 -1 5z
" />
    <glyph glyph-name="ccaron" unicode="&#x10d;" horiz-adv-x="390" 
d="M81.5 27q-35.5 35 -35.5 94q0 16 1 24l26 216q8 68 55 110.5t116 42.5q63 0 100 -35t37 -87q0 -11 -1 -17l-2 -10q0 -4 -3 -7t-7 -3l-50 -2q-9 0 -9 10l1 7q1 4 1 11q0 30 -20.5 50.5t-54.5 20.5q-37 0 -63 -26.5t-31 -69.5l-26 -206q-1 -6 -1 -16q0 -36 20 -58t52 -22
q36 0 63 24.5t32 57.5v7q2 10 11 10l50 -1q4 0 6.5 -3t1.5 -7l-1 -11q-8 -60 -55 -99.5t-116 -39.5q-62 0 -97.5 35zM161 693q0 7 8 7h42q8 0 11 -7l34 -73q0 -1 2 -1t3 1l51 73q7 7 13 7h42q12 0 5 -12l-78 -103q-5 -7 -12 -7h-59q-6 0 -10 7l-51 103q-1 2 -1 5z" />
    <glyph glyph-name="Dcaron" unicode="&#x10e;" horiz-adv-x="451" 
d="M52 10l83 680q2 10 11 10h149q67 0 105.5 -40.5t38.5 -111.5q0 -10 -2 -34l-41 -328q-10 -85 -61 -135.5t-125 -50.5h-150q-10 0 -8 10zM131 62l85 1q43 0 73 33.5t38 92.5l39 322q2 20 2 28q0 47 -21.5 73t-59.5 26h-85q-2 0 -3.5 -1t-1.5 -3l-70 -568q0 -4 4 -4z
M207 885q0 7 8 7h42q8 0 11 -7l34 -73q0 -1 2 -1t3 1l51 73q7 7 13 7h42q12 0 5 -12l-78 -103q-5 -7 -12 -7h-59q-6 0 -10 7l-51 103q-1 2 -1 5z" />
    <glyph glyph-name="dcaron" unicode="&#x10f;" horiz-adv-x="410" 
d="M351 697q3 3 8 3h49q10 0 8 -10l-83 -680q-2 -10 -11 -10h-49q-5 0 -7.5 3t-1.5 7l3 22q0 2 -1.5 3t-3.5 -1q-20 -21 -45.5 -31.5t-52.5 -10.5q-56 0 -87.5 34.5t-31.5 91.5q0 9 2 27l26 216q9 70 51 111.5t104 41.5q27 0 50 -10.5t38 -32.5q1 -2 3 -1t2 3l27 217
q0 4 3 7zM250.5 80.5q25.5 26.5 30.5 68.5l26 207q1 6 1 16q0 36 -19.5 58t-51.5 22q-37 0 -64 -26.5t-32 -69.5l-26 -207q-1 -5 -1 -15q0 -36 20.5 -58t53.5 -22q37 0 62.5 26.5zM462 575.5q-2 3.5 2 8.5l74 109q5 7 12 7h40q6 0 7 -3.5t-3 -8.5l-81 -109q-7 -7 -13 -7h-31
q-5 0 -7 3.5z" />
    <glyph glyph-name="Dcroat" unicode="&#x110;" horiz-adv-x="493" 
d="M442 659.5q38 -40.5 38 -111.5q0 -10 -2 -34l-40 -328q-10 -85 -61 -135.5t-126 -50.5h-149q-9 0 -9 10l41 329q0 4 -4 4h-28q-10 0 -8 10l3 26q2 10 11 10h28q4 0 4 4l37 297q2 10 11 10h149q67 0 105 -40.5zM408 511q2 20 2 28q0 47 -21.5 73t-59.5 26h-86q-4 0 -4 -4
l-30 -241q0 -4 4 -4h72q5 0 7.5 -3t1.5 -7l-3 -26q-2 -10 -11 -10h-73q-4 0 -4 -4l-34 -273q0 -4 4 -4l86 1q43 0 72.5 34t37.5 92z" />
    <glyph glyph-name="dcroat" unicode="&#x111;" horiz-adv-x="410" 
d="M453 605l-4 -28q-2 -10 -11 -10h-33q-4 0 -4 -4l-68 -553q-2 -10 -11 -10h-49q-5 0 -7.5 3t-1.5 7l3 22q0 2 -1.5 3t-3.5 -1q-20 -21 -45.5 -31.5t-52.5 -10.5q-56 0 -87.5 34.5t-31.5 91.5q0 9 2 27l26 216q9 70 51 111.5t104 41.5q27 0 50 -10.5t38 -32.5q1 -2 3 -1
t2 3l11 90q0 4 -3 4h-130q-5 0 -7.5 3t-1.5 7l4 28q0 4 3 7t8 3h130q1 0 2.5 1t1.5 3l9 71q0 4 3 7t8 3h49q10 0 8 -10l-8 -71q-1 -1 0 -2.5t3 -1.5h33q9 0 9 -10zM250.5 80.5q25.5 26.5 30.5 68.5l26 207q1 6 1 16q0 36 -19.5 58t-51.5 22q-37 0 -64 -26.5t-32 -69.5
l-26 -207q-1 -5 -1 -15q0 -36 20.5 -58t53.5 -22q37 0 62.5 26.5z" />
    <glyph glyph-name="Emacron" unicode="&#x112;" horiz-adv-x="416" 
d="M434 641q-3 -3 -7 -3h-225q-2 0 -3.5 -1t-1.5 -3l-30 -248q-1 -1 0 -2.5t3 -1.5h142q10 0 8 -10l-5 -43q-2 -10 -11 -10h-142q-4 0 -4 -4l-31 -249q0 -4 4 -4h225q10 0 8 -10l-5 -42q-2 -10 -11 -10h-288q-10 0 -8 10l83 680q2 10 11 10h288q9 0 9 -10l-6 -42q0 -4 -3 -7
zM203 799l4 32q0 4 3 7t7 3h178q10 0 8 -10l-3 -32q-1 -4 -4 -7t-7 -3h-178q-10 0 -8 10z" />
    <glyph glyph-name="emacron" unicode="&#x113;" horiz-adv-x="396" 
d="M351 226h-221q-2 0 -3.5 -1t-1.5 -3l-9 -73q-1 -5 -1 -16q0 -35 20 -57t52 -22q31 0 55 19.5t35 50.5q5 9 12 9l48 -2q4 0 6.5 -3t0.5 -8q-14 -59 -57.5 -93.5t-107.5 -34.5q-62 0 -97.5 35t-35.5 94q0 16 1 24l26 216q8 68 55 110.5t116 42.5q63 0 99 -35t36 -94
q0 -8 -2 -24l-15 -125q-2 -10 -11 -10zM173 425.5q-26 -26.5 -31 -69.5l-9 -67q0 -4 4 -4h159q4 0 4 4l9 67q1 6 1 16q0 36 -20 58t-54 22q-37 0 -63 -26.5zM157.5 624q-2.5 3 -1.5 7l4 32q2 10 11 10h177q5 0 7.5 -3t1.5 -7l-4 -32q-2 -10 -11 -10h-177q-5 0 -7.5 3z" />
    <glyph glyph-name="Edotaccent" unicode="&#x116;" horiz-adv-x="416" 
d="M434 641q-3 -3 -7 -3h-225q-2 0 -3.5 -1t-1.5 -3l-30 -248q-1 -1 0 -2.5t3 -1.5h142q10 0 8 -10l-5 -43q-2 -10 -11 -10h-142q-4 0 -4 -4l-31 -249q0 -4 4 -4h225q10 0 8 -10l-5 -42q-2 -10 -11 -10h-288q-10 0 -8 10l83 680q2 10 11 10h288q9 0 9 -10l-6 -42q0 -4 -3 -7
zM267 805.5q-13 13.5 -13 34.5q0 28 18 46t44 18q21 0 34.5 -13t13.5 -35q0 -27 -18 -45.5t-44 -18.5q-22 0 -35 13.5z" />
    <glyph glyph-name="edotaccent" unicode="&#x117;" horiz-adv-x="396" 
d="M351 226h-221q-2 0 -3.5 -1t-1.5 -3l-9 -73q-1 -5 -1 -16q0 -35 20 -57t52 -22q31 0 55 19.5t35 50.5q5 9 12 9l48 -2q4 0 6.5 -3t0.5 -8q-14 -59 -57.5 -93.5t-107.5 -34.5q-62 0 -97.5 35t-35.5 94q0 16 1 24l26 216q8 68 55 110.5t116 42.5q63 0 99 -35t36 -94
q0 -8 -2 -24l-15 -125q-2 -10 -11 -10zM173 425.5q-26 -26.5 -31 -69.5l-9 -67q0 -4 4 -4h159q4 0 4 4l9 67q1 6 1 16q0 36 -20 58t-54 22q-37 0 -63 -26.5zM217 611.5q-13 13.5 -13 34.5q0 28 18 46t44 18q21 0 34.5 -13t13.5 -35q0 -27 -18 -45.5t-44 -18.5
q-22 0 -35 13.5z" />
    <glyph glyph-name="Eogonek" unicode="&#x118;" horiz-adv-x="416" 
d="M434 641q-3 -3 -7 -3h-225q-2 0 -3.5 -1t-1.5 -3l-30 -248q-1 -1 0 -2.5t3 -1.5h142q10 0 8 -10l-5 -43q-2 -10 -11 -10h-142q-4 0 -4 -4l-31 -249q0 -4 4 -4h225q10 0 8 -10l-5 -42q-2 -10 -11 -10h-119q-3 0 -5 -2q-56 -51 -55 -98q0 -21 12 -29t31 -6q3 0 5 1
q3 0 5.5 -2t2.5 -6v-22q0 -10 -9 -11q-13 -3 -29 -3q-29 0 -48.5 15.5t-19.5 51.5q0 58 51 106q2 2 1.5 3.5t-2.5 1.5h-109q-10 0 -8 10l83 680q2 10 11 10h288q9 0 9 -10l-6 -42q0 -4 -3 -7z" />
    <glyph glyph-name="eogonek" unicode="&#x119;" horiz-adv-x="396" 
d="M351 226h-221q-2 0 -3.5 -1t-1.5 -3l-9 -73q-1 -5 -1 -16q0 -35 20 -57t52 -22q31 0 55 19.5t35 50.5q5 9 12 9l48 -2q4 0 6.5 -3t0.5 -8q-14 -55 -51.5 -88.5t-93.5 -38.5q-3 0 -5 -2q-47 -45 -47 -89q0 -38 34 -38q7 0 11 1l4 1q7 0 7 -8v-22q0 -10 -8 -11
q-14 -3 -30 -3q-27 0 -46 13t-22 45q-2 63 46 111q5 3 -1 5q-46 9 -71.5 42t-25.5 82q0 7 2 25l26 216q8 68 55 110.5t116 42.5q63 0 99 -35t36 -94q0 -8 -2 -24l-15 -125q-2 -10 -11 -10zM173 425.5q-26 -26.5 -31 -69.5l-9 -67q0 -4 4 -4h159q4 0 4 4l9 67q1 6 1 16
q0 36 -20 58t-54 22q-37 0 -63 -26.5z" />
    <glyph glyph-name="Ecaron" unicode="&#x11a;" horiz-adv-x="416" 
d="M434 641q-3 -3 -7 -3h-225q-2 0 -3.5 -1t-1.5 -3l-30 -248q-1 -1 0 -2.5t3 -1.5h142q10 0 8 -10l-5 -43q-2 -10 -11 -10h-142q-4 0 -4 -4l-31 -249q0 -4 4 -4h225q10 0 8 -10l-5 -42q-2 -10 -11 -10h-288q-10 0 -8 10l83 680q2 10 11 10h288q9 0 9 -10l-6 -42q0 -4 -3 -7
zM209 887q0 7 8 7h42q8 0 11 -7l34 -73q0 -1 2 -1t3 1l51 73q7 7 13 7h42q12 0 5 -12l-78 -103q-5 -7 -12 -7h-59q-6 0 -10 7l-51 103q-1 2 -1 5z" />
    <glyph glyph-name="ecaron" unicode="&#x11b;" horiz-adv-x="396" 
d="M351 226h-221q-2 0 -3.5 -1t-1.5 -3l-9 -73q-1 -5 -1 -16q0 -35 20 -57t52 -22q31 0 55 19.5t35 50.5q5 9 12 9l48 -2q4 0 6.5 -3t0.5 -8q-14 -59 -57.5 -93.5t-107.5 -34.5q-62 0 -97.5 35t-35.5 94q0 16 1 24l26 216q8 68 55 110.5t116 42.5q63 0 99 -35t36 -94
q0 -8 -2 -24l-15 -125q-2 -10 -11 -10zM173 425.5q-26 -26.5 -31 -69.5l-9 -67q0 -4 4 -4h159q4 0 4 4l9 67q1 6 1 16q0 36 -20 58t-54 22q-37 0 -63 -26.5zM158 691q0 7 8 7h42q8 0 11 -7l34 -73q0 -1 2 -1t3 1l51 73q7 7 13 7h42q12 0 5 -12l-78 -103q-5 -7 -12 -7h-59
q-6 0 -10 7l-51 103q-1 2 -1 5z" />
    <glyph glyph-name="Gcircumflex" unicode="&#x11c;" horiz-adv-x="437" 
d="M91.5 30q-39.5 38 -39.5 103q0 8 2 26l47 382q10 76 60.5 121.5t124.5 45.5q67 0 106.5 -37.5t39.5 -102.5q0 -8 -2 -28l-5 -43q-2 -10 -11 -10h-50q-4 0 -6.5 3t-1.5 7l5 45q1 6 1 18q0 39 -22.5 62.5t-61.5 23.5q-43 0 -73 -28.5t-36 -75.5l-47 -384q-1 -6 -1 -16
q0 -40 22.5 -64t61.5 -24q44 0 74 28.5t35 75.5l16 128q0 4 -3 4h-84q-10 0 -8 10l5 42q2 10 11 10h146q9 0 9 -10l-23 -183q-9 -76 -60 -121.5t-125 -45.5q-67 0 -106.5 38zM186.5 775.5q-1.5 3.5 2.5 8.5l76 103q5 7 12 7h59q6 0 10 -7l53 -103q1 -2 1 -5q0 -7 -9 -7h-42
q-8 0 -11 7l-33 73q-1 2 -3 1.5t-3 -1.5l-51 -73q-7 -7 -13 -7h-42q-5 0 -6.5 3.5z" />
    <glyph glyph-name="gcircumflex" unicode="&#x11d;" horiz-adv-x="401" 
d="M335 506h49q9 0 9 -10l-60 -486q-13 -107 -67.5 -162.5t-167.5 -50.5q-10 2 -8 11l5 43q2 10 11 10q77 -2 113 36.5t46 118.5l4 30q0 2 -1.5 3t-3.5 -1q-20 -25 -47 -38t-56 -13q-55 0 -85 33.5t-30 89.5q0 10 2 30l25 211q9 70 49.5 111.5t101.5 41.5q30 0 54 -12.5
t37 -37.5q3 -6 5 1l4 31q2 10 11 10zM251 85.5q26 26.5 31 68.5l25 202q1 6 1 16q0 36 -19.5 58t-51.5 22q-37 0 -63.5 -26.5t-31.5 -69.5l-25 -202q-1 -5 -1 -16q0 -35 20 -57t53 -22q36 0 62 26.5zM145.5 581.5q-1.5 3.5 2.5 8.5l76 103q5 7 12 7h59q6 0 10 -7l53 -103
q1 -2 1 -5q0 -7 -9 -7h-42q-8 0 -11 7l-33 73q-1 2 -3 1.5t-3 -1.5l-51 -73q-7 -7 -13 -7h-42q-5 0 -6.5 3.5z" />
    <glyph glyph-name="Gbreve" unicode="&#x11e;" horiz-adv-x="437" 
d="M91.5 30q-39.5 38 -39.5 103q0 8 2 26l47 382q10 76 60.5 121.5t124.5 45.5q67 0 106.5 -37.5t39.5 -102.5q0 -8 -2 -28l-5 -43q-2 -10 -11 -10h-50q-4 0 -6.5 3t-1.5 7l5 45q1 6 1 18q0 39 -22.5 62.5t-61.5 23.5q-43 0 -73 -28.5t-36 -75.5l-47 -384q-1 -6 -1 -16
q0 -40 22.5 -64t61.5 -24q44 0 74 28.5t35 75.5l16 128q0 4 -3 4h-84q-10 0 -8 10l5 42q2 10 11 10h146q9 0 9 -10l-23 -183q-9 -76 -60 -121.5t-125 -45.5q-67 0 -106.5 38zM224.5 779q-25.5 27 -23.5 68q2 10 11 10h22q9 0 9 -8q0 -26 14.5 -42.5t38.5 -16.5q23 0 41.5 16
t24.5 41q3 10 12 10h22q5 0 7 -3t1 -7q-8 -42 -39.5 -68.5t-73.5 -26.5q-41 0 -66.5 27z" />
    <glyph glyph-name="gbreve" unicode="&#x11f;" horiz-adv-x="401" 
d="M335 506h49q9 0 9 -10l-60 -486q-13 -107 -67.5 -162.5t-167.5 -50.5q-10 2 -8 11l5 43q2 10 11 10q77 -2 113 36.5t46 118.5l4 30q0 2 -1.5 3t-3.5 -1q-20 -25 -47 -38t-56 -13q-55 0 -85 33.5t-30 89.5q0 10 2 30l25 211q9 70 49.5 111.5t101.5 41.5q30 0 54 -12.5
t37 -37.5q3 -6 5 1l4 31q2 10 11 10zM251 85.5q26 26.5 31 68.5l25 202q1 6 1 16q0 36 -19.5 58t-51.5 22q-37 0 -63.5 -26.5t-31.5 -69.5l-25 -202q-1 -5 -1 -16q0 -35 20 -57t53 -22q36 0 62 26.5zM183.5 585q-25.5 27 -23.5 68q2 10 11 10h22q9 0 9 -8q0 -26 14.5 -42.5
t38.5 -16.5q23 0 41.5 16t24.5 41q3 10 12 10h22q5 0 7 -3t1 -7q-8 -42 -39.5 -68.5t-73.5 -26.5q-41 0 -66.5 27z" />
    <glyph glyph-name="Gdotaccent" unicode="&#x120;" horiz-adv-x="437" 
d="M91.5 30q-39.5 38 -39.5 103q0 8 2 26l47 382q10 76 60.5 121.5t124.5 45.5q67 0 106.5 -37.5t39.5 -102.5q0 -8 -2 -28l-5 -43q-2 -10 -11 -10h-50q-4 0 -6.5 3t-1.5 7l5 45q1 6 1 18q0 39 -22.5 62.5t-61.5 23.5q-43 0 -73 -28.5t-36 -75.5l-47 -384q-1 -6 -1 -16
q0 -40 22.5 -64t61.5 -24q44 0 74 28.5t35 75.5l16 128q0 4 -3 4h-84q-10 0 -8 10l5 42q2 10 11 10h146q9 0 9 -10l-23 -183q-9 -76 -60 -121.5t-125 -45.5q-67 0 -106.5 38zM261 805.5q-13 13.5 -13 34.5q0 28 18 46t44 18q21 0 34.5 -13t13.5 -35q0 -27 -18 -45.5
t-44 -18.5q-22 0 -35 13.5z" />
    <glyph glyph-name="gdotaccent" unicode="&#x121;" horiz-adv-x="401" 
d="M335 506h49q9 0 9 -10l-60 -486q-13 -107 -67.5 -162.5t-167.5 -50.5q-10 2 -8 11l5 43q2 10 11 10q77 -2 113 36.5t46 118.5l4 30q0 2 -1.5 3t-3.5 -1q-20 -25 -47 -38t-56 -13q-55 0 -85 33.5t-30 89.5q0 10 2 30l25 211q9 70 49.5 111.5t101.5 41.5q30 0 54 -12.5
t37 -37.5q3 -6 5 1l4 31q2 10 11 10zM251 85.5q26 26.5 31 68.5l25 202q1 6 1 16q0 36 -19.5 58t-51.5 22q-37 0 -63.5 -26.5t-31.5 -69.5l-25 -202q-1 -5 -1 -16q0 -35 20 -57t53 -22q36 0 62 26.5zM220 611.5q-13 13.5 -13 34.5q0 28 18 46t44 18q21 0 34.5 -13t13.5 -35
q0 -27 -18 -45.5t-44 -18.5q-22 0 -35 13.5z" />
    <glyph glyph-name="uni0122" unicode="&#x122;" horiz-adv-x="437" 
d="M91.5 30q-39.5 38 -39.5 103q0 8 2 26l47 382q10 76 60.5 121.5t124.5 45.5q67 0 106.5 -37.5t39.5 -102.5q0 -8 -2 -28l-5 -43q-2 -10 -11 -10h-50q-4 0 -6.5 3t-1.5 7l5 45q1 6 1 18q0 39 -22.5 62.5t-61.5 23.5q-43 0 -73 -28.5t-36 -75.5l-47 -384q-1 -6 -1 -16
q0 -40 22.5 -64t61.5 -24q44 0 74 28.5t35 75.5l16 128q0 4 -3 4h-84q-10 0 -8 10l5 42q2 10 11 10h146q9 0 9 -10l-23 -183q-9 -76 -60 -121.5t-125 -45.5q-67 0 -106.5 38zM126 -194.5q-2 3.5 2 8.5l74 109q5 7 12 7h40q6 0 7 -3.5t-3 -8.5l-81 -109q-7 -7 -13 -7h-31
q-5 0 -7 3.5z" />
    <glyph glyph-name="uni0123" unicode="&#x123;" horiz-adv-x="401" 
d="M314 692.5q2 -3.5 -2 -8.5l-74 -109q-5 -7 -12 -7h-40q-6 0 -7 3.5t3 8.5l81 109q5 7 13 7h31q5 0 7 -3.5zM335 506h49q9 0 9 -10l-60 -486q-13 -107 -67.5 -162.5t-167.5 -50.5q-10 2 -8 11l5 43q2 10 11 10q77 -2 113 36.5t46 118.5l4 30q0 2 -1.5 3t-3.5 -1
q-20 -25 -47 -38t-56 -13q-55 0 -85 33.5t-30 89.5q0 10 2 30l25 211q9 70 49.5 111.5t101.5 41.5q30 0 54 -12.5t37 -37.5q3 -6 5 1l4 31q2 10 11 10zM251 85.5q26 26.5 31 68.5l25 202q1 6 1 16q0 36 -19.5 58t-51.5 22q-37 0 -63.5 -26.5t-31.5 -69.5l-25 -202
q-1 -5 -1 -16q0 -35 20 -57t53 -22q36 0 62 26.5z" />
    <glyph glyph-name="Hcircumflex" unicode="&#x124;" horiz-adv-x="458" 
d="M388 697q3 3 7 3h50q10 0 8 -10l-83 -680q-2 -10 -11 -10h-50q-4 0 -6.5 3t-1.5 7l37 305q1 1 0 2.5t-3 1.5h-173q-4 0 -4 -4l-37 -305q-1 -4 -4 -7t-7 -3h-50q-10 0 -8 10l83 680q2 10 11 10h50q4 0 6.5 -3t1.5 -7l-37 -304q-1 -1 0 -2.5t3 -1.5h173q4 0 4 4l37 304
q1 4 4 7zM195.5 776.5q-1.5 3.5 2.5 8.5l76 103q5 7 12 7h59q6 0 10 -7l53 -103q1 -2 1 -5q0 -7 -9 -7h-42q-8 0 -11 7l-33 73q-1 2 -3 1.5t-3 -1.5l-51 -73q-7 -7 -13 -7h-42q-5 0 -6.5 3.5z" />
    <glyph glyph-name="hcircumflex" unicode="&#x125;" 
d="M356.5 481q27.5 -32 27.5 -92q0 -11 -2 -35l-42 -344q-2 -10 -11 -10h-50q-4 0 -6.5 3t-1.5 7l41 338q2 16 2 23q0 38 -17.5 59t-50.5 21q-38 0 -63.5 -29t-31.5 -79l-41 -333q-2 -10 -11 -10h-50q-4 0 -6.5 3t-1.5 7l83 680q1 4 4 7t7 3h50q10 0 8 -10l-27 -226
q-1 -2 1 -3t4 2q20 25 47.5 37.5t58.5 12.5q52 0 79.5 -32zM177.5 753.5q-1.5 3.5 2.5 8.5l76 103q5 7 12 7h59q6 0 10 -7l53 -103q1 -2 1 -5q0 -7 -9 -7h-42q-8 0 -11 7l-33 73q-1 2 -3 1.5t-3 -1.5l-51 -73q-7 -7 -13 -7h-42q-5 0 -6.5 3.5z" />
    <glyph glyph-name="Hbar" unicode="&#x126;" horiz-adv-x="458" 
d="M483 549l-4 -31q-2 -10 -11 -10h-33q-3 0 -5 -4l-60 -494q-2 -10 -11 -10h-50q-4 0 -6.5 3t-1.5 7l37 305q1 1 0 2.5t-3 1.5h-173q-4 0 -4 -4l-37 -305q-1 -4 -4 -7t-7 -3h-50q-10 0 -8 10l60 494q1 1 0 2.5t-3 1.5h-33q-9 0 -9 10l4 31q2 10 11 10h33q3 0 5 4l15 127
q2 10 11 10h50q4 0 6.5 -3t1.5 -7l-16 -127q0 -4 4 -4h172q2 0 3.5 1t1.5 3l15 127q1 4 4 7t7 3h50q10 0 8 -10l-15 -127q-1 -1 0 -2.5t3 -1.5h33q9 0 9 -10zM347 386l15 118q0 4 -4 4h-172q-2 0 -3.5 -1t-1.5 -3l-14 -118q-1 -1 0 -2.5t3 -1.5h173q4 0 4 4z" />
    <glyph glyph-name="hbar" unicode="&#x127;" 
d="M356.5 481q27.5 -32 27.5 -92q0 -11 -2 -35l-42 -344q-2 -10 -11 -10h-50q-4 0 -6.5 3t-1.5 7l41 338q2 16 2 23q0 38 -17.5 59t-50.5 21q-38 0 -63.5 -29t-31.5 -79l-41 -333q-2 -10 -11 -10h-50q-4 0 -6.5 3t-1.5 7l66 540q1 1 0 2.5t-3 1.5h-39q-10 0 -8 10l3 27
q2 10 11 10h39q4 0 4 4l10 85q1 4 4 7t7 3h50q10 0 8 -10l-10 -85q0 -4 3 -4h124q4 0 6.5 -3t1.5 -7l-3 -27q-2 -10 -11 -10h-123q-2 0 -3.5 -1t-1.5 -3l-10 -86q-1 -2 1 -3t4 2q20 25 47.5 37.5t58.5 12.5q52 0 79.5 -32z" />
    <glyph glyph-name="Itilde" unicode="&#x128;" horiz-adv-x="208" 
d="M52 10l83 680q2 10 11 10h50q4 0 6.5 -3t1.5 -7l-83 -680q-1 -4 -4 -7t-7 -3h-50q-10 0 -8 10zM220 807.5q-10 5.5 -26 16.5q-3 2 -11 8.5t-15 9t-14 2.5q-14 0 -25 -5.5t-22 -20.5q-8 -9 -14 -3l-16 13q-7 7 -2 14q32 52 80 52q25 0 54 -23q14 -12 21.5 -16.5t19.5 -4.5
q25 0 45 28q2 4 6 5t8 -1l16 -12q3 -3 3 -6q0 -4 -5 -14q-17 -25 -39 -36.5t-40 -11.5q-14 0 -24 5.5z" />
    <glyph glyph-name="itilde" unicode="&#x129;" horiz-adv-x="164" 
d="M29 10l60 486q2 10 11 10h49q5 0 7.5 -3t1.5 -7l-60 -486q-2 -10 -11 -10h-49q-9 0 -9 10zM174 613.5q-10 5.5 -26 16.5q-3 2 -11 8.5t-15 9t-14 2.5q-14 0 -25 -5.5t-22 -20.5q-8 -9 -14 -3l-16 13q-7 7 -2 14q32 52 80 52q25 0 54 -23q14 -12 21.5 -16.5t19.5 -4.5
q25 0 45 28q2 4 6 5t8 -1l16 -12q3 -3 3 -6q0 -4 -5 -14q-17 -25 -39 -36.5t-40 -11.5q-14 0 -24 5.5z" />
    <glyph glyph-name="Imacron" unicode="&#x12a;" horiz-adv-x="208" 
d="M52 10l83 680q2 10 11 10h50q4 0 6.5 -3t1.5 -7l-83 -680q-1 -4 -4 -7t-7 -3h-50q-10 0 -8 10zM84 799l4 32q0 4 3 7t7 3h178q10 0 8 -10l-3 -32q-1 -4 -4 -7t-7 -3h-178q-10 0 -8 10z" />
    <glyph glyph-name="imacron" unicode="&#x12b;" horiz-adv-x="164" 
d="M29 10l60 486q2 10 11 10h49q5 0 7.5 -3t1.5 -7l-60 -486q-2 -10 -11 -10h-49q-9 0 -9 10zM37 605l4 32q0 4 3 7t7 3h178q10 0 8 -10l-3 -32q-1 -4 -4 -7t-7 -3h-178q-10 0 -8 10z" />
    <glyph glyph-name="ibreve" unicode="&#x12d;" horiz-adv-x="164" 
d="M29 10l60 486q2 10 11 10h49q5 0 7.5 -3t1.5 -7l-60 -486q-2 -10 -11 -10h-49q-9 0 -9 10zM67.5 607q-25.5 27 -23.5 68q2 10 11 10h22q9 0 9 -10q0 -26 14.5 -42t38.5 -16q23 0 41.5 16t24.5 42q3 10 12 10h22q10 0 8 -10q-8 -42 -39.5 -68.5t-73.5 -26.5
q-41 0 -66.5 27z" />
    <glyph glyph-name="Iogonek" unicode="&#x12e;" horiz-adv-x="181" 
d="M39 10l83 680q2 10 11 10h50q4 0 6.5 -3t1.5 -7l-83 -680q-1 -4 -4 -7t-7 -3h-50q-10 0 -8 10zM90 -182q-13 -3 -29 -3q-29 0 -48.5 15.5t-19.5 52.5q0 28 13.5 56.5t41.5 53.5q4 3 4 4q4 3 11 3h27q8 0 8 -5q0 -2 -5 -7q-23 -22 -37 -46.5t-14 -47.5q1 -37 35 -37
q6 0 10 1l4 1q7 0 7 -8v-21q0 -9 -8 -12z" />
    <glyph glyph-name="iogonek" unicode="&#x12f;" horiz-adv-x="218" 
d="M64 10l60 486q2 10 11 10h49q5 0 7.5 -3t1.5 -7l-60 -486q-2 -10 -11 -10h-49q-9 0 -9 10zM136 611.5q-13 13.5 -13 34.5q0 28 18 46t44 18q21 0 34.5 -13t13.5 -35q0 -27 -18 -45.5t-44 -18.5q-22 0 -35 13.5zM116 -182q-13 -3 -29 -3q-29 0 -48.5 15.5t-19.5 52.5
q0 28 13.5 56.5t41.5 53.5q4 3 4 4q4 3 11 3h27q8 0 8 -5q0 -2 -5 -7q-23 -22 -37 -46.5t-14 -47.5q1 -37 35 -37q6 0 10 1l4 1q7 0 7 -8v-21q0 -9 -8 -12z" />
    <glyph glyph-name="Idotaccent" unicode="&#x130;" horiz-adv-x="208" 
d="M52 10l83 680q2 10 11 10h50q4 0 6.5 -3t1.5 -7l-83 -680q-1 -4 -4 -7t-7 -3h-50q-10 0 -8 10zM147 805.5q-13 13.5 -13 34.5q0 28 18 46t44 18q21 0 34.5 -13t13.5 -35q0 -27 -18 -45.5t-44 -18.5q-22 0 -35 13.5z" />
    <glyph glyph-name="dotlessi" unicode="&#x131;" horiz-adv-x="164" 
d="M29 10l60 486q2 10 11 10h49q5 0 7.5 -3t1.5 -7l-60 -486q-2 -10 -11 -10h-49q-9 0 -9 10z" />
    <glyph glyph-name="ij" unicode="&#x133;" horiz-adv-x="396" 
d="M118 614q-13 16 -11 40q4 25 21 40.5t41 15.5q21 0 34 -13t13 -34q0 -28 -17.5 -46.5t-43.5 -18.5q-24 0 -37 16zM49 10l59 486q1 4 4 7t7 3h50q10 0 8 -10l-59 -486q-2 -10 -11 -10h-50q-10 0 -8 10zM315.5 611.5q-13.5 13.5 -13.5 34.5q0 27 18.5 45.5t43.5 18.5
q22 0 35 -13t13 -34q0 -28 -18 -46.5t-44 -18.5q-21 0 -34.5 13.5zM131.5 -205q-2.5 3 -1.5 7l5 42q2 10 11 10q80 3 91 102l67 540q0 4 3 7t8 3h49q9 0 9 -10l-67 -540q-10 -82 -46 -123t-121 -41q-5 0 -7.5 3z" />
    <glyph glyph-name="Jcircumflex" unicode="&#x134;" horiz-adv-x="413" 
d="M58.5 30q-38.5 38 -38.5 103q0 8 2 28l10 84q2 10 11 10h49q5 0 7.5 -3t1.5 -7l-11 -85q-1 -6 -1 -17q0 -41 21.5 -65t59.5 -24q41 0 70 29.5t35 76.5l65 530q2 10 11 10h49q9 0 9 -10l-65 -529q-10 -76 -60 -122.5t-122 -46.5q-65 0 -103.5 38zM276.5 776.5
q-1.5 3.5 2.5 8.5l76 103q5 7 12 7h59q6 0 10 -7l53 -103q1 -2 1 -5q0 -7 -9 -7h-42q-8 0 -11 7l-33 73q-1 2 -3 1.5t-3 -1.5l-51 -73q-7 -7 -13 -7h-42q-5 0 -6.5 3.5z" />
    <glyph glyph-name="jcircumflex" unicode="&#x135;" horiz-adv-x="193" 
d="M-71.5 -205q-2.5 3 -1.5 7l5 42q2 10 11 10q80 3 91 102l67 540q0 4 3 7t8 3h49q9 0 9 -10l-67 -540q-10 -82 -46 -123t-121 -41q-5 0 -7.5 3zM38.5 581.5q-1.5 3.5 2.5 8.5l76 103q5 7 12 7h59q6 0 10 -7l53 -103q1 -2 1 -5q0 -7 -9 -7h-42q-8 0 -11 7l-33 73
q-1 2 -3 1.5t-3 -1.5l-51 -73q-7 -7 -13 -7h-42q-5 0 -6.5 3.5z" />
    <glyph glyph-name="uni0136" unicode="&#x136;" horiz-adv-x="439" 
d="M52 10l83 680q2 10 11 10h50q4 0 6.5 -3t1.5 -7l-40 -324q0 -3 1.5 -4t3.5 2l227 329q7 7 13 7h54q6 0 7.5 -3.5t-1.5 -8.5l-185 -271q-2 -4 -2 -6l118 -399l1 -3q0 -9 -10 -9h-55q-9 0 -10 8l-98 340q-1 4 -5 0l-72 -96q-1 -1 -1 -5l-29 -237q-1 -4 -4 -7t-7 -3h-50
q-10 0 -8 10zM151 -186.5q-2 3.5 2 8.5l74 109q5 7 12 7h40q6 0 7 -3.5t-3 -8.5l-81 -109q-7 -7 -13 -7h-31q-5 0 -7 3.5z" />
    <glyph glyph-name="uni0137" unicode="&#x137;" horiz-adv-x="393" 
d="M42.5 3q-2.5 3 -1.5 7l83 680q1 4 4 7t7 3h50q10 0 8 -10l-49 -402q0 -2 1.5 -3t3.5 1l171 214q5 6 13 6h50q6 0 7.5 -3.5t-2.5 -8.5l-114 -142q-2 -2 -2 -6l74 -335v-2q0 -9 -9 -9h-52q-8 0 -10 8l-53 278q0 3 -2 3t-3 -2l-84 -104l-3 -5l-20 -168q-2 -10 -11 -10h-50
q-4 0 -6.5 3zM118 -186.5q-2 3.5 2 8.5l74 109q5 7 12 7h40q6 0 7 -3.5t-3 -8.5l-81 -109q-7 -7 -13 -7h-31q-5 0 -7 3.5z" />
    <glyph glyph-name="Lacute" unicode="&#x139;" horiz-adv-x="384" 
d="M52 10l83 680q2 10 11 10h50q4 0 6.5 -3t1.5 -7l-77 -624q0 -4 4 -4h222q10 0 8 -10l-5 -42q0 -4 -3 -7t-8 -3h-285q-10 0 -8 10zM138 769.5q-2 3.5 2 8.5l74 109q5 7 12 7h40q6 0 7 -3.5t-3 -8.5l-81 -109q-7 -7 -13 -7h-31q-5 0 -7 3.5z" />
    <glyph glyph-name="lacute" unicode="&#x13a;" horiz-adv-x="176" 
d="M36.5 3q-2.5 3 -1.5 7l84 680q0 4 3 7t8 3h49q9 0 9 -10l-84 -680q-2 -10 -11 -10h-49q-5 0 -7.5 3zM122 769.5q-2 3.5 2 8.5l74 109q5 7 12 7h40q6 0 7 -3.5t-3 -8.5l-81 -109q-7 -7 -13 -7h-31q-5 0 -7 3.5z" />
    <glyph glyph-name="uni013B" unicode="&#x13b;" horiz-adv-x="384" 
d="M52 10l83 680q2 10 11 10h50q4 0 6.5 -3t1.5 -7l-77 -624q0 -4 4 -4h222q10 0 8 -10l-5 -42q0 -4 -3 -7t-8 -3h-285q-10 0 -8 10zM103 -186.5q-2 3.5 2 8.5l74 109q5 7 12 7h40q6 0 7 -3.5t-3 -8.5l-81 -109q-7 -7 -13 -7h-31q-5 0 -7 3.5z" />
    <glyph glyph-name="uni013C" unicode="&#x13c;" horiz-adv-x="176" 
d="M36.5 3q-2.5 3 -1.5 7l84 680q0 4 3 7t8 3h49q9 0 9 -10l-84 -680q-2 -10 -11 -10h-49q-5 0 -7.5 3zM-55 -186.5q-2 3.5 2 8.5l74 109q5 7 12 7h40q6 0 7 -3.5t-3 -8.5l-81 -109q-7 -7 -13 -7h-31q-5 0 -7 3.5z" />
    <glyph glyph-name="Lcaron" unicode="&#x13d;" horiz-adv-x="385" 
d="M52 10l83 680q2 10 11 10h50q4 0 6.5 -3t1.5 -7l-77 -624q0 -4 4 -4h222q10 0 8 -10l-5 -42q0 -4 -3 -7t-8 -3h-285q-10 0 -8 10zM240 575.5q-2 3.5 2 8.5l74 109q5 7 12 7h40q6 0 7 -3.5t-3 -8.5l-81 -109q-7 -7 -13 -7h-31q-5 0 -7 3.5z" />
    <glyph glyph-name="lcaron" unicode="&#x13e;" horiz-adv-x="321" 
d="M36.5 3q-2.5 3 -1.5 7l84 680q0 4 3 7t8 3h49q9 0 9 -10l-84 -680q-2 -10 -11 -10h-49q-5 0 -7.5 3zM213 575.5q-2 3.5 2 8.5l74 109q5 7 12 7h40q6 0 7 -3.5t-3 -8.5l-81 -109q-7 -7 -13 -7h-31q-5 0 -7 3.5z" />
    <glyph glyph-name="ldot" unicode="&#x140;" horiz-adv-x="216" 
d="M56.5 3q-2.5 3 -1.5 7l84 680q0 4 3 7t8 3h49q9 0 9 -10l-84 -680q-2 -10 -11 -10h-49q-5 0 -7.5 3zM151 805.5q-13 13.5 -13 34.5q0 28 18 46t44 18q21 0 34.5 -13t13.5 -35q0 -27 -18 -45.5t-44 -18.5q-22 0 -35 13.5z" />
    <glyph glyph-name="Lslash" unicode="&#x141;" horiz-adv-x="410" 
d="M154 63.5q1 -1.5 3 -1.5h222q9 0 9 -10l-6 -42q0 -4 -3 -7t-7 -3h-286q-4 0 -6.5 3t-1.5 7l28 233q1 2 -0.5 3t-3.5 -1l-72 -49q-2 -2 -6 -2t-7 4l-19 28l-2 5q0 4 5 9l113 77q2 2 2 5l45 368q2 10 11 10h50q10 0 8 -10l-38 -313q-1 -2 0.5 -3t3.5 1l168 116q2 2 6 2
t7 -4l20 -29l2 -5q0 -4 -6 -9l-208 -143q-3 -3 -3 -5l-28 -232q-1 -1 0 -2.5z" />
    <glyph glyph-name="lslash" unicode="&#x142;" horiz-adv-x="283" 
d="M292 389q0 -7 -7 -11l-91 -51q-3 -1 -3 -5l-38 -312q-1 -4 -4 -7t-7 -3h-50q-10 0 -8 10l33 268q0 2 -1.5 3t-3.5 0l-50 -28q-2 -1 -5 -1q-6 0 -8 5l-12 30q-1 1 -1 4q0 7 6 10l80 45q2 1 4 5l41 339q2 10 11 10h50q4 0 6.5 -3t1.5 -7l-36 -295q-1 -2 0.5 -3t3.5 0l60 34
q4 2 6 2q6 0 7 -6l14 -30z" />
    <glyph glyph-name="Nacute" unicode="&#x143;" horiz-adv-x="479" 
d="M410 697q3 3 8 3h48q9 0 9 -10l-84 -680q-2 -10 -11 -10h-57q-7 0 -10 8l-125 517q-1 3 -3 2.5t-2 -3.5l-62 -514q-1 -4 -4 -7t-7 -3h-50q-10 0 -8 10l83 680q2 10 11 10h56q9 0 10 -8l127 -518q0 -3 2 -2.5t3 3.5l63 515q0 4 3 7zM274 776.5q-2 3.5 2 8.5l74 109
q5 7 12 7h40q6 0 7 -3.5t-3 -8.5l-81 -109q-7 -7 -13 -7h-31q-5 0 -7 3.5z" />
    <glyph glyph-name="nacute" unicode="&#x144;" 
d="M356.5 481q27.5 -32 27.5 -92q0 -11 -2 -35l-42 -344q-2 -10 -11 -10h-50q-4 0 -6.5 3t-1.5 7l41 338q2 16 2 23q0 38 -17.5 59t-50.5 21q-38 0 -63.5 -29t-31.5 -79l-41 -333q-2 -10 -11 -10h-50q-4 0 -6.5 3t-1.5 7l60 486q0 4 3 7t8 3h49q9 0 9 -10l-4 -32q-1 -2 1 -3
t4 2q20 25 47.5 37.5t58.5 12.5q52 0 79.5 -32zM220 575.5q-2 3.5 2 8.5l74 109q5 7 12 7h40q6 0 7 -3.5t-3 -8.5l-81 -109q-7 -7 -13 -7h-31q-5 0 -7 3.5z" />
    <glyph glyph-name="uni0145" unicode="&#x145;" horiz-adv-x="479" 
d="M410 697q3 3 8 3h48q9 0 9 -10l-84 -680q-2 -10 -11 -10h-57q-7 0 -10 8l-125 517q-1 3 -3 2.5t-2 -3.5l-62 -514q-1 -4 -4 -7t-7 -3h-50q-10 0 -8 10l83 680q2 10 11 10h56q9 0 10 -8l127 -518q0 -3 2 -2.5t3 3.5l63 515q0 4 3 7zM150 -186.5q-2 3.5 2 8.5l74 109
q5 7 12 7h40q6 0 7 -3.5t-3 -8.5l-81 -109q-7 -7 -13 -7h-31q-5 0 -7 3.5z" />
    <glyph glyph-name="uni0146" unicode="&#x146;" 
d="M356.5 481q27.5 -32 27.5 -92q0 -11 -2 -35l-42 -344q-2 -10 -11 -10h-50q-4 0 -6.5 3t-1.5 7l41 338q2 16 2 23q0 38 -17.5 59t-50.5 21q-38 0 -63.5 -29t-31.5 -79l-41 -333q-2 -10 -11 -10h-50q-4 0 -6.5 3t-1.5 7l60 486q0 4 3 7t8 3h49q9 0 9 -10l-4 -32q-1 -2 1 -3
t4 2q20 25 47.5 37.5t58.5 12.5q52 0 79.5 -32zM122 -186.5q-2 3.5 2 8.5l74 109q5 7 12 7h40q6 0 7 -3.5t-3 -8.5l-81 -109q-7 -7 -13 -7h-31q-5 0 -7 3.5z" />
    <glyph glyph-name="Ncaron" unicode="&#x147;" horiz-adv-x="479" 
d="M410 697q3 3 8 3h48q9 0 9 -10l-84 -680q-2 -10 -11 -10h-57q-7 0 -10 8l-125 517q-1 3 -3 2.5t-2 -3.5l-62 -514q-1 -4 -4 -7t-7 -3h-50q-10 0 -8 10l83 680q2 10 11 10h56q9 0 10 -8l127 -518q0 -3 2 -2.5t3 3.5l63 515q0 4 3 7zM225 894q0 7 8 7h42q8 0 11 -7l34 -73
q0 -1 2 -1t3 1l51 73q7 7 13 7h42q12 0 5 -12l-78 -103q-5 -7 -12 -7h-59q-6 0 -10 7l-51 103q-1 2 -1 5z" />
    <glyph glyph-name="ncaron" unicode="&#x148;" 
d="M356.5 481q27.5 -32 27.5 -92q0 -11 -2 -35l-42 -344q-2 -10 -11 -10h-50q-4 0 -6.5 3t-1.5 7l41 338q2 16 2 23q0 38 -17.5 59t-50.5 21q-38 0 -63.5 -29t-31.5 -79l-41 -333q-2 -10 -11 -10h-50q-4 0 -6.5 3t-1.5 7l60 486q0 4 3 7t8 3h49q9 0 9 -10l-4 -32q-1 -2 1 -3
t4 2q20 25 47.5 37.5t58.5 12.5q52 0 79.5 -32zM171 693q0 7 8 7h42q8 0 11 -7l34 -73q0 -1 2 -1t3 1l51 73q7 7 13 7h42q12 0 5 -12l-78 -103q-5 -7 -12 -7h-59q-6 0 -10 7l-51 103q-1 2 -1 5z" />
    <glyph glyph-name="Eng" unicode="&#x14a;" horiz-adv-x="479" 
d="M410 697q3 3 8 3h48q9 0 9 -10l-85 -690q-7 -57 -18.5 -88.5t-41.5 -49.5t-89 -18q-9 0 -9 10l5 42q1 4 4 7t8 3q27 1 40 11.5t17 27t9 52.5v5l-127 523q-1 3 -3 2.5t-2 -3.5l-62 -514q-1 -4 -4 -7t-7 -3h-50q-10 0 -8 10l83 680q2 10 11 10h56q9 0 10 -8l122 -499
q1 -3 3 -2.5t2 3.5l33 265q0 4 1.5 7t3.5 3q3 0 3 4l27 217q0 4 3 7z" />
    <glyph glyph-name="eng" unicode="&#x14b;" 
d="M356.5 481q27.5 -32 27.5 -92q0 -11 -2 -35l-44 -362q-6 -51 -19.5 -84t-45.5 -53t-90 -21q-10 0 -8 10l5 41q2 10 11 10q38 2 55 26.5t23 70.5l43 356q2 16 2 23q0 38 -17.5 59t-50.5 21q-38 0 -63.5 -29t-31.5 -79l-41 -333q-2 -10 -11 -10h-50q-4 0 -6.5 3t-1.5 7
l60 486q0 4 3 7t8 3h49q9 0 9 -10l-4 -32q-1 -2 1 -3t4 2q20 25 47.5 37.5t58.5 12.5q52 0 79.5 -32z" />
    <glyph glyph-name="Omacron" unicode="&#x14c;" horiz-adv-x="442" 
d="M92 32.5q-40 40.5 -40 108.5q0 8 2 26l45 366q10 78 62.5 126.5t126.5 48.5q68 0 108.5 -40t40.5 -107q0 -8 -2 -28l-45 -366q-10 -79 -62.5 -127t-127.5 -48q-68 0 -108 40.5zM283.5 84.5q31.5 30.5 37.5 78.5l46 373q1 6 1 16q0 42 -24 68t-64 26q-43 0 -74 -30.5
t-37 -79.5l-46 -373q-1 -6 -1 -18q0 -41 23 -66t62 -25q45 0 76.5 30.5zM200 798l4 32q0 4 3 7t7 3h178q10 0 8 -10l-3 -32q-1 -4 -4 -7t-7 -3h-178q-10 0 -8 10z" />
    <glyph glyph-name="omacron" unicode="&#x14d;" horiz-adv-x="402" 
d="M81.5 27q-35.5 35 -35.5 94q0 16 1 24l26 215q8 68 55 111t117 43q63 0 99 -35.5t36 -94.5q0 -16 -1 -24l-27 -215q-8 -69 -55 -111t-117 -42q-63 0 -98.5 35zM252.5 81q26.5 26 31.5 69l25 206q1 6 1 16q0 36 -20 58t-53 22q-37 0 -63.5 -26.5t-31.5 -69.5l-26 -206
q-1 -6 -1 -16q0 -36 20 -57.5t53 -21.5q38 0 64.5 26zM156 605l4 32q0 4 3 7t7 3h178q10 0 8 -10l-3 -32q-1 -4 -4 -7t-7 -3h-178q-10 0 -8 10z" />
    <glyph glyph-name="obreve" unicode="&#x14f;" horiz-adv-x="402" 
d="M81.5 27q-35.5 35 -35.5 94q0 16 1 24l26 215q8 68 55 111t117 43q63 0 99 -35.5t36 -94.5q0 -16 -1 -24l-27 -215q-8 -69 -55 -111t-117 -42q-63 0 -98.5 35zM252.5 81q26.5 26 31.5 69l25 206q1 6 1 16q0 36 -20 58t-53 22q-37 0 -63.5 -26.5t-31.5 -69.5l-26 -206
q-1 -6 -1 -16q0 -36 20 -57.5t53 -21.5q38 0 64.5 26zM186.5 607q-25.5 27 -23.5 68q2 10 11 10h22q9 0 9 -10q0 -26 14.5 -42t38.5 -16q23 0 41.5 16t24.5 42q3 10 12 10h22q10 0 8 -10q-8 -42 -39.5 -68.5t-73.5 -26.5q-41 0 -66.5 27z" />
    <glyph glyph-name="Ohungarumlaut" unicode="&#x150;" horiz-adv-x="442" 
d="M92 32.5q-40 40.5 -40 108.5q0 8 2 26l45 366q10 78 62.5 126.5t126.5 48.5q68 0 108.5 -40t40.5 -107q0 -8 -2 -28l-45 -366q-10 -79 -62.5 -127t-127.5 -48q-68 0 -108 40.5zM283.5 84.5q31.5 30.5 37.5 78.5l46 373q1 6 1 16q0 42 -24 68t-64 26q-43 0 -74 -30.5
t-37 -79.5l-46 -373q-1 -6 -1 -18q0 -41 23 -66t62 -25q45 0 76.5 30.5zM211.5 768.5q-1.5 3.5 0.5 8.5l69 109q4 7 13 7h40q6 0 7.5 -3.5t-1.5 -8.5l-72 -109q-3 -7 -12 -7h-38q-5 0 -6.5 3.5zM333 768.5q-2 3.5 2 8.5l70 109q4 7 13 7h38q5 0 7 -3.5t-2 -8.5l-72 -109
q-3 -7 -12 -7h-37q-5 0 -7 3.5z" />
    <glyph glyph-name="ohungarumlaut" unicode="&#x151;" horiz-adv-x="402" 
d="M81.5 27q-35.5 35 -35.5 94q0 16 1 24l26 215q8 68 55 111t117 43q63 0 99 -35.5t36 -94.5q0 -16 -1 -24l-27 -215q-8 -69 -55 -111t-117 -42q-63 0 -98.5 35zM252.5 81q26.5 26 31.5 69l25 206q1 6 1 16q0 36 -20 58t-53 22q-37 0 -63.5 -26.5t-31.5 -69.5l-26 -206
q-1 -6 -1 -16q0 -36 20 -57.5t53 -21.5q38 0 64.5 26zM167.5 575.5q-1.5 3.5 0.5 8.5l69 109q4 7 13 7h40q6 0 7.5 -3.5t-1.5 -8.5l-72 -109q-3 -7 -12 -7h-38q-5 0 -6.5 3.5zM289 575.5q-2 3.5 2 8.5l70 109q4 7 13 7h38q5 0 7 -3.5t-2 -8.5l-72 -109q-3 -7 -12 -7h-37
q-5 0 -7 3.5z" />
    <glyph glyph-name="OE" unicode="&#x152;" horiz-adv-x="666" 
d="M676 638h-224q-3 0 -5 -4l-30 -248q0 -4 3 -4h142q10 0 8 -10l-5 -43q-2 -10 -11 -10h-141q-2 0 -3.5 -1t-1.5 -3l-30 -249q-1 -1 0 -2.5t3 -1.5h224q9 0 9 -10l-6 -42q0 -4 -3 -7t-7 -3h-288q-4 0 -6.5 3t-1.5 7l3 28q1 2 -0.5 3t-3.5 -1q-48 -48 -116 -48
q-58 0 -95.5 40.5t-37.5 107.5q0 9 2 27l45 366q6 51 31.5 91t63 62t79.5 22q34 0 60.5 -12.5t43.5 -35.5q1 -2 3 -1t2 3l3 28q1 4 4 7t7 3h287q5 0 7.5 -3t1.5 -7l-5 -42q-2 -10 -11 -10zM283.5 84.5q31.5 30.5 37.5 78.5l46 373q1 6 1 16q0 42 -24 68t-64 26
q-43 0 -74 -30.5t-37 -79.5l-46 -373q-1 -6 -1 -18q0 -41 23 -66t62 -25q45 0 76.5 30.5z" />
    <glyph glyph-name="oe" unicode="&#x153;" horiz-adv-x="638" 
d="M595 233h-222q-4 0 -4 -4l-10 -79q-1 -6 -1 -16q0 -36 19.5 -58t53.5 -22q31 0 54.5 19.5t35.5 50.5q3 9 11 9l49 -2q4 0 6 -3.5t1 -7.5q-16 -59 -59 -93.5t-106 -34.5q-39 0 -66.5 17.5t-42.5 48.5q-3 3 -6 0q-49 -66 -128 -66q-63 0 -98.5 35t-35.5 94q0 16 1 24
l26 215q8 68 55 111t117 43q76 0 111 -67q2 -3 5 0q23 31 55 49t71 18q63 0 98.5 -35.5t35.5 -94.5q0 -16 -1 -24l-14 -117q-2 -10 -11 -10zM310 372q0 36 -19.5 58t-53.5 22q-37 0 -63.5 -26.5t-31.5 -69.5l-26 -206q-1 -6 -1 -16q0 -36 20 -58t53 -22q38 0 64.5 26.5
t31.5 69.5l25 206q1 6 1 16zM415.5 425.5q-26.5 -26.5 -31.5 -69.5l-8 -70q-1 -1 0 -2.5t3 -1.5h159q4 0 4 4l9 70q1 6 1 16q0 36 -19.5 58t-53.5 22q-37 0 -63.5 -26.5z" />
    <glyph glyph-name="Racute" unicode="&#x154;" horiz-adv-x="430" 
d="M311 8l-61 309q0 3 -3 3h-85q-1 0 -2.5 -1t-1.5 -3l-37 -306q-1 -4 -4 -7t-7 -3h-50q-10 0 -8 10l83 680q2 10 11 10h160q63 0 100 -43t37 -115q0 -11 -2 -35q-8 -65 -41 -112t-82 -66q-4 -1 -4 -5l68 -313v-2q0 -9 -10 -9h-50q-8 0 -11 8zM198.5 637q-1.5 -1 -1.5 -3
l-31 -253q0 -2 1 -3t2 -1h88q44 0 76 35.5t39 94.5q1 9 1 25q0 49 -22.5 77.5t-61.5 28.5h-87q-2 0 -3.5 -1zM251 769.5q-2 3.5 2 8.5l74 109q5 7 12 7h40q6 0 7 -3.5t-3 -8.5l-81 -109q-7 -7 -13 -7h-31q-5 0 -7 3.5z" />
    <glyph glyph-name="racute" unicode="&#x155;" horiz-adv-x="284" 
d="M309 500q6 -5 3 -13l-18 -52q-3 -9 -12 -6q-11 6 -28 6q-9 0 -13 -1q-34 -2 -61 -37.5t-33 -86.5l-37 -300q-2 -10 -11 -10h-50q-4 0 -6.5 3t-1.5 7l60 486q0 4 3 7t8 3h49q9 0 9 -10l-8 -60q0 -3 1.5 -3t2.5 2q39 76 102 76q23 0 41 -11zM178 575.5q-2 3.5 2 8.5l74 109
q5 7 12 7h40q6 0 7 -3.5t-3 -8.5l-81 -109q-7 -7 -13 -7h-31q-5 0 -7 3.5z" />
    <glyph glyph-name="uni0156" unicode="&#x156;" horiz-adv-x="430" 
d="M311 8l-61 309q0 3 -3 3h-85q-1 0 -2.5 -1t-1.5 -3l-37 -306q-1 -4 -4 -7t-7 -3h-50q-10 0 -8 10l83 680q2 10 11 10h160q63 0 100 -43t37 -115q0 -11 -2 -35q-8 -65 -41 -112t-82 -66q-4 -1 -4 -5l68 -313v-2q0 -9 -10 -9h-50q-8 0 -11 8zM198.5 637q-1.5 -1 -1.5 -3
l-31 -253q0 -2 1 -3t2 -1h88q44 0 76 35.5t39 94.5q1 9 1 25q0 49 -22.5 77.5t-61.5 28.5h-87q-2 0 -3.5 -1zM138 -186.5q-2 3.5 2 8.5l74 109q5 7 12 7h40q6 0 7 -3.5t-3 -8.5l-81 -109q-7 -7 -13 -7h-31q-5 0 -7 3.5z" />
    <glyph glyph-name="uni0157" unicode="&#x157;" horiz-adv-x="284" 
d="M309 500q6 -5 3 -13l-18 -52q-3 -9 -12 -6q-11 6 -28 6q-9 0 -13 -1q-34 -2 -61 -37.5t-33 -86.5l-37 -300q-2 -10 -11 -10h-50q-4 0 -6.5 3t-1.5 7l60 486q0 4 3 7t8 3h49q9 0 9 -10l-8 -60q0 -3 1.5 -3t2.5 2q39 76 102 76q23 0 41 -11zM-50 -186.5q-2 3.5 2 8.5
l74 109q5 7 12 7h40q6 0 7 -3.5t-3 -8.5l-81 -109q-7 -7 -13 -7h-31q-5 0 -7 3.5z" />
    <glyph glyph-name="Rcaron" unicode="&#x158;" horiz-adv-x="430" 
d="M311 8l-61 309q0 3 -3 3h-85q-1 0 -2.5 -1t-1.5 -3l-37 -306q-1 -4 -4 -7t-7 -3h-50q-10 0 -8 10l83 680q2 10 11 10h160q63 0 100 -43t37 -115q0 -11 -2 -35q-8 -65 -41 -112t-82 -66q-4 -1 -4 -5l68 -313v-2q0 -9 -10 -9h-50q-8 0 -11 8zM198.5 637q-1.5 -1 -1.5 -3
l-31 -253q0 -2 1 -3t2 -1h88q44 0 76 35.5t39 94.5q1 9 1 25q0 49 -22.5 77.5t-61.5 28.5h-87q-2 0 -3.5 -1zM202 887q0 7 8 7h42q8 0 11 -7l34 -73q0 -1 2 -1t3 1l51 73q7 7 13 7h42q12 0 5 -12l-78 -103q-5 -7 -12 -7h-59q-6 0 -10 7l-51 103q-1 2 -1 5z" />
    <glyph glyph-name="rcaron" unicode="&#x159;" horiz-adv-x="284" 
d="M309 500q6 -5 3 -13l-18 -52q-3 -9 -12 -6q-11 6 -28 6q-9 0 -13 -1q-34 -2 -61 -37.5t-33 -86.5l-37 -300q-2 -10 -11 -10h-50q-4 0 -6.5 3t-1.5 7l60 486q0 4 3 7t8 3h49q9 0 9 -10l-8 -60q0 -3 1.5 -3t2.5 2q39 76 102 76q23 0 41 -11zM129 693q0 7 8 7h42q8 0 11 -7
l34 -73q0 -1 2 -1t3 1l51 73q7 7 13 7h42q12 0 5 -12l-78 -103q-5 -7 -12 -7h-59q-6 0 -10 7l-51 103q-1 2 -1 5z" />
    <glyph glyph-name="Sacute" unicode="&#x15a;" horiz-adv-x="404" 
d="M78.5 32q-38.5 40 -38.5 108q0 9 2 29l3 23q2 10 11 10h47q5 0 7.5 -3t1.5 -7l-3 -20q-1 -7 -1 -20q0 -45 22 -71.5t59 -26.5q41 0 71.5 31t37.5 82q1 7 1 19q0 27 -11.5 48.5t-28.5 38.5t-58 52q-40 33 -63 57t-38 55.5t-15 72.5q0 9 2 29q10 78 58.5 123.5t118.5 45.5
q66 0 104 -40.5t38 -108.5q0 -10 -2 -32l-3 -25q-2 -10 -11 -10h-48q-9 0 -9 10l3 26q2 16 2 23q0 44 -22 69.5t-59 25.5q-40 0 -68 -28.5t-35 -80.5q-1 -7 -1 -20q0 -36 20 -62.5t73 -71.5q47 -40 71.5 -64.5t38 -52.5t13.5 -65q0 -8 -2 -28q-10 -82 -62 -131.5t-124 -49.5
q-64 0 -102.5 40zM231 769.5q-2 3.5 2 8.5l74 109q5 7 12 7h40q6 0 7 -3.5t-3 -8.5l-81 -109q-7 -7 -13 -7h-31q-5 0 -7 3.5z" />
    <glyph glyph-name="sacute" unicode="&#x15b;" horiz-adv-x="363" 
d="M70 25q-35 30 -35 81q0 13 1 19l1 7q0 4 3 7t8 3h46q9 0 9 -10l-1 -6q-4 -32 16 -54t57 -22q38 0 63 25.5t25 63.5q0 22 -12 37.5t-27 24t-49 24.5q-32 14 -53.5 28t-37 38t-15.5 60q0 14 1 22q8 64 51 101t108 37q60 0 93.5 -32t33.5 -86q0 -14 -1 -21v-3
q-2 -10 -11 -10h-45q-10 0 -8 10v6q1 4 1 12q0 29 -19 47.5t-51 18.5q-34 0 -57.5 -22.5t-28.5 -55.5q-3 -24 7.5 -40.5t27.5 -27.5t49 -25q35 -16 57 -30.5t38.5 -39t16.5 -60.5q0 -71 -46 -114t-119 -43q-62 0 -97 30zM195 575.5q-2 3.5 2 8.5l74 109q5 7 12 7h40
q6 0 7 -3.5t-3 -8.5l-81 -109q-7 -7 -13 -7h-31q-5 0 -7 3.5z" />
    <glyph glyph-name="Scircumflex" unicode="&#x15c;" horiz-adv-x="404" 
d="M78.5 32q-38.5 40 -38.5 108q0 9 2 29l3 23q2 10 11 10h47q5 0 7.5 -3t1.5 -7l-3 -20q-1 -7 -1 -20q0 -45 22 -71.5t59 -26.5q41 0 71.5 31t37.5 82q1 7 1 19q0 27 -11.5 48.5t-28.5 38.5t-58 52q-40 33 -63 57t-38 55.5t-15 72.5q0 9 2 29q10 78 58.5 123.5t118.5 45.5
q66 0 104 -40.5t38 -108.5q0 -10 -2 -32l-3 -25q-2 -10 -11 -10h-48q-9 0 -9 10l3 26q2 16 2 23q0 44 -22 69.5t-59 25.5q-40 0 -68 -28.5t-35 -80.5q-1 -7 -1 -20q0 -36 20 -62.5t73 -71.5q47 -40 71.5 -64.5t38 -52.5t13.5 -65q0 -8 -2 -28q-10 -82 -62 -131.5t-124 -49.5
q-64 0 -102.5 40zM165.5 775.5q-1.5 3.5 2.5 8.5l76 103q5 7 12 7h59q6 0 10 -7l53 -103q1 -2 1 -5q0 -7 -9 -7h-42q-8 0 -11 7l-33 73q-1 2 -3 1.5t-3 -1.5l-51 -73q-7 -7 -13 -7h-42q-5 0 -6.5 3.5z" />
    <glyph glyph-name="scircumflex" unicode="&#x15d;" horiz-adv-x="363" 
d="M70 25q-35 30 -35 81q0 13 1 19l1 7q0 4 3 7t8 3h46q9 0 9 -10l-1 -6q-4 -32 16 -54t57 -22q38 0 63 25.5t25 63.5q0 22 -12 37.5t-27 24t-49 24.5q-32 14 -53.5 28t-37 38t-15.5 60q0 14 1 22q8 64 51 101t108 37q60 0 93.5 -32t33.5 -86q0 -14 -1 -21v-3
q-2 -10 -11 -10h-45q-10 0 -8 10v6q1 4 1 12q0 29 -19 47.5t-51 18.5q-34 0 -57.5 -22.5t-28.5 -55.5q-3 -24 7.5 -40.5t27.5 -27.5t49 -25q35 -16 57 -30.5t38.5 -39t16.5 -60.5q0 -71 -46 -114t-119 -43q-62 0 -97 30zM130.5 581.5q-1.5 3.5 2.5 8.5l76 103q5 7 12 7h59
q6 0 10 -7l53 -103q1 -2 1 -5q0 -7 -9 -7h-42q-8 0 -11 7l-33 73q-1 2 -3 1.5t-3 -1.5l-51 -73q-7 -7 -13 -7h-42q-5 0 -6.5 3.5z" />
    <glyph glyph-name="Scedilla" unicode="&#x15e;" horiz-adv-x="404" 
d="M315.5 52.5q-41.5 -47.5 -102.5 -57.5q-5 -2 -3 -5q30 -37 30 -79q0 -19 -6 -37q-10 -32 -33 -45t-50 -13q-17 0 -29 3q-8 2 -5 11l5 22q3 10 13 7q3 -1 10 -1q33 0 44 36q3 10 3 21q0 35 -33 77l-4 2q-53 8 -84 46.5t-31 98.5q0 10 2 30l3 23q2 10 11 10h47q5 0 7.5 -3
t1.5 -7l-3 -20q-1 -7 -1 -20q0 -45 22 -71.5t59 -26.5q41 0 71.5 31t37.5 82q1 7 1 19q0 27 -11.5 48.5t-28.5 38.5t-58 52q-40 33 -63 57t-38 55.5t-15 72.5q0 9 2 29q10 78 58.5 123.5t118.5 45.5q66 0 104 -40.5t38 -108.5q0 -10 -2 -32l-3 -25q-2 -10 -11 -10h-48
q-9 0 -9 10l3 26q2 16 2 23q0 44 -22 69.5t-59 25.5q-40 0 -68 -28.5t-35 -80.5q-1 -7 -1 -20q0 -36 20 -62.5t73 -71.5q47 -40 71.5 -64.5t38 -52.5t13.5 -65q0 -8 -2 -28q-10 -73 -51.5 -120.5z" />
    <glyph glyph-name="scedilla" unicode="&#x15f;" horiz-adv-x="363" 
d="M296 48q-36 -41 -96 -50q-6 -2 -3 -5q31 -37 31 -79q0 -19 -6 -37q-10 -32 -33 -45.5t-50 -13.5q-17 0 -29 3q-4 1 -5.5 4t0.5 8l5 21q3 10 13 8q4 -1 11 -1q19 0 32.5 13.5t13.5 41.5q0 37 -34 78q-2 2 -5 2q-50 6 -78 35.5t-28 74.5q0 12 1 19l1 7q0 4 3 7t8 3h46
q9 0 9 -10l-1 -6q-4 -32 16 -54t57 -22q38 0 63 25.5t25 63.5q0 22 -12 37.5t-27 24t-49 24.5q-32 14 -53.5 28t-37 38t-15.5 60q0 14 1 22q8 64 51 101t108 37q60 0 93.5 -32t33.5 -86q0 -14 -1 -21v-3q-2 -10 -11 -10h-45q-10 0 -8 10v6q1 4 1 12q0 29 -19 47.5t-51 18.5
q-34 0 -57.5 -22.5t-28.5 -55.5q-3 -24 7.5 -40.5t27.5 -27.5t49 -25q35 -16 57 -30.5t38.5 -39t16.5 -60.5q0 -63 -36 -104z" />
    <glyph glyph-name="Scaron" unicode="&#x160;" horiz-adv-x="404" 
d="M78.5 32q-38.5 40 -38.5 108q0 9 2 29l3 23q2 10 11 10h47q5 0 7.5 -3t1.5 -7l-3 -20q-1 -7 -1 -20q0 -45 22 -71.5t59 -26.5q41 0 71.5 31t37.5 82q1 7 1 19q0 27 -11.5 48.5t-28.5 38.5t-58 52q-40 33 -63 57t-38 55.5t-15 72.5q0 9 2 29q10 78 58.5 123.5t118.5 45.5
q66 0 104 -40.5t38 -108.5q0 -10 -2 -32l-3 -25q-2 -10 -11 -10h-48q-9 0 -9 10l3 26q2 16 2 23q0 44 -22 69.5t-59 25.5q-40 0 -68 -28.5t-35 -80.5q-1 -7 -1 -20q0 -36 20 -62.5t73 -71.5q47 -40 71.5 -64.5t38 -52.5t13.5 -65q0 -8 -2 -28q-10 -82 -62 -131.5t-124 -49.5
q-64 0 -102.5 40zM182 887q0 7 8 7h42q8 0 11 -7l34 -73q0 -1 2 -1t3 1l51 73q7 7 13 7h42q12 0 5 -12l-78 -103q-5 -7 -12 -7h-59q-6 0 -10 7l-51 103q-1 2 -1 5z" />
    <glyph glyph-name="scaron" unicode="&#x161;" horiz-adv-x="363" 
d="M70 25q-35 30 -35 81q0 13 1 19l1 7q0 4 3 7t8 3h46q9 0 9 -10l-1 -6q-4 -32 16 -54t57 -22q38 0 63 25.5t25 63.5q0 22 -12 37.5t-27 24t-49 24.5q-32 14 -53.5 28t-37 38t-15.5 60q0 14 1 22q8 64 51 101t108 37q60 0 93.5 -32t33.5 -86q0 -14 -1 -21v-3
q-2 -10 -11 -10h-45q-10 0 -8 10v6q1 4 1 12q0 29 -19 47.5t-51 18.5q-34 0 -57.5 -22.5t-28.5 -55.5q-3 -24 7.5 -40.5t27.5 -27.5t49 -25q35 -16 57 -30.5t38.5 -39t16.5 -60.5q0 -71 -46 -114t-119 -43q-62 0 -97 30zM146 693q0 7 8 7h42q8 0 11 -7l34 -73q0 -1 2 -1t3 1
l51 73q7 7 13 7h42q12 0 5 -12l-78 -103q-5 -7 -12 -7h-59q-6 0 -10 7l-51 103q-1 2 -1 5z" />
    <glyph glyph-name="uni0162" unicode="&#x162;" horiz-adv-x="410" 
d="M443 690l-6 -42q0 -4 -3 -7t-7 -3h-128q-2 0 -3.5 -1t-1.5 -3l-76 -624q-1 -4 -4 -7t-7 -3h-50q-10 0 -8 10l76 624q1 1 0 2.5t-3 1.5h-120q-5 0 -7.5 3t-1.5 7l5 42q2 10 11 10h325q9 0 9 -10zM133.5 -178q-1.5 3 0.5 8l5 21q3 8 11 8q1 -1 4 -1q22 -3 38 10.5t16 47.5
q0 35 -30 72q-3 3 -3 6q0 6 9 6h26q6 0 9 -3q3 -2 3 -4q34 -35 34 -83q0 -16 -5 -36q-10 -32 -33 -45.5t-50 -13.5q-17 0 -29 3q-4 1 -5.5 4z" />
    <glyph glyph-name="uni0163" unicode="&#x163;" horiz-adv-x="259" 
d="M266 456q-3 -3 -8 -3h-73q-3 0 -5 -4l-37 -306q-2 -18 -2 -25q0 -32 13.5 -44t41.5 -11h10q4 0 6.5 -3t1.5 -7l-5 -43q-2 -10 -11 -10h-20q-2 0 -3 -1.5t0 -3.5q20 -30 20 -65q0 -19 -6 -37q-10 -32 -33 -45.5t-50 -13.5q-17 0 -29 3q-8 1 -5 11l5 22q3 8 11 8q1 -1 4 -1
q23 -3 38.5 10t15.5 46q0 38 -31 74q-1 1 -4 3q-41 20 -41 82q0 8 2 30l40 327q1 1 0 2.5t-3 1.5h-38q-10 0 -8 10l4 33q0 4 3 7t8 3h37q2 0 3.5 1t1.5 3l14 112q0 4 3 7t8 3h48q9 0 9 -10l-14 -112q0 -4 3 -4h74q10 0 8 -10l-4 -33q0 -4 -3 -7z" />
    <glyph glyph-name="Tcaron" unicode="&#x164;" horiz-adv-x="410" 
d="M443 690l-6 -42q0 -4 -3 -7t-7 -3h-128q-2 0 -3.5 -1t-1.5 -3l-76 -624q-1 -4 -4 -7t-7 -3h-50q-10 0 -8 10l76 624q1 1 0 2.5t-3 1.5h-120q-5 0 -7.5 3t-1.5 7l5 42q2 10 11 10h325q9 0 9 -10zM187 885q0 7 8 7h42q8 0 11 -7l34 -73q0 -1 2 -1t3 1l51 73q7 7 13 7h42
q12 0 5 -12l-78 -103q-5 -7 -12 -7h-59q-6 0 -10 7l-51 103q-1 2 -1 5z" />
    <glyph glyph-name="tcaron" unicode="&#x165;" horiz-adv-x="259" 
d="M266 456q-3 -3 -8 -3h-73q-3 0 -5 -4l-37 -306q-2 -18 -2 -25q0 -32 13.5 -44t41.5 -11h10q4 0 6.5 -3t1.5 -7l-5 -43q-2 -10 -11 -10h-24q-51 0 -77.5 19.5t-26.5 72.5q0 8 2 30l40 327q1 1 0 2.5t-3 1.5h-38q-10 0 -8 10l4 33q0 4 3 7t8 3h37q2 0 3.5 1t1.5 3l14 112
q0 4 3 7t8 3h48q9 0 9 -10l-14 -112q0 -4 3 -4h74q10 0 8 -10l-4 -33q0 -4 -3 -7zM217 575.5q-2 3.5 2 8.5l74 109q5 7 12 7h40q6 0 7 -3.5t-3 -8.5l-81 -109q-7 -7 -13 -7h-31q-5 0 -7 3.5z" />
    <glyph glyph-name="Tbar" unicode="&#x166;" horiz-adv-x="410" 
d="M434 641q-3 -3 -7 -3h-128q-2 0 -3.5 -1t-1.5 -3l-26 -212q0 -4 4 -4h75q9 0 9 -10l-4 -27q0 -4 -3 -7t-8 -3h-75q-3 0 -5 -4l-43 -357q-1 -4 -4 -7t-7 -3h-50q-10 0 -8 10l44 357q0 4 -4 4h-86q-9 0 -9 10l4 27q0 4 3 7t8 3h86q4 0 4 4l26 212q1 1 0 2.5t-3 1.5h-120
q-5 0 -7.5 3t-1.5 7l5 42q2 10 11 10h325q9 0 9 -10l-6 -42q0 -4 -3 -7z" />
    <glyph glyph-name="tbar" unicode="&#x167;" horiz-adv-x="259" 
d="M266 456q-3 -3 -8 -3h-73q-3 0 -5 -4l-12 -96q0 -4 4 -4h73q4 0 6.5 -3t1.5 -7l-3 -28q-2 -10 -11 -10h-73q-4 0 -4 -4l-19 -154q-2 -18 -2 -25q0 -32 13.5 -44t41.5 -11h10q4 0 6.5 -3t1.5 -7l-5 -43q-2 -10 -11 -10h-24q-51 0 -77.5 19.5t-26.5 72.5q0 8 2 30l22 175
q0 4 -4 4h-36q-4 0 -6.5 3t-1.5 7l3 28q2 10 11 10h36q3 0 5 4l11 96q1 1 0 2.5t-3 1.5h-38q-10 0 -8 10l4 33q0 4 3 7t8 3h37q2 0 3.5 1t1.5 3l14 112q0 4 3 7t8 3h48q9 0 9 -10l-14 -112q0 -4 3 -4h74q10 0 8 -10l-4 -33q0 -4 -3 -7z" />
    <glyph glyph-name="Utilde" unicode="&#x168;" horiz-adv-x="462" 
d="M104 35q-39 43 -39 117q0 9 2 33l62 505q2 10 11 10h50q10 0 8 -10l-63 -513q-1 -8 -1 -23q0 -45 22 -72.5t61 -27.5q44 0 75.5 34t38.5 89l63 513q2 10 11 10h50q4 0 6.5 -3t1.5 -7l-62 -505q-10 -87 -63 -140t-128 -53q-67 0 -106 43zM346 807.5q-10 5.5 -26 16.5
q-3 2 -11 8.5t-15 9t-14 2.5q-14 0 -25 -5.5t-22 -20.5q-8 -9 -14 -3l-16 13q-7 7 -2 14q32 52 80 52q25 0 54 -23q14 -12 21.5 -16.5t19.5 -4.5q25 0 45 28q2 4 6 5t8 -1l16 -12q3 -3 3 -6q0 -4 -5 -14q-17 -25 -39 -36.5t-40 -11.5q-14 0 -24 5.5z" />
    <glyph glyph-name="utilde" unicode="&#x169;" 
d="M328 503q3 3 8 3h49q9 0 9 -10l-60 -486q-2 -10 -11 -10h-49q-5 0 -7.5 3t-1.5 7l4 34q1 3 -0.5 3t-3.5 -2q-37 -52 -104 -52q-52 0 -81.5 29t-29.5 88q0 8 2 30l44 356q2 10 11 10h49q9 0 9 -10l-42 -340q-2 -18 -2 -24q0 -77 67 -77q39 0 64.5 29t31.5 79l41 333
q0 4 3 7zM294 613.5q-10 5.5 -26 16.5q-3 2 -11 8.5t-15 9t-14 2.5q-14 0 -25 -5.5t-22 -20.5q-8 -9 -14 -3l-16 13q-7 7 -2 14q32 52 80 52q25 0 54 -23q14 -12 21.5 -16.5t19.5 -4.5q25 0 45 28q2 4 6 5t8 -1l16 -12q3 -3 3 -6q0 -4 -5 -14q-17 -25 -39 -36.5t-40 -11.5
q-14 0 -24 5.5z" />
    <glyph glyph-name="Umacron" unicode="&#x16a;" horiz-adv-x="462" 
d="M104 35q-39 43 -39 117q0 9 2 33l62 505q2 10 11 10h50q10 0 8 -10l-63 -513q-1 -8 -1 -23q0 -45 22 -72.5t61 -27.5q44 0 75.5 34t38.5 89l63 513q2 10 11 10h50q4 0 6.5 -3t1.5 -7l-62 -505q-10 -87 -63 -140t-128 -53q-67 0 -106 43zM210 799l4 32q0 4 3 7t7 3h178
q10 0 8 -10l-3 -32q-1 -4 -4 -7t-7 -3h-178q-10 0 -8 10z" />
    <glyph glyph-name="umacron" unicode="&#x16b;" 
d="M328 503q3 3 8 3h49q9 0 9 -10l-60 -486q-2 -10 -11 -10h-49q-5 0 -7.5 3t-1.5 7l4 34q1 3 -0.5 3t-3.5 -2q-37 -52 -104 -52q-52 0 -81.5 29t-29.5 88q0 8 2 30l44 356q2 10 11 10h49q9 0 9 -10l-42 -340q-2 -18 -2 -24q0 -77 67 -77q39 0 64.5 29t31.5 79l41 333
q0 4 3 7zM158 605l4 32q0 4 3 7t7 3h178q10 0 8 -10l-3 -32q-1 -4 -4 -7t-7 -3h-178q-10 0 -8 10z" />
    <glyph glyph-name="Ubreve" unicode="&#x16c;" horiz-adv-x="462" 
d="M104 35q-39 43 -39 117q0 9 2 33l62 505q2 10 11 10h50q10 0 8 -10l-63 -513q-1 -8 -1 -23q0 -45 22 -72.5t61 -27.5q44 0 75.5 34t38.5 89l63 513q2 10 11 10h50q4 0 6.5 -3t1.5 -7l-62 -505q-10 -87 -63 -140t-128 -53q-67 0 -106 43zM239.5 801q-25.5 27 -23.5 68
q2 10 11 10h22q9 0 9 -10q0 -26 14.5 -42t38.5 -16q23 0 41.5 16t24.5 42q3 10 12 10h22q10 0 8 -10q-8 -42 -39.5 -68.5t-73.5 -26.5q-41 0 -66.5 27z" />
    <glyph glyph-name="ubreve" unicode="&#x16d;" 
d="M328 503q3 3 8 3h49q9 0 9 -10l-60 -486q-2 -10 -11 -10h-49q-5 0 -7.5 3t-1.5 7l4 34q1 3 -0.5 3t-3.5 -2q-37 -52 -104 -52q-52 0 -81.5 29t-29.5 88q0 8 2 30l44 356q2 10 11 10h49q9 0 9 -10l-42 -340q-2 -18 -2 -24q0 -77 67 -77q39 0 64.5 29t31.5 79l41 333
q0 4 3 7zM187.5 607q-25.5 27 -23.5 68q2 10 11 10h22q9 0 9 -10q0 -26 14.5 -42t38.5 -16q23 0 41.5 16t24.5 42q3 10 12 10h22q10 0 8 -10q-8 -42 -39.5 -68.5t-73.5 -26.5q-41 0 -66.5 27z" />
    <glyph glyph-name="Uring" unicode="&#x16e;" horiz-adv-x="462" 
d="M104 35q-39 43 -39 117q0 9 2 33l62 505q2 10 11 10h50q10 0 8 -10l-63 -513q-1 -8 -1 -23q0 -45 22 -72.5t61 -27.5q44 0 75.5 34t38.5 89l63 513q2 10 11 10h50q4 0 6.5 -3t1.5 -7l-62 -505q-10 -87 -63 -140t-128 -53q-67 0 -106 43zM240.5 799.5
q-25.5 26.5 -25.5 67.5q0 32 16.5 60t43.5 45t57 17q39 0 65 -27t26 -67q0 -33 -16 -61t-43 -44.5t-58 -16.5q-40 0 -65.5 26.5zM360 838q21 22 21 53q0 24 -15.5 40t-38.5 16q-28 0 -49 -22.5t-21 -53.5q0 -24 15.5 -39.5t38.5 -15.5q28 0 49 22z" />
    <glyph glyph-name="uring" unicode="&#x16f;" 
d="M328 503q3 3 8 3h49q9 0 9 -10l-60 -486q-2 -10 -11 -10h-49q-5 0 -7.5 3t-1.5 7l4 34q1 3 -0.5 3t-3.5 -2q-37 -52 -104 -52q-52 0 -81.5 29t-29.5 88q0 8 2 30l44 356q2 10 11 10h49q9 0 9 -10l-42 -340q-2 -18 -2 -24q0 -77 67 -77q39 0 64.5 29t31.5 79l41 333
q0 4 3 7zM188.5 605.5q-25.5 26.5 -25.5 67.5q0 32 16.5 60t43.5 45t57 17q39 0 65 -27t26 -67q0 -33 -16 -61t-43 -44.5t-58 -16.5q-40 0 -65.5 26.5zM308 644q21 22 21 53q0 24 -15.5 40t-38.5 16q-28 0 -49 -22.5t-21 -53.5q0 -24 15.5 -39.5t38.5 -15.5q28 0 49 22z" />
    <glyph glyph-name="Uhungarumlaut" unicode="&#x170;" horiz-adv-x="462" 
d="M104 35q-39 43 -39 117q0 9 2 33l62 505q2 10 11 10h50q10 0 8 -10l-63 -513q-1 -8 -1 -23q0 -45 22 -72.5t61 -27.5q44 0 75.5 34t38.5 89l63 513q2 10 11 10h50q4 0 6.5 -3t1.5 -7l-62 -505q-10 -87 -63 -140t-128 -53q-67 0 -106 43zM221.5 769.5q-1.5 3.5 0.5 8.5
l69 109q4 7 13 7h40q6 0 7.5 -3.5t-1.5 -8.5l-72 -109q-3 -7 -12 -7h-38q-5 0 -6.5 3.5zM343 769.5q-2 3.5 2 8.5l70 109q4 7 13 7h38q5 0 7 -3.5t-2 -8.5l-72 -109q-3 -7 -12 -7h-37q-5 0 -7 3.5z" />
    <glyph glyph-name="uhungarumlaut" unicode="&#x171;" 
d="M328 503q3 3 8 3h49q9 0 9 -10l-60 -486q-2 -10 -11 -10h-49q-5 0 -7.5 3t-1.5 7l4 34q1 3 -0.5 3t-3.5 -2q-37 -52 -104 -52q-52 0 -81.5 29t-29.5 88q0 8 2 30l44 356q2 10 11 10h49q9 0 9 -10l-42 -340q-2 -18 -2 -24q0 -77 67 -77q39 0 64.5 29t31.5 79l41 333
q0 4 3 7zM169.5 575.5q-1.5 3.5 0.5 8.5l69 109q4 7 13 7h40q6 0 7.5 -3.5t-1.5 -8.5l-72 -109q-3 -7 -12 -7h-38q-5 0 -6.5 3.5zM291 575.5q-2 3.5 2 8.5l70 109q4 7 13 7h38q5 0 7 -3.5t-2 -8.5l-72 -109q-3 -7 -12 -7h-37q-5 0 -7 3.5z" />
    <glyph glyph-name="Uogonek" unicode="&#x172;" horiz-adv-x="462" 
d="M405 700h50q4 0 6.5 -3t1.5 -7l-62 -505q-10 -80 -55.5 -131.5t-112.5 -60.5q-3 0 -5 -2q-47 -45 -47 -89q0 -38 32 -38q7 0 11 1q3 0 4 1q9 0 9 -8v-22q0 -10 -8 -11q-13 -3 -30 -3q-28 0 -48 14t-20 48q0 60 46 106q4 4 -1 5q-52 11 -81.5 52.5t-29.5 104.5q0 11 2 33
l62 505q2 10 11 10h50q10 0 8 -10l-63 -513q-1 -8 -1 -23q0 -45 22 -72.5t61 -27.5q44 0 75.5 34t38.5 89l63 513q2 10 11 10z" />
    <glyph glyph-name="uogonek" unicode="&#x173;" 
d="M317 -141q3 0 5.5 -2t2.5 -6v-21v-2q0 -6 -9 -10q-13 -3 -29 -3q-29 0 -48.5 15t-19.5 51q0 64 58 114q2 2 1.5 3.5t-2.5 1.5h-2q-5 0 -7.5 3t-1.5 7l4 34q1 3 -0.5 3t-3.5 -2q-37 -52 -104 -52q-52 0 -81.5 29t-29.5 88q0 8 2 30l44 356q2 10 11 10h49q9 0 9 -10
l-42 -340q-2 -18 -2 -24q0 -77 67 -77q39 0 64.5 29t31.5 79l41 333q0 4 3 7t8 3h49q9 0 9 -10l-60 -489q-1 -6 -7 -12q-27 -23 -43 -49.5t-15 -51.5q0 -22 12 -30t31 -6q3 0 5 1z" />
    <glyph glyph-name="Wcircumflex" unicode="&#x174;" horiz-adv-x="601" 
d="M138 9l-45 680q0 5 3 8t7 3h52q9 0 9 -9l27 -526q1 -2 2 -2t2 2l143 526q3 9 11 9h44q9 0 9 -9l18 -526q1 -4 4 0l148 526q2 9 11 9h51q5 0 7 -3t0 -8l-203 -680q-3 -9 -12 -9h-48q-8 0 -8 9l-17 528q-1 2 -2 2t-2 -2l-144 -528q-3 -9 -11 -9h-47q-9 0 -9 9zM269.5 775.5
q-1.5 3.5 2.5 8.5l76 103q5 7 12 7h59q6 0 10 -7l53 -103q1 -2 1 -5q0 -7 -9 -7h-42q-8 0 -11 7l-33 73q-1 2 -3 1.5t-3 -1.5l-51 -73q-7 -7 -13 -7h-42q-5 0 -6.5 3.5z" />
    <glyph glyph-name="wcircumflex" unicode="&#x175;" horiz-adv-x="538" 
d="M108 9l-43 486q0 11 10 11h47q10 0 10 -9l23 -382q0 -2 1.5 -2t2.5 2l118 382q3 9 12 9h44q9 0 9 -9l25 -382q1 -2 2 -2t2 2l119 382q2 9 12 9l46 -1q10 0 7 -11l-162 -485q-3 -9 -12 -9h-49q-10 0 -10 9l-27 366q0 3 -1 3t-3 -3l-113 -366q-3 -9 -12 -9h-49q-9 0 -9 9z
M212.5 581.5q-1.5 3.5 2.5 8.5l76 103q5 7 12 7h59q6 0 10 -7l53 -103q1 -2 1 -5q0 -7 -9 -7h-42q-8 0 -11 7l-33 73q-1 2 -3 1.5t-3 -1.5l-51 -73q-7 -7 -13 -7h-42q-5 0 -6.5 3.5z" />
    <glyph glyph-name="Ycircumflex" unicode="&#x176;" 
d="M154 11l36 299q0 1 0.5 2.5t-0.5 2.5l-89 373v3q0 9 9 9h53q3 0 6 -2t4 -6l59 -293q1 -2 3 -2t3 2l131 293q5 8 13 8h52q5 0 6.5 -3.5t-0.5 -8.5l-179 -373q-2 -2 -2 -5l-36 -299q-1 -4 -4 -7t-7 -3h-50q-10 0 -8 10zM174.5 775.5q-1.5 3.5 2.5 8.5l76 103q5 7 12 7h59
q6 0 10 -7l53 -103q1 -2 1 -5q0 -7 -9 -7h-42q-8 0 -11 7l-33 73q-1 2 -3 1.5t-3 -1.5l-51 -73q-7 -7 -13 -7h-42q-5 0 -6.5 3.5z" />
    <glyph glyph-name="ycircumflex" unicode="&#x177;" horiz-adv-x="356" 
d="M-5 -197q-2 3 -1 7l5 40q2 10 11 10q30 1 48 12t32.5 39t32.5 86q1 1 0.5 3t0.5 3l-63 492v2q0 9 10 9h52q10 0 10 -9l37 -393q0 -3 1.5 -3t2.5 3l132 393q3 9 12 9l54 -1q5 0 7 -3t0 -8l-201 -538q-26 -67 -47 -99t-49.5 -44.5t-77.5 -12.5h-5q-2 0 -4 3zM123.5 581.5
q-1.5 3.5 2.5 8.5l76 103q5 7 12 7h59q6 0 10 -7l53 -103q1 -2 1 -5q0 -7 -9 -7h-42q-8 0 -11 7l-33 73q-1 2 -3 1.5t-3 -1.5l-51 -73q-7 -7 -13 -7h-42q-5 0 -6.5 3.5z" />
    <glyph glyph-name="Ydieresis" unicode="&#x178;" 
d="M154 11l36 299q0 1 0.5 2.5t-0.5 2.5l-89 373v3q0 9 9 9h53q3 0 6 -2t4 -6l59 -293q1 -2 3 -2t3 2l131 293q5 8 13 8h52q5 0 6.5 -3.5t-0.5 -8.5l-179 -373q-2 -2 -2 -5l-36 -299q-1 -4 -4 -7t-7 -3h-50q-10 0 -8 10zM322 805.5q-13 13.5 -13 34.5q0 28 18 46t44 18
q21 0 34.5 -13t13.5 -35q0 -27 -18 -45.5t-44 -18.5q-22 0 -35 13.5zM176 805.5q-13 13.5 -13 34.5q0 28 18 46t44 18q21 0 34.5 -13t13.5 -35q0 -27 -18 -45.5t-44 -18.5q-22 0 -35 13.5z" />
    <glyph glyph-name="Zacute" unicode="&#x179;" horiz-adv-x="383" 
d="M14 10l5 46q2 6 5 12l305 565q1 2 0.5 3.5t-2.5 1.5h-226q-5 0 -7.5 3t-1.5 7l5 42q2 10 11 10h294q9 0 9 -10l-6 -46q0 -2 -4 -12l-305 -565q-1 -2 0 -3.5t3 -1.5h225q10 0 8 -10l-5 -42q-2 -10 -11 -10h-294q-10 0 -8 10zM224 769.5q-2 3.5 2 8.5l74 109q5 7 12 7h40
q6 0 7 -3.5t-3 -8.5l-81 -109q-7 -7 -13 -7h-31q-5 0 -7 3.5z" />
    <glyph glyph-name="zacute" unicode="&#x17a;" horiz-adv-x="350" 
d="M14 10l6 48q0 5 4 13l244 365q1 2 0.5 3.5t-1.5 1.5h-187q-4 0 -6.5 3t-1.5 7l5 45q2 10 11 10h262q9 0 9 -10l-6 -48q-2 -10 -5 -13l-245 -365q-2 -2 -1 -3.5t3 -1.5h193q10 0 8 -10l-5 -45q-2 -10 -11 -10h-268q-10 0 -8 10zM188 575.5q-2 3.5 2 8.5l74 109q5 7 12 7
h40q6 0 7 -3.5t-3 -8.5l-81 -109q-7 -7 -13 -7h-31q-5 0 -7 3.5z" />
    <glyph glyph-name="Zdotaccent" unicode="&#x17b;" horiz-adv-x="383" 
d="M14 10l5 46q2 6 5 12l305 565q1 2 0.5 3.5t-2.5 1.5h-226q-5 0 -7.5 3t-1.5 7l5 42q2 10 11 10h294q9 0 9 -10l-6 -46q0 -2 -4 -12l-305 -565q-1 -2 0 -3.5t3 -1.5h225q10 0 8 -10l-5 -42q-2 -10 -11 -10h-294q-10 0 -8 10zM234 805.5q-13 13.5 -13 34.5q0 28 18 46
t44 18q21 0 34.5 -13t13.5 -35q0 -27 -18 -45.5t-44 -18.5q-22 0 -35 13.5z" />
    <glyph glyph-name="zdotaccent" unicode="&#x17c;" horiz-adv-x="350" 
d="M14 10l6 48q0 5 4 13l244 365q1 2 0.5 3.5t-1.5 1.5h-187q-4 0 -6.5 3t-1.5 7l5 45q2 10 11 10h262q9 0 9 -10l-6 -48q-2 -10 -5 -13l-245 -365q-2 -2 -1 -3.5t3 -1.5h193q10 0 8 -10l-5 -45q-2 -10 -11 -10h-268q-10 0 -8 10zM197 611.5q-13 13.5 -13 34.5q0 28 18 46
t44 18q21 0 34.5 -13t13.5 -35q0 -27 -18 -45.5t-44 -18.5q-22 0 -35 13.5z" />
    <glyph glyph-name="Zcaron" unicode="&#x17d;" horiz-adv-x="383" 
d="M14 10l5 46q2 6 5 12l305 565q1 2 0.5 3.5t-2.5 1.5h-226q-5 0 -7.5 3t-1.5 7l5 42q2 10 11 10h294q9 0 9 -10l-6 -46q0 -2 -4 -12l-305 -565q-1 -2 0 -3.5t3 -1.5h225q10 0 8 -10l-5 -42q-2 -10 -11 -10h-294q-10 0 -8 10zM176 887q0 7 8 7h42q8 0 11 -7l34 -73
q0 -1 2 -1t3 1l51 73q7 7 13 7h42q12 0 5 -12l-78 -103q-5 -7 -12 -7h-59q-6 0 -10 7l-51 103q-1 2 -1 5z" />
    <glyph glyph-name="zcaron" unicode="&#x17e;" horiz-adv-x="350" 
d="M14 10l6 48q0 5 4 13l244 365q1 2 0.5 3.5t-1.5 1.5h-187q-4 0 -6.5 3t-1.5 7l5 45q2 10 11 10h262q9 0 9 -10l-6 -48q-2 -10 -5 -13l-245 -365q-2 -2 -1 -3.5t3 -1.5h193q10 0 8 -10l-5 -45q-2 -10 -11 -10h-268q-10 0 -8 10zM139 693q0 7 8 7h42q8 0 11 -7l34 -73
q0 -1 2 -1t3 1l51 73q7 7 13 7h42q12 0 5 -12l-78 -103q-5 -7 -12 -7h-59q-6 0 -10 7l-51 103q-1 2 -1 5z" />
    <glyph glyph-name="uni018F" unicode="&#x18f;" horiz-adv-x="503" 
d="M445.5 660q47.5 -48 47.5 -127q0 -11 -2 -33l-37 -303q-7 -60 -38 -107.5t-79.5 -74t-107.5 -26.5q-83 0 -130.5 48.5t-47.5 127.5q0 10 2 32l20 164q1 4 4 7t7 3h319q1 0 2.5 1t1.5 3l15 122q2 16 2 25q0 55 -31.5 89.5t-83.5 34.5q-48 0 -85 -30.5t-53 -81.5
q-3 -9 -11 -9l-54 2q-4 0 -6 3t-1 7q20 79 78.5 125t139.5 46t128.5 -48zM336 93.5q42 42.5 50 107.5l12 100q0 4 -4 4h-256q-4 0 -4 -4l-12 -100q-2 -16 -2 -24q0 -56 32 -91t84 -35q58 0 100 42.5z" />
    <glyph glyph-name="florin" unicode="&#x192;" horiz-adv-x="453" 
d="M346 672.5q38 36.5 107 36.5q18 0 27 -1q9 -2 8 -11l-7 -44q-1 -10 -11 -10h-21q-40 0 -61.5 -27t-36.5 -82l-40 -142q0 -4 2 -4h70q9 0 9 -10l-4 -33q-2 -10 -11 -10h-78q-5 0 -5 -4l-107 -383q-23 -84 -61.5 -120.5t-107.5 -36.5q-17 0 -26 1t-8 11l7 44q1 10 11 10h21
q39 0 60.5 27t37.5 82l102 365q0 4 -2 4h-55q-10 0 -8 10l4 33q2 10 11 10h62q5 0 5 4l45 160q23 84 61 120.5z" />
    <glyph glyph-name="Ohorn" unicode="&#x1a0;" horiz-adv-x="442" 
d="M392 672q45 -39 45 -112q0 -9 -2 -27l-45 -366q-10 -79 -62.5 -127t-127.5 -48q-68 0 -108 40.5t-40 108.5q0 8 2 26l45 366q10 78 62.5 126.5t126.5 48.5q24 0 52 -7q1 -1 4 -1q24 2 43.5 20.5t25.5 49.5q1 10 11 10h22q5 0 6.5 -3.5t0.5 -9.5q-6 -31 -22 -54t-38 -36
q-4 -1 -1 -5zM367 536q1 6 1 16q0 42 -24 68t-64 26q-43 0 -74 -30.5t-37 -79.5l-46 -373q-1 -6 -1 -18q0 -41 23 -66t62 -25q45 0 76.5 30.5t37.5 78.5z" />
    <glyph glyph-name="ohorn" unicode="&#x1a1;" horiz-adv-x="402" 
d="M345 477q36 -34 36 -93q0 -8 -2 -24l-27 -215q-8 -69 -55 -111t-117 -42q-63 0 -98.5 35t-35.5 94q0 16 1 24l26 215q8 68 55 111t117 43q23 0 51 -7q1 -1 4 -1q24 2 43.5 20t25.5 49q1 10 11 10h22q4 0 6 -3.5t1 -9.5q-6 -31 -22.5 -54.5t-40.5 -35.5q-3 -1 -1 -5z
M310 372q0 36 -20 58t-53 22q-37 0 -63.5 -26.5t-31.5 -69.5l-26 -206q-1 -6 -1 -16q0 -36 20 -57.5t53 -21.5q38 0 64.5 26t31.5 69l25 206q1 6 1 16z" />
    <glyph glyph-name="Uhorn" unicode="&#x1af;" horiz-adv-x="462" 
d="M548 770q-7 -40 -30 -66.5t-55 -36.5q-3 -1 -3 -4l-59 -478q-10 -87 -63 -140t-128 -53q-67 0 -106 43t-39 117q0 9 2 33l62 505q2 10 11 10h50q10 0 8 -10l-63 -513q-1 -8 -1 -23q0 -45 22 -72.5t61 -27.5q44 0 75.5 34t38.5 89l63 513q2 10 11 10h27q26 0 47 18t28 52
q1 10 11 10h22q10 0 8 -10z" />
    <glyph glyph-name="uhorn" unicode="&#x1b0;" 
d="M475.5 582q2.5 -3 1.5 -7q-7 -39 -29.5 -65t-53.5 -36q-3 -1 -4 -4l-56 -460q-2 -10 -11 -10h-49q-5 0 -7.5 3t-1.5 7l4 34q1 3 -0.5 3t-3.5 -2q-37 -52 -104 -52q-52 0 -81.5 29t-29.5 88q0 8 2 30l44 356q2 10 11 10h49q9 0 9 -10l-42 -340q-2 -18 -2 -24q0 -77 67 -77
q39 0 64.5 29t31.5 79l41 333q0 4 3 7t8 3h25q25 0 46 18t28 51q1 10 11 10h23q4 0 6.5 -3z" />
    <glyph glyph-name="uni01CD" unicode="&#x1cd;" horiz-adv-x="397" 
d="M297 9l-9 124q0 4 -4 4h-176q-2 0 -3.5 -1t-1.5 -3l-40 -124q-3 -9 -12 -9h-49q-5 0 -7 3t0 8l229 680q2 9 11 9h59q9 0 9 -9l64 -680q0 -11 -10 -11h-50q-10 0 -10 9zM126 195h153q3 0 3 4l-29 393q0 3 -1 3t-3 -3l-126 -393q0 -4 3 -4zM182 885q0 7 8 7h42q8 0 11 -7
l34 -73q0 -1 2 -1t3 1l51 73q7 7 13 7h42q12 0 5 -12l-78 -103q-5 -7 -12 -7h-59q-6 0 -10 7l-51 103q-1 2 -1 5z" />
    <glyph glyph-name="uni01CE" unicode="&#x1ce;" horiz-adv-x="399" 
d="M335 506h49q9 0 9 -10l-60 -486q-2 -10 -11 -10h-49q-5 0 -7.5 3t-1.5 7l5 37q0 3 -2 3.5t-3 -2.5q-20 -28 -47 -42t-58 -14q-55 0 -84.5 33.5t-29.5 90.5q0 9 2 29l26 216q9 70 49 111.5t101 41.5q31 0 55 -14t36 -42q1 -3 3 -2.5t2 3.5l5 37q2 10 11 10zM250.5 80.5
q25.5 26.5 30.5 69.5l26 206q1 6 1 16q0 36 -19.5 58t-51.5 22q-37 0 -63.5 -26.5t-31.5 -69.5l-26 -206q-1 -6 -1 -16q0 -36 20 -58t53 -22q37 0 62.5 26.5zM160 691q0 7 8 7h42q8 0 11 -7l34 -73q0 -1 2 -1t3 1l51 73q7 7 13 7h42q12 0 5 -12l-78 -103q-5 -7 -12 -7h-59
q-6 0 -10 7l-51 103q-1 2 -1 5z" />
    <glyph glyph-name="uni01D4" unicode="&#x1d4;" 
d="M328 503q3 3 8 3h49q9 0 9 -10l-60 -486q-2 -10 -11 -10h-49q-5 0 -7.5 3t-1.5 7l4 34q1 3 -0.5 3t-3.5 -2q-37 -52 -104 -52q-52 0 -81.5 29t-29.5 88q0 8 2 30l44 356q2 10 11 10h49q9 0 9 -10l-42 -340q-2 -18 -2 -24q0 -77 67 -77q39 0 64.5 29t31.5 79l41 333
q0 4 3 7zM162 691q0 7 8 7h42q8 0 11 -7l34 -73q0 -1 2 -1t3 1l51 73q7 7 13 7h42q12 0 5 -12l-78 -103q-5 -7 -12 -7h-59q-6 0 -10 7l-51 103q-1 2 -1 5z" />
    <glyph glyph-name="uni01E5" unicode="&#x1e5;" horiz-adv-x="408" 
d="M419 265l-4 -28q-2 -10 -11 -10h-41q-1 0 -2.5 -1t-1.5 -3l-26 -213q-13 -107 -67.5 -162.5t-167.5 -50.5q-10 2 -8 11l5 43q2 10 11 10q77 -2 113 36.5t46 118.5l4 30q0 2 -1.5 3t-3.5 -1q-20 -25 -47 -38t-56 -13q-55 0 -85 33.5t-30 89.5q0 10 2 30l25 211
q9 70 49.5 111.5t101.5 41.5q30 0 54 -12.5t37 -37.5q3 -6 5 1l4 31q2 10 11 10h49q9 0 9 -10l-27 -217q0 -4 3 -4h41q9 0 9 -10zM251 85.5q26 26.5 31 68.5l8 69q0 4 -3 4h-79q-10 0 -8 10l3 28q2 10 11 10h79q4 0 4 4l10 77q1 6 1 16q0 36 -19.5 58t-51.5 22
q-37 0 -63.5 -26.5t-31.5 -69.5l-25 -202q-1 -5 -1 -16q0 -35 20 -57t53 -22q36 0 62 26.5z" />
    <glyph glyph-name="gcaron" unicode="&#x1e7;" horiz-adv-x="401" 
d="M335 506h49q9 0 9 -10l-60 -486q-13 -107 -67.5 -162.5t-167.5 -50.5q-10 2 -8 11l5 43q2 10 11 10q77 -2 113 36.5t46 118.5l4 30q0 2 -1.5 3t-3.5 -1q-20 -25 -47 -38t-56 -13q-55 0 -85 33.5t-30 89.5q0 10 2 30l25 211q9 70 49.5 111.5t101.5 41.5q30 0 54 -12.5
t37 -37.5q3 -6 5 1l4 31q2 10 11 10zM251 85.5q26 26.5 31 68.5l25 202q1 6 1 16q0 36 -19.5 58t-51.5 22q-37 0 -63.5 -26.5t-31.5 -69.5l-25 -202q-1 -5 -1 -16q0 -35 20 -57t53 -22q36 0 62 26.5zM161 691q0 7 8 7h42q8 0 11 -7l34 -73q0 -1 2 -1t3 1l51 73q7 7 13 7h42
q12 0 5 -12l-78 -103q-5 -7 -12 -7h-59q-6 0 -10 7l-51 103q-1 2 -1 5z" />
    <glyph glyph-name="uni01E9" unicode="&#x1e9;" horiz-adv-x="393" 
d="M42.5 3q-2.5 3 -1.5 7l83 680q1 4 4 7t7 3h50q10 0 8 -10l-49 -402q0 -2 1.5 -3t3.5 1l171 214q5 6 13 6h50q6 0 7.5 -3.5t-2.5 -8.5l-114 -142q-2 -2 -2 -6l74 -335v-2q0 -9 -9 -9h-52q-8 0 -10 8l-53 278q0 3 -2 3t-3 -2l-84 -104l-3 -5l-20 -168q-2 -10 -11 -10h-50
q-4 0 -6.5 3zM185 885q0 7 8 7h42q8 0 11 -7l34 -73q0 -1 2 -1t3 1l51 73q7 7 13 7h42q12 0 5 -12l-78 -103q-5 -7 -12 -7h-59q-6 0 -10 7l-51 103q-1 2 -1 5z" />
    <glyph glyph-name="uni01EF" unicode="&#x1ef;" horiz-adv-x="426" 
d="M185.5 247q0.5 -2 3.5 -2q90 -9 136 -59t46 -127q0 -24 -2 -36q-9 -75 -48.5 -127t-97.5 -78t-121 -26q-43 0 -87 14q-7 3 -6 12l7 43q1 12 12 8q31 -12 76 -12q73 0 129.5 40t67.5 129q2 18 2 28q0 58 -35.5 95t-114.5 37q-27 0 -52 -4h-2q-7 0 -9 7l-7 33l-1 4
q0 5 5 10l211 200q3 5 -1 5h-190q-5 0 -7.5 3t-1.5 7l6 45q0 4 3 7t8 3h271q9 0 9 -10l-6 -48q-2 -8 -7 -12l-195 -186q-2 -1 -1.5 -3zM174 691q0 7 8 7h42q8 0 11 -7l34 -73q0 -1 2 -1t3 1l51 73q7 7 13 7h42q12 0 5 -12l-78 -103q-5 -7 -12 -7h-59q-6 0 -10 7l-51 103
q-1 2 -1 5z" />
    <glyph glyph-name="oslashacute" unicode="&#x1ff;" horiz-adv-x="402" 
d="M399 522l-35 -62q-1 -3 0 -6q17 -31 17 -72q0 -14 -1 -22l-27 -215q-8 -69 -55 -111t-116 -42q-40 0 -67 13q-5 2 -6 -2l-25 -45q-5 -10 -13 -5l-32 19q-6 4 -2 14l31 54q1 1 0.5 3l-0.5 2q-22 33 -22 76q0 8 2 24l26 215q8 68 55.5 111t116.5 43q43 0 71 -16q5 -2 6 2
l29 51q6 11 13 5l32 -20q6 -4 2 -14zM117 138q-1 -3 1 -2.5t4 2.5l164 294q1 3 -1 5q-18 15 -46 15q-37 0 -64 -26.5t-32 -69.5l-26 -206v-12zM309 357q-2 0 -4 -2l-157 -284q-1 -4 1 -5q17 -11 41 -11q38 0 64 26t31 69l25 204q1 3 -1 3zM211 575.5q-2 3.5 2 8.5l74 109
q5 7 12 7h40q6 0 7 -3.5t-3 -8.5l-81 -109q-7 -7 -13 -7h-31q-5 0 -7 3.5z" />
    <glyph glyph-name="uni0218" unicode="&#x218;" horiz-adv-x="404" 
d="M78.5 32q-38.5 40 -38.5 108q0 9 2 29l3 23q2 10 11 10h47q5 0 7.5 -3t1.5 -7l-3 -20q-1 -7 -1 -20q0 -45 22 -71.5t59 -26.5q41 0 71.5 31t37.5 82q1 7 1 19q0 27 -11.5 48.5t-28.5 38.5t-58 52q-40 33 -63 57t-38 55.5t-15 72.5q0 9 2 29q10 78 58.5 123.5t118.5 45.5
q66 0 104 -40.5t38 -108.5q0 -10 -2 -32l-3 -25q-2 -10 -11 -10h-48q-9 0 -9 10l3 26q2 16 2 23q0 44 -22 69.5t-59 25.5q-40 0 -68 -28.5t-35 -80.5q-1 -7 -1 -20q0 -36 20 -62.5t73 -71.5q47 -40 71.5 -64.5t38 -52.5t13.5 -65q0 -8 -2 -28q-10 -82 -62 -131.5t-124 -49.5
q-64 0 -102.5 40zM112 -194.5q-2 3.5 2 8.5l74 109q5 7 12 7h40q6 0 7 -3.5t-3 -8.5l-81 -109q-7 -7 -13 -7h-31q-5 0 -7 3.5z" />
    <glyph glyph-name="uni0219" unicode="&#x219;" horiz-adv-x="363" 
d="M70 25q-35 30 -35 81q0 13 1 19l1 7q0 4 3 7t8 3h46q9 0 9 -10l-1 -6q-4 -32 16 -54t57 -22q38 0 63 25.5t25 63.5q0 22 -12 37.5t-27 24t-49 24.5q-32 14 -53.5 28t-37 38t-15.5 60q0 14 1 22q8 64 51 101t108 37q60 0 93.5 -32t33.5 -86q0 -14 -1 -21v-3
q-2 -10 -11 -10h-45q-10 0 -8 10v6q1 4 1 12q0 29 -19 47.5t-51 18.5q-34 0 -57.5 -22.5t-28.5 -55.5q-3 -24 7.5 -40.5t27.5 -27.5t49 -25q35 -16 57 -30.5t38.5 -39t16.5 -60.5q0 -71 -46 -114t-119 -43q-62 0 -97 30zM100 -191.5q-2 3.5 2 8.5l74 109q5 7 12 7h40
q6 0 7 -3.5t-3 -8.5l-81 -109q-7 -7 -13 -7h-31q-5 0 -7 3.5z" />
    <glyph glyph-name="uni021A" unicode="&#x21a;" horiz-adv-x="410" 
d="M443 690l-6 -42q0 -4 -3 -7t-7 -3h-128q-2 0 -3.5 -1t-1.5 -3l-76 -624q-1 -4 -4 -7t-7 -3h-50q-10 0 -8 10l76 624q1 1 0 2.5t-3 1.5h-120q-5 0 -7.5 3t-1.5 7l5 42q2 10 11 10h325q9 0 9 -10zM53 -189.5q-2 3.5 2 8.5l74 109q5 7 12 7h40q6 0 7 -3.5t-3 -8.5l-81 -109
q-7 -7 -13 -7h-31q-5 0 -7 3.5z" />
    <glyph glyph-name="uni021B" unicode="&#x21b;" horiz-adv-x="259" 
d="M266 456q-3 -3 -8 -3h-73q-3 0 -5 -4l-37 -306q-2 -18 -2 -25q0 -32 13.5 -44t41.5 -11h10q4 0 6.5 -3t1.5 -7l-5 -43q-2 -10 -11 -10h-24q-51 0 -77.5 19.5t-26.5 72.5q0 8 2 30l40 327q1 1 0 2.5t-3 1.5h-38q-10 0 -8 10l4 33q0 4 3 7t8 3h37q2 0 3.5 1t1.5 3l14 112
q0 4 3 7t8 3h48q9 0 9 -10l-14 -112q0 -4 3 -4h74q10 0 8 -10l-4 -33q0 -4 -3 -7zM67 -176.5q-2 3.5 2 8.5l74 109q5 7 12 7h40q6 0 7 -3.5t-3 -8.5l-81 -109q-7 -7 -13 -7h-31q-5 0 -7 3.5z" />
    <glyph glyph-name="uni021F" unicode="&#x21f;" 
d="M356.5 481q27.5 -32 27.5 -92q0 -11 -2 -35l-42 -344q-2 -10 -11 -10h-50q-4 0 -6.5 3t-1.5 7l41 338q2 16 2 23q0 38 -17.5 59t-50.5 21q-38 0 -63.5 -29t-31.5 -79l-41 -333q-2 -10 -11 -10h-50q-4 0 -6.5 3t-1.5 7l83 680q1 4 4 7t7 3h50q10 0 8 -10l-27 -226
q-1 -2 1 -3t4 2q20 25 47.5 37.5t58.5 12.5q52 0 79.5 -32zM196 885q0 7 8 7h42q8 0 11 -7l34 -73q0 -1 2 -1t3 1l51 73q7 7 13 7h42q12 0 5 -12l-78 -103q-5 -7 -12 -7h-59q-6 0 -10 7l-51 103q-1 2 -1 5z" />
    <glyph glyph-name="uni0228" unicode="&#x228;" horiz-adv-x="416" 
d="M434 641q-3 -3 -7 -3h-225q-2 0 -3.5 -1t-1.5 -3l-30 -248q-1 -1 0 -2.5t3 -1.5h142q10 0 8 -10l-5 -43q-2 -10 -11 -10h-142q-4 0 -4 -4l-31 -249q0 -4 4 -4h225q10 0 8 -10l-5 -42q-2 -10 -11 -10h-114q-2 0 -3 -1.5t0 -3.5q26 -33 26 -75q0 -18 -5 -38
q-10 -32 -32.5 -45t-49.5 -13q-17 0 -29 3q-9 1 -6 11l6 22q1 4 4 6t7 2q0 -1 4 -1q18 -2 31.5 6t19.5 29q3 10 3 21q0 36 -32 75q-2 2 -4 2h-114q-10 0 -8 10l83 680q2 10 11 10h288q9 0 9 -10l-6 -42q0 -4 -3 -7z" />
    <glyph glyph-name="uni0229" unicode="&#x229;" horiz-adv-x="396" 
d="M351 226h-221q-2 0 -3.5 -1t-1.5 -3l-9 -73q-1 -5 -1 -16q0 -35 20 -57t52 -22q31 0 55 19.5t35 50.5q5 9 12 9l48 -2q4 0 6.5 -3t0.5 -8q-12 -51 -45.5 -83.5t-82.5 -41.5q-6 -2 -3 -5q23 -33 23 -70q0 -20 -6 -38q-10 -32 -32.5 -45t-49.5 -13q-17 0 -29 3q-8 2 -5 11
l6 22q1 4 4.5 6.5t7.5 0.5q3 -1 10 -1q33 0 44 36q2 14 2 20q0 35 -26 69q-2 2 -5 2q-52 6 -81.5 40.5t-29.5 88.5q0 15 1 23l26 216q8 68 55 110.5t116 42.5q63 0 99 -35t36 -94q0 -8 -2 -24l-15 -125q-2 -10 -11 -10zM173 425.5q-26 -26.5 -31 -69.5l-9 -67q0 -4 4 -4h159
q4 0 4 4l9 67q1 6 1 16q0 36 -20 58t-54 22q-37 0 -63 -26.5z" />
    <glyph glyph-name="uni0237" unicode="&#x237;" horiz-adv-x="193" 
d="M-71.5 -205q-2.5 3 -1.5 7l5 42q2 10 11 10q80 3 91 102l67 540q0 4 3 7t8 3h49q9 0 9 -10l-67 -540q-10 -82 -46 -123t-121 -41q-5 0 -7.5 3z" />
    <glyph glyph-name="uni0259" unicode="&#x259;" horiz-adv-x="396" 
d="M337.5 479q35.5 -35 35.5 -94q0 -16 -1 -24l-26 -216q-8 -68 -55 -110.5t-116 -42.5q-64 0 -99.5 35t-35.5 94q0 16 1 24l15 125q1 4 4 7t7 3h222q2 0 3.5 1t1.5 3l9 72q1 6 1 16q0 36 -19.5 58t-53.5 22q-30 0 -54.5 -19.5t-35.5 -50.5q-4 -9 -12 -9l-48 2q-10 0 -7 11
q15 59 58.5 93.5t106.5 34.5t98.5 -35zM245.5 80.5q26.5 26.5 31.5 69.5l9 67q0 4 -4 4h-159q-4 0 -4 -4l-8 -67q-1 -6 -1 -16q0 -36 19.5 -58t52.5 -22q37 0 63.5 26.5z" />
    <glyph glyph-name="uni0292" unicode="&#x292;" horiz-adv-x="426" 
d="M185.5 247q0.5 -2 3.5 -2q90 -9 136 -59t46 -127q0 -24 -2 -36q-9 -75 -48.5 -127t-97.5 -78t-121 -26q-43 0 -87 14q-7 3 -6 12l7 43q1 12 12 8q31 -12 76 -12q73 0 129.5 40t67.5 129q2 18 2 28q0 58 -35.5 95t-114.5 37q-27 0 -52 -4h-2q-7 0 -9 7l-7 33l-1 4
q0 5 5 10l211 200q3 5 -1 5h-190q-5 0 -7.5 3t-1.5 7l6 45q0 4 3 7t8 3h271q9 0 9 -10l-6 -48q-2 -8 -7 -12l-195 -186q-2 -1 -1.5 -3z" />
    <glyph glyph-name="uni02BB" unicode="&#x2bb;" horiz-adv-x="119" 
d="M69 691q0 9 9 9h51q9 0 9 -9l21 -185v-2q0 -9 -9 -9h-36q-8 0 -11 8l-34 186v2z" />
    <glyph glyph-name="uni02BC" unicode="&#x2bc;" horiz-adv-x="119" 
d="M181 689l-80 -186q-5 -8 -13 -8h-36q-11 0 -6 11l66 185q3 9 12 9h50q10 0 7 -11z" />
    <glyph glyph-name="circumflex" unicode="&#x2c6;" horiz-adv-x="225" 
d="M78.5 581.5q-1.5 3.5 2.5 8.5l76 103q5 7 12 7h59q6 0 10 -7l53 -103q1 -2 1 -5q0 -7 -9 -7h-42q-8 0 -11 7l-33 73q-1 2 -3 1.5t-3 -1.5l-51 -73q-7 -7 -13 -7h-42q-5 0 -6.5 3.5z" />
    <glyph glyph-name="caron" unicode="&#x2c7;" horiz-adv-x="268" 
d="M93 693q0 7 8 7h42q8 0 11 -7l34 -73q0 -1 2 -1t3 1l51 73q7 7 13 7h42q12 0 5 -12l-78 -103q-5 -7 -12 -7h-59q-6 0 -10 7l-51 103q-1 2 -1 5z" />
    <glyph glyph-name="uni02C9" unicode="&#x2c9;" horiz-adv-x="197" 
d="M61 658l4 32q2 10 11 10h178q10 0 8 -10l-4 -32q0 -4 -3 -7t-8 -3h-177q-9 0 -9 10z" />
    <glyph glyph-name="breve" unicode="&#x2d8;" horiz-adv-x="246" 
d="M105.5 585q-25.5 27 -23.5 68q2 10 11 10h22q9 0 9 -8q0 -26 14.5 -42.5t38.5 -16.5q23 0 41.5 16t24.5 41q3 10 12 10h22q5 0 7 -3t1 -7q-8 -42 -39.5 -68.5t-73.5 -26.5q-41 0 -66.5 27z" />
    <glyph glyph-name="dotaccent" unicode="&#x2d9;" horiz-adv-x="151" 
d="M95 611.5q-13 13.5 -13 34.5q0 28 18 46t44 18q21 0 34.5 -13t13.5 -35q0 -27 -18 -45.5t-44 -18.5q-22 0 -35 13.5z" />
    <glyph glyph-name="ring" unicode="&#x2da;" horiz-adv-x="249" 
d="M110.5 605.5q-25.5 26.5 -25.5 67.5q0 32 16.5 60t43.5 45t57 17q39 0 65 -27t26 -67q0 -33 -16 -61t-43 -44.5t-58 -16.5q-40 0 -65.5 26.5zM230 644q21 22 21 53q0 24 -15.5 40t-38.5 16q-28 0 -49 -22.5t-21 -53.5q0 -24 15.5 -39.5t38.5 -15.5q28 0 49 22z" />
    <glyph glyph-name="ogonek" unicode="&#x2db;" horiz-adv-x="117" 
d="M64 -182q-13 -3 -29 -3q-68 0 -68 68q0 28 13.5 56.5t42.5 53.5q4 3 4 4q5 3 11 3h26q8 0 8 -5q0 -4 -4 -7q-24 -22 -38 -46.5t-14 -47.5q1 -37 35 -37q6 0 10 1l4 1q7 0 7 -8v-21q0 -9 -8 -12z" />
    <glyph glyph-name="tilde" unicode="&#x2dc;" horiz-adv-x="301" 
d="M230 613.5q-10 5.5 -26 16.5q-3 2 -11 8.5t-15 9t-14 2.5q-14 0 -25 -5.5t-22 -20.5q-8 -9 -14 -3l-16 13q-7 7 -2 14q32 52 80 52q25 0 54 -23q14 -12 21.5 -16.5t19.5 -4.5q25 0 45 28q2 4 6 5t8 -1l16 -12q3 -3 3 -6q0 -4 -5 -14q-17 -25 -39 -36.5t-40 -11.5
q-14 0 -24 5.5z" />
    <glyph glyph-name="hungarumlaut" unicode="&#x2dd;" horiz-adv-x="295" 
d="M79.5 583.5q-1.5 3.5 1.5 8.5l73 109q5 7 12 7h41q12 0 5 -12l-82 -109q-5 -7 -12 -7h-31q-6 0 -7.5 3.5zM200.5 583.5q-1.5 3.5 2.5 8.5l73 109q7 7 13 7h39q6 0 7.5 -3.5t-2.5 -8.5l-81 -109q-7 -7 -13 -7h-31q-6 0 -7.5 3.5z" />
    <glyph glyph-name="gravecomb" unicode="&#x300;" horiz-adv-x="0" 
d="M43 579q0 -7 -9 -7h-31q-6 0 -11 7l-54 109q-1 2 -1 6q0 6 8 6h41q6 0 11 -7l45 -109q1 -2 1 -5z" />
    <glyph glyph-name="acutecomb" unicode="&#x301;" horiz-adv-x="0" 
d="M-78 575.5q-2 3.5 2 8.5l74 109q5 7 12 7h40q6 0 7 -3.5t-3 -8.5l-81 -109q-7 -7 -13 -7h-31q-5 0 -7 3.5z" />
    <glyph glyph-name="uni0302" unicode="&#x302;" horiz-adv-x="0" 
d="M-188.5 581.5q-1.5 3.5 2.5 8.5l76 103q5 7 12 7h59q6 0 10 -7l53 -103q1 -2 1 -5q0 -7 -9 -7h-42q-8 0 -11 7l-33 73q-1 2 -3 1.5t-3 -1.5l-51 -73q-7 -7 -13 -7h-42q-5 0 -6.5 3.5z" />
    <glyph glyph-name="tildecomb" unicode="&#x303;" horiz-adv-x="0" 
d="M-49 613.5q-10 5.5 -26 16.5q-3 2 -11 8.5t-15 9t-14 2.5q-14 0 -25 -5.5t-22 -20.5q-8 -9 -14 -3l-16 13q-7 7 -2 14q32 52 80 52q25 0 54 -23q14 -12 21.5 -16.5t19.5 -4.5q25 0 45 28q2 4 6 5t8 -1l16 -12q3 -3 3 -6q0 -4 -5 -14q-17 -25 -39 -36.5t-40 -11.5
q-14 0 -24 5.5z" />
    <glyph glyph-name="uni0304" unicode="&#x304;" horiz-adv-x="0" 
d="M-137.5 624q-2.5 3 -1.5 7l4 32q2 10 11 10h177q5 0 7.5 -3t1.5 -7l-4 -32q-2 -10 -11 -10h-177q-5 0 -7.5 3z" />
    <glyph glyph-name="uni0306" unicode="&#x306;" horiz-adv-x="0" 
d="M-137.5 607q-25.5 27 -23.5 68q2 10 11 10h22q9 0 9 -10q0 -26 14.5 -42t38.5 -16q23 0 41.5 16t24.5 42q3 10 12 10h22q10 0 8 -10q-8 -42 -39.5 -68.5t-73.5 -26.5q-41 0 -66.5 27z" />
    <glyph glyph-name="uni0307" unicode="&#x307;" horiz-adv-x="0" 
d="M-40 611.5q-13 13.5 -13 34.5q0 28 18 46t44 18q21 0 34.5 -13t13.5 -35q0 -27 -18 -45.5t-44 -18.5q-22 0 -35 13.5z" />
    <glyph glyph-name="uni0308" unicode="&#x308;" horiz-adv-x="0" 
d="M-35 611.5q-13 13.5 -13 34.5q0 28 18 46t44 18q21 0 34.5 -13t13.5 -35q0 -27 -18 -45.5t-44 -18.5q-22 0 -35 13.5zM-181 611.5q-13 13.5 -13 34.5q0 28 18 46t44 18q21 0 34.5 -13t13.5 -35q0 -27 -18 -45.5t-44 -18.5q-22 0 -35 13.5z" />
    <glyph glyph-name="hookabovecomb" unicode="&#x309;" horiz-adv-x="0" 
d="M-271 562q8 15 16.5 24.5t22.5 22.5t21 22.5t9 24.5t-8.5 25.5t-27.5 10.5t-28.5 -7.5t-28.5 -28.5q-6 -8 -14 -2l-14 10q-7 7 -1 14q22 29 42 41.5t51 12.5q32 0 52 -18t20 -47q0 -26 -11.5 -43t-34.5 -39q-23 -21 -31 -34q-5 -8 -13 -6l-17 4q-10 3 -5 13z" />
    <glyph glyph-name="uni030A" unicode="&#x30a;" horiz-adv-x="0" 
d="M-109.5 605.5q-25.5 26.5 -25.5 67.5q0 32 16.5 60t43.5 45t57 17q39 0 65 -27t26 -67q0 -33 -16 -61t-43 -44.5t-58 -16.5q-40 0 -65.5 26.5zM10 644q21 22 21 53q0 24 -15.5 40t-38.5 16q-28 0 -49 -22.5t-21 -53.5q0 -24 15.5 -39.5t38.5 -15.5q28 0 49 22z" />
    <glyph glyph-name="uni030B" unicode="&#x30b;" horiz-adv-x="0" 
d="M-212.5 575.5q-1.5 3.5 0.5 8.5l69 109q4 7 13 7h40q6 0 7.5 -3.5t-1.5 -8.5l-72 -109q-3 -7 -12 -7h-38q-5 0 -6.5 3.5zM-91 575.5q-2 3.5 2 8.5l70 109q4 7 13 7h38q5 0 7 -3.5t-2 -8.5l-72 -109q-3 -7 -12 -7h-37q-5 0 -7 3.5z" />
    <glyph glyph-name="uni030C" unicode="&#x30c;" horiz-adv-x="0" 
d="M-175 693q0 7 8 7h42q8 0 11 -7l34 -73q0 -1 2 -1t3 1l51 73q7 7 13 7h42q12 0 5 -12l-78 -103q-5 -7 -12 -7h-59q-6 0 -10 7l-51 103q-1 2 -1 5z" />
    <glyph glyph-name="uni0312" unicode="&#x312;" horiz-adv-x="0" 
d="M38.5 696.5q1.5 -3.5 -1.5 -8.5l-73 -109q-5 -7 -13 -7h-40q-12 0 -5 12l82 109q5 7 12 7h31q6 0 7.5 -3.5z" />
    <glyph glyph-name="uni0313" unicode="&#x313;" horiz-adv-x="0" 
d="M-78 575.5q-2 3.5 2 8.5l74 109q5 7 12 7h40q6 0 7 -3.5t-3 -8.5l-81 -109q-7 -7 -13 -7h-31q-5 0 -7 3.5z" />
    <glyph glyph-name="uni031B" unicode="&#x31b;" horiz-adv-x="0" 
d="M-84 478l3 18q0 9 10 11q23 3 41 20.5t24 47.5q1 10 11 10h23q4 0 6 -3.5t1 -9.5q-9 -46 -39 -73t-71 -31q-9 0 -9 10z" />
    <glyph glyph-name="dotbelowcomb" unicode="&#x323;" horiz-adv-x="0" 
d="M-135 -178.5q-12 12.5 -12 33.5q0 26 17 43t41 17q20 0 33 -12.5t13 -32.5q0 -26 -17.5 -43.5t-41.5 -17.5q-21 0 -33 12.5z" />
    <glyph glyph-name="uni0326" unicode="&#x326;" horiz-adv-x="0" 
d="M-196 -186.5q-2 3.5 2 8.5l74 109q5 7 12 7h40q6 0 7 -3.5t-3 -8.5l-81 -109q-7 -7 -13 -7h-31q-5 0 -7 3.5z" />
    <glyph glyph-name="uni0327" unicode="&#x327;" horiz-adv-x="0" 
d="M-153.5 -178q-1.5 3 0.5 8l5 21q3 8 11 8q1 -1 4 -1q22 -3 38 10.5t16 47.5q0 35 -30 72q-3 3 -3 6q0 6 9 6h26q6 0 9 -3q3 -2 3 -4q34 -35 34 -83q0 -16 -5 -36q-10 -32 -33 -45.5t-50 -13.5q-17 0 -29 3q-4 1 -5.5 4z" />
    <glyph glyph-name="uni0328" unicode="&#x328;" horiz-adv-x="0" 
d="M-53 -182q-13 -3 -29 -3q-29 0 -48.5 15.5t-19.5 52.5q0 28 13.5 56.5t41.5 53.5q4 3 4 4q4 3 11 3h27q8 0 8 -5q0 -2 -5 -7q-23 -22 -37 -46.5t-14 -47.5q1 -37 35 -37q6 0 10 1l4 1q7 0 7 -8v-21q0 -9 -8 -12z" />
    <glyph glyph-name="uni0335" unicode="&#x335;" horiz-adv-x="0" 
d="M-196 615h239q5 0 7.5 -3t1.5 -7l-4 -28q0 -4 -3 -7t-8 -3h-239q-9 0 -9 10l4 28q2 10 11 10z" />
    <glyph glyph-name="uni0336" unicode="&#x336;" horiz-adv-x="0" 
d="M-364.5 519q-2.5 3 -1.5 7l4 31q2 10 11 10h392q10 0 8 -10l-4 -31q0 -4 -3 -7t-7 -3h-392q-5 0 -7.5 3z" />
    <glyph glyph-name="uni0337" unicode="&#x337;" horiz-adv-x="0" 
d="M-281 138q-4 0 -7 4l-18 28q-2 2 -2 6q0 5 4 8l364 251q2 2 6 2t7 -4l20 -29q1 -2 1 -5q0 -4 -5 -9l-363 -250q-3 -2 -7 -2z" />
    <glyph glyph-name="uni0338" unicode="&#x338;" horiz-adv-x="0" 
d="M-387 -35.5q-2 3.5 1 8.5l402 764q4 8 12 8h31q5 0 7 -3.5t-1 -8.5l-403 -764q-4 -8 -12 -8h-30q-5 0 -7 3.5z" />
    <glyph glyph-name="uni0394" unicode="&#x394;" horiz-adv-x="484" 
d="M-8 10l6 46q2 8 4 12l276 624q5 8 13 8h35q3 0 6 -2t4 -6l124 -625q1 -4 1 -12l-6 -45q-2 -10 -11 -10h-443q-9 0 -9 10zM67.5 63.5q1.5 -1.5 3.5 -1.5h319q2 0 3.5 1.5t0.5 3.5l-95 535q-1 2 -3 2t-3 -2l-226 -535q-1 -2 0.5 -3.5z" />
    <glyph glyph-name="uni03A9" unicode="&#x3a9;" horiz-adv-x="467" 
d="M36.5 3q-2.5 3 -1.5 7l5 42q2 10 11 10h54q2 0 3 1.5t-1 3.5q-37 37 -37 102q0 16 1 24l42 340q10 79 62 127t126 48q69 0 109.5 -40.5t40.5 -108.5q0 -8 -2 -26l-42 -340q-5 -40 -23 -72.5t-45 -53.5q-2 -2 -1.5 -3.5t2.5 -1.5h52q10 0 8 -10l-5 -42q-2 -10 -11 -10
h-137q-4 0 -6.5 3t-1.5 7l5 43q1 8 10 11q30 7 53 36.5t28 70.5l45 365q1 6 1 18q0 41 -23.5 66.5t-63.5 25.5q-44 0 -75 -30.5t-37 -79.5l-45 -365q-1 -6 -1 -18q0 -34 15.5 -58.5t39.5 -29.5q8 -3 8 -11l-6 -44q0 -4 -3 -7t-8 -3h-138q-5 0 -7.5 3z" />
    <glyph glyph-name="uni03BC" unicode="&#x3bc;" horiz-adv-x="417" 
d="M334 503q3 3 7 3h50q10 0 8 -10l-59 -486q-2 -10 -11 -10h-50q-4 0 -6.5 3t-1.5 7l4 34q1 3 -0.5 3.5t-3.5 -1.5q-38 -53 -104 -53q-32 0 -53 10q-5 2 -5 -3l-24 -190q0 -4 -3 -7t-8 -3h-49q-9 0 -9 10l85 686q0 4 3 7t8 3h49q9 0 9 -10l-42 -340q-2 -18 -2 -26
q0 -37 17.5 -56t50.5 -19q38 0 63.5 29t32.5 79l41 333q0 4 3 7z" />
    <glyph glyph-name="pi" unicode="&#x3c0;" horiz-adv-x="493" 
d="M487 445h-47q-3 0 -5 -4l-41 -334q-3 -27 7 -35.5t33 -7.5q10 0 8 -10l-5 -44q-2 -10 -11 -10q-50 0 -77.5 11t-27.5 48q0 10 1 16l44 366q1 1 0 2.5t-3 1.5h-159q-4 0 -4 -4l-53 -431q-2 -10 -11 -10h-50q-4 0 -6.5 3t-1.5 7l53 431q0 4 -4 4h-51q-10 0 -8 10l5 41
q0 4 3 7t7 3h412q10 0 8 -10l-5 -41q-2 -10 -11 -10z" />
    <glyph glyph-name="Wgrave" unicode="&#x1e80;" horiz-adv-x="601" 
d="M138 9l-45 680q0 5 3 8t7 3h52q9 0 9 -9l27 -526q1 -2 2 -2t2 2l143 526q3 9 11 9h44q9 0 9 -9l18 -526q1 -4 4 0l148 526q2 9 11 9h51q5 0 7 -3t0 -8l-203 -680q-3 -9 -12 -9h-48q-8 0 -8 9l-17 528q-1 2 -2 2t-2 -2l-144 -528q-3 -9 -11 -9h-47q-9 0 -9 9zM398 773
q0 -7 -9 -7h-31q-6 0 -11 7l-54 109q-1 2 -1 6q0 6 8 6h41q6 0 11 -7l45 -109q1 -2 1 -5z" />
    <glyph glyph-name="wgrave" unicode="&#x1e81;" horiz-adv-x="538" 
d="M108 9l-43 486q0 11 10 11h47q10 0 10 -9l23 -382q0 -2 1.5 -2t2.5 2l118 382q3 9 12 9h44q9 0 9 -9l25 -382q1 -2 2 -2t2 2l119 382q2 9 12 9l46 -1q10 0 7 -11l-162 -485q-3 -9 -12 -9h-49q-10 0 -10 9l-27 366q0 3 -1 3t-3 -3l-113 -366q-3 -9 -12 -9h-49q-9 0 -9 9z
M341 579q0 -7 -9 -7h-31q-6 0 -11 7l-54 109q-1 2 -1 6q0 6 8 6h41q6 0 11 -7l45 -109q1 -2 1 -5z" />
    <glyph glyph-name="Wacute" unicode="&#x1e82;" horiz-adv-x="601" 
d="M138 9l-45 680q0 5 3 8t7 3h52q9 0 9 -9l27 -526q1 -2 2 -2t2 2l143 526q3 9 11 9h44q9 0 9 -9l18 -526q1 -4 4 0l148 526q2 9 11 9h51q5 0 7 -3t0 -8l-203 -680q-3 -9 -12 -9h-48q-8 0 -8 9l-17 528q-1 2 -2 2t-2 -2l-144 -528q-3 -9 -11 -9h-47q-9 0 -9 9zM335 769.5
q-2 3.5 2 8.5l74 109q5 7 12 7h40q6 0 7 -3.5t-3 -8.5l-81 -109q-7 -7 -13 -7h-31q-5 0 -7 3.5z" />
    <glyph glyph-name="wacute" unicode="&#x1e83;" horiz-adv-x="538" 
d="M108 9l-43 486q0 11 10 11h47q10 0 10 -9l23 -382q0 -2 1.5 -2t2.5 2l118 382q3 9 12 9h44q9 0 9 -9l25 -382q1 -2 2 -2t2 2l119 382q2 9 12 9l46 -1q10 0 7 -11l-162 -485q-3 -9 -12 -9h-49q-10 0 -10 9l-27 366q0 3 -1 3t-3 -3l-113 -366q-3 -9 -12 -9h-49q-9 0 -9 9z
M278 575.5q-2 3.5 2 8.5l74 109q5 7 12 7h40q6 0 7 -3.5t-3 -8.5l-81 -109q-7 -7 -13 -7h-31q-5 0 -7 3.5z" />
    <glyph glyph-name="Wdieresis" unicode="&#x1e84;" horiz-adv-x="601" 
d="M138 9l-45 680q0 5 3 8t7 3h52q9 0 9 -9l27 -526q1 -2 2 -2t2 2l143 526q3 9 11 9h44q9 0 9 -9l18 -526q1 -4 4 0l148 526q2 9 11 9h51q5 0 7 -3t0 -8l-203 -680q-3 -9 -12 -9h-48q-8 0 -8 9l-17 528q-1 2 -2 2t-2 -2l-144 -528q-3 -9 -11 -9h-47q-9 0 -9 9zM417 805.5
q-13 13.5 -13 34.5q0 28 18 46t44 18q21 0 34.5 -13t13.5 -35q0 -27 -18 -45.5t-44 -18.5q-22 0 -35 13.5zM271 805.5q-13 13.5 -13 34.5q0 28 18 46t44 18q21 0 34.5 -13t13.5 -35q0 -27 -18 -45.5t-44 -18.5q-22 0 -35 13.5z" />
    <glyph glyph-name="wdieresis" unicode="&#x1e85;" horiz-adv-x="538" 
d="M108 9l-43 486q0 11 10 11h47q10 0 10 -9l23 -382q0 -2 1.5 -2t2.5 2l118 382q3 9 12 9h44q9 0 9 -9l25 -382q1 -2 2 -2t2 2l119 382q2 9 12 9l46 -1q10 0 7 -11l-162 -485q-3 -9 -12 -9h-49q-10 0 -10 9l-27 366q0 3 -1 3t-3 -3l-113 -366q-3 -9 -12 -9h-49q-9 0 -9 9z
M360 611.5q-13 13.5 -13 34.5q0 28 18 46t44 18q21 0 34.5 -13t13.5 -35q0 -27 -18 -45.5t-44 -18.5q-22 0 -35 13.5zM214 611.5q-13 13.5 -13 34.5q0 28 18 46t44 18q21 0 34.5 -13t13.5 -35q0 -27 -18 -45.5t-44 -18.5q-22 0 -35 13.5z" />
    <glyph glyph-name="uni1EA0" unicode="&#x1ea0;" horiz-adv-x="397" 
d="M297 9l-9 124q0 4 -4 4h-176q-2 0 -3.5 -1t-1.5 -3l-40 -124q-3 -9 -12 -9h-49q-5 0 -7 3t0 8l229 680q2 9 11 9h59q9 0 9 -9l64 -680q0 -11 -10 -11h-50q-10 0 -10 9zM126 195h153q3 0 3 4l-29 393q0 3 -1 3t-3 -3l-126 -393q0 -4 3 -4zM123 -178.5q-12 12.5 -12 33.5
q0 26 17 43t41 17q20 0 33 -12.5t13 -32.5q0 -26 -17.5 -43.5t-41.5 -17.5q-21 0 -33 12.5z" />
    <glyph glyph-name="uni1EA1" unicode="&#x1ea1;" horiz-adv-x="399" 
d="M335 506h49q9 0 9 -10l-60 -486q-2 -10 -11 -10h-49q-5 0 -7.5 3t-1.5 7l5 37q0 3 -2 3.5t-3 -2.5q-20 -28 -47 -42t-58 -14q-55 0 -84.5 33.5t-29.5 90.5q0 9 2 29l26 216q9 70 49 111.5t101 41.5q31 0 55 -14t36 -42q1 -3 3 -2.5t2 3.5l5 37q2 10 11 10zM250.5 80.5
q25.5 26.5 30.5 69.5l26 206q1 6 1 16q0 36 -19.5 58t-51.5 22q-37 0 -63.5 -26.5t-31.5 -69.5l-26 -206q-1 -6 -1 -16q0 -36 20 -58t53 -22q37 0 62.5 26.5zM124 -178.5q-12 12.5 -12 33.5q0 26 17 43t41 17q20 0 33 -12.5t13 -32.5q0 -26 -17.5 -43.5t-41.5 -17.5
q-21 0 -33 12.5z" />
    <glyph glyph-name="uni1EA2" unicode="&#x1ea2;" horiz-adv-x="397" 
d="M297 9l-9 124q0 4 -4 4h-176q-2 0 -3.5 -1t-1.5 -3l-40 -124q-3 -9 -12 -9h-49q-5 0 -7 3t0 8l229 680q2 9 11 9h59q9 0 9 -9l64 -680q0 -11 -10 -11h-50q-10 0 -10 9zM126 195h153q3 0 3 4l-29 393q0 3 -1 3t-3 -3l-126 -393q0 -4 3 -4zM258 756q8 15 16.5 24.5
t22.5 22.5t21 22.5t9 24.5t-8.5 25.5t-27.5 10.5t-28.5 -7.5t-28.5 -28.5q-6 -8 -14 -2l-14 10q-7 7 -1 14q22 29 42 41.5t51 12.5q32 0 52 -18t20 -47q0 -26 -11.5 -43t-34.5 -39q-23 -21 -31 -34q-5 -8 -13 -6l-17 4q-10 3 -5 13z" />
    <glyph glyph-name="uni1EA3" unicode="&#x1ea3;" horiz-adv-x="399" 
d="M335 506h49q9 0 9 -10l-60 -486q-2 -10 -11 -10h-49q-5 0 -7.5 3t-1.5 7l5 37q0 3 -2 3.5t-3 -2.5q-20 -28 -47 -42t-58 -14q-55 0 -84.5 33.5t-29.5 90.5q0 9 2 29l26 216q9 70 49 111.5t101 41.5q31 0 55 -14t36 -42q1 -3 3 -2.5t2 3.5l5 37q2 10 11 10zM250.5 80.5
q25.5 26.5 30.5 69.5l26 206q1 6 1 16q0 36 -19.5 58t-51.5 22q-37 0 -63.5 -26.5t-31.5 -69.5l-26 -206q-1 -6 -1 -16q0 -36 20 -58t53 -22q37 0 62.5 26.5zM235 562q8 15 16.5 24.5t22.5 22.5t21 22.5t9 24.5t-8.5 25.5t-27.5 10.5t-28.5 -7.5t-28.5 -28.5q-6 -8 -14 -2
l-14 10q-7 7 -1 14q22 29 42 41.5t51 12.5q32 0 52 -18t20 -47q0 -26 -11.5 -43t-34.5 -39q-23 -21 -31 -34q-5 -8 -13 -6l-17 4q-10 3 -5 13z" />
    <glyph glyph-name="uni1EA4" unicode="&#x1ea4;" horiz-adv-x="397" 
d="M297 9l-9 124q0 4 -4 4h-176q-2 0 -3.5 -1t-1.5 -3l-40 -124q-3 -9 -12 -9h-49q-5 0 -7 3t0 8l229 680q2 9 11 9h59q9 0 9 -9l64 -680q0 -11 -10 -11h-50q-10 0 -10 9zM126 195h153q3 0 3 4l-29 393q0 3 -1 3t-3 -3l-126 -393q0 -4 3 -4zM167.5 775.5q-1.5 3.5 2.5 8.5
l76 103q5 7 12 7h59q6 0 10 -7l53 -103q1 -2 1 -5q0 -7 -9 -7h-42q-8 0 -11 7l-33 73q-1 2 -3 1.5t-3 -1.5l-51 -73q-7 -7 -13 -7h-42q-5 0 -6.5 3.5zM391 847.5q-2 3.5 2 8.5l74 109q5 7 12 7h40q6 0 7 -3.5t-3 -8.5l-81 -109q-7 -7 -13 -7h-31q-5 0 -7 3.5z" />
    <glyph glyph-name="uni1EA5" unicode="&#x1ea5;" horiz-adv-x="399" 
d="M335 506h49q9 0 9 -10l-60 -486q-2 -10 -11 -10h-49q-5 0 -7.5 3t-1.5 7l5 37q0 3 -2 3.5t-3 -2.5q-20 -28 -47 -42t-58 -14q-55 0 -84.5 33.5t-29.5 90.5q0 9 2 29l26 216q9 70 49 111.5t101 41.5q31 0 55 -14t36 -42q1 -3 3 -2.5t2 3.5l5 37q2 10 11 10zM250.5 80.5
q25.5 26.5 30.5 69.5l26 206q1 6 1 16q0 36 -19.5 58t-51.5 22q-37 0 -63.5 -26.5t-31.5 -69.5l-26 -206q-1 -6 -1 -16q0 -36 20 -58t53 -22q37 0 62.5 26.5zM144.5 581.5q-1.5 3.5 2.5 8.5l76 103q5 7 12 7h59q6 0 10 -7l53 -103q1 -2 1 -5q0 -7 -9 -7h-42q-8 0 -11 7
l-33 73q-1 2 -3 1.5t-3 -1.5l-51 -73q-7 -7 -13 -7h-42q-5 0 -6.5 3.5zM368 653.5q-2 3.5 2 8.5l74 109q5 7 12 7h40q6 0 7 -3.5t-3 -8.5l-81 -109q-7 -7 -13 -7h-31q-5 0 -7 3.5z" />
    <glyph glyph-name="uni1EA6" unicode="&#x1ea6;" horiz-adv-x="397" 
d="M297 9l-9 124q0 4 -4 4h-176q-2 0 -3.5 -1t-1.5 -3l-40 -124q-3 -9 -12 -9h-49q-5 0 -7 3t0 8l229 680q2 9 11 9h59q9 0 9 -9l64 -680q0 -11 -10 -11h-50q-10 0 -10 9zM126 195h153q3 0 3 4l-29 393q0 3 -1 3t-3 -3l-126 -393q0 -4 3 -4zM167.5 775.5q-1.5 3.5 2.5 8.5
l76 103q5 7 12 7h59q6 0 10 -7l53 -103q1 -2 1 -5q0 -7 -9 -7h-42q-8 0 -11 7l-33 73q-1 2 -3 1.5t-3 -1.5l-51 -73q-7 -7 -13 -7h-42q-5 0 -6.5 3.5zM448 893q0 -7 -9 -7h-31q-6 0 -11 7l-54 109q-1 2 -1 6q0 6 8 6h41q6 0 11 -7l45 -109q1 -2 1 -5z" />
    <glyph glyph-name="uni1EA7" unicode="&#x1ea7;" horiz-adv-x="399" 
d="M335 506h49q9 0 9 -10l-60 -486q-2 -10 -11 -10h-49q-5 0 -7.5 3t-1.5 7l5 37q0 3 -2 3.5t-3 -2.5q-20 -28 -47 -42t-58 -14q-55 0 -84.5 33.5t-29.5 90.5q0 9 2 29l26 216q9 70 49 111.5t101 41.5q31 0 55 -14t36 -42q1 -3 3 -2.5t2 3.5l5 37q2 10 11 10zM250.5 80.5
q25.5 26.5 30.5 69.5l26 206q1 6 1 16q0 36 -19.5 58t-51.5 22q-37 0 -63.5 -26.5t-31.5 -69.5l-26 -206q-1 -6 -1 -16q0 -36 20 -58t53 -22q37 0 62.5 26.5zM144.5 581.5q-1.5 3.5 2.5 8.5l76 103q5 7 12 7h59q6 0 10 -7l53 -103q1 -2 1 -5q0 -7 -9 -7h-42q-8 0 -11 7
l-33 73q-1 2 -3 1.5t-3 -1.5l-51 -73q-7 -7 -13 -7h-42q-5 0 -6.5 3.5zM425 699q0 -7 -9 -7h-31q-6 0 -11 7l-54 109q-1 2 -1 6q0 6 8 6h41q6 0 11 -7l45 -109q1 -2 1 -5z" />
    <glyph glyph-name="uni1EA8" unicode="&#x1ea8;" horiz-adv-x="397" 
d="M297 9l-9 124q0 4 -4 4h-176q-2 0 -3.5 -1t-1.5 -3l-40 -124q-3 -9 -12 -9h-49q-5 0 -7 3t0 8l229 680q2 9 11 9h59q9 0 9 -9l64 -680q0 -11 -10 -11h-50q-10 0 -10 9zM126 195h153q3 0 3 4l-29 393q0 3 -1 3t-3 -3l-126 -393q0 -4 3 -4zM391 878q8 14 16 23t22 22
q14 14 20.5 23t8.5 24q2 14 -8.5 24t-26.5 10q-17 0 -28 -7t-27 -27q-8 -8 -14 -2l-14 10q-6 6 0 14q21 28 40 40t49 12q32 0 52 -18t20 -47q0 -25 -12 -42.5t-34 -35.5q-4 -4 -14.5 -14t-15.5 -19q-7 -8 -13 -6l-15 4q-11 3 -6 12zM167.5 775.5q-1.5 3.5 2.5 8.5l76 103
q5 7 12 7h59q6 0 10 -7l53 -103q1 -2 1 -5q0 -7 -9 -7h-42q-8 0 -11 7l-33 73q-1 2 -3 1.5t-3 -1.5l-51 -73q-7 -7 -13 -7h-42q-5 0 -6.5 3.5z" />
    <glyph glyph-name="uni1EA9" unicode="&#x1ea9;" horiz-adv-x="399" 
d="M335 506h49q9 0 9 -10l-60 -486q-2 -10 -11 -10h-49q-5 0 -7.5 3t-1.5 7l5 37q0 3 -2 3.5t-3 -2.5q-20 -28 -47 -42t-58 -14q-55 0 -84.5 33.5t-29.5 90.5q0 9 2 29l26 216q9 70 49 111.5t101 41.5q31 0 55 -14t36 -42q1 -3 3 -2.5t2 3.5l5 37q2 10 11 10zM250.5 80.5
q25.5 26.5 30.5 69.5l26 206q1 6 1 16q0 36 -19.5 58t-51.5 22q-37 0 -63.5 -26.5t-31.5 -69.5l-26 -206q-1 -6 -1 -16q0 -36 20 -58t53 -22q37 0 62.5 26.5zM368 684q8 14 16 23t22 22q14 14 20.5 23t8.5 24q2 14 -8.5 24t-26.5 10q-17 0 -28 -7t-27 -27q-8 -8 -14 -2
l-14 10q-6 6 0 14q21 28 40 40t49 12q32 0 52 -18t20 -47q0 -25 -12 -42.5t-34 -35.5q-4 -4 -14.5 -14t-15.5 -19q-7 -8 -13 -6l-15 4q-11 3 -6 12zM144.5 581.5q-1.5 3.5 2.5 8.5l76 103q5 7 12 7h59q6 0 10 -7l53 -103q1 -2 1 -5q0 -7 -9 -7h-42q-8 0 -11 7l-33 73
q-1 2 -3 1.5t-3 -1.5l-51 -73q-7 -7 -13 -7h-42q-5 0 -6.5 3.5z" />
    <glyph glyph-name="uni1EAA" unicode="&#x1eaa;" horiz-adv-x="397" 
d="M297 9l-9 124q0 4 -4 4h-176q-2 0 -3.5 -1t-1.5 -3l-40 -124q-3 -9 -12 -9h-49q-5 0 -7 3t0 8l229 680q2 9 11 9h59q9 0 9 -9l64 -680q0 -11 -10 -11h-50q-10 0 -10 9zM126 195h153q3 0 3 4l-29 393q0 3 -1 3t-3 -3l-126 -393q0 -4 3 -4zM167.5 775.5q-1.5 3.5 2.5 8.5
l76 103q5 7 12 7h59q6 0 10 -7l53 -103q1 -2 1 -5q0 -7 -9 -7h-42q-8 0 -11 7l-33 73q-1 2 -3 1.5t-3 -1.5l-51 -73q-7 -7 -13 -7h-42q-5 0 -6.5 3.5zM322 930.5q-10 5.5 -26 16.5q-3 2 -11 8.5t-15 9t-14 2.5q-14 0 -25 -5.5t-22 -20.5q-8 -9 -14 -3l-16 13q-7 7 -2 14
q32 52 80 52q25 0 54 -23q14 -12 21.5 -16.5t19.5 -4.5q25 0 45 28q2 4 6 5t8 -1l16 -12q3 -3 3 -6q0 -4 -5 -14q-17 -25 -39 -36.5t-40 -11.5q-14 0 -24 5.5z" />
    <glyph glyph-name="uni1EAB" unicode="&#x1eab;" horiz-adv-x="399" 
d="M335 506h49q9 0 9 -10l-60 -486q-2 -10 -11 -10h-49q-5 0 -7.5 3t-1.5 7l5 37q0 3 -2 3.5t-3 -2.5q-20 -28 -47 -42t-58 -14q-55 0 -84.5 33.5t-29.5 90.5q0 9 2 29l26 216q9 70 49 111.5t101 41.5q31 0 55 -14t36 -42q1 -3 3 -2.5t2 3.5l5 37q2 10 11 10zM250.5 80.5
q25.5 26.5 30.5 69.5l26 206q1 6 1 16q0 36 -19.5 58t-51.5 22q-37 0 -63.5 -26.5t-31.5 -69.5l-26 -206q-1 -6 -1 -16q0 -36 20 -58t53 -22q37 0 62.5 26.5zM144.5 581.5q-1.5 3.5 2.5 8.5l76 103q5 7 12 7h59q6 0 10 -7l53 -103q1 -2 1 -5q0 -7 -9 -7h-42q-8 0 -11 7
l-33 73q-1 2 -3 1.5t-3 -1.5l-51 -73q-7 -7 -13 -7h-42q-5 0 -6.5 3.5zM299 736.5q-10 5.5 -26 16.5q-3 2 -11 8.5t-15 9t-14 2.5q-14 0 -25 -5.5t-22 -20.5q-8 -9 -14 -3l-16 13q-7 7 -2 14q32 52 80 52q25 0 54 -23q14 -12 21.5 -16.5t19.5 -4.5q25 0 45 28q2 4 6 5t8 -1
l16 -12q3 -3 3 -6q0 -4 -5 -14q-17 -25 -39 -36.5t-40 -11.5q-14 0 -24 5.5z" />
    <glyph glyph-name="uni1EAC" unicode="&#x1eac;" horiz-adv-x="397" 
d="M297 9l-9 124q0 4 -4 4h-176q-2 0 -3.5 -1t-1.5 -3l-40 -124q-3 -9 -12 -9h-49q-5 0 -7 3t0 8l229 680q2 9 11 9h59q9 0 9 -9l64 -680q0 -11 -10 -11h-50q-10 0 -10 9zM126 195h153q3 0 3 4l-29 393q0 3 -1 3t-3 -3l-126 -393q0 -4 3 -4zM123 -178.5q-12 12.5 -12 33.5
q0 26 17 43t41 17q20 0 33 -12.5t13 -32.5q0 -26 -17.5 -43.5t-41.5 -17.5q-21 0 -33 12.5zM167.5 775.5q-1.5 3.5 2.5 8.5l76 103q5 7 12 7h59q6 0 10 -7l53 -103q1 -2 1 -5q0 -7 -9 -7h-42q-8 0 -11 7l-33 73q-1 2 -3 1.5t-3 -1.5l-51 -73q-7 -7 -13 -7h-42q-5 0 -6.5 3.5
z" />
    <glyph glyph-name="uni1EAD" unicode="&#x1ead;" horiz-adv-x="399" 
d="M335 506h49q9 0 9 -10l-60 -486q-2 -10 -11 -10h-49q-5 0 -7.5 3t-1.5 7l5 37q0 3 -2 3.5t-3 -2.5q-20 -28 -47 -42t-58 -14q-55 0 -84.5 33.5t-29.5 90.5q0 9 2 29l26 216q9 70 49 111.5t101 41.5q31 0 55 -14t36 -42q1 -3 3 -2.5t2 3.5l5 37q2 10 11 10zM250.5 80.5
q25.5 26.5 30.5 69.5l26 206q1 6 1 16q0 36 -19.5 58t-51.5 22q-37 0 -63.5 -26.5t-31.5 -69.5l-26 -206q-1 -6 -1 -16q0 -36 20 -58t53 -22q37 0 62.5 26.5zM124 -178.5q-12 12.5 -12 33.5q0 26 17 43t41 17q20 0 33 -12.5t13 -32.5q0 -26 -17.5 -43.5t-41.5 -17.5
q-21 0 -33 12.5zM144.5 581.5q-1.5 3.5 2.5 8.5l76 103q5 7 12 7h59q6 0 10 -7l53 -103q1 -2 1 -5q0 -7 -9 -7h-42q-8 0 -11 7l-33 73q-1 2 -3 1.5t-3 -1.5l-51 -73q-7 -7 -13 -7h-42q-5 0 -6.5 3.5z" />
    <glyph glyph-name="uni1EAE" unicode="&#x1eae;" horiz-adv-x="397" 
d="M297 9l-9 124q0 4 -4 4h-176q-2 0 -3.5 -1t-1.5 -3l-40 -124q-3 -9 -12 -9h-49q-5 0 -7 3t0 8l229 680q2 9 11 9h59q9 0 9 -9l64 -680q0 -11 -10 -11h-50q-10 0 -10 9zM126 195h153q3 0 3 4l-29 393q0 3 -1 3t-3 -3l-126 -393q0 -4 3 -4zM207.5 801q-25.5 27 -23.5 68
q2 10 11 10h22q9 0 9 -10q0 -26 14.5 -42t38.5 -16q23 0 41.5 16t24.5 42q3 10 12 10h22q10 0 8 -10q-8 -42 -39.5 -68.5t-73.5 -26.5q-41 0 -66.5 27zM252 928.5q-2 3.5 2 8.5l74 109q5 7 12 7h40q6 0 7 -3.5t-3 -8.5l-81 -109q-7 -7 -13 -7h-31q-5 0 -7 3.5z" />
    <glyph glyph-name="uni1EAF" unicode="&#x1eaf;" horiz-adv-x="399" 
d="M335 506h49q9 0 9 -10l-60 -486q-2 -10 -11 -10h-49q-5 0 -7.5 3t-1.5 7l5 37q0 3 -2 3.5t-3 -2.5q-20 -28 -47 -42t-58 -14q-55 0 -84.5 33.5t-29.5 90.5q0 9 2 29l26 216q9 70 49 111.5t101 41.5q31 0 55 -14t36 -42q1 -3 3 -2.5t2 3.5l5 37q2 10 11 10zM250.5 80.5
q25.5 26.5 30.5 69.5l26 206q1 6 1 16q0 36 -19.5 58t-51.5 22q-37 0 -63.5 -26.5t-31.5 -69.5l-26 -206q-1 -6 -1 -16q0 -36 20 -58t53 -22q37 0 62.5 26.5zM184.5 607q-25.5 27 -23.5 68q2 10 11 10h22q9 0 9 -10q0 -26 14.5 -42t38.5 -16q23 0 41.5 16t24.5 42
q3 10 12 10h22q10 0 8 -10q-8 -42 -39.5 -68.5t-73.5 -26.5q-41 0 -66.5 27zM229 734.5q-2 3.5 2 8.5l74 109q5 7 12 7h40q6 0 7 -3.5t-3 -8.5l-81 -109q-7 -7 -13 -7h-31q-5 0 -7 3.5z" />
    <glyph glyph-name="uni1EB0" unicode="&#x1eb0;" horiz-adv-x="397" 
d="M297 9l-9 124q0 4 -4 4h-176q-2 0 -3.5 -1t-1.5 -3l-40 -124q-3 -9 -12 -9h-49q-5 0 -7 3t0 8l229 680q2 9 11 9h59q9 0 9 -9l64 -680q0 -11 -10 -11h-50q-10 0 -10 9zM126 195h153q3 0 3 4l-29 393q0 3 -1 3t-3 -3l-126 -393q0 -4 3 -4zM207.5 801q-25.5 27 -23.5 68
q2 10 11 10h22q9 0 9 -10q0 -26 14.5 -42t38.5 -16q23 0 41.5 16t24.5 42q3 10 12 10h22q10 0 8 -10q-8 -42 -39.5 -68.5t-73.5 -26.5q-41 0 -66.5 27zM315 932q0 -7 -9 -7h-31q-6 0 -11 7l-54 109q-1 2 -1 6q0 6 8 6h41q6 0 11 -7l45 -109q1 -2 1 -5z" />
    <glyph glyph-name="uni1EB1" unicode="&#x1eb1;" horiz-adv-x="399" 
d="M335 506h49q9 0 9 -10l-60 -486q-2 -10 -11 -10h-49q-5 0 -7.5 3t-1.5 7l5 37q0 3 -2 3.5t-3 -2.5q-20 -28 -47 -42t-58 -14q-55 0 -84.5 33.5t-29.5 90.5q0 9 2 29l26 216q9 70 49 111.5t101 41.5q31 0 55 -14t36 -42q1 -3 3 -2.5t2 3.5l5 37q2 10 11 10zM250.5 80.5
q25.5 26.5 30.5 69.5l26 206q1 6 1 16q0 36 -19.5 58t-51.5 22q-37 0 -63.5 -26.5t-31.5 -69.5l-26 -206q-1 -6 -1 -16q0 -36 20 -58t53 -22q37 0 62.5 26.5zM184.5 607q-25.5 27 -23.5 68q2 10 11 10h22q9 0 9 -10q0 -26 14.5 -42t38.5 -16q23 0 41.5 16t24.5 42
q3 10 12 10h22q10 0 8 -10q-8 -42 -39.5 -68.5t-73.5 -26.5q-41 0 -66.5 27zM292 738q0 -7 -9 -7h-31q-6 0 -11 7l-54 109q-1 2 -1 6q0 6 8 6h41q6 0 11 -7l45 -109q1 -2 1 -5z" />
    <glyph glyph-name="uni1EB2" unicode="&#x1eb2;" horiz-adv-x="397" 
d="M297 9l-9 124q0 4 -4 4h-176q-2 0 -3.5 -1t-1.5 -3l-40 -124q-3 -9 -12 -9h-49q-5 0 -7 3t0 8l229 680q2 9 11 9h59q9 0 9 -9l64 -680q0 -11 -10 -11h-50q-10 0 -10 9zM126 195h153q3 0 3 4l-29 393q0 3 -1 3t-3 -3l-126 -393q0 -4 3 -4zM278.5 905q-1.5 3 0.5 8
q7 14 15 23.5t22 21.5q13 12 19.5 21t8.5 23q1 14 -9 24t-26 10q-17 0 -27.5 -7t-25.5 -26q-8 -9 -14 -3l-13 9q-7 7 -1 14q21 28 39.5 39.5t48.5 11.5t49 -16.5t19 -44.5q0 -25 -11 -41.5t-33 -37.5q-20 -18 -28 -31q-5 -9 -13 -6l-15 4q-4 1 -5.5 4zM207.5 801
q-25.5 27 -23.5 68q2 10 11 10h22q9 0 9 -10q0 -26 14.5 -42t38.5 -16q23 0 41.5 16t24.5 42q3 10 12 10h22q10 0 8 -10q-8 -42 -39.5 -68.5t-73.5 -26.5q-41 0 -66.5 27z" />
    <glyph glyph-name="uni1EB3" unicode="&#x1eb3;" horiz-adv-x="399" 
d="M335 506h49q9 0 9 -10l-60 -486q-2 -10 -11 -10h-49q-5 0 -7.5 3t-1.5 7l5 37q0 3 -2 3.5t-3 -2.5q-20 -28 -47 -42t-58 -14q-55 0 -84.5 33.5t-29.5 90.5q0 9 2 29l26 216q9 70 49 111.5t101 41.5q31 0 55 -14t36 -42q1 -3 3 -2.5t2 3.5l5 37q2 10 11 10zM250.5 80.5
q25.5 26.5 30.5 69.5l26 206q1 6 1 16q0 36 -19.5 58t-51.5 22q-37 0 -63.5 -26.5t-31.5 -69.5l-26 -206q-1 -6 -1 -16q0 -36 20 -58t53 -22q37 0 62.5 26.5zM255.5 711q-1.5 3 0.5 8q7 14 15 23.5t22 21.5q13 12 19.5 21t8.5 23q1 14 -9 24t-26 10q-17 0 -27.5 -7
t-25.5 -26q-8 -9 -14 -3l-13 9q-7 7 -1 14q21 28 39.5 39.5t48.5 11.5t49 -16.5t19 -44.5q0 -25 -11 -41.5t-33 -37.5q-20 -18 -28 -31q-5 -9 -13 -6l-15 4q-4 1 -5.5 4zM184.5 607q-25.5 27 -23.5 68q2 10 11 10h22q9 0 9 -10q0 -26 14.5 -42t38.5 -16q23 0 41.5 16
t24.5 42q3 10 12 10h22q10 0 8 -10q-8 -42 -39.5 -68.5t-73.5 -26.5q-41 0 -66.5 27z" />
    <glyph glyph-name="uni1EB4" unicode="&#x1eb4;" horiz-adv-x="397" 
d="M297 9l-9 124q0 4 -4 4h-176q-2 0 -3.5 -1t-1.5 -3l-40 -124q-3 -9 -12 -9h-49q-5 0 -7 3t0 8l229 680q2 9 11 9h59q9 0 9 -9l64 -680q0 -11 -10 -11h-50q-10 0 -10 9zM126 195h153q3 0 3 4l-29 393q0 3 -1 3t-3 -3l-126 -393q0 -4 3 -4zM207.5 801q-25.5 27 -23.5 68
q2 10 11 10h22q9 0 9 -10q0 -26 14.5 -42t38.5 -16q23 0 41.5 16t24.5 42q3 10 12 10h22q10 0 8 -10q-8 -42 -39.5 -68.5t-73.5 -26.5q-41 0 -66.5 27zM319 927.5q-10 5.5 -26 16.5q-3 2 -11 8.5t-15 9t-14 2.5q-14 0 -25 -5.5t-22 -20.5q-8 -9 -14 -3l-16 13q-7 7 -2 14
q32 52 80 52q25 0 54 -23q14 -12 21.5 -16.5t19.5 -4.5q25 0 45 28q2 4 6 5t8 -1l16 -12q3 -3 3 -6q0 -4 -5 -14q-17 -25 -39 -36.5t-40 -11.5q-14 0 -24 5.5z" />
    <glyph glyph-name="uni1EB5" unicode="&#x1eb5;" horiz-adv-x="399" 
d="M335 506h49q9 0 9 -10l-60 -486q-2 -10 -11 -10h-49q-5 0 -7.5 3t-1.5 7l5 37q0 3 -2 3.5t-3 -2.5q-20 -28 -47 -42t-58 -14q-55 0 -84.5 33.5t-29.5 90.5q0 9 2 29l26 216q9 70 49 111.5t101 41.5q31 0 55 -14t36 -42q1 -3 3 -2.5t2 3.5l5 37q2 10 11 10zM250.5 80.5
q25.5 26.5 30.5 69.5l26 206q1 6 1 16q0 36 -19.5 58t-51.5 22q-37 0 -63.5 -26.5t-31.5 -69.5l-26 -206q-1 -6 -1 -16q0 -36 20 -58t53 -22q37 0 62.5 26.5zM184.5 607q-25.5 27 -23.5 68q2 10 11 10h22q9 0 9 -10q0 -26 14.5 -42t38.5 -16q23 0 41.5 16t24.5 42
q3 10 12 10h22q10 0 8 -10q-8 -42 -39.5 -68.5t-73.5 -26.5q-41 0 -66.5 27zM296 733.5q-10 5.5 -26 16.5q-3 2 -11 8.5t-15 9t-14 2.5q-14 0 -25 -5.5t-22 -20.5q-8 -9 -14 -3l-16 13q-7 7 -2 14q32 52 80 52q25 0 54 -23q14 -12 21.5 -16.5t19.5 -4.5q25 0 45 28q2 4 6 5
t8 -1l16 -12q3 -3 3 -6q0 -4 -5 -14q-17 -25 -39 -36.5t-40 -11.5q-14 0 -24 5.5z" />
    <glyph glyph-name="uni1EB6" unicode="&#x1eb6;" horiz-adv-x="397" 
d="M297 9l-9 124q0 4 -4 4h-176q-2 0 -3.5 -1t-1.5 -3l-40 -124q-3 -9 -12 -9h-49q-5 0 -7 3t0 8l229 680q2 9 11 9h59q9 0 9 -9l64 -680q0 -11 -10 -11h-50q-10 0 -10 9zM126 195h153q3 0 3 4l-29 393q0 3 -1 3t-3 -3l-126 -393q0 -4 3 -4zM123 -178.5q-12 12.5 -12 33.5
q0 26 17 43t41 17q20 0 33 -12.5t13 -32.5q0 -26 -17.5 -43.5t-41.5 -17.5q-21 0 -33 12.5zM207.5 801q-25.5 27 -23.5 68q2 10 11 10h22q9 0 9 -10q0 -26 14.5 -42t38.5 -16q23 0 41.5 16t24.5 42q3 10 12 10h22q10 0 8 -10q-8 -42 -39.5 -68.5t-73.5 -26.5q-41 0 -66.5 27
z" />
    <glyph glyph-name="uni1EB7" unicode="&#x1eb7;" horiz-adv-x="399" 
d="M335 506h49q9 0 9 -10l-60 -486q-2 -10 -11 -10h-49q-5 0 -7.5 3t-1.5 7l5 37q0 3 -2 3.5t-3 -2.5q-20 -28 -47 -42t-58 -14q-55 0 -84.5 33.5t-29.5 90.5q0 9 2 29l26 216q9 70 49 111.5t101 41.5q31 0 55 -14t36 -42q1 -3 3 -2.5t2 3.5l5 37q2 10 11 10zM250.5 80.5
q25.5 26.5 30.5 69.5l26 206q1 6 1 16q0 36 -19.5 58t-51.5 22q-37 0 -63.5 -26.5t-31.5 -69.5l-26 -206q-1 -6 -1 -16q0 -36 20 -58t53 -22q37 0 62.5 26.5zM124 -178.5q-12 12.5 -12 33.5q0 26 17 43t41 17q20 0 33 -12.5t13 -32.5q0 -26 -17.5 -43.5t-41.5 -17.5
q-21 0 -33 12.5zM184.5 607q-25.5 27 -23.5 68q2 10 11 10h22q9 0 9 -10q0 -26 14.5 -42t38.5 -16q23 0 41.5 16t24.5 42q3 10 12 10h22q10 0 8 -10q-8 -42 -39.5 -68.5t-73.5 -26.5q-41 0 -66.5 27z" />
    <glyph glyph-name="uni1EB8" unicode="&#x1eb8;" horiz-adv-x="416" 
d="M434 641q-3 -3 -7 -3h-225q-2 0 -3.5 -1t-1.5 -3l-30 -248q-1 -1 0 -2.5t3 -1.5h142q10 0 8 -10l-5 -43q-2 -10 -11 -10h-142q-4 0 -4 -4l-31 -249q0 -4 4 -4h225q10 0 8 -10l-5 -42q-2 -10 -11 -10h-288q-10 0 -8 10l83 680q2 10 11 10h288q9 0 9 -10l-6 -42q0 -4 -3 -7
zM144 -178.5q-12 12.5 -12 33.5q0 26 17 43t41 17q20 0 33 -12.5t13 -32.5q0 -26 -17.5 -43.5t-41.5 -17.5q-21 0 -33 12.5z" />
    <glyph glyph-name="uni1EB9" unicode="&#x1eb9;" horiz-adv-x="396" 
d="M351 226h-221q-2 0 -3.5 -1t-1.5 -3l-9 -73q-1 -5 -1 -16q0 -35 20 -57t52 -22q31 0 55 19.5t35 50.5q5 9 12 9l48 -2q4 0 6.5 -3t0.5 -8q-14 -59 -57.5 -93.5t-107.5 -34.5q-62 0 -97.5 35t-35.5 94q0 16 1 24l26 216q8 68 55 110.5t116 42.5q63 0 99 -35t36 -94
q0 -8 -2 -24l-15 -125q-2 -10 -11 -10zM173 425.5q-26 -26.5 -31 -69.5l-9 -67q0 -4 4 -4h159q4 0 4 4l9 67q1 6 1 16q0 36 -20 58t-54 22q-37 0 -63 -26.5zM122 -178.5q-12 12.5 -12 33.5q0 26 17 43t41 17q20 0 33 -12.5t13 -32.5q0 -26 -17.5 -43.5t-41.5 -17.5
q-21 0 -33 12.5z" />
    <glyph glyph-name="uni1EBA" unicode="&#x1eba;" horiz-adv-x="416" 
d="M434 641q-3 -3 -7 -3h-225q-2 0 -3.5 -1t-1.5 -3l-30 -248q-1 -1 0 -2.5t3 -1.5h142q10 0 8 -10l-5 -43q-2 -10 -11 -10h-142q-4 0 -4 -4l-31 -249q0 -4 4 -4h225q10 0 8 -10l-5 -42q-2 -10 -11 -10h-288q-10 0 -8 10l83 680q2 10 11 10h288q9 0 9 -10l-6 -42q0 -4 -3 -7
zM283 756q8 15 16.5 24.5t22.5 22.5t21 22.5t9 24.5t-8.5 25.5t-27.5 10.5t-28.5 -7.5t-28.5 -28.5q-6 -8 -14 -2l-14 10q-7 7 -1 14q22 29 42 41.5t51 12.5q32 0 52 -18t20 -47q0 -26 -11.5 -43t-34.5 -39q-23 -21 -31 -34q-5 -8 -13 -6l-17 4q-10 3 -5 13z" />
    <glyph glyph-name="uni1EBB" unicode="&#x1ebb;" horiz-adv-x="396" 
d="M351 226h-221q-2 0 -3.5 -1t-1.5 -3l-9 -73q-1 -5 -1 -16q0 -35 20 -57t52 -22q31 0 55 19.5t35 50.5q5 9 12 9l48 -2q4 0 6.5 -3t0.5 -8q-14 -59 -57.5 -93.5t-107.5 -34.5q-62 0 -97.5 35t-35.5 94q0 16 1 24l26 216q8 68 55 110.5t116 42.5q63 0 99 -35t36 -94
q0 -8 -2 -24l-15 -125q-2 -10 -11 -10zM173 425.5q-26 -26.5 -31 -69.5l-9 -67q0 -4 4 -4h159q4 0 4 4l9 67q1 6 1 16q0 36 -20 58t-54 22q-37 0 -63 -26.5zM233 562q8 15 16.5 24.5t22.5 22.5t21 22.5t9 24.5t-8.5 25.5t-27.5 10.5t-28.5 -7.5t-28.5 -28.5q-6 -8 -14 -2
l-14 10q-7 7 -1 14q22 29 42 41.5t51 12.5q32 0 52 -18t20 -47q0 -26 -11.5 -43t-34.5 -39q-23 -21 -31 -34q-5 -8 -13 -6l-17 4q-10 3 -5 13z" />
    <glyph glyph-name="uni1EBC" unicode="&#x1ebc;" horiz-adv-x="416" 
d="M434 641q-3 -3 -7 -3h-225q-2 0 -3.5 -1t-1.5 -3l-30 -248q-1 -1 0 -2.5t3 -1.5h142q10 0 8 -10l-5 -43q-2 -10 -11 -10h-142q-4 0 -4 -4l-31 -249q0 -4 4 -4h225q10 0 8 -10l-5 -42q-2 -10 -11 -10h-288q-10 0 -8 10l83 680q2 10 11 10h288q9 0 9 -10l-6 -42q0 -4 -3 -7
zM339 807.5q-10 5.5 -26 16.5q-3 2 -11 8.5t-15 9t-14 2.5q-14 0 -25 -5.5t-22 -20.5q-8 -9 -14 -3l-16 13q-7 7 -2 14q32 52 80 52q25 0 54 -23q14 -12 21.5 -16.5t19.5 -4.5q25 0 45 28q2 4 6 5t8 -1l16 -12q3 -3 3 -6q0 -4 -5 -14q-17 -25 -39 -36.5t-40 -11.5
q-14 0 -24 5.5z" />
    <glyph glyph-name="uni1EBD" unicode="&#x1ebd;" horiz-adv-x="396" 
d="M351 226h-221q-2 0 -3.5 -1t-1.5 -3l-9 -73q-1 -5 -1 -16q0 -35 20 -57t52 -22q31 0 55 19.5t35 50.5q5 9 12 9l48 -2q4 0 6.5 -3t0.5 -8q-14 -59 -57.5 -93.5t-107.5 -34.5q-62 0 -97.5 35t-35.5 94q0 16 1 24l26 216q8 68 55 110.5t116 42.5q63 0 99 -35t36 -94
q0 -8 -2 -24l-15 -125q-2 -10 -11 -10zM173 425.5q-26 -26.5 -31 -69.5l-9 -67q0 -4 4 -4h159q4 0 4 4l9 67q1 6 1 16q0 36 -20 58t-54 22q-37 0 -63 -26.5zM290 613.5q-10 5.5 -26 16.5q-3 2 -11 8.5t-15 9t-14 2.5q-14 0 -25 -5.5t-22 -20.5q-8 -9 -14 -3l-16 13
q-7 7 -2 14q32 52 80 52q25 0 54 -23q14 -12 21.5 -16.5t19.5 -4.5q25 0 45 28q2 4 6 5t8 -1l16 -12q3 -3 3 -6q0 -4 -5 -14q-17 -25 -39 -36.5t-40 -11.5q-14 0 -24 5.5z" />
    <glyph glyph-name="uni1EBE" unicode="&#x1ebe;" horiz-adv-x="416" 
d="M434 641q-3 -3 -7 -3h-225q-2 0 -3.5 -1t-1.5 -3l-30 -248q-1 -1 0 -2.5t3 -1.5h142q10 0 8 -10l-5 -43q-2 -10 -11 -10h-142q-4 0 -4 -4l-31 -249q0 -4 4 -4h225q10 0 8 -10l-5 -42q-2 -10 -11 -10h-288q-10 0 -8 10l83 680q2 10 11 10h288q9 0 9 -10l-6 -42q0 -4 -3 -7
zM192.5 775.5q-1.5 3.5 2.5 8.5l76 103q5 7 12 7h59q6 0 10 -7l53 -103q1 -2 1 -5q0 -7 -9 -7h-42q-8 0 -11 7l-33 73q-1 2 -3 1.5t-3 -1.5l-51 -73q-7 -7 -13 -7h-42q-5 0 -6.5 3.5zM416 847.5q-2 3.5 2 8.5l74 109q5 7 12 7h40q6 0 7 -3.5t-3 -8.5l-81 -109q-7 -7 -13 -7
h-31q-5 0 -7 3.5z" />
    <glyph glyph-name="uni1EBF" unicode="&#x1ebf;" horiz-adv-x="396" 
d="M351 226h-221q-2 0 -3.5 -1t-1.5 -3l-9 -73q-1 -5 -1 -16q0 -35 20 -57t52 -22q31 0 55 19.5t35 50.5q5 9 12 9l48 -2q4 0 6.5 -3t0.5 -8q-14 -59 -57.5 -93.5t-107.5 -34.5q-62 0 -97.5 35t-35.5 94q0 16 1 24l26 216q8 68 55 110.5t116 42.5q63 0 99 -35t36 -94
q0 -8 -2 -24l-15 -125q-2 -10 -11 -10zM173 425.5q-26 -26.5 -31 -69.5l-9 -67q0 -4 4 -4h159q4 0 4 4l9 67q1 6 1 16q0 36 -20 58t-54 22q-37 0 -63 -26.5zM142.5 581.5q-1.5 3.5 2.5 8.5l76 103q5 7 12 7h59q6 0 10 -7l53 -103q1 -2 1 -5q0 -7 -9 -7h-42q-8 0 -11 7
l-33 73q-1 2 -3 1.5t-3 -1.5l-51 -73q-7 -7 -13 -7h-42q-5 0 -6.5 3.5zM366 653.5q-2 3.5 2 8.5l74 109q5 7 12 7h40q6 0 7 -3.5t-3 -8.5l-81 -109q-7 -7 -13 -7h-31q-5 0 -7 3.5z" />
    <glyph glyph-name="uni1EC0" unicode="&#x1ec0;" horiz-adv-x="416" 
d="M434 641q-3 -3 -7 -3h-225q-2 0 -3.5 -1t-1.5 -3l-30 -248q-1 -1 0 -2.5t3 -1.5h142q10 0 8 -10l-5 -43q-2 -10 -11 -10h-142q-4 0 -4 -4l-31 -249q0 -4 4 -4h225q10 0 8 -10l-5 -42q-2 -10 -11 -10h-288q-10 0 -8 10l83 680q2 10 11 10h288q9 0 9 -10l-6 -42q0 -4 -3 -7
zM192.5 775.5q-1.5 3.5 2.5 8.5l76 103q5 7 12 7h59q6 0 10 -7l53 -103q1 -2 1 -5q0 -7 -9 -7h-42q-8 0 -11 7l-33 73q-1 2 -3 1.5t-3 -1.5l-51 -73q-7 -7 -13 -7h-42q-5 0 -6.5 3.5zM473 893q0 -7 -9 -7h-31q-6 0 -11 7l-54 109q-1 2 -1 6q0 6 8 6h41q6 0 11 -7l45 -109
q1 -2 1 -5z" />
    <glyph glyph-name="uni1EC1" unicode="&#x1ec1;" horiz-adv-x="396" 
d="M351 226h-221q-2 0 -3.5 -1t-1.5 -3l-9 -73q-1 -5 -1 -16q0 -35 20 -57t52 -22q31 0 55 19.5t35 50.5q5 9 12 9l48 -2q4 0 6.5 -3t0.5 -8q-14 -59 -57.5 -93.5t-107.5 -34.5q-62 0 -97.5 35t-35.5 94q0 16 1 24l26 216q8 68 55 110.5t116 42.5q63 0 99 -35t36 -94
q0 -8 -2 -24l-15 -125q-2 -10 -11 -10zM173 425.5q-26 -26.5 -31 -69.5l-9 -67q0 -4 4 -4h159q4 0 4 4l9 67q1 6 1 16q0 36 -20 58t-54 22q-37 0 -63 -26.5zM142.5 581.5q-1.5 3.5 2.5 8.5l76 103q5 7 12 7h59q6 0 10 -7l53 -103q1 -2 1 -5q0 -7 -9 -7h-42q-8 0 -11 7
l-33 73q-1 2 -3 1.5t-3 -1.5l-51 -73q-7 -7 -13 -7h-42q-5 0 -6.5 3.5zM423 699q0 -7 -9 -7h-31q-6 0 -11 7l-54 109q-1 2 -1 6q0 6 8 6h41q6 0 11 -7l45 -109q1 -2 1 -5z" />
    <glyph glyph-name="uni1EC2" unicode="&#x1ec2;" horiz-adv-x="416" 
d="M434 641q-3 -3 -7 -3h-225q-2 0 -3.5 -1t-1.5 -3l-30 -248q-1 -1 0 -2.5t3 -1.5h142q10 0 8 -10l-5 -43q-2 -10 -11 -10h-142q-4 0 -4 -4l-31 -249q0 -4 4 -4h225q10 0 8 -10l-5 -42q-2 -10 -11 -10h-288q-10 0 -8 10l83 680q2 10 11 10h288q9 0 9 -10l-6 -42q0 -4 -3 -7
zM416 878q8 14 16 23t22 22q14 14 20.5 23t8.5 24q2 14 -8.5 24t-26.5 10q-17 0 -28 -7t-27 -27q-8 -8 -14 -2l-14 10q-6 6 0 14q21 28 40 40t49 12q32 0 52 -18t20 -47q0 -25 -12 -42.5t-34 -35.5q-4 -4 -14.5 -14t-15.5 -19q-7 -8 -13 -6l-15 4q-11 3 -6 12zM192.5 775.5
q-1.5 3.5 2.5 8.5l76 103q5 7 12 7h59q6 0 10 -7l53 -103q1 -2 1 -5q0 -7 -9 -7h-42q-8 0 -11 7l-33 73q-1 2 -3 1.5t-3 -1.5l-51 -73q-7 -7 -13 -7h-42q-5 0 -6.5 3.5z" />
    <glyph glyph-name="uni1EC3" unicode="&#x1ec3;" horiz-adv-x="396" 
d="M351 226h-221q-2 0 -3.5 -1t-1.5 -3l-9 -73q-1 -5 -1 -16q0 -35 20 -57t52 -22q31 0 55 19.5t35 50.5q5 9 12 9l48 -2q4 0 6.5 -3t0.5 -8q-14 -59 -57.5 -93.5t-107.5 -34.5q-62 0 -97.5 35t-35.5 94q0 16 1 24l26 216q8 68 55 110.5t116 42.5q63 0 99 -35t36 -94
q0 -8 -2 -24l-15 -125q-2 -10 -11 -10zM173 425.5q-26 -26.5 -31 -69.5l-9 -67q0 -4 4 -4h159q4 0 4 4l9 67q1 6 1 16q0 36 -20 58t-54 22q-37 0 -63 -26.5zM366 684q8 14 16 23t22 22q14 14 20.5 23t8.5 24q2 14 -8.5 24t-26.5 10q-17 0 -28 -7t-27 -27q-8 -8 -14 -2
l-14 10q-6 6 0 14q21 28 40 40t49 12q32 0 52 -18t20 -47q0 -25 -12 -42.5t-34 -35.5q-4 -4 -14.5 -14t-15.5 -19q-7 -8 -13 -6l-15 4q-11 3 -6 12zM142.5 581.5q-1.5 3.5 2.5 8.5l76 103q5 7 12 7h59q6 0 10 -7l53 -103q1 -2 1 -5q0 -7 -9 -7h-42q-8 0 -11 7l-33 73
q-1 2 -3 1.5t-3 -1.5l-51 -73q-7 -7 -13 -7h-42q-5 0 -6.5 3.5z" />
    <glyph glyph-name="uni1EC4" unicode="&#x1ec4;" horiz-adv-x="416" 
d="M434 641q-3 -3 -7 -3h-225q-2 0 -3.5 -1t-1.5 -3l-30 -248q-1 -1 0 -2.5t3 -1.5h142q10 0 8 -10l-5 -43q-2 -10 -11 -10h-142q-4 0 -4 -4l-31 -249q0 -4 4 -4h225q10 0 8 -10l-5 -42q-2 -10 -11 -10h-288q-10 0 -8 10l83 680q2 10 11 10h288q9 0 9 -10l-6 -42q0 -4 -3 -7
zM192.5 775.5q-1.5 3.5 2.5 8.5l76 103q5 7 12 7h59q6 0 10 -7l53 -103q1 -2 1 -5q0 -7 -9 -7h-42q-8 0 -11 7l-33 73q-1 2 -3 1.5t-3 -1.5l-51 -73q-7 -7 -13 -7h-42q-5 0 -6.5 3.5zM347 930.5q-10 5.5 -26 16.5q-3 2 -11 8.5t-15 9t-14 2.5q-14 0 -25 -5.5t-22 -20.5
q-8 -9 -14 -3l-16 13q-7 7 -2 14q32 52 80 52q25 0 54 -23q14 -12 21.5 -16.5t19.5 -4.5q25 0 45 28q2 4 6 5t8 -1l16 -12q3 -3 3 -6q0 -4 -5 -14q-17 -25 -39 -36.5t-40 -11.5q-14 0 -24 5.5z" />
    <glyph glyph-name="uni1EC5" unicode="&#x1ec5;" horiz-adv-x="396" 
d="M351 226h-221q-2 0 -3.5 -1t-1.5 -3l-9 -73q-1 -5 -1 -16q0 -35 20 -57t52 -22q31 0 55 19.5t35 50.5q5 9 12 9l48 -2q4 0 6.5 -3t0.5 -8q-14 -59 -57.5 -93.5t-107.5 -34.5q-62 0 -97.5 35t-35.5 94q0 16 1 24l26 216q8 68 55 110.5t116 42.5q63 0 99 -35t36 -94
q0 -8 -2 -24l-15 -125q-2 -10 -11 -10zM173 425.5q-26 -26.5 -31 -69.5l-9 -67q0 -4 4 -4h159q4 0 4 4l9 67q1 6 1 16q0 36 -20 58t-54 22q-37 0 -63 -26.5zM142.5 581.5q-1.5 3.5 2.5 8.5l76 103q5 7 12 7h59q6 0 10 -7l53 -103q1 -2 1 -5q0 -7 -9 -7h-42q-8 0 -11 7
l-33 73q-1 2 -3 1.5t-3 -1.5l-51 -73q-7 -7 -13 -7h-42q-5 0 -6.5 3.5zM297 736.5q-10 5.5 -26 16.5q-3 2 -11 8.5t-15 9t-14 2.5q-14 0 -25 -5.5t-22 -20.5q-8 -9 -14 -3l-16 13q-7 7 -2 14q32 52 80 52q25 0 54 -23q14 -12 21.5 -16.5t19.5 -4.5q25 0 45 28q2 4 6 5t8 -1
l16 -12q3 -3 3 -6q0 -4 -5 -14q-17 -25 -39 -36.5t-40 -11.5q-14 0 -24 5.5z" />
    <glyph glyph-name="uni1EC6" unicode="&#x1ec6;" horiz-adv-x="416" 
d="M434 641q-3 -3 -7 -3h-225q-2 0 -3.5 -1t-1.5 -3l-30 -248q-1 -1 0 -2.5t3 -1.5h142q10 0 8 -10l-5 -43q-2 -10 -11 -10h-142q-4 0 -4 -4l-31 -249q0 -4 4 -4h225q10 0 8 -10l-5 -42q-2 -10 -11 -10h-288q-10 0 -8 10l83 680q2 10 11 10h288q9 0 9 -10l-6 -42q0 -4 -3 -7
zM144 -178.5q-12 12.5 -12 33.5q0 26 17 43t41 17q20 0 33 -12.5t13 -32.5q0 -26 -17.5 -43.5t-41.5 -17.5q-21 0 -33 12.5zM192.5 775.5q-1.5 3.5 2.5 8.5l76 103q5 7 12 7h59q6 0 10 -7l53 -103q1 -2 1 -5q0 -7 -9 -7h-42q-8 0 -11 7l-33 73q-1 2 -3 1.5t-3 -1.5l-51 -73
q-7 -7 -13 -7h-42q-5 0 -6.5 3.5z" />
    <glyph glyph-name="uni1EC7" unicode="&#x1ec7;" horiz-adv-x="396" 
d="M351 226h-221q-2 0 -3.5 -1t-1.5 -3l-9 -73q-1 -5 -1 -16q0 -35 20 -57t52 -22q31 0 55 19.5t35 50.5q5 9 12 9l48 -2q4 0 6.5 -3t0.5 -8q-14 -59 -57.5 -93.5t-107.5 -34.5q-62 0 -97.5 35t-35.5 94q0 16 1 24l26 216q8 68 55 110.5t116 42.5q63 0 99 -35t36 -94
q0 -8 -2 -24l-15 -125q-2 -10 -11 -10zM173 425.5q-26 -26.5 -31 -69.5l-9 -67q0 -4 4 -4h159q4 0 4 4l9 67q1 6 1 16q0 36 -20 58t-54 22q-37 0 -63 -26.5zM122 -178.5q-12 12.5 -12 33.5q0 26 17 43t41 17q20 0 33 -12.5t13 -32.5q0 -26 -17.5 -43.5t-41.5 -17.5
q-21 0 -33 12.5zM142.5 581.5q-1.5 3.5 2.5 8.5l76 103q5 7 12 7h59q6 0 10 -7l53 -103q1 -2 1 -5q0 -7 -9 -7h-42q-8 0 -11 7l-33 73q-1 2 -3 1.5t-3 -1.5l-51 -73q-7 -7 -13 -7h-42q-5 0 -6.5 3.5z" />
    <glyph glyph-name="uni1EC8" unicode="&#x1ec8;" horiz-adv-x="208" 
d="M52 10l83 680q2 10 11 10h50q4 0 6.5 -3t1.5 -7l-83 -680q-1 -4 -4 -7t-7 -3h-50q-10 0 -8 10zM163 756q8 15 16.5 24.5t22.5 22.5t21 22.5t9 24.5t-8.5 25.5t-27.5 10.5t-28.5 -7.5t-28.5 -28.5q-6 -8 -14 -2l-14 10q-7 7 -1 14q22 29 42 41.5t51 12.5q32 0 52 -18
t20 -47q0 -26 -11.5 -43t-34.5 -39q-23 -21 -31 -34q-5 -8 -13 -6l-17 4q-10 3 -5 13z" />
    <glyph glyph-name="uni1EC9" unicode="&#x1ec9;" horiz-adv-x="164" 
d="M29 10l60 486q2 10 11 10h49q5 0 7.5 -3t1.5 -7l-60 -486q-2 -10 -11 -10h-49q-9 0 -9 10zM117 562q8 15 16.5 24.5t22.5 22.5t21 22.5t9 24.5t-8.5 25.5t-27.5 10.5t-28.5 -7.5t-28.5 -28.5q-6 -8 -14 -2l-14 10q-7 7 -1 14q22 29 42 41.5t51 12.5q32 0 52 -18t20 -47
q0 -26 -11.5 -43t-34.5 -39q-23 -21 -31 -34q-5 -8 -13 -6l-17 4q-10 3 -5 13z" />
    <glyph glyph-name="uni1ECA" unicode="&#x1eca;" horiz-adv-x="208" 
d="M52 10l83 680q2 10 11 10h50q4 0 6.5 -3t1.5 -7l-83 -680q-1 -4 -4 -7t-7 -3h-50q-10 0 -8 10zM28 -178.5q-12 12.5 -12 33.5q0 26 17 43t41 17q20 0 33 -12.5t13 -32.5q0 -26 -17.5 -43.5t-41.5 -17.5q-21 0 -33 12.5z" />
    <glyph glyph-name="uni1ECB" unicode="&#x1ecb;" horiz-adv-x="201" 
d="M118 614q-13 16 -11 40q4 25 21 40.5t41 15.5q21 0 34 -13t13 -34q0 -28 -17.5 -46.5t-43.5 -18.5q-24 0 -37 16zM49 10l59 486q1 4 4 7t7 3h50q10 0 8 -10l-59 -486q-2 -10 -11 -10h-50q-10 0 -8 10zM25 -178.5q-12 12.5 -12 33.5q0 26 17 43t41 17q20 0 33 -12.5
t13 -32.5q0 -26 -17.5 -43.5t-41.5 -17.5q-21 0 -33 12.5z" />
    <glyph glyph-name="uni1ECC" unicode="&#x1ecc;" horiz-adv-x="442" 
d="M92 32.5q-40 40.5 -40 108.5q0 8 2 26l45 366q10 78 62.5 126.5t126.5 48.5q68 0 108.5 -40t40.5 -107q0 -8 -2 -28l-45 -366q-10 -79 -62.5 -127t-127.5 -48q-68 0 -108 40.5zM283.5 84.5q31.5 30.5 37.5 78.5l46 373q1 6 1 16q0 42 -24 68t-64 26q-43 0 -74 -30.5
t-37 -79.5l-46 -373q-1 -6 -1 -18q0 -41 23 -66t62 -25q45 0 76.5 30.5zM145 -178.5q-12 12.5 -12 33.5q0 26 17 43t41 17q20 0 33 -12.5t13 -32.5q0 -26 -17.5 -43.5t-41.5 -17.5q-21 0 -33 12.5z" />
    <glyph glyph-name="uni1ECD" unicode="&#x1ecd;" horiz-adv-x="402" 
d="M81.5 27q-35.5 35 -35.5 94q0 16 1 24l26 215q8 68 55 111t117 43q63 0 99 -35.5t36 -94.5q0 -16 -1 -24l-27 -215q-8 -69 -55 -111t-117 -42q-63 0 -98.5 35zM252.5 81q26.5 26 31.5 69l25 206q1 6 1 16q0 36 -20 58t-53 22q-37 0 -63.5 -26.5t-31.5 -69.5l-26 -206
q-1 -6 -1 -16q0 -36 20 -57.5t53 -21.5q38 0 64.5 26zM126 -178.5q-12 12.5 -12 33.5q0 26 17 43t41 17q20 0 33 -12.5t13 -32.5q0 -26 -17.5 -43.5t-41.5 -17.5q-21 0 -33 12.5z" />
    <glyph glyph-name="uni1ECE" unicode="&#x1ece;" horiz-adv-x="442" 
d="M92 32.5q-40 40.5 -40 108.5q0 8 2 26l45 366q10 78 62.5 126.5t126.5 48.5q68 0 108.5 -40t40.5 -107q0 -8 -2 -28l-45 -366q-10 -79 -62.5 -127t-127.5 -48q-68 0 -108 40.5zM283.5 84.5q31.5 30.5 37.5 78.5l46 373q1 6 1 16q0 42 -24 68t-64 26q-43 0 -74 -30.5
t-37 -79.5l-46 -373q-1 -6 -1 -18q0 -41 23 -66t62 -25q45 0 76.5 30.5zM279 755q8 15 16.5 24.5t22.5 22.5t21 22.5t9 24.5t-8.5 25.5t-27.5 10.5t-28.5 -7.5t-28.5 -28.5q-6 -8 -14 -2l-14 10q-7 7 -1 14q22 29 42 41.5t51 12.5q32 0 52 -18t20 -47q0 -26 -11.5 -43
t-34.5 -39q-23 -21 -31 -34q-5 -8 -13 -6l-17 4q-10 3 -5 13z" />
    <glyph glyph-name="uni1ECF" unicode="&#x1ecf;" horiz-adv-x="402" 
d="M81.5 27q-35.5 35 -35.5 94q0 16 1 24l26 215q8 68 55 111t117 43q63 0 99 -35.5t36 -94.5q0 -16 -1 -24l-27 -215q-8 -69 -55 -111t-117 -42q-63 0 -98.5 35zM252.5 81q26.5 26 31.5 69l25 206q1 6 1 16q0 36 -20 58t-53 22q-37 0 -63.5 -26.5t-31.5 -69.5l-26 -206
q-1 -6 -1 -16q0 -36 20 -57.5t53 -21.5q38 0 64.5 26zM236 562q8 15 16.5 24.5t22.5 22.5t21 22.5t9 24.5t-8.5 25.5t-27.5 10.5t-28.5 -7.5t-28.5 -28.5q-6 -8 -14 -2l-14 10q-7 7 -1 14q22 29 42 41.5t51 12.5q32 0 52 -18t20 -47q0 -26 -11.5 -43t-34.5 -39
q-23 -21 -31 -34q-5 -8 -13 -6l-17 4q-10 3 -5 13z" />
    </font>
</defs>
</svg>
