<?xml version="1.0" standalone="no"?>
<!DOCTYPE svg PUBLIC "-//W3C//DTD SVG 1.1//EN" "http://www.w3.org/Graphics/SVG/1.1/DTD/svg11.dtd" >
<svg xmlns="http://www.w3.org/2000/svg" xmlns:xlink="http://www.w3.org/1999/xlink" version="1.1">
<metadata>
Created by FontForge 20201107 at Wed Nov  7 06:08:27 2018
 By 
Copyright 2017 The Barlow Project Authors (https://github.com/jpt/barlow)
</metadata>
<defs>
<font id="BarlowCondensed-ExtraBold" horiz-adv-x="0" >
  <font-face 
    font-family="Barlow Condensed ExtraBold"
    font-weight="800"
    font-stretch="condensed"
    units-per-em="1000"
    panose-1="0 0 9 6 0 0 0 0 0 0"
    ascent="800"
    descent="-200"
    x-height="517"
    cap-height="700"
    bbox="-608 -258 1010 1068"
    underline-thickness="50"
    underline-position="-100"
    unicode-range="U+000D-FB02"
  />
<missing-glyph horiz-adv-x="426" 
d="M5 0h416q5 0 5 5v690q0 5 -5 5h-416q-5 0 -5 -5v-690q0 -5 5 -5zM153.5 257.5q-3.5 3.5 -3.5 8.5v13q0 38 16 60.5t46 46.5q22 19 32 31.5t10 30.5q0 19 -9.5 30t-24.5 11q-18 0 -28 -12.5t-10 -32.5v-4q0 -11 -12 -11l-95 4q-12 0 -12 11q0 68 44.5 110.5t115.5 42.5
q69 0 109.5 -39.5t40.5 -104.5q0 -45 -17 -70.5t-48 -50.5q-22 -18 -31.5 -30t-9.5 -30v-6q0 -5 -3.5 -8.5t-8.5 -3.5h-93q-5 0 -8.5 3.5zM164.5 105q-17.5 18 -17.5 44q0 28 17.5 45t44.5 17t44.5 -17t17.5 -45q0 -26 -18 -44t-44 -18q-27 0 -44.5 18z" />
    <glyph glyph-name="fi" unicode="fi" horiz-adv-x="527" 
d="M285.5 513.5q3.5 -3.5 3.5 -8.5v-91q0 -5 -3.5 -8.5t-8.5 -3.5h-48q-5 0 -5 -5v-385q0 -5 -3.5 -8.5t-8.5 -3.5h-141q-5 0 -8.5 3.5t-3.5 8.5v385q0 5 -5 5h-27q-5 0 -8.5 3.5t-3.5 8.5v91q0 5 3.5 8.5t8.5 3.5h27q5 0 5 5v30q0 83 43.5 116.5t134.5 33.5l30 -1
q11 0 11 -12v-91q0 -12 -10 -12q-21 -1 -32.5 -14t-11.5 -34v-16q0 -5 5 -5h48q5 0 8.5 -3.5zM353.5 587.5q-24.5 24.5 -24.5 62.5q0 39 24 63t62 24t62.5 -24t24.5 -63q0 -37 -24.5 -62t-62.5 -25q-37 0 -61.5 24.5zM337.5 3.5q-3.5 3.5 -3.5 8.5v493q0 5 3.5 8.5t8.5 3.5
h142q5 0 8.5 -3.5t3.5 -8.5v-493q0 -5 -3.5 -8.5t-8.5 -3.5h-142q-5 0 -8.5 3.5z" />
    <glyph glyph-name="fl" unicode="fl" horiz-adv-x="524" 
d="M285.5 513.5q3.5 -3.5 3.5 -8.5v-91q0 -5 -3.5 -8.5t-8.5 -3.5h-48q-5 0 -5 -5v-385q0 -5 -3.5 -8.5t-8.5 -3.5h-141q-5 0 -8.5 3.5t-3.5 8.5v385q0 5 -5 5h-27q-5 0 -8.5 3.5t-3.5 8.5v91q0 5 3.5 8.5t8.5 3.5h27q5 0 5 5v30q0 83 43.5 116.5t134.5 33.5l30 -1
q11 0 11 -12v-91q0 -12 -10 -12q-21 -1 -32.5 -14t-11.5 -34v-16q0 -5 5 -5h48q5 0 8.5 -3.5zM335.5 3.5q-3.5 3.5 -3.5 8.5v676q0 5 3.5 8.5t8.5 3.5h142q5 0 8.5 -3.5t3.5 -8.5v-676q0 -5 -3.5 -8.5t-8.5 -3.5h-142q-5 0 -8.5 3.5z" />
    <glyph glyph-name="I_J.liga" unicode="IJ" horiz-adv-x="697" 
d="M38.5 3.5q-3.5 3.5 -3.5 8.5v676q0 5 3.5 8.5t8.5 3.5h142q5 0 8.5 -3.5t3.5 -8.5v-676q0 -5 -3.5 -8.5t-8.5 -3.5h-142q-5 0 -8.5 3.5zM345 16.5q-47 24.5 -73 68.5t-26 101v65q0 5 3.5 8.5t8.5 3.5h142q5 0 8.5 -3.5t3.5 -8.5v-67q0 -22 11.5 -36t29.5 -14q19 0 31 14
t12 36v504q0 5 3.5 8.5t8.5 3.5h142q5 0 8.5 -3.5t3.5 -8.5v-502q0 -57 -26 -101t-73.5 -68.5t-109.5 -24.5q-61 0 -108 24.5z" />
    <glyph glyph-name="f_f_i.liga" unicode="ffi" horiz-adv-x="799" 
d="M624.5 587.5q-24.5 24.5 -24.5 62.5q0 39 24 63t62 24t62.5 -24t24.5 -63q0 -37 -24.5 -62t-62.5 -25q-37 0 -61.5 24.5zM490 522q0 -5 5 -5h47q5 0 8.5 -3.5t3.5 -8.5v-91q0 -5 -3.5 -8.5t-8.5 -3.5h-47q-5 0 -5 -5v-385q0 -5 -3.5 -8.5t-8.5 -3.5h-142q-5 0 -8.5 3.5
t-3.5 8.5v385q0 5 -5 5h-90q-5 0 -5 -5v-385q0 -5 -3.5 -8.5t-8.5 -3.5h-142q-5 0 -8.5 3.5t-3.5 8.5v385q0 5 -5 5h-26q-5 0 -8.5 3.5t-3.5 8.5v91q0 5 3.5 8.5t8.5 3.5h26q5 0 5 5v33q0 82 43.5 114.5t133.5 32.5l32 -1q4 0 7 -3.5t3 -8.5v-87q0 -12 -9 -12
q-22 -1 -33 -14.5t-11 -35.5v-18q0 -5 5 -5h90q5 0 5 5v33q0 82 43.5 114.5t133.5 32.5l32 -1q4 0 6.5 -3.5t2.5 -8.5v-87q0 -12 -9 -12q-22 -1 -32.5 -14.5t-10.5 -35.5v-18zM608.5 3.5q-3.5 3.5 -3.5 8.5v493q0 5 3.5 8.5t8.5 3.5h142q5 0 8.5 -3.5t3.5 -8.5v-493
q0 -5 -3.5 -8.5t-8.5 -3.5h-142q-5 0 -8.5 3.5z" />
    <glyph glyph-name="f_f_l.liga" unicode="ffl" horiz-adv-x="795" 
d="M496 522q0 -5 5 -5h47q5 0 8.5 -3.5t3.5 -8.5v-91q0 -5 -3.5 -8.5t-8.5 -3.5h-47q-5 0 -5 -5v-385q0 -5 -3.5 -8.5t-8.5 -3.5h-142q-5 0 -8.5 3.5t-3.5 8.5v385q0 5 -5 5h-96q-5 0 -5 -5v-385q0 -5 -3.5 -8.5t-8.5 -3.5h-142q-5 0 -8.5 3.5t-3.5 8.5v385q0 5 -5 5h-26
q-5 0 -8.5 3.5t-3.5 8.5v91q0 5 3.5 8.5t8.5 3.5h26q5 0 5 5v33q0 82 43.5 114.5t133.5 32.5l32 -1q4 0 7 -3.5t3 -8.5v-87q0 -12 -9 -12q-22 -1 -33 -14.5t-11 -35.5v-18q0 -5 5 -5h96q5 0 5 5v33q0 82 43.5 114.5t133.5 32.5l32 -1q4 0 6.5 -3.5t2.5 -8.5v-87
q0 -12 -9 -12q-22 -1 -32.5 -14.5t-10.5 -35.5v-18zM606.5 696.5q3.5 3.5 8.5 3.5h142q5 0 8.5 -3.5t3.5 -8.5v-676q0 -5 -3.5 -8.5t-8.5 -3.5h-142q-5 0 -8.5 3.5t-3.5 8.5v676q0 5 3.5 8.5z" />
    <glyph glyph-name="g_j.liga" unicode="gj" horiz-adv-x="674" 
d="M501.5 587.5q-24.5 24.5 -24.5 62.5q0 39 24 63t62 24t62.5 -24t24.5 -63q0 -37 -24.5 -62t-62.5 -25q-37 0 -61.5 24.5zM420.5 513.5q3.5 -3.5 3.5 -8.5v-475q0 -74 -21 -126t-76.5 -82.5t-155.5 -30.5q-16 0 -54 2q-12 1 -12 13v119q0 13 13 11l23 -1q48 0 73 11.5
t34 32t10 53.5q0 4 -2.5 4.5t-4.5 -2.5q-31 -40 -90 -40q-70 0 -103.5 45t-33.5 128v185q0 173 137 173q61 0 91 -45q2 -3 4 -2.5t2 3.5v24q0 5 3.5 8.5t8.5 3.5h142q5 0 8.5 -3.5zM481 505q0 5 3.5 8.5t8.5 3.5h141q5 0 8.5 -3.5t3.5 -8.5v-490q0 -79 -14 -124.5t-60 -70
t-140 -22.5q-13 0 -12 12l14 117q1 6 3.5 8.5t9.5 2.5q21 0 27.5 18.5t6.5 58.5v490zM248.5 149q9.5 12 9.5 31v159q0 20 -9.5 32t-25.5 12q-15 0 -24 -12t-9 -32v-159q0 -20 9 -31.5t24 -11.5q16 0 25.5 12z" />
    <glyph glyph-name="i_j.liga" unicode="ij" horiz-adv-x="439" 
d="M48.5 587.5q-24.5 24.5 -24.5 62.5q0 39 24 63t62 24t62.5 -24t24.5 -63q0 -37 -24.5 -62t-62.5 -25q-37 0 -61.5 24.5zM266.5 587.5q-24.5 24.5 -24.5 62.5q0 39 24 63t62 24t62.5 -24t24.5 -63q0 -37 -24.5 -62t-62.5 -25q-37 0 -61.5 24.5zM31.5 3.5
q-3.5 3.5 -3.5 8.5v493q0 5 3.5 8.5t8.5 3.5h142q5 0 8.5 -3.5t3.5 -8.5v-493q0 -5 -3.5 -8.5t-8.5 -3.5h-142q-5 0 -8.5 3.5zM150 -190v117q0 7 4.5 9t14.5 2q44 0 60 19t16 58v490q0 5 3.5 8.5t8.5 3.5h142q5 0 8.5 -3.5t3.5 -8.5v-490q0 -83 -13.5 -127t-67 -68
t-168.5 -22q-12 0 -12 12z" />
    <glyph glyph-name="hyphen_hyphen.liga" unicode="&#x2d;&#x2d;" horiz-adv-x="593" 
d="M24.5 222.5q-3.5 3.5 -3.5 8.5v117q0 5 3.5 8.5t8.5 3.5h527q5 0 8.5 -3.5t3.5 -8.5v-117q0 -5 -3.5 -8.5t-8.5 -3.5h-527q-5 0 -8.5 3.5z" />
    <glyph glyph-name=".notdef" horiz-adv-x="426" 
d="M5 0h416q5 0 5 5v690q0 5 -5 5h-416q-5 0 -5 -5v-690q0 -5 5 -5zM153.5 257.5q-3.5 3.5 -3.5 8.5v13q0 38 16 60.5t46 46.5q22 19 32 31.5t10 30.5q0 19 -9.5 30t-24.5 11q-18 0 -28 -12.5t-10 -32.5v-4q0 -11 -12 -11l-95 4q-12 0 -12 11q0 68 44.5 110.5t115.5 42.5
q69 0 109.5 -39.5t40.5 -104.5q0 -45 -17 -70.5t-48 -50.5q-22 -18 -31.5 -30t-9.5 -30v-6q0 -5 -3.5 -8.5t-8.5 -3.5h-93q-5 0 -8.5 3.5zM164.5 105q-17.5 18 -17.5 44q0 28 17.5 45t44.5 17t44.5 -17t17.5 -45q0 -26 -18 -44t-44 -18q-27 0 -44.5 18z" />
    <glyph glyph-name=".null" 
 />
    <glyph glyph-name="nonmarkingreturn" unicode="&#xd;" horiz-adv-x="200" 
 />
    <glyph glyph-name="NULL" 
 />
    <glyph glyph-name="NULL" 
 />
    <glyph glyph-name="space" unicode=" " horiz-adv-x="200" 
 />
    <glyph glyph-name="exclam" unicode="!" horiz-adv-x="289" 
d="M81.5 247.5q-3.5 3.5 -3.5 8.5l-18 432q0 12 12 12h142q12 0 12 -12l-17 -432q0 -5 -3.5 -8.5t-8.5 -3.5h-107q-5 0 -8.5 3.5zM82.5 25.5q-24.5 24.5 -24.5 62.5t24.5 62t62.5 24t62 -24t24 -62t-24.5 -62.5t-61.5 -24.5q-38 0 -62.5 24.5z" />
    <glyph glyph-name="quotedbl" unicode="&#x22;" horiz-adv-x="385" 
d="M31.5 468.5q-3.5 3.5 -4.5 8.5l-15 210v2q0 10 11 10h133q13 0 11 -12l-15 -210q-1 -5 -4.5 -8.5t-8.5 -3.5h-99q-5 0 -8.5 3.5zM237.5 468.5q-3.5 3.5 -4.5 8.5l-15 210v2q0 10 11 10h133q13 0 11 -12l-16 -210q-1 -5 -4.5 -8.5t-8.5 -3.5h-98q-5 0 -8.5 3.5z" />
    <glyph glyph-name="numbersign" unicode="#" horiz-adv-x="626" 
d="M595.5 398.5q-3.5 -3.5 -8.5 -3.5h-61q-6 0 -6 -5l-11 -78q0 -5 4 -5h39q5 0 8.5 -3.5t3.5 -8.5v-117q0 -5 -3.5 -8.5t-8.5 -3.5h-60q-6 0 -6 -5l-17 -119q-1 -11 -13 -11h-142q-12 0 -11 13l17 117q0 5 -4 5h-61q-6 0 -6 -5l-17 -119q-1 -11 -13 -11h-142q-12 0 -11 13
l17 117q0 5 -4 5h-40q-5 0 -8.5 3.5t-3.5 8.5v117q0 5 3.5 8.5t8.5 3.5h61q6 0 6 5l11 78q0 5 -4 5h-39q-5 0 -8.5 3.5t-3.5 8.5v118q0 5 3.5 8.5t8.5 3.5h60q6 0 6 5l17 120q1 11 13 11l142 -1q12 0 11 -13l-17 -117q0 -5 4 -5h61q6 0 6 5l17 120q1 11 13 11l142 -1
q12 0 11 -13l-17 -117q0 -5 4 -5h40q5 0 8.5 -3.5t3.5 -8.5v-118q0 -5 -3.5 -8.5zM343 312l11 78q0 5 -4 5h-61q-6 0 -6 -5l-11 -78q0 -5 4 -5h61q6 0 6 5z" />
    <glyph glyph-name="dollar" unicode="$" horiz-adv-x="454" 
d="M395.5 63.5q-39.5 -50.5 -107.5 -65.5q-5 -2 -5 -6l2 -52q0 -5 -3.5 -8.5t-8.5 -3.5h-99q-5 0 -8.5 3.5t-3.5 8.5l1 56q0 4 -4 5q-62 18 -97.5 65.5t-35.5 111.5v31q0 5 3.5 8.5t8.5 3.5h140q5 0 8.5 -3.5t3.5 -8.5v-23q0 -24 11.5 -38t29.5 -14t29.5 13.5t11.5 34.5
q0 23 -18 41.5t-72 57.5q-50 36 -82 64.5t-55 71t-23 98.5q0 69 37 118.5t101 66.5q4 1 4 5l-1 64q0 5 3.5 8.5t8.5 3.5h97q5 0 8.5 -3.5t3.5 -8.5l-1 -62q0 -5 4 -6q67 -17 105.5 -67t38.5 -122v-24q0 -5 -3.5 -8.5t-8.5 -3.5h-139q-5 0 -8.5 3.5t-3.5 8.5v28q0 22 -12 36
t-30 14t-29 -14t-11 -37q0 -25 17 -45t69 -58q63 -47 95 -76t50 -64.5t18 -83.5q0 -74 -39.5 -124.5z" />
    <glyph glyph-name="percent" unicode="%" horiz-adv-x="761" 
d="M115 403q-37 22 -58.5 59.5t-21.5 82.5t21.5 82.5t58.5 59t81 21.5q43 0 80 -22t58.5 -59.5t21.5 -81.5q0 -45 -21.5 -82.5t-58 -59.5t-80.5 -22t-81 22zM138 4q-2 4 1 10l364 678q4 8 15 8h91q7 0 9 -4t-1 -10l-364 -678q-4 -8 -15 -8h-91q-7 0 -9 4zM248.5 488.5
q21.5 23.5 21.5 56.5t-22 56t-52 23q-31 0 -53 -23t-22 -56t22 -56.5t53 -23.5t52.5 23.5zM485 14q-37 22 -58.5 59.5t-21.5 82.5q0 44 21.5 81.5t58.5 59.5t81 22q43 0 80 -22t58.5 -59.5t21.5 -81.5q0 -45 -21.5 -82.5t-58 -59.5t-80.5 -22t-81 22zM618.5 99
q21.5 23 21.5 57q0 32 -21.5 55.5t-52.5 23.5t-53 -23.5t-22 -55.5q0 -34 21.5 -57t53.5 -23q31 0 52.5 23z" />
    <glyph glyph-name="ampersand" unicode="&#x26;" horiz-adv-x="624" 
d="M597 7q0 -7 -11 -7h-154q-9 0 -15 7l-19 23q-2 4 -7 2q-75 -42 -164 -42q-95 0 -150 46.5t-55 135.5q0 64 27 108t74 79q4 3 1 7q-43 57 -56 86.5t-13 66.5q0 85 54.5 137t143.5 52q60 0 107.5 -24.5t74.5 -68.5t27 -101q0 -63 -30.5 -106.5t-82.5 -79.5q-4 -3 -1 -7
q4 -6 14 -18l42 -53q4 -4 7 1q29 36 46 74q5 11 16 5l105 -60q10 -7 5 -16q-38 -75 -77 -122q-3 -4 -1 -7q32 -37 88 -110q4 -6 4 -8zM231 545.5q-10 -12.5 -10 -32.5q0 -15 4.5 -27t23.5 -39q3 -3 7 -1q40 32 40 67q0 20 -11 32.5t-27 12.5q-17 0 -27 -12.5zM296 146
q6 4 1 7l-18 22l-54 65q-3 3 -7 1q-29 -26 -29 -54q0 -23 16 -40.5t48 -14.5q19 3 43 14z" />
    <glyph glyph-name="quotesingle" unicode="'" horiz-adv-x="188" 
d="M31.5 469.5q-3.5 3.5 -4.5 8.5l-15 210v2q0 10 11 10h141q14 0 12 -12l-17 -211q-2 -11 -13 -11h-106q-5 0 -8.5 3.5z" />
    <glyph glyph-name="parenleft" unicode="(" horiz-adv-x="343" 
d="M121 -80q-119 173 -119 415q0 245 120 415q4 7 14 7h139q7 0 9.5 -4t-0.5 -10q-42 -87 -69 -185.5t-27 -222.5t27 -221.5t69 -186.5q2 -4 2 -6q0 -8 -11 -8h-140q-10 0 -14 7z" />
    <glyph glyph-name="parenright" unicode=")" horiz-adv-x="343" 
d="M222 750q119 -171 119 -414q0 -246 -120 -416q-4 -7 -14 -7h-139q-7 0 -9.5 4t0.5 10q42 89 69 186.5t27 221.5q0 125 -26.5 222t-69.5 186q-2 4 -2 6q0 8 11 8h140q10 0 14 -7z" />
    <glyph glyph-name="asterisk" unicode="*" horiz-adv-x="362" 
d="M138.5 399.5q-3.5 3.5 -3.5 8.5l1 71q0 3 -2 4.5t-4 -0.5l-63 -36q-4 -2 -6 -2q-5 0 -10 7l-34 61q-2 4 -2 6q0 6 6 10l69 39q5 3 0 6l-68 37q-10 6 -5 17l34 64q3 5 7.5 6.5t9.5 -1.5l62 -38q2 -2 4 -1t2 4l-1 71q0 5 3.5 8.5t8.5 3.5h68q5 0 8.5 -3.5t3.5 -8.5v-71
q0 -3 2 -4t4 1l61 38q4 2 6 2q7 0 11 -7l34 -64q2 -6 2 -7q0 -5 -6 -10l-68 -37q-2 -1 -2 -3t2 -4l68 -38q9 -6 4 -16l-34 -65q-3 -5 -7.5 -6t-9.5 2l-61 38q-2 2 -4 1t-2 -4v-71q0 -5 -3.5 -8.5t-8.5 -3.5h-68q-5 0 -8.5 3.5z" />
    <glyph glyph-name="plus" unicode="+" horiz-adv-x="437" 
d="M412.5 366.5q3.5 -3.5 3.5 -8.5v-100q0 -5 -3.5 -8.5t-8.5 -3.5h-118q-5 0 -5 -5v-118q0 -5 -3.5 -8.5t-8.5 -3.5h-101q-5 0 -8.5 3.5t-3.5 8.5v118q0 5 -5 5h-118q-5 0 -8.5 3.5t-3.5 8.5v100q0 5 3.5 8.5t8.5 3.5h118q5 0 5 5v119q0 5 3.5 8.5t8.5 3.5h101
q5 0 8.5 -3.5t3.5 -8.5v-119q0 -5 5 -5h118q5 0 8.5 -3.5z" />
    <glyph glyph-name="comma" unicode="," horiz-adv-x="223" 
d="M27 -93l19 240q1 5 4.5 8.5t8.5 3.5h122q14 0 11 -13l-55 -240q-3 -11 -13 -11h-85q-13 0 -12 12z" />
    <glyph glyph-name="hyphen" unicode="-" horiz-adv-x="337" 
d="M24.5 222.5q-3.5 3.5 -3.5 8.5v118q0 5 3.5 8.5t8.5 3.5h272q5 0 8.5 -3.5t3.5 -8.5v-118q0 -5 -3.5 -8.5t-8.5 -3.5h-272q-5 0 -8.5 3.5z" />
    <glyph glyph-name="period" unicode="." horiz-adv-x="235" 
d="M55.5 18.5q-24.5 24.5 -24.5 62.5q0 39 24.5 63t62.5 24t62 -24t24 -63q0 -38 -24.5 -62.5t-61.5 -24.5q-38 0 -62.5 24.5z" />
    <glyph glyph-name="slash" unicode="/" horiz-adv-x="444" 
d="M17 3.5q-3 3.5 -1 10.5l233 676q3 10 13 10h141q6 0 9 -3.5t1 -10.5l-233 -676q-3 -10 -13 -10h-141q-6 0 -9 3.5z" />
    <glyph glyph-name="zero" unicode="0" horiz-adv-x="456" 
d="M79 46q-56 58 -56 153v302q0 95 56 153t149 58t149 -58t56 -153v-302q0 -95 -56 -153t-149 -58t-149 58zM256.5 147q10.5 16 10.5 42v322q0 26 -10.5 42t-28.5 16t-28.5 -16t-10.5 -42v-322q0 -26 10.5 -42t28.5 -16t28.5 16z" />
    <glyph glyph-name="one" unicode="1" horiz-adv-x="294" 
d="M109 700h146q5 0 8.5 -3.5t3.5 -8.5v-676q0 -5 -3.5 -8.5t-8.5 -3.5h-142q-5 0 -8.5 3.5t-3.5 8.5v527q0 5 -5 5l-74 -4q-12 0 -12 11l-2 106q0 10 10 13l76 27q8 3 15 3z" />
    <glyph glyph-name="two" unicode="2" horiz-adv-x="451" 
d="M222 144q1 -2 4 -2h200q5 0 8.5 -3.5t3.5 -8.5v-118q0 -5 -3.5 -8.5t-8.5 -3.5h-392q-5 0 -8.5 3.5t-3.5 8.5v122q0 7 5 15q-3 -4 52 61q38 45 74 89.5t59 78.5q50 77 50 132q0 28 -10.5 42t-27.5 14t-27.5 -14t-9.5 -36v-43q0 -5 -3.5 -8.5t-8.5 -3.5h-144
q-5 0 -8.5 3.5t-3.5 8.5v50q5 83 64 134t149 51q58 0 103 -25t70 -70t25 -104q0 -53 -16.5 -98.5t-53.5 -97.5q-30 -43 -97 -118l-40 -47q-2 -2 -1 -4z" />
    <glyph glyph-name="three" unicode="3" horiz-adv-x="446" 
d="M422 225q0 -23 -2 -65q-4 -76 -57 -122t-139 -46q-59 0 -105 21.5t-72 60.5t-27 89q-2 34 -2 53q0 12 12 12h142q12 0 12 -12q0 -14 2 -36q2 -21 12 -33t26 -12t26.5 11.5t12.5 31.5q1 22 1 65q0 44 -2 64q-1 19 -11.5 30.5t-26.5 11.5t-34 -16q-4 -4 -8 -4q-3 0 -9 4
l-73 76q-4 6 -4 9q0 4 4 8l118 127q4 6 -2 6h-172q-5 0 -8.5 3.5t-3.5 8.5v117q0 5 3.5 8.5t8.5 3.5h365q5 0 8.5 -3.5t3.5 -8.5v-121q0 -8 -6 -14l-108 -125q-4 -6 2 -6q45 -3 76 -42t34 -94q3 -30 3 -61z" />
    <glyph glyph-name="four" unicode="4" horiz-adv-x="508" 
d="M494.5 318.5q3.5 -3.5 3.5 -8.5v-126q0 -5 -3.5 -8.5t-8.5 -3.5h-33q-5 0 -5 -5v-155q0 -5 -3.5 -8.5t-8.5 -3.5h-142q-5 0 -8.5 3.5t-3.5 8.5v155q0 5 -5 5h-254q-5 0 -8.5 3.5t-3.5 8.5v100q0 8 2 14l128 392q3 10 13 10h152q6 0 9 -4t1 -10l-111 -358q-1 -6 4 -6h68
q5 0 5 5v86q0 5 3.5 8.5t8.5 3.5h142q5 0 8.5 -3.5t3.5 -8.5v-86q0 -5 5 -5h33q5 0 8.5 -3.5z" />
    <glyph glyph-name="five" unicode="5" horiz-adv-x="450" 
d="M431 220q0 -38 -1 -57q-1 -80 -56 -125.5t-147 -45.5q-85 0 -137.5 41.5t-62.5 124.5l-2 28q0 12 12 12h142q11 0 12 -9v-6l2 -11q5 -38 34 -38q16 0 25.5 10.5t11.5 30.5q1 14 1 45q0 28 -2 39q-2 18 -11.5 29t-24.5 11q-13 0 -22.5 -6.5t-12.5 -17.5t-13 -11h-143
q-5 0 -8.5 3.5t-3.5 8.5v412q0 5 3.5 8.5t8.5 3.5h379q5 0 8.5 -3.5t3.5 -8.5v-118q0 -5 -3.5 -8.5t-8.5 -3.5h-220q-5 0 -5 -5v-141q0 -3 2 -3.5t4 1.5q35 32 84 32q68 0 108 -46t41 -127q2 -15 2 -49z" />
    <glyph glyph-name="six" unicode="6" horiz-adv-x="451" 
d="M432 220v-55q-1 -82 -56 -127.5t-147 -45.5q-86 0 -139.5 42t-60.5 124q-3 21 -3 47l-2 322q-1 83 54.5 132t147.5 49q87 0 142 -49t55 -132v-37q0 -5 -3.5 -8.5t-8.5 -3.5h-142q-5 0 -8.5 3.5t-3.5 8.5v26q0 20 -9.5 33t-21.5 13q-16 0 -25.5 -13t-9.5 -33v-98
q0 -3 2 -3.5t4 1.5q36 29 77 29q71 0 113 -47.5t44 -129.5q1 -15 1 -48zM264 232l-2 53q-2 18 -11 29t-23 11q-15 0 -24.5 -11t-11.5 -30q-1 -25 -1 -52q0 -31 1 -56q2 -20 11 -31t25 -11q15 0 24 11.5t11 31.5q1 25 1 55z" />
    <glyph glyph-name="seven" unicode="7" horiz-adv-x="422" 
d="M77 4q-3 4 -1 10l161 538q2 6 -4 6h-85q-5 0 -5 -5v-34q0 -5 -3.5 -8.5t-8.5 -3.5h-110q-5 0 -8.5 3.5t-3.5 8.5l1 169q0 5 3.5 8.5t8.5 3.5h380q5 0 8.5 -3.5t3.5 -8.5v-123q0 -4 -2 -14l-163 -541q-3 -10 -13 -10h-150q-6 0 -9 4z" />
    <glyph glyph-name="eight" unicode="8" horiz-adv-x="446" 
d="M356 360q34 -21 50 -59q18 -46 18 -96q0 -48 -17 -91q-22 -56 -71 -89t-113 -33t-113 32.5t-72 89.5q-15 42 -15 91q0 55 16 94q15 39 51 60q6 3 0 7q-34 22 -50 61q-17 38 -17 89q0 53 17 90q22 50 70.5 79t112.5 29q62 0 110.5 -27.5t71.5 -80.5q19 -41 19 -90t-18 -88
q-16 -38 -51 -61q-4 -4 1 -7zM186 500q0 -18 3 -35q2 -19 11.5 -30t22.5 -11q14 0 23.5 11t11.5 31t2 33q0 19 -3 32q-2 19 -11 30t-23 11t-23 -11t-11 -30q-3 -15 -3 -31zM260 215q0 22 -3 40q-1 20 -10.5 31.5t-23.5 11.5t-23.5 -12t-11.5 -32q-2 -22 -2 -36t2 -38
q1 -21 11 -33.5t24 -12.5q15 0 24.5 12.5t11.5 33.5q1 11 1 35z" />
    <glyph glyph-name="nine" unicode="9" horiz-adv-x="446" 
d="M367.5 41.5q-55.5 -49.5 -147.5 -49.5q-87 0 -142 49.5t-55 132.5v36q0 5 3.5 8.5t8.5 3.5h142q5 0 8.5 -3.5t3.5 -8.5v-25q0 -20 9.5 -33.5t21.5 -13.5q16 0 25.5 13t9.5 34v96q0 3 -2 3.5t-4 -1.5q-35 -28 -77 -28q-71 0 -113 48t-44 129q-1 15 -1 49q0 36 1 54
q1 82 56 127.5t147 45.5q86 0 139 -41.5t61 -124.5q3 -42 3 -47l1 -321q1 -83 -54.5 -132.5zM243 386.5q9 10.5 11 29.5l1 52q0 31 -1 56q-2 20 -11 31.5t-24 11.5t-25 -12t-11 -32l-1 -55l2 -52q2 -19 11 -29.5t24 -10.5t24 10.5z" />
    <glyph glyph-name="colon" unicode=":" horiz-adv-x="298" 
d="M88.5 349.5q-24.5 24.5 -24.5 62.5q0 39 24.5 63t62.5 24t62 -24t24 -63q0 -38 -24.5 -62.5t-61.5 -24.5q-38 0 -62.5 24.5zM88.5 25.5q-24.5 24.5 -24.5 62.5q0 39 24.5 63t62.5 24t62 -24t24 -63q0 -38 -24.5 -62.5t-61.5 -24.5q-38 0 -62.5 24.5z" />
    <glyph glyph-name="semicolon" unicode=";" horiz-adv-x="246" 
d="M54.5 329.5q-27.5 28.5 -27.5 68.5q0 39 29.5 67.5t66.5 28.5t66 -28.5t29 -67.5q0 -40 -27 -68.5t-68 -28.5t-68.5 28.5zM35 -92l16 238q0 5 4 8.5t9 3.5h123q14 0 11 -13l-53 -238q-2 -11 -13 -11h-86q-12 0 -11 12z" />
    <glyph glyph-name="less" unicode="&#x3c;" horiz-adv-x="437" 
d="M412 50.5q-4 -2.5 -10 0.5l-372 167q-9 5 -9 14v122q0 10 9 14l372 167q4 2 6 2q8 0 8 -11v-133q0 -10 -9 -14l-219 -83q-6 -3 0 -6l219 -83q9 -4 9 -14v-133q0 -7 -4 -9.5z" />
    <glyph glyph-name="equal" unicode="=" horiz-adv-x="437" 
d="M24.5 339.5q-3.5 3.5 -3.5 8.5v100q0 5 3.5 8.5t8.5 3.5h371q5 0 8.5 -3.5t3.5 -8.5v-100q0 -5 -3.5 -8.5t-8.5 -3.5h-371q-5 0 -8.5 3.5zM24.5 162.5q-3.5 3.5 -3.5 8.5v100q0 5 3.5 8.5t8.5 3.5h371q5 0 8.5 -3.5t3.5 -8.5v-100q0 -5 -3.5 -8.5t-8.5 -3.5h-371
q-5 0 -8.5 3.5z" />
    <glyph glyph-name="greater" unicode="&#x3e;" horiz-adv-x="437" 
d="M29 49q-8 0 -8 11v133q0 10 9 14l219 83q6 3 0 6l-219 83q-9 4 -9 14v133q0 7 4 9.5t10 -0.5l372 -167q9 -4 9 -14v-122q0 -9 -9 -14l-372 -167q-4 -2 -6 -2z" />
    <glyph glyph-name="question" unicode="?" horiz-adv-x="462" 
d="M138.5 232.5q-3.5 3.5 -3.5 8.5v24q0 38 12 65.5t29 45t45 40.5q31 25 45 42.5t14 42.5q0 27 -12.5 42.5t-34.5 15.5q-25 0 -39.5 -17.5t-14.5 -45.5v-11q0 -11 -12 -11l-142 6q-5 0 -8.5 4t-3.5 9v3q0 63 28 111.5t79 75.5t117 27q96 0 153.5 -55t57.5 -146
q0 -44 -13 -76t-31 -51.5t-47 -43.5q-29 -22 -43 -40t-14 -43v-14q0 -5 -3.5 -8.5t-8.5 -3.5h-141q-5 0 -8.5 3.5zM155.5 20.5q-24.5 24.5 -24.5 62.5q0 39 24 63t62 24t62.5 -24t24.5 -63q0 -37 -24.5 -62t-62.5 -25q-37 0 -61.5 24.5z" />
    <glyph glyph-name="at" unicode="@" horiz-adv-x="760" 
d="M586.5 631.5q70.5 -37.5 110 -105t39.5 -154.5q0 -23 -3 -49q-13 -101 -68 -157t-136 -56q-69 0 -107 40q-4 3 -7 -1q-16 -22 -39 -30t-43 -8q-58 0 -85 35.5t-27 79.5q0 12 4 42l3 34q3 38 8 56q10 64 39 92.5t81 28.5q32 0 52 -24q5 -6 6 1l1 5q1 11 12 11h86
q12 0 11 -13l-22 -164q-2 -16 -2 -21q0 -30 13 -44.5t32 -14.5q29 0 47 32t24 80q2 13 2 37q0 61 -25.5 107t-71 70.5t-104.5 24.5q-68 0 -127 -35.5t-98.5 -98.5t-49.5 -142q-3 -22 -3 -42q0 -70 29 -118t74 -71.5t92 -23.5q34 0 61 10.5t53 28.5q4 3 7 3q6 0 9 -6l39 -69
q2 -2 2 -7q0 -6 -6 -9q-85 -56 -184 -56q-81 0 -147.5 37.5t-105 107.5t-38.5 163q0 17 4 57q13 108 70 193t143.5 133t185.5 48q89 0 159.5 -37.5zM374 209q8 9 10 24l8 62q3 32 7 56q2 15 -4 23.5t-19 8.5q-12 0 -20.5 -8.5t-10.5 -23.5l-8 -62l-7 -56q-2 -15 4.5 -24
t19.5 -9q12 0 20 9z" />
    <glyph glyph-name="A" unicode="A" horiz-adv-x="508" 
d="M325 11l-13 87q0 5 -6 5h-108q-6 0 -6 -5l-12 -87q-1 -11 -13 -11h-142q-13 0 -10 13l145 676q2 11 13 11h163q11 0 13 -11l144 -676l1 -4q0 -9 -11 -9h-145q-12 0 -13 11zM218 231h67q4 0 4 5l-36 228q-1 4 -3 4t-3 -4l-33 -228q0 -5 4 -5z" />
    <glyph glyph-name="B" unicode="B" horiz-adv-x="477" 
d="M399 50.5q-59 -50.5 -150 -50.5h-202q-5 0 -8.5 3.5t-3.5 8.5v676q0 5 3.5 8.5t8.5 3.5h176q104 0 163.5 -48.5t59.5 -145.5q0 -96 -63 -141q-5 -3 -1 -6q76 -56 76 -164q0 -94 -59 -144.5zM201 553v-128q0 -5 5 -5h19q28 0 43 17.5t15 50.5q0 34 -15 52t-43 18h-19
q-5 0 -5 -5zM277 163q15 20 15 57t-15 59t-40 22h-31q-5 0 -5 -5v-148q0 -5 5 -5h30q26 0 41 20z" />
    <glyph glyph-name="C" unicode="C" horiz-adv-x="470" 
d="M84 48q-57 56 -57 149v307q0 94 57 149t152 55t152.5 -55t57.5 -149v-9q0 -5 -3.5 -8.5t-8.5 -3.5l-142 -6q-12 0 -12 12v27q0 23 -12 36.5t-32 13.5q-19 0 -31 -13.5t-12 -36.5v-333q0 -22 12 -35.5t31 -13.5q20 0 32 13.5t12 35.5v29q0 5 3.5 8.5t8.5 3.5l142 -6
q5 0 8.5 -3.5t3.5 -8.5v-9q0 -93 -57.5 -149t-152.5 -56t-152 56z" />
    <glyph glyph-name="D" unicode="D" horiz-adv-x="480" 
d="M38.5 3.5q-3.5 3.5 -3.5 8.5v676q0 5 3.5 8.5t8.5 3.5h191q96 0 154 -54t58 -143v-306q0 -89 -58 -143t-154 -54h-191q-5 0 -8.5 3.5zM206 142l28 1q21 1 35 18.5t15 46.5v284q0 30 -14 48t-37 18h-27q-5 0 -5 -5v-406q0 -5 5 -5z" />
    <glyph glyph-name="E" unicode="E" horiz-adv-x="441" 
d="M415.5 561.5q-3.5 -3.5 -8.5 -3.5h-201q-5 0 -5 -5v-126q0 -5 5 -5h110q5 0 8.5 -3.5t3.5 -8.5v-119q0 -5 -3.5 -8.5t-8.5 -3.5h-110q-5 0 -5 -5v-127q0 -5 5 -5h201q5 0 8.5 -3.5t3.5 -8.5v-118q0 -5 -3.5 -8.5t-8.5 -3.5h-360q-5 0 -8.5 3.5t-3.5 8.5v676q0 5 3.5 8.5
t8.5 3.5h360q5 0 8.5 -3.5t3.5 -8.5v-118q0 -5 -3.5 -8.5z" />
    <glyph glyph-name="F" unicode="F" horiz-adv-x="427" 
d="M415.5 561.5q-3.5 -3.5 -8.5 -3.5h-201q-5 0 -5 -5v-126q0 -5 5 -5h110q5 0 8.5 -3.5t3.5 -8.5v-119q0 -5 -3.5 -8.5t-8.5 -3.5h-110q-5 0 -5 -5v-262q0 -5 -3.5 -8.5t-8.5 -3.5h-142q-5 0 -8.5 3.5t-3.5 8.5v676q0 5 3.5 8.5t8.5 3.5h360q5 0 8.5 -3.5t3.5 -8.5v-118
q0 -5 -3.5 -8.5z" />
    <glyph glyph-name="G" unicode="G" horiz-adv-x="473" 
d="M84 45.5q-57 53.5 -57 143.5v323q0 90 57 143t152 53t152.5 -54t57.5 -144v-37q0 -5 -3.5 -8.5t-8.5 -3.5h-142q-5 0 -8.5 3.5t-3.5 8.5v39q0 24 -12 39t-32 15q-19 0 -31 -15t-12 -39v-324q0 -24 12 -39t31 -15q20 0 32 15t12 39v64q0 5 -5 5h-26q-5 0 -8.5 3.5
t-3.5 8.5v106q0 5 3.5 8.5t8.5 3.5h185q5 0 8.5 -3.5t3.5 -8.5v-186q0 -90 -57.5 -143.5t-152.5 -53.5t-152 53.5z" />
    <glyph glyph-name="H" unicode="H" horiz-adv-x="483" 
d="M286.5 696.5q3.5 3.5 8.5 3.5h142q5 0 8.5 -3.5t3.5 -8.5v-676q0 -5 -3.5 -8.5t-8.5 -3.5h-142q-5 0 -8.5 3.5t-3.5 8.5v262q0 5 -5 5h-72q-5 0 -5 -5v-262q0 -5 -3.5 -8.5t-8.5 -3.5h-142q-5 0 -8.5 3.5t-3.5 8.5v676q0 5 3.5 8.5t8.5 3.5h142q5 0 8.5 -3.5t3.5 -8.5
v-261q0 -5 5 -5h72q5 0 5 5v261q0 5 3.5 8.5z" />
    <glyph glyph-name="I" unicode="I" horiz-adv-x="235" 
d="M38.5 3.5q-3.5 3.5 -3.5 8.5v676q0 5 3.5 8.5t8.5 3.5h142q5 0 8.5 -3.5t3.5 -8.5v-676q0 -5 -3.5 -8.5t-8.5 -3.5h-142q-5 0 -8.5 3.5z" />
    <glyph glyph-name="J" unicode="J" horiz-adv-x="462" 
d="M110 16.5q-47 24.5 -73 68.5t-26 101v65q0 5 3.5 8.5t8.5 3.5h142q5 0 8.5 -3.5t3.5 -8.5v-67q0 -22 11.5 -36t29.5 -14q19 0 31 14t12 36v504q0 5 3.5 8.5t8.5 3.5h142q5 0 8.5 -3.5t3.5 -8.5v-502q0 -57 -26 -101t-73.5 -68.5t-109.5 -24.5q-61 0 -108 24.5z" />
    <glyph glyph-name="K" unicode="K" horiz-adv-x="505" 
d="M38.5 3.5q-3.5 3.5 -3.5 8.5v676q0 5 3.5 8.5t8.5 3.5h142q5 0 8.5 -3.5t3.5 -8.5v-226q0 -4 2 -4t4 3l105 230q4 9 14 9h150q7 0 9.5 -3.5t-0.5 -10.5l-145 -294q-1 -4 -1 -6l152 -372q1 -2 1 -6q0 -8 -10 -8h-151q-11 0 -14 9l-90 234q-1 3 -3 3t-4 -3l-18 -36
q-1 -2 -1 -6v-189q0 -5 -3.5 -8.5t-8.5 -3.5h-142q-5 0 -8.5 3.5z" />
    <glyph glyph-name="L" unicode="L" horiz-adv-x="437" 
d="M38.5 3.5q-3.5 3.5 -3.5 8.5v676q0 5 3.5 8.5t8.5 3.5h142q5 0 8.5 -3.5t3.5 -8.5v-541q0 -5 5 -5h204q5 0 8.5 -3.5t3.5 -8.5v-118q0 -5 -3.5 -8.5t-8.5 -3.5h-363q-5 0 -8.5 3.5z" />
    <glyph glyph-name="M" unicode="M" horiz-adv-x="558" 
d="M376 700h139q5 0 8.5 -3.5t3.5 -8.5v-676q0 -5 -3.5 -8.5t-8.5 -3.5h-142q-5 0 -8.5 3.5t-3.5 8.5v429q0 4 -2 4.5t-4 -2.5l-70 -122q-4 -8 -6 -8t-7 8l-70 122q-2 3 -4 3t-2 -4v-430q0 -5 -3.5 -8.5t-8.5 -3.5h-142q-5 0 -8.5 3.5t-3.5 8.5v676q0 5 3.5 8.5t8.5 3.5h140
q10 0 15 -8l80 -145q3 -4 6 0l78 145q4 8 15 8z" />
    <glyph glyph-name="N" unicode="N" horiz-adv-x="522" 
d="M326.5 696.5q3.5 3.5 8.5 3.5h140q5 0 8.5 -3.5t3.5 -8.5v-676q0 -5 -3.5 -8.5t-8.5 -3.5h-159q-11 0 -14 10l-99 348q-1 3 -3.5 3.5t-2.5 -3.5l2 -346q0 -5 -3.5 -8.5t-8.5 -3.5h-140q-5 0 -8.5 3.5t-3.5 8.5v676q0 5 3.5 8.5t8.5 3.5h157q11 0 14 -10l100 -350
q1 -3 3.5 -3t2.5 4l-1 347q0 5 3.5 8.5z" />
    <glyph glyph-name="O" unicode="O" horiz-adv-x="479" 
d="M84.5 48q-57.5 56 -57.5 151v302q0 94 57.5 150.5t154.5 56.5q96 0 154.5 -56.5t58.5 -150.5v-302q0 -95 -58.5 -151t-154.5 -56q-97 0 -154.5 56zM273.5 149.5q12.5 15.5 12.5 42.5v316q0 27 -12.5 42.5t-34.5 15.5t-34 -15.5t-12 -42.5v-316q0 -27 12 -42.5t34 -15.5
t34.5 15.5z" />
    <glyph glyph-name="P" unicode="P" horiz-adv-x="474" 
d="M363.5 672.5q44.5 -27.5 69.5 -77.5t25 -114q0 -63 -23.5 -110.5t-66.5 -73.5t-99 -26h-65q-5 0 -5 -5v-254q0 -5 -3.5 -8.5t-8.5 -3.5h-142q-5 0 -8.5 3.5t-3.5 8.5v676q0 5 3.5 8.5t8.5 3.5h216q58 0 102.5 -27.5zM275.5 419.5q16.5 20.5 16.5 57.5q0 39 -16.5 60
t-43.5 21h-28q-5 0 -5 -5v-149q0 -5 5 -5h28q27 0 43.5 20.5z" />
    <glyph glyph-name="Q" unicode="Q" horiz-adv-x="467" 
d="M342 681q47 -27 73 -75.5t26 -112.5v-286q0 -71 -32 -123t-89 -75q-4 -3 -4 -6v-83q0 -5 -3.5 -8.5t-8.5 -3.5h-142q-5 0 -8.5 3.5t-3.5 8.5v83q0 3 -4 6q-56 23 -87.5 75t-31.5 123v286q0 64 25.5 112.5t72.5 75.5t108 27q62 0 109 -27zM193 189q0 -24 11 -39.5
t29 -15.5q19 0 30.5 15.5t11.5 39.5v322q0 24 -11.5 39.5t-30.5 15.5q-18 0 -29 -15.5t-11 -39.5v-322z" />
    <glyph glyph-name="R" unicode="R" horiz-adv-x="481" 
d="M294 10l-68 265q-1 4 -5 4h-15q-5 0 -5 -5v-262q0 -5 -3.5 -8.5t-8.5 -3.5h-142q-5 0 -8.5 3.5t-3.5 8.5v676q0 5 3.5 8.5t8.5 3.5h215q58 0 103 -27.5t69.5 -77t24.5 -112.5q0 -56 -20.5 -100.5t-57.5 -71.5q-2 -1 -3 -2.5t0 -3.5l86 -291l1 -4q0 -10 -11 -10h-146
q-11 0 -14 10zM201 553v-142q0 -5 5 -5h28q27 0 43 20t16 55q0 37 -16 57t-43 20h-28q-5 0 -5 -5z" />
    <glyph glyph-name="S" unicode="S" horiz-adv-x="454" 
d="M123 15.5q-46 23.5 -71.5 66t-25.5 96.5v31q0 5 3.5 8.5t8.5 3.5h140q5 0 8.5 -3.5t3.5 -8.5v-23q0 -24 11.5 -38t29.5 -14t29.5 13.5t11.5 34.5q0 23 -18 41.5t-72 57.5q-50 36 -82 64.5t-55 71t-23 98.5q0 57 25.5 101t72 68t106.5 24q61 0 107.5 -24.5t72 -69
t25.5 -102.5v-24q0 -5 -3.5 -8.5t-8.5 -3.5h-139q-5 0 -8.5 3.5t-3.5 8.5v28q0 22 -12 36t-30 14t-29 -14t-11 -37q0 -25 17 -45t69 -58q63 -47 95 -76t50 -64.5t18 -83.5q0 -90 -56.5 -143t-148.5 -53q-61 0 -107 23.5z" />
    <glyph glyph-name="T" unicode="T" horiz-adv-x="485" 
d="M460.5 696.5q3.5 -3.5 3.5 -8.5v-118q0 -5 -3.5 -8.5t-8.5 -3.5h-124q-5 0 -5 -5v-541q0 -5 -3.5 -8.5t-8.5 -3.5h-142q-5 0 -8.5 3.5t-3.5 8.5v541q0 5 -5 5h-119q-5 0 -8.5 3.5t-3.5 8.5v118q0 5 3.5 8.5t8.5 3.5h419q5 0 8.5 -3.5z" />
    <glyph glyph-name="U" unicode="U" horiz-adv-x="480" 
d="M131 18.5q-47 26.5 -73 74.5t-26 111v484q0 5 3.5 8.5t8.5 3.5h142q5 0 8.5 -3.5t3.5 -8.5v-500q0 -24 11.5 -39t30.5 -15t30.5 15t11.5 39v500q0 5 3.5 8.5t8.5 3.5h142q5 0 8.5 -3.5t3.5 -8.5v-484q0 -63 -26 -111t-73 -74.5t-109 -26.5t-109 26.5z" />
    <glyph glyph-name="V" unicode="V" horiz-adv-x="506" 
d="M161 11l-142 676l-1 4q0 9 11 9h155q12 0 13 -11l57 -399q1 -4 3.5 -3.5t2.5 3.5l53 399q1 11 13 11h151q13 0 10 -13l-143 -676q-2 -11 -13 -11h-157q-11 0 -13 11z" />
    <glyph glyph-name="W" unicode="W" horiz-adv-x="707" 
d="M154 11l-136 676l-1 4q0 9 11 9h147q12 0 13 -11l45 -329q1 -3 3 -3t3 3l45 329q1 11 13 11h117q12 0 13 -11l50 -329q1 -3 3 -3t2 3l41 329q1 11 12 11h144q13 0 11 -13l-129 -676q-1 -11 -13 -11h-128q-12 0 -13 11l-50 342q-1 3 -3.5 3t-2.5 -3l-44 -342
q-1 -11 -12 -11h-128q-11 0 -13 11z" />
    <glyph glyph-name="X" unicode="X" horiz-adv-x="490" 
d="M22 4q-2 4 0 10l134 333q1 3 0 6l-134 333q-1 2 -1 6q0 8 10 8h145q10 0 13 -10l54 -165q1 -4 3 -4t3 4l53 165q3 10 13 10h144q7 0 9 -4t0 -10l-134 -333q-1 -3 0 -6l134 -333q1 -2 1 -6q0 -8 -10 -8h-143q-10 0 -13 10l-54 164q-1 4 -3 3.5t-3 -3.5l-55 -164
q-3 -10 -13 -10h-144q-7 0 -9 4z" />
    <glyph glyph-name="Y" unicode="Y" horiz-adv-x="492" 
d="M165.5 5.5q-3.5 3.5 -3.5 8.5v246l-1 6l-140 420q-1 2 -1 5q0 9 10 9h150q10 0 13 -11l50 -220q1 -4 3 -4t3 4l50 220q3 11 13 11h150q6 0 8.5 -3.5t0.5 -10.5l-142 -420l-1 -6v-246q0 -5 -3.5 -8.5t-8.5 -3.5h-142q-5 0 -8.5 3.5z" />
    <glyph glyph-name="Z" unicode="Z" horiz-adv-x="419" 
d="M19.5 3.5q-3.5 3.5 -3.5 8.5v122q0 5 4 15l202 403q1 3 0 4.5t-4 1.5h-190q-5 0 -8.5 3.5t-3.5 8.5v118q0 5 3.5 8.5t8.5 3.5h360q5 0 8.5 -3.5t3.5 -8.5v-122q0 -5 -4 -15l-204 -403q-1 -3 0 -4.5t4 -1.5h192q5 0 8.5 -3.5t3.5 -8.5v-118q0 -5 -3.5 -8.5t-8.5 -3.5h-360
q-5 0 -8.5 3.5z" />
    <glyph glyph-name="bracketleft" unicode="[" horiz-adv-x="360" 
d="M32.5 -152.5q-3.5 3.5 -3.5 8.5v942q0 5 3.5 8.5t8.5 3.5h223q5 0 8.5 -3.5t3.5 -8.5v-119q0 -5 -3.5 -8.5t-8.5 -3.5h-64q-5 0 -5 -5v-670q0 -5 5 -5h64q5 0 8.5 -3.5t3.5 -8.5v-119q0 -5 -3.5 -8.5t-8.5 -3.5h-223q-5 0 -8.5 3.5z" />
    <glyph glyph-name="backslash" unicode="\" horiz-adv-x="444" 
d="M430 9q0 -9 -11 -9h-141q-10 0 -13 10l-233 676q-1 2 -1 5q0 9 11 9h141q10 0 13 -10l233 -676q1 -2 1 -5z" />
    <glyph glyph-name="bracketright" unicode="]" horiz-adv-x="360" 
d="M327.5 -152.5q-3.5 -3.5 -8.5 -3.5h-223q-5 0 -8.5 3.5t-3.5 8.5v119q0 5 3.5 8.5t8.5 3.5h64q5 0 5 5v670q0 5 -5 5h-64q-5 0 -8.5 3.5t-3.5 8.5v119q0 5 3.5 8.5t8.5 3.5h223q5 0 8.5 -3.5t3.5 -8.5v-942q0 -5 -3.5 -8.5z" />
    <glyph glyph-name="asciicircum" unicode="^" horiz-adv-x="432" 
d="M26 298q-3 4 -1 10l118 382q3 10 13 10h117q10 0 13 -10l121 -382q1 -2 1 -5q0 -9 -11 -9h-114q-11 0 -14 10l-50 205q-1 3 -3 3t-3 -3l-50 -205q-3 -10 -14 -10h-114q-6 0 -9 4z" />
    <glyph glyph-name="underscore" unicode="_" horiz-adv-x="437" 
d="M14.5 3.5q-3.5 3.5 -3.5 8.5v100q0 5 3.5 8.5t8.5 3.5h391q5 0 8.5 -3.5t3.5 -8.5v-100q0 -5 -3.5 -8.5t-8.5 -3.5h-391q-5 0 -8.5 3.5z" />
    <glyph glyph-name="grave" unicode="`" horiz-adv-x="234" 
d="M217 586q0 -8 -11 -8h-91q-9 0 -15 7l-78 100q-3 5 -3 7q0 8 11 8h112q10 0 14 -8l59 -100z" />
    <glyph glyph-name="a" unicode="a" horiz-adv-x="457" 
d="M376.5 479q56.5 -46 56.5 -121v-346q0 -5 -3.5 -8.5t-8.5 -3.5h-142q-5 0 -8.5 3.5t-3.5 8.5v24q0 3 -2 3.5t-4 -2.5q-34 -45 -106 -45q-138 0 -138 157q0 67 25 102t68.5 46.5t111.5 11.5h40q5 0 5 5v24q0 20 -11 32.5t-28 12.5q-13 0 -21.5 -7.5t-11.5 -21.5
q-1 -12 -12 -12l-146 1q-12 0 -12 12q5 79 60.5 124.5t142.5 45.5q92 0 148.5 -46zM253 126.5q14 11.5 14 29.5v37q0 5 -5 5h-30q-20 0 -32.5 -12t-12.5 -32q0 -19 10 -29t25 -10q17 0 31 11.5z" />
    <glyph glyph-name="b" unicode="b" horiz-adv-x="453" 
d="M429 352v-187q0 -173 -137 -173q-58 0 -91 42q-2 2 -4 1.5t-2 -3.5v-20q0 -5 -3.5 -8.5t-8.5 -3.5h-142q-5 0 -8.5 3.5t-3.5 8.5v676q0 5 3.5 8.5t8.5 3.5h142q5 0 8.5 -3.5t3.5 -8.5v-206q0 -2 1 -2q3 0 12 9q32 36 84 36q137 0 137 -173zM254 371q-9 12 -24 12
q-16 0 -25.5 -12t-9.5 -32v-161q0 -20 9.5 -32t25.5 -12q15 0 24 12t9 32v161q0 20 -9 32z" />
    <glyph glyph-name="c" unicode="c" horiz-adv-x="445" 
d="M77 37.5q-53 45.5 -53 127.5v187q0 78 53.5 125.5t147.5 47.5t147 -47t53 -123v-22q0 -5 -3.5 -8.5t-8.5 -3.5l-142 -6q-12 0 -12 12v15q0 17 -9.5 29t-24.5 12q-16 0 -25.5 -12t-9.5 -32v-161q0 -20 9.5 -32t25.5 -12q15 0 24.5 12t9.5 30v15q0 5 3.5 8.5t8.5 3.5
l142 -1q5 0 8.5 -3.5t3.5 -8.5v-27q0 -81 -52.5 -126t-147.5 -45t-148 45.5z" />
    <glyph glyph-name="d" unicode="d" horiz-adv-x="453" 
d="M261.5 696.5q3.5 3.5 8.5 3.5h142q5 0 8.5 -3.5t3.5 -8.5v-676q0 -5 -3.5 -8.5t-8.5 -3.5h-142q-5 0 -8.5 3.5t-3.5 8.5v20q0 3 -2 3.5t-4 -1.5q-33 -42 -91 -42q-137 0 -137 173v187q0 173 137 173q58 0 91 -44q2 -3 4 -2.5t2 3.5v206q0 5 3.5 8.5zM248.5 146
q9.5 12 9.5 32v161q0 20 -9.5 32t-25.5 12q-15 0 -24 -12t-9 -32v-161q0 -20 9 -32t24 -12q16 0 25.5 12z" />
    <glyph glyph-name="e" unicode="e" horiz-adv-x="446" 
d="M421.5 216.5q-3.5 -3.5 -8.5 -3.5h-218q-5 0 -5 -5v-30q0 -20 9.5 -32t25.5 -12q14 0 23 10t12 25q1 11 13 11l138 -8q5 0 8.5 -3.5t2.5 -9.5q-9 -167 -197 -167q-95 0 -148 45.5t-53 127.5v187q0 78 53.5 125.5t147.5 47.5t147 -47t53 -126v-127q0 -5 -3.5 -8.5z
M199.5 371q-9.5 -12 -9.5 -32v-31q0 -5 5 -5h59q5 0 5 5v31q0 19 -9.5 31.5t-24.5 12.5q-16 0 -25.5 -12z" />
    <glyph glyph-name="f" unicode="f" horiz-adv-x="305" 
d="M285.5 513.5q3.5 -3.5 3.5 -8.5v-91q0 -5 -3.5 -8.5t-8.5 -3.5h-48q-5 0 -5 -5v-385q0 -5 -3.5 -8.5t-8.5 -3.5h-141q-5 0 -8.5 3.5t-3.5 8.5v385q0 5 -5 5h-27q-5 0 -8.5 3.5t-3.5 8.5v91q0 5 3.5 8.5t8.5 3.5h27q5 0 5 5v30q0 83 43.5 116.5t134.5 33.5l30 -1
q11 0 11 -12v-91q0 -12 -10 -12q-21 -1 -32.5 -14t-11.5 -34v-16q0 -5 5 -5h48q5 0 8.5 -3.5z" />
    <glyph glyph-name="g" unicode="g" horiz-adv-x="451" 
d="M261.5 513.5q3.5 3.5 8.5 3.5h142q5 0 8.5 -3.5t3.5 -8.5v-475q0 -74 -21 -126t-76.5 -82.5t-155.5 -30.5q-16 0 -54 2q-12 1 -12 13v119q0 13 13 11l23 -1q48 0 73 11.5t34 32t10 53.5q0 4 -2.5 4.5t-4.5 -2.5q-31 -40 -90 -40q-70 0 -103.5 45t-33.5 128v185
q0 173 137 173q61 0 91 -45q2 -3 4 -2.5t2 3.5v24q0 5 3.5 8.5zM248.5 149q9.5 12 9.5 31v159q0 20 -9.5 32t-25.5 12q-15 0 -24 -12t-9 -32v-159q0 -20 9 -31.5t24 -11.5q16 0 25.5 12z" />
    <glyph glyph-name="h" unicode="h" horiz-adv-x="455" 
d="M394 479q34 -46 34 -130v-337q0 -5 -3.5 -8.5t-8.5 -3.5h-142q-5 0 -8.5 3.5t-3.5 8.5v326q0 45 -32 45q-17 0 -26 -12t-9 -34v-325q0 -5 -3.5 -8.5t-8.5 -3.5h-142q-5 0 -8.5 3.5t-3.5 8.5v676q0 5 3.5 8.5t8.5 3.5h142q5 0 8.5 -3.5t3.5 -8.5v-203q0 -2 2 -2q4 0 8 6
q30 36 84 36q71 0 105 -46z" />
    <glyph glyph-name="i" unicode="i" horiz-adv-x="223" 
d="M48.5 587.5q-24.5 24.5 -24.5 62.5q0 39 24 63t62 24t62.5 -24t24.5 -63q0 -37 -24.5 -62t-62.5 -25q-37 0 -61.5 24.5zM32.5 3.5q-3.5 3.5 -3.5 8.5v493q0 5 3.5 8.5t8.5 3.5h142q5 0 8.5 -3.5t3.5 -8.5v-493q0 -5 -3.5 -8.5t-8.5 -3.5h-142q-5 0 -8.5 3.5z" />
    <glyph glyph-name="j" unicode="j" horiz-adv-x="223" 
d="M50 588q-25 25 -25 62q0 39 24.5 63t62.5 24t62.5 -24t24.5 -63q0 -37 -24.5 -62t-62.5 -25q-37 0 -62 25zM-66 -190v117q0 7 4.5 9t14.5 2q44 0 60 19t16 58v490q0 5 3.5 8.5t8.5 3.5h142q5 0 8.5 -3.5t3.5 -8.5v-490q0 -83 -13.5 -127t-67 -68t-168.5 -22q-12 0 -12 12
z" />
    <glyph glyph-name="k" unicode="k" horiz-adv-x="465" 
d="M32.5 3.5q-3.5 3.5 -3.5 8.5v676q0 5 3.5 8.5t8.5 3.5h142q5 0 8.5 -3.5t3.5 -8.5v-306q0 -4 2 -4.5t4 2.5l67 128q5 9 14 9h146q7 0 9.5 -3.5t-1.5 -10.5l-111 -179q-2 -4 -1 -7l122 -303q1 -2 1 -6q0 -8 -10 -8h-146q-10 0 -13 10l-55 171q-1 4 -3 4t-4 -3l-19 -35
q-2 -4 -2 -6v-129q0 -5 -3.5 -8.5t-8.5 -3.5h-142q-5 0 -8.5 3.5z" />
    <glyph glyph-name="l" unicode="l" horiz-adv-x="219" 
d="M30.5 3.5q-3.5 3.5 -3.5 8.5v676q0 5 3.5 8.5t8.5 3.5h142q5 0 8.5 -3.5t3.5 -8.5v-676q0 -5 -3.5 -8.5t-8.5 -3.5h-142q-5 0 -8.5 3.5z" />
    <glyph glyph-name="m" unicode="m" horiz-adv-x="685" 
d="M625 479q34 -46 34 -131v-336q0 -5 -3.5 -8.5t-8.5 -3.5h-142q-5 0 -8.5 3.5t-3.5 8.5v324q0 22 -8.5 34.5t-23.5 12.5q-16 0 -25 -12t-9 -34v-325q0 -5 -3.5 -8.5t-8.5 -3.5h-142q-5 0 -8.5 3.5t-3.5 8.5v324q0 22 -8.5 34.5t-23.5 12.5q-16 0 -25 -12t-9 -34v-325
q0 -5 -3.5 -8.5t-8.5 -3.5h-142q-5 0 -8.5 3.5t-3.5 8.5v493q0 5 3.5 8.5t8.5 3.5h142q5 0 8.5 -3.5t3.5 -8.5v-10q0 -3 2 -4t4 1q35 33 87 33q79 0 113 -59l2 -1q4 0 8 6q37 54 109 54q71 0 105 -46z" />
    <glyph glyph-name="n" unicode="n" horiz-adv-x="455" 
d="M394 479q34 -46 34 -130v-337q0 -5 -3.5 -8.5t-8.5 -3.5h-142q-5 0 -8.5 3.5t-3.5 8.5v326q0 45 -32 45q-17 0 -26 -12t-9 -34v-325q0 -5 -3.5 -8.5t-8.5 -3.5h-142q-5 0 -8.5 3.5t-3.5 8.5v493q0 5 3.5 8.5t8.5 3.5h142q5 0 8.5 -3.5t3.5 -8.5v-20q0 -2 2 -2q4 0 8 6
q30 36 84 36q71 0 105 -46z" />
    <glyph glyph-name="o" unicode="o" horiz-adv-x="452" 
d="M77 38q-53 46 -53 127v187q0 78 53.5 125.5t148.5 47.5t148.5 -47t53.5 -126v-187q0 -81 -53 -127t-149 -46t-149 46zM252 147q10 12 10 32v160q0 19 -10 31.5t-26 12.5t-26 -12.5t-10 -31.5v-160q0 -20 10 -32t26 -12t26 12z" />
    <glyph glyph-name="p" unicode="p" horiz-adv-x="456" 
d="M432 352v-187q0 -173 -137 -173q-58 0 -91 44q-2 3 -4 2.5t-2 -3.5v-206q0 -5 -3.5 -8.5t-8.5 -3.5h-142q-5 0 -8.5 3.5t-3.5 8.5v676q0 5 3.5 8.5t8.5 3.5h142q5 0 8.5 -3.5t3.5 -8.5v-20q0 -2 2 -2q4 0 10 8q33 34 85 34q137 0 137 -173zM257 371q-9 12 -24 12
q-16 0 -25.5 -12t-9.5 -32v-161q0 -20 9.5 -32t25.5 -12q15 0 24 12t9 32v161q0 20 -9 32z" />
    <glyph glyph-name="q" unicode="q" horiz-adv-x="456" 
d="M261.5 513.5q3.5 3.5 8.5 3.5h142q5 0 8.5 -3.5t3.5 -8.5v-676q0 -5 -3.5 -8.5t-8.5 -3.5h-142q-5 0 -8.5 3.5t-3.5 8.5v206q0 3 -2 3.5t-4 -2.5q-33 -44 -91 -44q-137 0 -137 173v187q0 173 137 173q58 0 91 -42q2 -2 4 -1.5t2 3.5v20q0 5 3.5 8.5zM248.5 146
q9.5 12 9.5 32v161q0 20 -9.5 32t-25.5 12q-15 0 -24 -12t-9 -32v-161q0 -20 9 -32t24 -12q16 0 25.5 12z" />
    <glyph glyph-name="r" unicode="r" horiz-adv-x="336" 
d="M324 513q7 -6 6 -15l-23 -141q-1 -11 -14 -8q-14 4 -25 4q-17 0 -32 -6q-18 -6 -29.5 -25t-11.5 -42v-267q0 -5 -3.5 -8.5t-8.5 -3.5h-142q-5 0 -8.5 3.5t-3.5 8.5v492q0 5 3.5 8.5t8.5 3.5h142q5 0 8.5 -3.5t3.5 -8.5v-32q0 -4 1.5 -4.5t3.5 2.5q27 53 81 53
q25 0 43 -11z" />
    <glyph glyph-name="s" unicode="s" horiz-adv-x="426" 
d="M72 35.5q-54 43.5 -54 114.5v6q0 5 3.5 8.5t8.5 3.5h134q5 0 8.5 -3.5t3.5 -8.5v-2q0 -18 12.5 -28.5t27.5 -10.5q14 0 22 8.5t8 21.5q0 18 -17 27.5t-54 21.5l-22 7q-129 44 -129 160q0 76 51 120t136 44q87 0 139 -47.5t52 -125.5q0 -11 -12 -11h-130q-5 0 -8.5 3.5
t-3.5 8.5v8q0 16 -9 25.5t-24 9.5t-23.5 -10.5t-8.5 -24.5q0 -22 20 -34t56 -24q44 -15 76 -31.5t55 -47t23 -77.5q0 -72 -53.5 -113.5t-142.5 -41.5q-91 0 -145 43.5z" />
    <glyph glyph-name="t" unicode="t" horiz-adv-x="299" 
d="M280.5 405.5q-3.5 -3.5 -8.5 -3.5h-51q-5 0 -5 -5v-214q0 -23 9.5 -32t28.5 -8h5q5 0 8.5 -3.5t3.5 -8.5v-119q0 -5 -3.5 -8.5t-8.5 -3.5h-45q-78 0 -117.5 24t-39.5 93v280q0 5 -5 5h-32q-5 0 -8.5 3.5t-3.5 8.5v91q0 5 3.5 8.5t8.5 3.5h32q5 0 5 5v111q0 5 3.5 8.5
t8.5 3.5h135q5 0 8.5 -3.5t3.5 -8.5v-111q0 -5 5 -5h51q5 0 8.5 -3.5t3.5 -8.5v-91q0 -5 -3.5 -8.5z" />
    <glyph glyph-name="u" unicode="u" horiz-adv-x="455" 
d="M263.5 513.5q3.5 3.5 8.5 3.5h142q5 0 8.5 -3.5t3.5 -8.5v-493q0 -5 -3.5 -8.5t-8.5 -3.5h-142q-5 0 -8.5 3.5t-3.5 8.5v13q0 3 -2 3.5t-4 -2.5q-15 -19 -36.5 -26.5t-50.5 -7.5q-60 0 -100 37t-40 114v362q0 5 3.5 8.5t8.5 3.5h142q5 0 8.5 -3.5t3.5 -8.5v-325
q0 -45 32 -45q17 0 26 12t9 34v324q0 5 3.5 8.5z" />
    <glyph glyph-name="v" unicode="v" horiz-adv-x="456" 
d="M134 10l-120 495v4q0 9 11 9h155q11 0 12 -11l33 -249q0 -3 3 -3t3 3l33 249q1 11 12 11l156 -2q14 0 11 -13l-120 -493q-3 -10 -14 -10h-161q-11 0 -14 10z" />
    <glyph glyph-name="w" unicode="w" horiz-adv-x="635" 
d="M122 11l-108 494v4q0 9 11 9h135q11 0 12 -11l33 -250q0 -3 3 -3t3 3l34 250q1 11 13 11h120q12 0 13 -11l36 -250q1 -4 3.5 -3.5t2.5 3.5l33 250q1 11 12 11l133 -2q13 0 10 -13l-107 -492q-2 -11 -13 -11h-138q-12 0 -13 11l-33 214q-1 4 -3 4t-3 -4l-31 -214
q-1 -11 -13 -11h-132q-11 0 -13 11z" />
    <glyph glyph-name="x" unicode="x" horiz-adv-x="462" 
d="M14.5 3.5q-2.5 3.5 0.5 10.5l112 242q1 3 0 6l-112 241q-2 4 -2 6q0 8 11 8h154q11 0 14 -9l36 -92q3 -7 6 0l36 92q3 9 14 9h154q7 0 9.5 -3.5t-0.5 -10.5l-112 -241q-1 -3 0 -6l112 -242q2 -4 2 -6q0 -8 -11 -8h-154q-11 0 -14 9l-36 95q-1 3 -3 3t-3 -3l-36 -95
q-3 -9 -14 -9h-154q-7 0 -9.5 3.5z" />
    <glyph glyph-name="y" unicode="y" horiz-adv-x="442" 
d="M30 -187v112q0 12 9 12q54 0 77 12t22 48l-1 6l-126 502v4q0 9 11 9h153q11 0 12 -11l32 -263q0 -3 3 -2.5t3 3.5l30 262q1 11 12 11l153 -2q14 0 11 -13l-129 -513q-21 -75 -45.5 -113.5t-73.5 -57t-141 -18.5h-6q-6 0 -6 12z" />
    <glyph glyph-name="z" unicode="z" horiz-adv-x="377" 
d="M16.5 3.5q-3.5 3.5 -3.5 8.5v130q0 7 5 15l137 204q2 2 1 4t-4 2h-121q-5 0 -8.5 3.5t-3.5 8.5v126q0 5 3.5 8.5t8.5 3.5h314q5 0 8.5 -3.5t3.5 -8.5v-130q0 -7 -5 -15l-146 -204q-2 -2 -1 -4t4 -2h144q5 0 8.5 -3.5t3.5 -8.5v-126q0 -5 -3.5 -8.5t-8.5 -3.5h-328
q-5 0 -8.5 3.5z" />
    <glyph glyph-name="braceleft" unicode="{" horiz-adv-x="370" 
d="M136 -122q-35 34 -35 93v203q0 83 -60 89q-12 2 -12 13v106q0 12 12 13q60 6 60 88v200q0 59 35 93t97 34h95q5 0 8.5 -3.5t3.5 -8.5v-119q0 -5 -3.5 -8.5t-8.5 -3.5h-15q-19 0 -32.5 -17t-13.5 -42v-149q0 -97 -59 -127q-5 -3 0 -6q59 -30 59 -127v-153q0 -25 13.5 -42
t32.5 -17h15q5 0 8.5 -3.5t3.5 -8.5v-119q0 -5 -3.5 -8.5t-8.5 -3.5h-95q-62 0 -97 34z" />
    <glyph glyph-name="bar" unicode="|" horiz-adv-x="201" 
d="M20.5 -76.5q-3.5 3.5 -3.5 8.5v816q0 5 3.5 8.5t8.5 3.5h142q5 0 8.5 -3.5t3.5 -8.5v-816q0 -5 -3.5 -8.5t-8.5 -3.5h-142q-5 0 -8.5 3.5z" />
    <glyph glyph-name="braceright" unicode="}" horiz-adv-x="370" 
d="M41 -156q-5 0 -8.5 3.5t-3.5 8.5v119q0 5 3.5 8.5t8.5 3.5h16q19 0 32.5 17t13.5 42v153q0 96 58 127q4 3 0 6q-58 31 -58 127v149q0 25 -13.5 42t-32.5 17h-16q-5 0 -8.5 3.5t-3.5 8.5v119q0 5 3.5 8.5t8.5 3.5h96q62 0 97 -34t35 -93v-200q0 -82 59 -88q12 -1 12 -13
v-106q0 -11 -12 -13q-59 -6 -59 -89v-203q0 -59 -35 -93t-97 -34h-96z" />
    <glyph glyph-name="asciitilde" unicode="~" horiz-adv-x="500" 
d="M292.5 197.5q-16.5 6.5 -37.5 18.5q-6 4 -21 13.5t-26.5 14t-22.5 4.5q-34 0 -62 -35q-7 -10 -16 -4l-77 47q-9 6 -6 16q17 51 56.5 85t88.5 34q22 0 40.5 -7t37.5 -19q6 -4 21.5 -13t27.5 -13.5t23 -4.5q30 0 52 35q7 10 16 4l82 -51q9 -6 5 -16q-24 -49 -61.5 -82
t-82.5 -33q-21 0 -37.5 6.5z" />
    <glyph glyph-name="uni00A0" unicode="&#xa0;" horiz-adv-x="200" 
 />
    <glyph glyph-name="exclamdown" unicode="&#xa1;" horiz-adv-x="289" 
d="M206.5 683.5q24.5 -24.5 24.5 -62.5t-24 -62.5t-62 -24.5t-62.5 24.5t-24.5 62.5t24.5 62.5t62.5 24.5q37 0 61.5 -24.5zM81.5 460.5q3.5 3.5 8.5 3.5h107q5 0 8.5 -3.5t3.5 -8.5l17 -431q0 -12 -12 -12h-142q-12 0 -12 12l18 431q0 5 3.5 8.5z" />
    <glyph glyph-name="cent" unicode="&#xa2;" horiz-adv-x="445" 
d="M421.5 414.5q-3.5 -3.5 -8.5 -3.5l-142 -6q-12 0 -12 12v15q0 17 -9.5 29t-24.5 12q-16 0 -25.5 -12t-9.5 -32v-161q0 -20 9.5 -32t25.5 -12q15 0 24.5 12t9.5 30v15q0 5 3.5 8.5t8.5 3.5l142 -1q5 0 8.5 -3.5t3.5 -8.5v-27q0 -64 -34 -106.5t-97 -57.5q-4 -1 -4 -6
l3 -69q0 -12 -11 -12h-115q-11 0 -11 12l3 70q0 5 -4 6q-63 15 -97 57.5t-34 107.5v187q0 63 34.5 106t97.5 59q4 2 4 6l-4 71q0 12 11 12h115q11 0 11 -12l-4 -71q0 -4 4 -6q63 -16 97.5 -58.5t34.5 -103.5v-22q0 -5 -3.5 -8.5z" />
    <glyph glyph-name="sterling" unicode="&#xa3;" horiz-adv-x="522" 
d="M249 142h245q5 0 8.5 -3.5t3.5 -8.5v-118q0 -5 -3.5 -8.5t-8.5 -3.5h-412q-5 0 -8.5 3.5t-3.5 8.5v121q0 9 6 15q14 17 19.5 36.5t5.5 49.5v41q0 5 -5 5h-49q-5 0 -8.5 3.5t-3.5 8.5v109q0 5 3.5 8.5t8.5 3.5h49q5 0 5 5v64q0 107 54 166.5t146 59.5q80 0 130.5 -46
t67.5 -131v-3q0 -9 -10 -10l-137 -15h-2q-9 0 -12 11q-9 52 -38 52q-18 -1 -25.5 -19t-7.5 -56v-73q0 -5 5 -5h127q5 0 8.5 -3.5t3.5 -8.5v-109q0 -5 -3.5 -8.5t-8.5 -3.5h-127q-5 0 -5 -5v-41q0 -56 -21 -86q-3 -6 3 -6z" />
    <glyph glyph-name="currency" unicode="&#xa4;" horiz-adv-x="587" 
d="M495 204q-1 -4 1 -7l67 -67q4 -4 4 -9q0 -4 -4 -8l-88 -76q-4 -4 -9 -4q-4 0 -8 4l-62 61q-2 3 -7 1q-46 -23 -99 -23q-51 0 -95 21q-4 2 -7 -1l-60 -59q-4 -4 -8 -4q-5 0 -9 4l-88 76q-4 4 -4 8q0 5 4 9l63 62q3 3 1 7q-26 47 -26 104q0 54 23 100q2 5 -1 7l-66 66
q-4 4 -4 9q0 4 4 8l88 77q4 4 9 4t8 -4l61 -61q3 -2 7 -1q46 23 100 23q56 0 104 -25q4 -1 7 1l63 63q4 4 9 4t8 -4l89 -77q4 -4 4 -8q0 -5 -4 -9l-72 -71q-2 -2 -1 -7q21 -43 21 -95q0 -53 -23 -99zM229 242q26 -26 61 -26q36 0 61.5 25.5t26.5 61.5q-1 37 -27 62.5
t-61 25.5t-61 -25.5t-26 -62.5q0 -35 26 -61z" />
    <glyph glyph-name="yen" unicode="&#xa5;" horiz-adv-x="534" 
d="M490.5 696.5q2.5 -3.5 0.5 -10.5l-117 -346q-1 -6 4 -6h86q5 0 8.5 -3.5t3.5 -8.5v-67q0 -5 -3.5 -8.5t-8.5 -3.5h-111q-5 0 -5 -5v-28q0 -5 5 -5h111q5 0 8.5 -3.5t3.5 -8.5v-66q0 -5 -3.5 -8.5t-8.5 -3.5h-111q-5 0 -5 -5v-96q0 -5 -3.5 -8.5t-8.5 -3.5h-142
q-5 0 -8.5 3.5t-3.5 8.5v96q0 5 -5 5h-112q-5 0 -8.5 3.5t-3.5 8.5v66q0 5 3.5 8.5t8.5 3.5h112q5 0 5 5v28q0 5 -5 5h-112q-5 0 -8.5 3.5t-3.5 8.5v67q0 5 3.5 8.5t8.5 3.5h87q6 0 4 6l-115 346q-1 2 -1 5q0 9 10 9h150q10 0 13 -11l50 -220q1 -4 3 -4t3 4l51 220
q3 11 13 11h149q6 0 8.5 -3.5z" />
    <glyph glyph-name="brokenbar" unicode="&#xa6;" horiz-adv-x="201" 
d="M20.5 388.5q-3.5 3.5 -3.5 8.5v351q0 5 3.5 8.5t8.5 3.5h142q5 0 8.5 -3.5t3.5 -8.5v-351q0 -5 -3.5 -8.5t-8.5 -3.5h-142q-5 0 -8.5 3.5zM20.5 -76.5q-3.5 3.5 -3.5 8.5v350q0 5 3.5 8.5t8.5 3.5h142q5 0 8.5 -3.5t3.5 -8.5v-350q0 -5 -3.5 -8.5t-8.5 -3.5h-142
q-5 0 -8.5 3.5z" />
    <glyph glyph-name="section" unicode="&#xa7;" horiz-adv-x="454" 
d="M123.5 -181q-45.5 21 -71 59t-25.5 87v18q0 5 3.5 8.5t8.5 3.5h142q5 0 8.5 -3.5t3.5 -8.5v-6q0 -16 10.5 -26.5t26.5 -10.5t26.5 10.5t10.5 25.5q0 21 -26 40.5t-83 51.5q-47 26 -75.5 52t-42.5 59q-13 30 -13 69q0 52 29 90q17 24 48 44q4 3 1 7q-41 37 -61.5 70.5
t-20.5 77.5q0 49 26 88t72.5 61t106.5 22t106 -22t71.5 -62t25.5 -92v-12q0 -5 -3.5 -8.5t-8.5 -3.5h-142q-5 0 -8.5 3.5t-3.5 8.5v4q0 17 -11 29.5t-27 12.5q-17 0 -27 -12t-10 -27q0 -25 18.5 -41.5t65.5 -41.5q53 -28 84 -48t50 -44q27 -37 27 -85q0 -49 -20 -84
q-21 -42 -59 -64q-2 -1 -2 -3t2 -4q40 -32 58.5 -63.5t18.5 -78.5q0 -78 -57 -125t-147 -47q-60 0 -105.5 21zM263 222q7 14 7 31q0 21 -11 34t-28 13q-20 0 -29 -16q-8 -11 -8 -31t8 -32q8 -15 30 -15q21 0 31 16z" />
    <glyph glyph-name="dieresis" unicode="&#xa8;" horiz-adv-x="391" 
d="M232.5 587.5q-24.5 24.5 -24.5 62.5q0 39 24.5 63t62.5 24t62 -24t24 -63q0 -38 -24.5 -62.5t-61.5 -24.5q-38 0 -62.5 24.5zM35.5 587.5q-24.5 24.5 -24.5 62.5q0 39 24.5 63t62.5 24t62 -24t24 -63q0 -38 -24.5 -62.5t-61.5 -24.5q-38 0 -62.5 24.5z" />
    <glyph glyph-name="copyright" unicode="&#xa9;" horiz-adv-x="776" 
d="M202.5 39q-82.5 47 -129 129.5t-46.5 186.5q0 99 47 180t129 127t184 46t185 -46t130 -127t47 -180q0 -104 -47 -186.5t-129.5 -129.5t-185.5 -47q-102 0 -184.5 47zM525.5 117q61.5 35 96.5 97.5t35 140.5q0 74 -35 134t-96.5 94.5t-138.5 34.5q-76 0 -137.5 -34.5
t-96.5 -94.5t-35 -134q0 -78 35 -140.5t96 -97.5t138 -35t138.5 35zM313.5 207q-28.5 28 -28.5 74v138q0 46 28 73t76 27t77 -27t29 -73q0 -5 -3.5 -8.5t-8.5 -3.5l-60 -2q-12 0 -12 11v9q0 9 -6 15.5t-16 6.5q-9 0 -14.5 -6.5t-5.5 -15.5v-151q0 -10 5.5 -16t14.5 -6
q22 0 22 22v8q0 5 3.5 8.5t8.5 3.5l60 -3q12 0 12 -10q0 -46 -29 -74t-77 -28q-47 0 -75.5 28z" />
    <glyph glyph-name="ordfeminine" unicode="&#xaa;" horiz-adv-x="298" 
d="M168 567q5 0 5 5v14q0 15 -6.5 24t-18.5 9q-7 0 -13.5 -4t-9.5 -11q-3 -10 -13 -10l-83 3q-5 0 -8.5 3.5t-3.5 9.5q5 44 40 71t88 27q60 0 97 -30t37 -80v-224q0 -5 -3.5 -8.5t-8.5 -3.5h-82q-5 0 -8.5 2t-3.5 5q0 2 -2 2.5t-4 -1.5q-17 -13 -47 -13q-44 0 -77.5 23
t-33.5 85q0 60 36 81t103 21h20zM164 449q9 7 9 20v11q0 5 -5 5h-20q-15 0 -23.5 -6t-8.5 -17q0 -20 25 -20q14 0 23 7zM12.5 310.5q3.5 3.5 8.5 3.5h253q5 0 8.5 -3.5t3.5 -8.5v-46q0 -5 -3.5 -8.5t-8.5 -3.5h-253q-5 0 -8.5 3.5t-3.5 8.5v46q0 5 3.5 8.5z" />
    <glyph glyph-name="guillemotleft" unicode="&#xab;" horiz-adv-x="454" 
d="M249 115q0 -8 -11 -8h-114q-10 0 -14 9l-73 157q-1 3 -1 8q0 6 1 8l73 157q4 9 14 9h114q7 0 9.5 -3.5t-0.5 -10.5l-77 -157q-1 -3 0 -6l77 -157q2 -4 2 -6zM415 115q0 -8 -11 -8h-114q-10 0 -14 9l-73 157q-1 3 -1 8q0 6 1 8l73 157q4 9 14 9h114q7 0 9.5 -3.5
t-0.5 -10.5l-77 -157q-1 -3 0 -6l77 -157q2 -4 2 -6z" />
    <glyph glyph-name="logicalnot" unicode="&#xac;" horiz-adv-x="437" 
d="M24.5 364.5q3.5 3.5 8.5 3.5h371q5 0 8.5 -3.5t3.5 -8.5v-185q0 -5 -3.5 -8.5t-8.5 -3.5h-100q-5 0 -8.5 3.5t-3.5 8.5v68q0 5 -5 5h-254q-5 0 -8.5 3.5t-3.5 8.5v100q0 5 3.5 8.5z" />
    <glyph glyph-name="uni00AD" unicode="&#xad;" horiz-adv-x="337" 
d="M24.5 222.5q-3.5 3.5 -3.5 8.5v118q0 5 3.5 8.5t8.5 3.5h272q5 0 8.5 -3.5t3.5 -8.5v-118q0 -5 -3.5 -8.5t-8.5 -3.5h-272q-5 0 -8.5 3.5z" />
    <glyph glyph-name="registered" unicode="&#xae;" horiz-adv-x="433" 
d="M322 683q47 -26 73.5 -71.5t26.5 -101.5q0 -60 -26.5 -107.5t-73.5 -74.5t-105 -27q-59 0 -106 27t-73.5 74.5t-26.5 107.5q0 56 26.5 101.5t73.5 71.5t106 26q58 0 105 -26zM316 407q39 40 39 103q0 56 -39.5 94.5t-98.5 38.5q-60 0 -99 -38t-39 -95q0 -63 39 -103
t99 -40t99 40zM267 492q-2 -1 -3 -2.5t0 -3.5l20 -58q1 -2 1 -5q0 -9 -10 -9h-31q-10 0 -13 10l-17 55q-2 4 -4 4q-4 0 -4 -5v-52q0 -5 -3.5 -8.5t-8.5 -3.5h-28q-5 0 -8.5 3.5t-3.5 8.5v163q0 5 3.5 8.5t8.5 3.5h63q27 0 44 -17t17 -44q0 -30 -23 -48zM211 557q-5 0 -5 -5
v-26q0 -5 5 -5h10q7 0 12 5.5t5 12.5q0 8 -4.5 13t-12.5 5h-10z" />
    <glyph glyph-name="macron" unicode="&#xaf;" horiz-adv-x="280" 
d="M30.5 579.5q-3.5 3.5 -3.5 8.5v88q0 5 3.5 8.5t8.5 3.5h202q5 0 8.5 -3.5t3.5 -8.5v-88q0 -5 -3.5 -8.5t-8.5 -3.5h-202q-5 0 -8.5 3.5z" />
    <glyph glyph-name="degree" unicode="&#xb0;" horiz-adv-x="359" 
d="M94.5 488.5q-38.5 22.5 -61 62t-22.5 87.5q0 47 22.5 86t61 61.5t84.5 22.5t85 -22.5t61.5 -61.5t22.5 -86q0 -48 -22.5 -87t-61.5 -62t-85 -23t-84.5 22.5zM224 591q18 19 18 47t-18 47.5t-45 19.5q-26 0 -44.5 -19.5t-18.5 -47.5t18.5 -47t44.5 -19q27 0 45 19z" />
    <glyph glyph-name="plusminus" unicode="&#xb1;" horiz-adv-x="437" 
d="M412.5 459.5q3.5 -3.5 3.5 -8.5v-100q0 -5 -3.5 -8.5t-8.5 -3.5h-118q-5 0 -5 -5v-118q0 -5 -3.5 -8.5t-8.5 -3.5h-101q-5 0 -8.5 3.5t-3.5 8.5v118q0 5 -5 5h-118q-5 0 -8.5 3.5t-3.5 8.5v100q0 5 3.5 8.5t8.5 3.5h118q5 0 5 5v119q0 5 3.5 8.5t8.5 3.5h101
q5 0 8.5 -3.5t3.5 -8.5v-119q0 -5 5 -5h118q5 0 8.5 -3.5zM24.5 8.5q-3.5 3.5 -3.5 8.5v100q0 5 3.5 8.5t8.5 3.5h371q5 0 8.5 -3.5t3.5 -8.5v-100q0 -5 -3.5 -8.5t-8.5 -3.5h-371q-5 0 -8.5 3.5z" />
    <glyph glyph-name="uni00B2" unicode="&#xb2;" horiz-adv-x="273" 
d="M15.5 410.5q-3.5 3.5 -3.5 8.5v70q0 7 5 15l32 37q8 10 35 40.5t43 54.5q29 44 29 75q0 16 -5.5 23.5t-14.5 7.5t-14.5 -7.5t-5.5 -18.5v-22q0 -5 -3.5 -8.5t-8.5 -3.5h-82q-5 0 -8.5 3.5t-3.5 8.5v26q3 54 37 83t92 29q56 0 89.5 -30.5t33.5 -96.5q0 -31 -6.5 -54
t-20.5 -47q-11 -20 -45 -63l-29 -38q-2 -2 -1 -4t4 -2h90q5 0 8.5 -3.5t3.5 -8.5v-66q0 -5 -3.5 -8.5t-8.5 -3.5h-230q-5 0 -8.5 3.5z" />
    <glyph glyph-name="uni00B3" unicode="&#xb3;" horiz-adv-x="289" 
d="M276 543q0 -15 -2 -39q-1 -46 -33.5 -74t-84.5 -28q-55 0 -90 29.5t-36 76.5v24q0 5 3.5 8.5t8.5 3.5h79q12 0 12 -10l1 -10q2 -32 22 -32q18 0 21 28q1 13 1 34t-1 32q-2 28 -21 28q-8 0 -17 -7q-5 -4 -10 -4q-4 0 -7 4l-40 41q-4 6 -4 9q0 4 4 8l66 66q2 2 1 4t-4 2
h-94q-5 0 -8.5 3.5t-3.5 8.5v66q0 5 3.5 8.5t8.5 3.5h210q5 0 8.5 -3.5t3.5 -8.5v-69q0 -9 -6 -15l-45 -52q-3 -5 1 -6q23 -12 37 -39.5t15 -58.5z" />
    <glyph glyph-name="acute" unicode="&#xb4;" horiz-adv-x="234" 
d="M18 582q-3 4 1 10l59 100q4 8 14 8h112q10 0 10 -7q0 -3 -3 -8l-78 -100q-6 -7 -15 -7h-90q-7 0 -10 4z" />
    <glyph glyph-name="uni00B5" unicode="&#xb5;" horiz-adv-x="458" 
d="M265.5 513.5q3.5 3.5 8.5 3.5h142q5 0 8.5 -3.5t3.5 -8.5v-493q0 -5 -3.5 -8.5t-8.5 -3.5h-142q-5 0 -8.5 3.5t-3.5 8.5v13q0 3 -2 3.5t-4 -1.5q-20 -27 -56 -32q-5 -2 -5 -6v-177q0 -5 -3.5 -8.5t-8.5 -3.5h-142q-5 0 -8.5 3.5t-3.5 8.5v693q0 5 3.5 8.5t8.5 3.5h142
q5 0 8.5 -3.5t3.5 -8.5v-325q0 -45 33 -45q34 0 34 46v324q0 5 3.5 8.5z" />
    <glyph glyph-name="paragraph" unicode="&#xb6;" horiz-adv-x="530" 
d="M483 700q5 0 8.5 -3.5t3.5 -8.5v-876q0 -5 -3.5 -8.5t-8.5 -3.5h-114q-5 0 -8.5 3.5t-3.5 8.5v749q0 5 -5 5h-35q-5 0 -5 -5v-749q0 -5 -3.5 -8.5t-8.5 -3.5h-114q-5 0 -8.5 3.5t-3.5 8.5v437q0 5 -4 6q-71 16 -112.5 74.5t-41.5 145.5q0 66 25 117t71 79.5t107 28.5h264
z" />
    <glyph glyph-name="periodcentered" unicode="&#xb7;" horiz-adv-x="235" 
d="M55.5 232.5q-24.5 24.5 -24.5 62.5q0 39 24.5 63t62.5 24t62 -24t24 -63q0 -38 -24.5 -62.5t-61.5 -24.5q-38 0 -62.5 24.5z" />
    <glyph glyph-name="cedilla" unicode="&#xb8;" horiz-adv-x="162" 
d="M8 -170l7 56q1 11 14 9q23 -2 28 21q3 14 -6.5 32t-30.5 37q-5 5 -5 9q0 6 10 6h78q9 0 15 -6q45 -45 45 -97q0 -14 -3 -27q-16 -63 -90 -63q-27 0 -53 8q-10 4 -9 15z" />
    <glyph glyph-name="uni00B9" unicode="&#xb9;" horiz-adv-x="161" 
d="M50 827h85q5 0 8.5 -3.5t3.5 -8.5v-396q0 -5 -3.5 -8.5t-8.5 -3.5h-81q-5 0 -8.5 3.5t-3.5 8.5v312q0 5 -5 5l-14 -1q-5 0 -8.5 3.5t-3.5 8.5v53q0 11 8 15l16 8q7 4 15 4z" />
    <glyph glyph-name="ordmasculine" unicode="&#xba;" horiz-adv-x="301" 
d="M52.5 386.5q-34.5 29.5 -34.5 83.5v125q0 51 35 82t97 31q61 0 96 -31t35 -82v-125q0 -54 -34.5 -83.5t-96.5 -29.5q-63 0 -97.5 29.5zM168.5 456q7.5 9 7.5 22v108q0 14 -7.5 23t-18.5 9q-12 0 -19.5 -9t-7.5 -23v-108q0 -14 7.5 -22.5t19.5 -8.5q11 0 18.5 9z
M15.5 247.5q-3.5 3.5 -3.5 8.5v46q0 5 3.5 8.5t8.5 3.5h253q5 0 8.5 -3.5t3.5 -8.5v-46q0 -5 -3.5 -8.5t-8.5 -3.5h-253q-5 0 -8.5 3.5z" />
    <glyph glyph-name="guillemotright" unicode="&#xbb;" horiz-adv-x="454" 
d="M41.5 110.5q-2.5 3.5 0.5 10.5l76 157q1 3 0 6l-76 157q-2 4 -2 6q0 8 11 8h113q10 0 14 -9l73 -157q2 -4 2 -8q0 -2 -2 -8l-73 -157q-4 -9 -14 -9h-113q-7 0 -9.5 3.5zM207.5 110.5q-2.5 3.5 0.5 10.5l76 157q1 3 0 6l-76 157q-2 4 -2 6q0 8 11 8h113q10 0 14 -9
l73 -157q2 -4 2 -8q0 -2 -2 -8l-73 -157q-4 -9 -14 -9h-113q-7 0 -9.5 3.5z" />
    <glyph glyph-name="onequarter" unicode="&#xbc;" horiz-adv-x="735" 
d="M50 700h85q5 0 8.5 -3.5t3.5 -8.5v-396q0 -5 -3.5 -8.5t-8.5 -3.5h-81q-5 0 -8.5 3.5t-3.5 8.5v312q0 5 -5 5l-14 -1q-5 0 -8.5 3.5t-3.5 8.5v53q0 11 8 15l16 8q7 4 15 4zM59 4q-3 4 1 10l400 678q4 8 14 8h92q7 0 9.5 -3.5t-1.5 -10.5l-400 -678q-4 -8 -14 -8h-91
q-7 0 -10 4zM726.5 193.5q3.5 -3.5 3.5 -8.5v-71q0 -5 -3.5 -8.5t-8.5 -3.5h-13q-5 0 -5 -5v-85q0 -5 -3.5 -8.5t-8.5 -3.5h-81q-5 0 -8.5 3.5t-3.5 8.5v85q0 5 -5 5h-146q-5 0 -8.5 3.5t-3.5 8.5v57q0 8 2 14l73 225q3 10 13 10h86q6 0 9 -4t1 -10l-60 -203q-1 -6 4 -6h30
q5 0 5 5v42q0 5 3.5 8.5t8.5 3.5h81q5 0 8.5 -3.5t3.5 -8.5v-42q0 -5 5 -5h13q5 0 8.5 -3.5z" />
    <glyph glyph-name="onehalf" unicode="&#xbd;" horiz-adv-x="701" 
d="M50 700h85q5 0 8.5 -3.5t3.5 -8.5v-396q0 -5 -3.5 -8.5t-8.5 -3.5h-81q-5 0 -8.5 3.5t-3.5 8.5v312q0 5 -5 5l-14 -1q-5 0 -8.5 3.5t-3.5 8.5v53q0 11 8 15l16 8q7 4 15 4zM59 4q-3 4 1 10l400 678q4 8 14 8h92q7 0 9.5 -3.5t-1.5 -10.5l-400 -678q-4 -8 -14 -8h-91
q-7 0 -10 4zM442.5 3.5q-3.5 3.5 -3.5 8.5v70q0 7 5 15l32 37q8 10 35 40.5t43 54.5q29 44 29 75q0 16 -5.5 23.5t-14.5 7.5t-14.5 -7.5t-5.5 -18.5v-22q0 -5 -3.5 -8.5t-8.5 -3.5h-82q-5 0 -8.5 3.5t-3.5 8.5v26q3 54 37 83t92 29q56 0 89.5 -30.5t33.5 -96.5
q0 -31 -6.5 -54t-20.5 -47q-11 -20 -45 -63l-29 -38q-2 -2 -1 -4t4 -2h90q5 0 8.5 -3.5t3.5 -8.5v-66q0 -5 -3.5 -8.5t-8.5 -3.5h-230q-5 0 -8.5 3.5z" />
    <glyph glyph-name="threequarters" unicode="&#xbe;" horiz-adv-x="815" 
d="M276 416q0 -15 -2 -39q-1 -46 -33.5 -74t-84.5 -28q-55 0 -90 29.5t-36 76.5v24q0 5 3.5 8.5t8.5 3.5h79q12 0 12 -10l1 -10q2 -32 22 -32q18 0 21 28q1 13 1 34t-1 32q-2 28 -21 28q-8 0 -17 -7q-5 -4 -10 -4q-4 0 -7 4l-40 41q-4 6 -4 9q0 4 4 8l66 66q2 2 1 4t-4 2
h-94q-5 0 -8.5 3.5t-3.5 8.5v66q0 5 3.5 8.5t8.5 3.5h210q5 0 8.5 -3.5t3.5 -8.5v-69q0 -9 -6 -15l-45 -52q-3 -5 1 -6q23 -12 37 -39.5t15 -58.5zM139 4q-3 4 1 10l400 678q4 8 14 8h92q7 0 9.5 -3.5t-1.5 -10.5l-400 -678q-4 -8 -14 -8h-91q-7 0 -10 4zM806.5 193.5
q3.5 -3.5 3.5 -8.5v-71q0 -5 -3.5 -8.5t-8.5 -3.5h-13q-5 0 -5 -5v-85q0 -5 -3.5 -8.5t-8.5 -3.5h-81q-5 0 -8.5 3.5t-3.5 8.5v85q0 5 -5 5h-146q-5 0 -8.5 3.5t-3.5 8.5v57q0 8 2 14l73 225q3 10 13 10h86q6 0 9 -4t1 -10l-60 -203q-1 -6 4 -6h30q5 0 5 5v42q0 5 3.5 8.5
t8.5 3.5h81q5 0 8.5 -3.5t3.5 -8.5v-42q0 -5 5 -5h13q5 0 8.5 -3.5z" />
    <glyph glyph-name="questiondown" unicode="&#xbf;" horiz-adv-x="462" 
d="M306.5 479.5q24.5 -24.5 24.5 -62.5q0 -39 -24.5 -63t-62.5 -24t-62.5 24t-24.5 63q0 38 25 62.5t62 24.5q38 0 62.5 -24.5zM323.5 267.5q3.5 -3.5 3.5 -8.5v-24q0 -38 -12.5 -65.5t-29.5 -45.5t-45 -40q-31 -25 -45 -42.5t-14 -42.5q0 -27 13 -42.5t35 -15.5
q25 0 39 17.5t14 45.5v11q0 11 12 11l142 -6q5 0 8.5 -4t3.5 -9v-3q0 -63 -28 -111.5t-79 -75.5t-117 -27q-63 0 -110.5 25t-73.5 70.5t-26 105.5q0 44 13 76t31 51.5t47 43.5q29 22 43 40t14 43v14q0 5 3.5 8.5t8.5 3.5h141q5 0 8.5 -3.5z" />
    <glyph glyph-name="Agrave" unicode="&#xc0;" horiz-adv-x="508" 
d="M325 11l-13 87q0 5 -6 5h-108q-6 0 -6 -5l-12 -87q-1 -11 -13 -11h-142q-13 0 -10 13l145 676q2 11 13 11h163q11 0 13 -11l144 -676l1 -4q0 -9 -11 -9h-145q-12 0 -13 11zM218 231h67q4 0 4 5l-36 228q-1 4 -3 4t-3 -4l-33 -228q0 -5 4 -5zM308 769q0 -8 -11 -8h-91
q-9 0 -15 7l-78 100q-3 5 -3 7q0 8 11 8h112q10 0 14 -8l59 -100z" />
    <glyph glyph-name="Aacute" unicode="&#xc1;" horiz-adv-x="508" 
d="M325 11l-13 87q0 5 -6 5h-108q-6 0 -6 -5l-12 -87q-1 -11 -13 -11h-142q-13 0 -10 13l145 676q2 11 13 11h163q11 0 13 -11l144 -676l1 -4q0 -9 -11 -9h-145q-12 0 -13 11zM218 231h67q4 0 4 5l-36 228q-1 4 -3 4t-3 -4l-33 -228q0 -5 4 -5zM183 765q-3 4 1 10l59 100
q4 8 14 8h112q10 0 10 -7q0 -3 -3 -8l-78 -100q-6 -7 -15 -7h-90q-7 0 -10 4z" />
    <glyph glyph-name="Acircumflex" unicode="&#xc2;" horiz-adv-x="508" 
d="M325 11l-13 87q0 5 -6 5h-108q-6 0 -6 -5l-12 -87q-1 -11 -13 -11h-142q-13 0 -10 13l145 676q2 11 13 11h163q11 0 13 -11l144 -676l1 -4q0 -9 -11 -9h-145q-12 0 -13 11zM218 231h67q4 0 4 5l-36 228q-1 4 -3 4t-3 -4l-33 -228q0 -5 4 -5zM95.5 758.5
q-2.5 3.5 1.5 10.5l63 106q4 8 14 8h154q10 0 14 -8l66 -106q2 -6 2 -7q0 -7 -10 -7h-105q-10 0 -14 9l-26 51q-3 5 -6 0l-26 -51q-5 -9 -14 -9h-104q-7 0 -9.5 3.5z" />
    <glyph glyph-name="Atilde" unicode="&#xc3;" horiz-adv-x="508" 
d="M325 11l-13 87q0 5 -6 5h-108q-6 0 -6 -5l-12 -87q-1 -11 -13 -11h-142q-13 0 -10 13l145 676q2 11 13 11h163q11 0 13 -11l144 -676l1 -4q0 -9 -11 -9h-145q-12 0 -13 11zM218 231h67q4 0 4 5l-36 228q-1 4 -3 4t-3 -4l-33 -228q0 -5 4 -5zM268 777q-8 4 -14.5 8.5
t-13 7t-13.5 2.5q-20 0 -33 -21q-3 -5 -8 -6.5t-9 2.5l-51 36q-8 6 -5 16q13 38 37.5 57t54.5 19q31 0 66 -23q2 -2 9.5 -6.5t15 -7.5t15.5 -3q22 0 34 18q7 11 16 5l50 -35q5 -3 5 -10q0 -6 -4 -13q-17 -33 -43 -47.5t-54 -14.5q-23 0 -55 16z" />
    <glyph glyph-name="Adieresis" unicode="&#xc4;" horiz-adv-x="508" 
d="M325 11l-13 87q0 5 -6 5h-108q-6 0 -6 -5l-12 -87q-1 -11 -13 -11h-142q-13 0 -10 13l145 676q2 11 13 11h163q11 0 13 -11l144 -676l1 -4q0 -9 -11 -9h-145q-12 0 -13 11zM218 231h67q4 0 4 5l-36 228q-1 4 -3 4t-3 -4l-33 -228q0 -5 4 -5zM290.5 770.5
q-24.5 24.5 -24.5 62.5q0 39 24.5 63t62.5 24t62 -24t24 -63q0 -38 -24.5 -62.5t-61.5 -24.5q-38 0 -62.5 24.5zM93.5 770.5q-24.5 24.5 -24.5 62.5q0 39 24.5 63t62.5 24t62 -24t24 -63q0 -38 -24.5 -62.5t-61.5 -24.5q-38 0 -62.5 24.5z" />
    <glyph glyph-name="Aring" unicode="&#xc5;" horiz-adv-x="508" 
d="M325 11l-13 87q0 5 -6 5h-108q-6 0 -6 -5l-12 -87q-1 -11 -13 -11h-142q-13 0 -10 13l145 676q2 11 13 11h163q11 0 13 -11l144 -676l1 -4q0 -9 -11 -9h-145q-12 0 -13 11zM218 231h67q4 0 4 5l-36 228q-1 4 -3 4t-3 -4l-33 -228q0 -5 4 -5zM162 777.5q-37 37.5 -37 92.5
t37.5 92t92.5 37t92 -37t37 -92q0 -56 -37 -93t-92 -37q-56 0 -93 37.5zM286 838q13 13 13 32t-13 32.5t-31 13.5q-19 0 -32 -13.5t-13 -32.5t13 -32t32 -13q18 0 31 13z" />
    <glyph glyph-name="AE" unicode="&#xc6;" horiz-adv-x="775" 
d="M749.5 561.5q-3.5 -3.5 -8.5 -3.5h-201q-5 0 -5 -5v-126q0 -5 5 -5h110q5 0 8.5 -3.5t3.5 -8.5v-119q0 -5 -3.5 -8.5t-8.5 -3.5h-110q-5 0 -5 -5v-127q0 -5 5 -5h201q5 0 8.5 -3.5t3.5 -8.5v-118q0 -5 -3.5 -8.5t-8.5 -3.5h-360q-5 0 -8.5 3.5t-3.5 8.5v86q0 5 -5 5h-136
q-3 0 -5 -4l-33 -89q-3 -10 -14 -10h-149q-7 0 -9 4t0 10l275 677q3 9 14 9h434q5 0 8.5 -3.5t3.5 -8.5v-118q0 -5 -3.5 -8.5zM278 231h86q5 0 5 5v241q0 3 -2.5 3.5t-3.5 -2.5l-89 -241q-1 -6 4 -6z" />
    <glyph glyph-name="Ccedilla" unicode="&#xc7;" horiz-adv-x="470" 
d="M442.5 486q-3.5 -3 -8.5 -3l-142 -6q-12 0 -12 12v27q0 23 -12 36.5t-32 13.5q-19 0 -31 -13.5t-12 -36.5v-333q0 -22 12 -35.5t31 -13.5q20 0 32 13.5t12 35.5v29q0 5 3.5 8.5t8.5 3.5l142 -6q5 0 8.5 -3.5t3.5 -8.5v-9q0 -78 -41 -130.5t-111 -68.5q-3 0 -3.5 -2
t1.5 -4q36 -40 36 -88q0 -14 -3 -27q-8 -34 -32.5 -48t-56.5 -14q-28 0 -54 8q-10 3 -9 14l7 57q1 6 4 7.5t8 1.5h7q17 0 23 20q3 16 -7.5 35t-32.5 38l-6 3q-69 17 -109 69t-40 129v307q0 94 57 149t152 55t152.5 -55t57.5 -149v-10q0 -5 -3.5 -8z" />
    <glyph glyph-name="Egrave" unicode="&#xc8;" horiz-adv-x="441" 
d="M415.5 561.5q-3.5 -3.5 -8.5 -3.5h-201q-5 0 -5 -5v-126q0 -5 5 -5h110q5 0 8.5 -3.5t3.5 -8.5v-119q0 -5 -3.5 -8.5t-8.5 -3.5h-110q-5 0 -5 -5v-127q0 -5 5 -5h201q5 0 8.5 -3.5t3.5 -8.5v-118q0 -5 -3.5 -8.5t-8.5 -3.5h-360q-5 0 -8.5 3.5t-3.5 8.5v676q0 5 3.5 8.5
t8.5 3.5h360q5 0 8.5 -3.5t3.5 -8.5v-118q0 -5 -3.5 -8.5zM281 769q0 -8 -11 -8h-91q-9 0 -15 7l-78 100q-3 5 -3 7q0 8 11 8h112q10 0 14 -8l59 -100z" />
    <glyph glyph-name="Eacute" unicode="&#xc9;" horiz-adv-x="441" 
d="M415.5 561.5q-3.5 -3.5 -8.5 -3.5h-201q-5 0 -5 -5v-126q0 -5 5 -5h110q5 0 8.5 -3.5t3.5 -8.5v-119q0 -5 -3.5 -8.5t-8.5 -3.5h-110q-5 0 -5 -5v-127q0 -5 5 -5h201q5 0 8.5 -3.5t3.5 -8.5v-118q0 -5 -3.5 -8.5t-8.5 -3.5h-360q-5 0 -8.5 3.5t-3.5 8.5v676q0 5 3.5 8.5
t8.5 3.5h360q5 0 8.5 -3.5t3.5 -8.5v-118q0 -5 -3.5 -8.5zM156 765q-3 4 1 10l59 100q4 8 14 8h112q10 0 10 -7q0 -3 -3 -8l-78 -100q-6 -7 -15 -7h-90q-7 0 -10 4z" />
    <glyph glyph-name="Ecircumflex" unicode="&#xca;" horiz-adv-x="441" 
d="M415.5 561.5q-3.5 -3.5 -8.5 -3.5h-201q-5 0 -5 -5v-126q0 -5 5 -5h110q5 0 8.5 -3.5t3.5 -8.5v-119q0 -5 -3.5 -8.5t-8.5 -3.5h-110q-5 0 -5 -5v-127q0 -5 5 -5h201q5 0 8.5 -3.5t3.5 -8.5v-118q0 -5 -3.5 -8.5t-8.5 -3.5h-360q-5 0 -8.5 3.5t-3.5 8.5v676q0 5 3.5 8.5
t8.5 3.5h360q5 0 8.5 -3.5t3.5 -8.5v-118q0 -5 -3.5 -8.5zM68.5 758.5q-2.5 3.5 1.5 10.5l63 106q4 8 14 8h154q10 0 14 -8l66 -106q2 -6 2 -7q0 -7 -10 -7h-105q-10 0 -14 9l-26 51q-3 5 -6 0l-26 -51q-5 -9 -14 -9h-104q-7 0 -9.5 3.5z" />
    <glyph glyph-name="Edieresis" unicode="&#xcb;" horiz-adv-x="441" 
d="M415.5 561.5q-3.5 -3.5 -8.5 -3.5h-201q-5 0 -5 -5v-126q0 -5 5 -5h110q5 0 8.5 -3.5t3.5 -8.5v-119q0 -5 -3.5 -8.5t-8.5 -3.5h-110q-5 0 -5 -5v-127q0 -5 5 -5h201q5 0 8.5 -3.5t3.5 -8.5v-118q0 -5 -3.5 -8.5t-8.5 -3.5h-360q-5 0 -8.5 3.5t-3.5 8.5v676q0 5 3.5 8.5
t8.5 3.5h360q5 0 8.5 -3.5t3.5 -8.5v-118q0 -5 -3.5 -8.5zM263.5 770.5q-24.5 24.5 -24.5 62.5q0 39 24.5 63t62.5 24t62 -24t24 -63q0 -38 -24.5 -62.5t-61.5 -24.5q-38 0 -62.5 24.5zM66.5 770.5q-24.5 24.5 -24.5 62.5q0 39 24.5 63t62.5 24t62 -24t24 -63
q0 -38 -24.5 -62.5t-61.5 -24.5q-38 0 -62.5 24.5z" />
    <glyph glyph-name="Igrave" unicode="&#xcc;" horiz-adv-x="235" 
d="M38.5 3.5q-3.5 3.5 -3.5 8.5v676q0 5 3.5 8.5t8.5 3.5h142q5 0 8.5 -3.5t3.5 -8.5v-676q0 -5 -3.5 -8.5t-8.5 -3.5h-142q-5 0 -8.5 3.5zM171 769q0 -8 -11 -8h-91q-9 0 -15 7l-78 100q-3 5 -3 7q0 8 11 8h112q10 0 14 -8l59 -100z" />
    <glyph glyph-name="Iacute" unicode="&#xcd;" horiz-adv-x="235" 
d="M38.5 3.5q-3.5 3.5 -3.5 8.5v676q0 5 3.5 8.5t8.5 3.5h142q5 0 8.5 -3.5t3.5 -8.5v-676q0 -5 -3.5 -8.5t-8.5 -3.5h-142q-5 0 -8.5 3.5zM46 765q-3 4 1 10l59 100q4 8 14 8h112q10 0 10 -7q0 -3 -3 -8l-78 -100q-6 -7 -15 -7h-90q-7 0 -10 4z" />
    <glyph glyph-name="Icircumflex" unicode="&#xce;" horiz-adv-x="235" 
d="M38.5 3.5q-3.5 3.5 -3.5 8.5v676q0 5 3.5 8.5t8.5 3.5h142q5 0 8.5 -3.5t3.5 -8.5v-676q0 -5 -3.5 -8.5t-8.5 -3.5h-142q-5 0 -8.5 3.5zM-41.5 758.5q-2.5 3.5 1.5 10.5l63 106q4 8 14 8h154q10 0 14 -8l66 -106q2 -6 2 -7q0 -7 -10 -7h-105q-10 0 -14 9l-26 51
q-3 5 -6 0l-26 -51q-5 -9 -14 -9h-104q-7 0 -9.5 3.5z" />
    <glyph glyph-name="Idieresis" unicode="&#xcf;" horiz-adv-x="235" 
d="M38.5 3.5q-3.5 3.5 -3.5 8.5v676q0 5 3.5 8.5t8.5 3.5h142q5 0 8.5 -3.5t3.5 -8.5v-676q0 -5 -3.5 -8.5t-8.5 -3.5h-142q-5 0 -8.5 3.5zM153.5 770.5q-24.5 24.5 -24.5 62.5q0 39 24.5 63t62.5 24t62 -24t24 -63q0 -38 -24.5 -62.5t-61.5 -24.5q-38 0 -62.5 24.5z
M-43.5 770.5q-24.5 24.5 -24.5 62.5q0 39 24.5 63t62.5 24t62 -24t24 -63q0 -38 -24.5 -62.5t-61.5 -24.5q-38 0 -62.5 24.5z" />
    <glyph glyph-name="Eth" unicode="&#xd0;" horiz-adv-x="506" 
d="M418 646q58 -54 58 -143v-306q0 -89 -58 -143t-154 -54h-191q-5 0 -8.5 3.5t-3.5 8.5v302q0 5 -5 5h-9q-5 0 -8.5 3.5t-3.5 8.5v70q0 5 3.5 8.5t8.5 3.5h9q5 0 5 5v270q0 5 3.5 8.5t8.5 3.5h191q96 0 154 -54zM310 492q0 30 -14 48t-37 18h-27q-5 0 -5 -5v-135q0 -5 5 -5
h25q5 0 8.5 -3.5t3.5 -8.5v-70q0 -5 -3.5 -8.5t-8.5 -3.5h-25q-5 0 -5 -5v-167q0 -5 5 -5l28 1q21 1 35 18.5t15 46.5v284z" />
    <glyph glyph-name="Ntilde" unicode="&#xd1;" horiz-adv-x="522" 
d="M326.5 696.5q3.5 3.5 8.5 3.5h140q5 0 8.5 -3.5t3.5 -8.5v-676q0 -5 -3.5 -8.5t-8.5 -3.5h-159q-11 0 -14 10l-99 348q-1 3 -3.5 3.5t-2.5 -3.5l2 -346q0 -5 -3.5 -8.5t-8.5 -3.5h-140q-5 0 -8.5 3.5t-3.5 8.5v676q0 5 3.5 8.5t8.5 3.5h157q11 0 14 -10l100 -350
q1 -3 3.5 -3t2.5 4l-1 347q0 5 3.5 8.5zM273 778q-8 4 -14.5 8.5t-13 7t-13.5 2.5q-20 0 -33 -21q-3 -5 -8 -6.5t-9 2.5l-51 36q-8 6 -5 16q13 38 37.5 57t54.5 19q31 0 66 -23q2 -2 9.5 -6.5t15 -7.5t15.5 -3q22 0 34 18q7 11 16 5l50 -35q5 -3 5 -10q0 -6 -4 -13
q-17 -33 -43 -47.5t-54 -14.5q-23 0 -55 16z" />
    <glyph glyph-name="Ograve" unicode="&#xd2;" horiz-adv-x="479" 
d="M84.5 48q-57.5 56 -57.5 151v302q0 94 57.5 150.5t154.5 56.5q96 0 154.5 -56.5t58.5 -150.5v-302q0 -95 -58.5 -151t-154.5 -56q-97 0 -154.5 56zM273.5 149.5q12.5 15.5 12.5 42.5v316q0 27 -12.5 42.5t-34.5 15.5t-34 -15.5t-12 -42.5v-316q0 -27 12 -42.5t34 -15.5
t34.5 15.5zM293 769q0 -8 -11 -8h-91q-9 0 -15 7l-78 100q-3 5 -3 7q0 8 11 8h112q10 0 14 -8l59 -100z" />
    <glyph glyph-name="Oacute" unicode="&#xd3;" horiz-adv-x="479" 
d="M84.5 48q-57.5 56 -57.5 151v302q0 94 57.5 150.5t154.5 56.5q96 0 154.5 -56.5t58.5 -150.5v-302q0 -95 -58.5 -151t-154.5 -56q-97 0 -154.5 56zM273.5 149.5q12.5 15.5 12.5 42.5v316q0 27 -12.5 42.5t-34.5 15.5t-34 -15.5t-12 -42.5v-316q0 -27 12 -42.5t34 -15.5
t34.5 15.5zM167 765q-3 4 1 10l59 100q4 8 14 8h112q10 0 10 -7q0 -3 -3 -8l-78 -100q-6 -7 -15 -7h-90q-7 0 -10 4z" />
    <glyph glyph-name="Ocircumflex" unicode="&#xd4;" horiz-adv-x="479" 
d="M84.5 48q-57.5 56 -57.5 151v302q0 94 57.5 150.5t154.5 56.5q96 0 154.5 -56.5t58.5 -150.5v-302q0 -95 -58.5 -151t-154.5 -56q-97 0 -154.5 56zM273.5 149.5q12.5 15.5 12.5 42.5v316q0 27 -12.5 42.5t-34.5 15.5t-34 -15.5t-12 -42.5v-316q0 -27 12 -42.5t34 -15.5
t34.5 15.5zM80.5 758.5q-2.5 3.5 1.5 10.5l63 106q4 8 14 8h154q10 0 14 -8l66 -106q2 -6 2 -7q0 -7 -10 -7h-105q-10 0 -14 9l-26 51q-3 5 -6 0l-26 -51q-5 -9 -14 -9h-104q-7 0 -9.5 3.5z" />
    <glyph glyph-name="Otilde" unicode="&#xd5;" horiz-adv-x="479" 
d="M84.5 48q-57.5 56 -57.5 151v302q0 94 57.5 150.5t154.5 56.5q96 0 154.5 -56.5t58.5 -150.5v-302q0 -95 -58.5 -151t-154.5 -56q-97 0 -154.5 56zM273.5 149.5q12.5 15.5 12.5 42.5v316q0 27 -12.5 42.5t-34.5 15.5t-34 -15.5t-12 -42.5v-316q0 -27 12 -42.5t34 -15.5
t34.5 15.5zM253 777q-8 4 -14.5 8.5t-13 7t-13.5 2.5q-20 0 -33 -21q-3 -5 -8 -6.5t-9 2.5l-51 36q-8 6 -5 16q13 38 37.5 57t54.5 19q31 0 66 -23q2 -2 9.5 -6.5t15 -7.5t15.5 -3q22 0 34 18q7 11 16 5l50 -35q5 -3 5 -10q0 -6 -4 -13q-17 -33 -43 -47.5t-54 -14.5
q-23 0 -55 16z" />
    <glyph glyph-name="Odieresis" unicode="&#xd6;" horiz-adv-x="479" 
d="M84.5 48q-57.5 56 -57.5 151v302q0 94 57.5 150.5t154.5 56.5q96 0 154.5 -56.5t58.5 -150.5v-302q0 -95 -58.5 -151t-154.5 -56q-97 0 -154.5 56zM273.5 149.5q12.5 15.5 12.5 42.5v316q0 27 -12.5 42.5t-34.5 15.5t-34 -15.5t-12 -42.5v-316q0 -27 12 -42.5t34 -15.5
t34.5 15.5zM275.5 770.5q-24.5 24.5 -24.5 62.5q0 39 24.5 63t62.5 24t62 -24t24 -63q0 -38 -24.5 -62.5t-61.5 -24.5q-38 0 -62.5 24.5zM78.5 770.5q-24.5 24.5 -24.5 62.5q0 39 24.5 63t62.5 24t62 -24t24 -63q0 -38 -24.5 -62.5t-61.5 -24.5q-38 0 -62.5 24.5z" />
    <glyph glyph-name="multiply" unicode="&#xd7;" horiz-adv-x="409" 
d="M384 406q0 -4 -4 -8l-84 -84q-2 -2 -2 -4t2 -4l84 -84q4 -3 4 -8q0 -4 -4 -8l-72 -72q-4 -4 -8 -4q-2 0 -8 4l-84 84q-2 2 -4 2t-4 -2l-84 -84q-4 -4 -8 -4q-2 0 -8 4l-72 72q-4 6 -4 8q0 4 4 8l84 84q4 4 0 8l-84 84q-4 6 -4 8q0 4 4 8l72 72q4 4 8 4q5 0 8 -4l84 -84
q4 -4 8 0l84 84q4 4 8 4q5 0 8 -4l72 -72q4 -3 4 -8z" />
    <glyph glyph-name="Oslash" unicode="&#xd8;" horiz-adv-x="517" 
d="M463 689l-38 -72q-1 -4 0 -6q27 -47 27 -110v-302q0 -95 -58.5 -151t-154.5 -56q-56 0 -94 17q-5 2 -6 -2l-29 -56q-7 -11 -17 -4l-75 48q-10 7 -5 16l39 73q1 4 0 6q-26 47 -26 109v302q0 94 58 150.5t155 56.5q52 0 91 -16q5 -2 6 2l29 55q3 5 7.5 6t9.5 -2l77 -48
q9 -6 4 -16zM286 508q0 26 -12.5 42t-34.5 16t-34.5 -16t-12.5 -42v-316q0 -26 12.5 -42t34.5 -16t34.5 16t12.5 42v316z" />
    <glyph glyph-name="Ugrave" unicode="&#xd9;" horiz-adv-x="480" 
d="M131 18.5q-47 26.5 -73 74.5t-26 111v484q0 5 3.5 8.5t8.5 3.5h142q5 0 8.5 -3.5t3.5 -8.5v-500q0 -24 11.5 -39t30.5 -15t30.5 15t11.5 39v500q0 5 3.5 8.5t8.5 3.5h142q5 0 8.5 -3.5t3.5 -8.5v-484q0 -63 -26 -111t-73 -74.5t-109 -26.5t-109 26.5zM294 769
q0 -8 -11 -8h-91q-9 0 -15 7l-78 100q-3 5 -3 7q0 8 11 8h112q10 0 14 -8l59 -100z" />
    <glyph glyph-name="Uacute" unicode="&#xda;" horiz-adv-x="480" 
d="M131 18.5q-47 26.5 -73 74.5t-26 111v484q0 5 3.5 8.5t8.5 3.5h142q5 0 8.5 -3.5t3.5 -8.5v-500q0 -24 11.5 -39t30.5 -15t30.5 15t11.5 39v500q0 5 3.5 8.5t8.5 3.5h142q5 0 8.5 -3.5t3.5 -8.5v-484q0 -63 -26 -111t-73 -74.5t-109 -26.5t-109 26.5zM168 765q-3 4 1 10
l59 100q4 8 14 8h112q10 0 10 -7q0 -3 -3 -8l-78 -100q-6 -7 -15 -7h-90q-7 0 -10 4z" />
    <glyph glyph-name="Ucircumflex" unicode="&#xdb;" horiz-adv-x="480" 
d="M131 18.5q-47 26.5 -73 74.5t-26 111v484q0 5 3.5 8.5t8.5 3.5h142q5 0 8.5 -3.5t3.5 -8.5v-500q0 -24 11.5 -39t30.5 -15t30.5 15t11.5 39v500q0 5 3.5 8.5t8.5 3.5h142q5 0 8.5 -3.5t3.5 -8.5v-484q0 -63 -26 -111t-73 -74.5t-109 -26.5t-109 26.5zM81.5 758.5
q-2.5 3.5 1.5 10.5l63 106q4 8 14 8h154q10 0 14 -8l66 -106q2 -6 2 -7q0 -7 -10 -7h-105q-10 0 -14 9l-26 51q-3 5 -6 0l-26 -51q-5 -9 -14 -9h-104q-7 0 -9.5 3.5z" />
    <glyph glyph-name="Udieresis" unicode="&#xdc;" horiz-adv-x="480" 
d="M131 18.5q-47 26.5 -73 74.5t-26 111v484q0 5 3.5 8.5t8.5 3.5h142q5 0 8.5 -3.5t3.5 -8.5v-500q0 -24 11.5 -39t30.5 -15t30.5 15t11.5 39v500q0 5 3.5 8.5t8.5 3.5h142q5 0 8.5 -3.5t3.5 -8.5v-484q0 -63 -26 -111t-73 -74.5t-109 -26.5t-109 26.5zM276.5 770.5
q-24.5 24.5 -24.5 62.5q0 39 24.5 63t62.5 24t62 -24t24 -63q0 -38 -24.5 -62.5t-61.5 -24.5q-38 0 -62.5 24.5zM79.5 770.5q-24.5 24.5 -24.5 62.5q0 39 24.5 63t62.5 24t62 -24t24 -63q0 -38 -24.5 -62.5t-61.5 -24.5q-38 0 -62.5 24.5z" />
    <glyph glyph-name="Yacute" unicode="&#xdd;" horiz-adv-x="492" 
d="M165.5 5.5q-3.5 3.5 -3.5 8.5v246l-1 6l-140 420q-1 2 -1 5q0 9 10 9h150q10 0 13 -11l50 -220q1 -4 3 -4t3 4l50 220q3 11 13 11h150q6 0 8.5 -3.5t0.5 -10.5l-142 -420l-1 -6v-246q0 -5 -3.5 -8.5t-8.5 -3.5h-142q-5 0 -8.5 3.5zM174 765q-3 4 1 10l59 100q4 8 14 8
h112q10 0 10 -7q0 -3 -3 -8l-78 -100q-6 -7 -15 -7h-90q-7 0 -10 4z" />
    <glyph glyph-name="Thorn" unicode="&#xde;" horiz-adv-x="473" 
d="M362.5 538q44.5 -28 69.5 -77.5t25 -113.5q0 -63 -23.5 -111t-66.5 -74.5t-99 -26.5h-64q-5 0 -5 -5v-118q0 -5 -3.5 -8.5t-8.5 -3.5h-142q-5 0 -8.5 3.5t-3.5 8.5v676q0 5 3.5 8.5t8.5 3.5h142q5 0 8.5 -3.5t3.5 -8.5v-117q0 -5 5 -5h56q58 0 102.5 -28zM274.5 285.5
q16.5 20.5 16.5 57.5q0 39 -16.5 60t-43.5 21h-27q-5 0 -5 -5v-149q0 -5 5 -5h27q27 0 43.5 20.5z" />
    <glyph glyph-name="germandbls" unicode="&#xdf;" horiz-adv-x="471" 
d="M32.5 4.5q-3.5 3.5 -3.5 8.5v462q0 112 52.5 172.5t147.5 60.5q96 0 150.5 -52t55.5 -139q0 -90 -63 -132q-4 -4 0 -7q36 -23 55.5 -67t19.5 -102q0 -99 -56.5 -154t-160.5 -55q-8 0 -8 12v118q0 4 2 8q3 4 7.5 4h5.5q23 3 35.5 25t12.5 60q0 40 -14 62.5t-38 23.5
q-4 0 -6.5 3.5t-2.5 8.5v105q0 12 6 12q19 0 30.5 16t11.5 44q0 31 -11 48t-30 17q-17 0 -26.5 -17t-9.5 -48v-490q0 -5 -3.5 -8.5t-8.5 -3.5l-142 1q-5 0 -8.5 3.5z" />
    <glyph glyph-name="agrave" unicode="&#xe0;" horiz-adv-x="457" 
d="M376.5 479q56.5 -46 56.5 -121v-346q0 -5 -3.5 -8.5t-8.5 -3.5h-142q-5 0 -8.5 3.5t-3.5 8.5v24q0 3 -2 3.5t-4 -2.5q-34 -45 -106 -45q-138 0 -138 157q0 67 25 102t68.5 46.5t111.5 11.5h40q5 0 5 5v24q0 20 -11 32.5t-28 12.5q-13 0 -21.5 -7.5t-11.5 -21.5
q-1 -12 -12 -12l-146 1q-12 0 -12 12q5 79 60.5 124.5t142.5 45.5q92 0 148.5 -46zM253 126.5q14 11.5 14 29.5v37q0 5 -5 5h-30q-20 0 -32.5 -12t-12.5 -32q0 -19 10 -29t25 -10q17 0 31 11.5zM282 586q0 -8 -11 -8h-91q-9 0 -15 7l-78 100q-3 5 -3 7q0 8 11 8h112
q10 0 14 -8l59 -100z" />
    <glyph glyph-name="aacute" unicode="&#xe1;" horiz-adv-x="457" 
d="M376.5 479q56.5 -46 56.5 -121v-346q0 -5 -3.5 -8.5t-8.5 -3.5h-142q-5 0 -8.5 3.5t-3.5 8.5v24q0 3 -2 3.5t-4 -2.5q-34 -45 -106 -45q-138 0 -138 157q0 67 25 102t68.5 46.5t111.5 11.5h40q5 0 5 5v24q0 20 -11 32.5t-28 12.5q-13 0 -21.5 -7.5t-11.5 -21.5
q-1 -12 -12 -12l-146 1q-12 0 -12 12q5 79 60.5 124.5t142.5 45.5q92 0 148.5 -46zM253 126.5q14 11.5 14 29.5v37q0 5 -5 5h-30q-20 0 -32.5 -12t-12.5 -32q0 -19 10 -29t25 -10q17 0 31 11.5zM157 582q-3 4 1 10l59 100q4 8 14 8h112q10 0 10 -7q0 -3 -3 -8l-78 -100
q-6 -7 -15 -7h-90q-7 0 -10 4z" />
    <glyph glyph-name="acircumflex" unicode="&#xe2;" horiz-adv-x="457" 
d="M376.5 479q56.5 -46 56.5 -121v-346q0 -5 -3.5 -8.5t-8.5 -3.5h-142q-5 0 -8.5 3.5t-3.5 8.5v24q0 3 -2 3.5t-4 -2.5q-34 -45 -106 -45q-138 0 -138 157q0 67 25 102t68.5 46.5t111.5 11.5h40q5 0 5 5v24q0 20 -11 32.5t-28 12.5q-13 0 -21.5 -7.5t-11.5 -21.5
q-1 -12 -12 -12l-146 1q-12 0 -12 12q5 79 60.5 124.5t142.5 45.5q92 0 148.5 -46zM253 126.5q14 11.5 14 29.5v37q0 5 -5 5h-30q-20 0 -32.5 -12t-12.5 -32q0 -19 10 -29t25 -10q17 0 31 11.5zM69.5 575.5q-2.5 3.5 1.5 10.5l63 106q4 8 14 8h154q10 0 14 -8l66 -106
q2 -6 2 -7q0 -7 -10 -7h-105q-10 0 -14 9l-26 51q-3 5 -6 0l-26 -51q-5 -9 -14 -9h-104q-7 0 -9.5 3.5z" />
    <glyph glyph-name="atilde" unicode="&#xe3;" horiz-adv-x="457" 
d="M376.5 479q56.5 -46 56.5 -121v-346q0 -5 -3.5 -8.5t-8.5 -3.5h-142q-5 0 -8.5 3.5t-3.5 8.5v24q0 3 -2 3.5t-4 -2.5q-34 -45 -106 -45q-138 0 -138 157q0 67 25 102t68.5 46.5t111.5 11.5h40q5 0 5 5v24q0 20 -11 32.5t-28 12.5q-13 0 -21.5 -7.5t-11.5 -21.5
q-1 -12 -12 -12l-146 1q-12 0 -12 12q5 79 60.5 124.5t142.5 45.5q92 0 148.5 -46zM253 126.5q14 11.5 14 29.5v37q0 5 -5 5h-30q-20 0 -32.5 -12t-12.5 -32q0 -19 10 -29t25 -10q17 0 31 11.5zM242 594q-8 4 -14.5 8.5t-13 7t-13.5 2.5q-20 0 -33 -21q-3 -5 -8 -6.5t-9 2.5
l-51 36q-8 6 -5 16q13 38 37.5 57t54.5 19q31 0 66 -23q2 -2 9.5 -6.5t15 -7.5t15.5 -3q22 0 34 18q7 11 16 5l50 -35q5 -3 5 -10q0 -6 -4 -13q-17 -33 -43 -47.5t-54 -14.5q-23 0 -55 16z" />
    <glyph glyph-name="adieresis" unicode="&#xe4;" horiz-adv-x="457" 
d="M376.5 479q56.5 -46 56.5 -121v-346q0 -5 -3.5 -8.5t-8.5 -3.5h-142q-5 0 -8.5 3.5t-3.5 8.5v24q0 3 -2 3.5t-4 -2.5q-34 -45 -106 -45q-138 0 -138 157q0 67 25 102t68.5 46.5t111.5 11.5h40q5 0 5 5v24q0 20 -11 32.5t-28 12.5q-13 0 -21.5 -7.5t-11.5 -21.5
q-1 -12 -12 -12l-146 1q-12 0 -12 12q5 79 60.5 124.5t142.5 45.5q92 0 148.5 -46zM253 126.5q14 11.5 14 29.5v37q0 5 -5 5h-30q-20 0 -32.5 -12t-12.5 -32q0 -19 10 -29t25 -10q17 0 31 11.5zM264.5 587.5q-24.5 24.5 -24.5 62.5q0 39 24.5 63t62.5 24t62 -24t24 -63
q0 -38 -24.5 -62.5t-61.5 -24.5q-38 0 -62.5 24.5zM67.5 587.5q-24.5 24.5 -24.5 62.5q0 39 24.5 63t62.5 24t62 -24t24 -63q0 -38 -24.5 -62.5t-61.5 -24.5q-38 0 -62.5 24.5z" />
    <glyph glyph-name="aring" unicode="&#xe5;" horiz-adv-x="457" 
d="M376.5 479q56.5 -46 56.5 -121v-346q0 -5 -3.5 -8.5t-8.5 -3.5h-142q-5 0 -8.5 3.5t-3.5 8.5v24q0 3 -2 3.5t-4 -2.5q-34 -45 -106 -45q-138 0 -138 157q0 67 25 102t68.5 46.5t111.5 11.5h40q5 0 5 5v24q0 20 -11 32.5t-28 12.5q-13 0 -21.5 -7.5t-11.5 -21.5
q-1 -12 -12 -12l-146 1q-12 0 -12 12q5 79 60.5 124.5t142.5 45.5q92 0 148.5 -46zM253 126.5q14 11.5 14 29.5v37q0 5 -5 5h-30q-20 0 -32.5 -12t-12.5 -32q0 -19 10 -29t25 -10q17 0 31 11.5zM136 594.5q-37 37.5 -37 92.5t37.5 92t92.5 37t92 -37t37 -92q0 -56 -37 -93
t-92 -37q-56 0 -93 37.5zM260 655q13 13 13 32t-13 32.5t-31 13.5q-19 0 -32 -13.5t-13 -32.5t13 -32t32 -13q18 0 31 13z" />
    <glyph glyph-name="ae" unicode="&#xe6;" horiz-adv-x="698" 
d="M64 23q-47 31 -47 127q0 63 24.5 96.5t67.5 45t110 11.5h43q5 0 5 5v30q0 20 -11 32.5t-28 12.5q-13 0 -23 -7.5t-14 -20.5q-2 -11 -12 -11l-144 3q-12 0 -12 12q4 77 60 121.5t140 44.5q38 0 66.5 -10.5t55.5 -31.5q4 -3 7 0q52 42 131 42q88 0 141 -47.5t53 -125.5
v-138q0 -5 -3.5 -8.5t-8.5 -3.5h-218q-5 0 -5 -5v-19q0 -18 9.5 -30t25.5 -12q12 0 21 8t13 20q5 10 14 9l138 -9q5 0 8.5 -3.5t2.5 -9.5q-6 -77 -52.5 -118t-130.5 -41q-55 0 -93.5 16.5t-47.5 37.5q-1 1 -1.5 2.5t-1.5 0.5q-8 -22 -56 -39.5t-113 -17.5q-67 0 -114 31z
M447 303h59q5 0 5 5v31q0 19 -9.5 31.5t-24.5 12.5q-16 0 -25.5 -12t-9.5 -32v-31q0 -5 5 -5zM253 122.5q14 10.5 14 28.5v46q0 5 -5 5h-31q-20 0 -32 -13t-12 -35q0 -21 10 -31.5t25 -10.5q17 0 31 10.5z" />
    <glyph glyph-name="ccedilla" unicode="&#xe7;" horiz-adv-x="445" 
d="M421.5 324.5q-3.5 -3.5 -8.5 -3.5l-142 -6q-12 0 -12 12v15q0 17 -9.5 29t-24.5 12q-16 0 -25.5 -12t-9.5 -32v-161q0 -20 9.5 -32t25.5 -12q15 0 24.5 12t9.5 30v15q0 5 3.5 8.5t8.5 3.5l142 -1q5 0 8.5 -3.5t3.5 -8.5v-27q0 -67 -37 -110t-105 -56q-6 -2 -2 -6
q35 -41 35 -87q0 -14 -3 -27q-8 -34 -32.5 -48t-56.5 -14q-28 0 -54 8q-10 3 -9 14l8 57q1 11 14 9q9 -2 16.5 3t11.5 17q3 15 -7 33.5t-31 38.5l-6 3q-68 12 -105.5 55.5t-37.5 111.5v187q0 78 53.5 125.5t147.5 47.5t147 -47t53 -123v-22q0 -5 -3.5 -8.5z" />
    <glyph glyph-name="egrave" unicode="&#xe8;" horiz-adv-x="446" 
d="M421.5 216.5q-3.5 -3.5 -8.5 -3.5h-218q-5 0 -5 -5v-30q0 -20 9.5 -32t25.5 -12q14 0 23 10t12 25q1 11 13 11l138 -8q5 0 8.5 -3.5t2.5 -9.5q-9 -167 -197 -167q-95 0 -148 45.5t-53 127.5v187q0 78 53.5 125.5t147.5 47.5t147 -47t53 -126v-127q0 -5 -3.5 -8.5z
M199.5 371q-9.5 -12 -9.5 -32v-31q0 -5 5 -5h59q5 0 5 5v31q0 19 -9.5 31.5t-24.5 12.5q-16 0 -25.5 -12zM277 586q0 -8 -11 -8h-91q-9 0 -15 7l-78 100q-3 5 -3 7q0 8 11 8h112q10 0 14 -8l59 -100z" />
    <glyph glyph-name="eacute" unicode="&#xe9;" horiz-adv-x="446" 
d="M421.5 216.5q-3.5 -3.5 -8.5 -3.5h-218q-5 0 -5 -5v-30q0 -20 9.5 -32t25.5 -12q14 0 23 10t12 25q1 11 13 11l138 -8q5 0 8.5 -3.5t2.5 -9.5q-9 -167 -197 -167q-95 0 -148 45.5t-53 127.5v187q0 78 53.5 125.5t147.5 47.5t147 -47t53 -126v-127q0 -5 -3.5 -8.5z
M199.5 371q-9.5 -12 -9.5 -32v-31q0 -5 5 -5h59q5 0 5 5v31q0 19 -9.5 31.5t-24.5 12.5q-16 0 -25.5 -12zM152 582q-3 4 1 10l59 100q4 8 14 8h112q10 0 10 -7q0 -3 -3 -8l-78 -100q-6 -7 -15 -7h-90q-7 0 -10 4z" />
    <glyph glyph-name="ecircumflex" unicode="&#xea;" horiz-adv-x="446" 
d="M421.5 216.5q-3.5 -3.5 -8.5 -3.5h-218q-5 0 -5 -5v-30q0 -20 9.5 -32t25.5 -12q14 0 23 10t12 25q1 11 13 11l138 -8q5 0 8.5 -3.5t2.5 -9.5q-9 -167 -197 -167q-95 0 -148 45.5t-53 127.5v187q0 78 53.5 125.5t147.5 47.5t147 -47t53 -126v-127q0 -5 -3.5 -8.5z
M199.5 371q-9.5 -12 -9.5 -32v-31q0 -5 5 -5h59q5 0 5 5v31q0 19 -9.5 31.5t-24.5 12.5q-16 0 -25.5 -12zM64.5 575.5q-2.5 3.5 1.5 10.5l63 106q4 8 14 8h154q10 0 14 -8l66 -106q2 -6 2 -7q0 -7 -10 -7h-105q-10 0 -14 9l-26 51q-3 5 -6 0l-26 -51q-5 -9 -14 -9h-104
q-7 0 -9.5 3.5z" />
    <glyph glyph-name="edieresis" unicode="&#xeb;" horiz-adv-x="446" 
d="M421.5 216.5q-3.5 -3.5 -8.5 -3.5h-218q-5 0 -5 -5v-30q0 -20 9.5 -32t25.5 -12q14 0 23 10t12 25q1 11 13 11l138 -8q5 0 8.5 -3.5t2.5 -9.5q-9 -167 -197 -167q-95 0 -148 45.5t-53 127.5v187q0 78 53.5 125.5t147.5 47.5t147 -47t53 -126v-127q0 -5 -3.5 -8.5z
M199.5 371q-9.5 -12 -9.5 -32v-31q0 -5 5 -5h59q5 0 5 5v31q0 19 -9.5 31.5t-24.5 12.5q-16 0 -25.5 -12zM259.5 587.5q-24.5 24.5 -24.5 62.5q0 39 24.5 63t62.5 24t62 -24t24 -63q0 -38 -24.5 -62.5t-61.5 -24.5q-38 0 -62.5 24.5zM62.5 587.5q-24.5 24.5 -24.5 62.5
q0 39 24.5 63t62.5 24t62 -24t24 -63q0 -38 -24.5 -62.5t-61.5 -24.5q-38 0 -62.5 24.5z" />
    <glyph glyph-name="igrave" unicode="&#xec;" horiz-adv-x="197" 
d="M19.5 3.5q-3.5 3.5 -3.5 8.5v493q0 5 3.5 8.5t8.5 3.5h142q5 0 8.5 -3.5t3.5 -8.5v-493q0 -5 -3.5 -8.5t-8.5 -3.5h-142q-5 0 -8.5 3.5zM152 586q0 -8 -11 -8h-91q-9 0 -15 7l-78 100q-3 5 -3 7q0 8 11 8h112q10 0 14 -8l59 -100z" />
    <glyph glyph-name="iacute" unicode="&#xed;" horiz-adv-x="197" 
d="M19.5 3.5q-3.5 3.5 -3.5 8.5v493q0 5 3.5 8.5t8.5 3.5h142q5 0 8.5 -3.5t3.5 -8.5v-493q0 -5 -3.5 -8.5t-8.5 -3.5h-142q-5 0 -8.5 3.5zM27 582q-3 4 1 10l59 100q4 8 14 8h112q10 0 10 -7q0 -3 -3 -8l-78 -100q-6 -7 -15 -7h-90q-7 0 -10 4z" />
    <glyph glyph-name="icircumflex" unicode="&#xee;" horiz-adv-x="197" 
d="M19.5 3.5q-3.5 3.5 -3.5 8.5v493q0 5 3.5 8.5t8.5 3.5h142q5 0 8.5 -3.5t3.5 -8.5v-493q0 -5 -3.5 -8.5t-8.5 -3.5h-142q-5 0 -8.5 3.5zM-60.5 575.5q-2.5 3.5 1.5 10.5l63 106q4 8 14 8h154q10 0 14 -8l66 -106q2 -6 2 -7q0 -7 -10 -7h-105q-10 0 -14 9l-26 51
q-3 5 -6 0l-26 -51q-5 -9 -14 -9h-104q-7 0 -9.5 3.5z" />
    <glyph glyph-name="idieresis" unicode="&#xef;" horiz-adv-x="197" 
d="M19.5 3.5q-3.5 3.5 -3.5 8.5v493q0 5 3.5 8.5t8.5 3.5h142q5 0 8.5 -3.5t3.5 -8.5v-493q0 -5 -3.5 -8.5t-8.5 -3.5h-142q-5 0 -8.5 3.5zM134.5 587.5q-24.5 24.5 -24.5 62.5q0 39 24.5 63t62.5 24t62 -24t24 -63q0 -38 -24.5 -62.5t-61.5 -24.5q-38 0 -62.5 24.5z
M-62.5 587.5q-24.5 24.5 -24.5 62.5q0 39 24.5 63t62.5 24t62 -24t24 -63q0 -38 -24.5 -62.5t-61.5 -24.5q-38 0 -62.5 24.5z" />
    <glyph glyph-name="eth" unicode="&#xf0;" horiz-adv-x="456" 
d="M428 597q0 -8 -10 -11l-49 -12q-6 -2 -3 -6q31 -62 46 -123t16 -128v-152q0 -82 -53 -127.5t-149 -45.5t-149 45.5t-53 127.5v152q0 50 23 90t63 62t87 22q28 0 46 -9q2 -2 3.5 -1t0.5 4q-6 16 -23 51q-2 4 -6 3l-77 -18l-4 -1q-8 0 -11 10l-11 44l-1 4q0 8 10 11l56 14
q6 2 3 6q-22 37 -49 76q-3 5 -3 7q0 4 3 6t8 2h134q8 0 12 -5q1 -1 1.5 -2.5t2.5 -2.5q24 -37 32 -48q1 -2 2.5 -3t3.5 0l72 18l4 1q8 0 11 -10l10 -47zM252 336q-10 12 -26 12t-26 -12.5t-10 -31.5v-126q0 -19 10 -31.5t26 -12.5t26 12t10 32v126q0 20 -10 32z" />
    <glyph glyph-name="ntilde" unicode="&#xf1;" horiz-adv-x="455" 
d="M170 591q-3 -5 -8 -6.5t-9 2.5l-49 36q-8 6 -5 16q11 38 35.5 57t54.5 19t64 -23q3 -2 14 -9.5t25 -7.5q23 0 33 18q9 12 17 5l48 -35q9 -6 5 -16q-17 -37 -44 -53t-55 -16q-22 0 -53 16q-7 4 -15 9t-13.5 7t-11.5 2q-20 0 -33 -21zM394 479q34 -46 34 -130v-337
q0 -5 -3.5 -8.5t-8.5 -3.5h-142q-5 0 -8.5 3.5t-3.5 8.5v326q0 45 -32 45q-17 0 -26 -12t-9 -34v-325q0 -5 -3.5 -8.5t-8.5 -3.5h-142q-5 0 -8.5 3.5t-3.5 8.5v493q0 5 3.5 8.5t8.5 3.5h142q5 0 8.5 -3.5t3.5 -8.5v-20q0 -2 2 -2q4 0 8 6q30 36 84 36q71 0 105 -46z" />
    <glyph glyph-name="ograve" unicode="&#xf2;" horiz-adv-x="452" 
d="M77 38q-53 46 -53 127v187q0 78 53.5 125.5t148.5 47.5t148.5 -47t53.5 -126v-187q0 -81 -53 -127t-149 -46t-149 46zM252 147q10 12 10 32v160q0 19 -10 31.5t-26 12.5t-26 -12.5t-10 -31.5v-160q0 -20 10 -32t26 -12t26 12zM280 586q0 -8 -11 -8h-91q-9 0 -15 7
l-78 100q-3 5 -3 7q0 8 11 8h112q10 0 14 -8l59 -100z" />
    <glyph glyph-name="oacute" unicode="&#xf3;" horiz-adv-x="452" 
d="M77 38q-53 46 -53 127v187q0 78 53.5 125.5t148.5 47.5t148.5 -47t53.5 -126v-187q0 -81 -53 -127t-149 -46t-149 46zM252 147q10 12 10 32v160q0 19 -10 31.5t-26 12.5t-26 -12.5t-10 -31.5v-160q0 -20 10 -32t26 -12t26 12zM155 582q-3 4 1 10l59 100q4 8 14 8h112
q10 0 10 -7q0 -3 -3 -8l-78 -100q-6 -7 -15 -7h-90q-7 0 -10 4z" />
    <glyph glyph-name="ocircumflex" unicode="&#xf4;" horiz-adv-x="452" 
d="M77 38q-53 46 -53 127v187q0 78 53.5 125.5t148.5 47.5t148.5 -47t53.5 -126v-187q0 -81 -53 -127t-149 -46t-149 46zM252 147q10 12 10 32v160q0 19 -10 31.5t-26 12.5t-26 -12.5t-10 -31.5v-160q0 -20 10 -32t26 -12t26 12zM67.5 575.5q-2.5 3.5 1.5 10.5l63 106
q4 8 14 8h154q10 0 14 -8l66 -106q2 -6 2 -7q0 -7 -10 -7h-105q-10 0 -14 9l-26 51q-3 5 -6 0l-26 -51q-5 -9 -14 -9h-104q-7 0 -9.5 3.5z" />
    <glyph glyph-name="otilde" unicode="&#xf5;" horiz-adv-x="452" 
d="M77 38q-53 46 -53 127v187q0 78 53.5 125.5t148.5 47.5t148.5 -47t53.5 -126v-187q0 -81 -53 -127t-149 -46t-149 46zM252 147q10 12 10 32v160q0 19 -10 31.5t-26 12.5t-26 -12.5t-10 -31.5v-160q0 -20 10 -32t26 -12t26 12zM240 594q-8 4 -14.5 8.5t-13 7t-13.5 2.5
q-20 0 -33 -21q-3 -5 -8 -6.5t-9 2.5l-51 36q-8 6 -5 16q13 38 37.5 57t54.5 19q31 0 66 -23q2 -2 9.5 -6.5t15 -7.5t15.5 -3q22 0 34 18q7 11 16 5l50 -35q5 -3 5 -10q0 -6 -4 -13q-17 -33 -43 -47.5t-54 -14.5q-23 0 -55 16z" />
    <glyph glyph-name="odieresis" unicode="&#xf6;" horiz-adv-x="452" 
d="M77 38q-53 46 -53 127v187q0 78 53.5 125.5t148.5 47.5t148.5 -47t53.5 -126v-187q0 -81 -53 -127t-149 -46t-149 46zM252 147q10 12 10 32v160q0 19 -10 31.5t-26 12.5t-26 -12.5t-10 -31.5v-160q0 -20 10 -32t26 -12t26 12zM262.5 587.5q-24.5 24.5 -24.5 62.5
q0 39 24.5 63t62.5 24t62 -24t24 -63q0 -38 -24.5 -62.5t-61.5 -24.5q-38 0 -62.5 24.5zM65.5 587.5q-24.5 24.5 -24.5 62.5q0 39 24.5 63t62.5 24t62 -24t24 -63q0 -38 -24.5 -62.5t-61.5 -24.5q-38 0 -62.5 24.5z" />
    <glyph glyph-name="divide" unicode="&#xf7;" horiz-adv-x="437" 
d="M166 428.5q-22 21.5 -22 52.5t22 52.5t53 21.5q30 0 52 -21.5t22 -52.5t-22 -52.5t-52 -21.5q-31 0 -53 21.5zM24.5 247.5q-3.5 3.5 -3.5 8.5v100q0 5 3.5 8.5t8.5 3.5h371q5 0 8.5 -3.5t3.5 -8.5v-100q0 -5 -3.5 -8.5t-8.5 -3.5h-371q-5 0 -8.5 3.5zM166 84
q-22 22 -22 53q0 30 22 52t53 22q30 0 52 -22t22 -52q0 -31 -22 -53t-52 -22q-31 0 -53 22z" />
    <glyph glyph-name="oslash" unicode="&#xf8;" horiz-adv-x="459" 
d="M440 508l-35 -62q-1 -3 0 -6q22 -38 22 -88v-187q0 -81 -53 -127t-149 -46q-37 0 -72 8q-4 2 -6 -3l-30 -55q-3 -5 -7.5 -6t-9.5 2l-81 51q-9 6 -4 16l32 60q1 4 0 6q-24 41 -24 94v187q0 78 53.5 125.5t148.5 47.5q38 0 76 -10q5 -1 6 3l29 53q3 5 7.5 6.5t9.5 -1.5
l83 -52q10 -7 4 -16zM251 370.5q-10 12.5 -26 12.5t-26 -12.5t-10 -31.5v-160q0 -20 10 -32t26 -12t26 12t10 32v160q0 19 -10 31.5z" />
    <glyph glyph-name="ugrave" unicode="&#xf9;" horiz-adv-x="455" 
d="M263.5 513.5q3.5 3.5 8.5 3.5h142q5 0 8.5 -3.5t3.5 -8.5v-493q0 -5 -3.5 -8.5t-8.5 -3.5h-142q-5 0 -8.5 3.5t-3.5 8.5v13q0 3 -2 3.5t-4 -2.5q-15 -19 -36.5 -26.5t-50.5 -7.5q-60 0 -100 37t-40 114v362q0 5 3.5 8.5t8.5 3.5h142q5 0 8.5 -3.5t3.5 -8.5v-325
q0 -45 32 -45q17 0 26 12t9 34v324q0 5 3.5 8.5zM279 586q0 -8 -11 -8h-91q-9 0 -15 7l-78 100q-3 5 -3 7q0 8 11 8h112q10 0 14 -8l59 -100z" />
    <glyph glyph-name="uacute" unicode="&#xfa;" horiz-adv-x="455" 
d="M263.5 513.5q3.5 3.5 8.5 3.5h142q5 0 8.5 -3.5t3.5 -8.5v-493q0 -5 -3.5 -8.5t-8.5 -3.5h-142q-5 0 -8.5 3.5t-3.5 8.5v13q0 3 -2 3.5t-4 -2.5q-15 -19 -36.5 -26.5t-50.5 -7.5q-60 0 -100 37t-40 114v362q0 5 3.5 8.5t8.5 3.5h142q5 0 8.5 -3.5t3.5 -8.5v-325
q0 -45 32 -45q17 0 26 12t9 34v324q0 5 3.5 8.5zM153 582q-3 4 1 10l59 100q4 8 14 8h112q10 0 10 -7q0 -3 -3 -8l-78 -100q-6 -7 -15 -7h-90q-7 0 -10 4z" />
    <glyph glyph-name="ucircumflex" unicode="&#xfb;" horiz-adv-x="455" 
d="M263.5 513.5q3.5 3.5 8.5 3.5h142q5 0 8.5 -3.5t3.5 -8.5v-493q0 -5 -3.5 -8.5t-8.5 -3.5h-142q-5 0 -8.5 3.5t-3.5 8.5v13q0 3 -2 3.5t-4 -2.5q-15 -19 -36.5 -26.5t-50.5 -7.5q-60 0 -100 37t-40 114v362q0 5 3.5 8.5t8.5 3.5h142q5 0 8.5 -3.5t3.5 -8.5v-325
q0 -45 32 -45q17 0 26 12t9 34v324q0 5 3.5 8.5zM66.5 575.5q-2.5 3.5 1.5 10.5l63 106q4 8 14 8h154q10 0 14 -8l66 -106q2 -6 2 -7q0 -7 -10 -7h-105q-10 0 -14 9l-26 51q-3 5 -6 0l-26 -51q-5 -9 -14 -9h-104q-7 0 -9.5 3.5z" />
    <glyph glyph-name="udieresis" unicode="&#xfc;" horiz-adv-x="455" 
d="M263.5 513.5q3.5 3.5 8.5 3.5h142q5 0 8.5 -3.5t3.5 -8.5v-493q0 -5 -3.5 -8.5t-8.5 -3.5h-142q-5 0 -8.5 3.5t-3.5 8.5v13q0 3 -2 3.5t-4 -2.5q-15 -19 -36.5 -26.5t-50.5 -7.5q-60 0 -100 37t-40 114v362q0 5 3.5 8.5t8.5 3.5h142q5 0 8.5 -3.5t3.5 -8.5v-325
q0 -45 32 -45q17 0 26 12t9 34v324q0 5 3.5 8.5zM261.5 587.5q-24.5 24.5 -24.5 62.5q0 39 24.5 63t62.5 24t62 -24t24 -63q0 -38 -24.5 -62.5t-61.5 -24.5q-38 0 -62.5 24.5zM64.5 587.5q-24.5 24.5 -24.5 62.5q0 39 24.5 63t62.5 24t62 -24t24 -63q0 -38 -24.5 -62.5
t-61.5 -24.5q-38 0 -62.5 24.5z" />
    <glyph glyph-name="yacute" unicode="&#xfd;" horiz-adv-x="442" 
d="M30 -187v112q0 12 9 12q54 0 77 12t22 48l-1 6l-126 502v4q0 9 11 9h153q11 0 12 -11l32 -263q0 -3 3 -2.5t3 3.5l30 262q1 11 12 11l153 -2q14 0 11 -13l-129 -513q-21 -75 -45.5 -113.5t-73.5 -57t-141 -18.5h-6q-6 0 -6 12zM149 582q-3 4 1 10l59 100q4 8 14 8h112
q10 0 10 -7q0 -3 -3 -8l-78 -100q-6 -7 -15 -7h-90q-7 0 -10 4z" />
    <glyph glyph-name="thorn" unicode="&#xfe;" horiz-adv-x="451" 
d="M427 352v-187q0 -173 -136 -173q-62 0 -92 48q-2 3 -4 2.5t-2 -4.5v-226q0 -5 -3.5 -8.5t-8.5 -3.5h-142q-5 0 -8.5 3.5t-3.5 8.5v876q0 5 3.5 8.5t8.5 3.5h142q5 0 8.5 -3.5t3.5 -8.5v-210q0 -2 2 -2q4 0 8 7q30 42 88 42q136 0 136 -173zM252 371q-9 12 -24 12
q-16 0 -25.5 -12t-9.5 -32v-161q0 -20 9.5 -32t25.5 -12q15 0 24 12t9 32v161q0 20 -9 32z" />
    <glyph glyph-name="ydieresis" unicode="&#xff;" horiz-adv-x="442" 
d="M30 -187v112q0 12 9 12q54 0 77 12t22 48l-1 6l-126 502v4q0 9 11 9h153q11 0 12 -11l32 -263q0 -3 3 -2.5t3 3.5l30 262q1 11 12 11l153 -2q14 0 11 -13l-129 -513q-21 -75 -45.5 -113.5t-73.5 -57t-141 -18.5h-6q-6 0 -6 12zM256.5 587.5q-24.5 24.5 -24.5 62.5
q0 39 24.5 63t62.5 24t62 -24t24 -63q0 -38 -24.5 -62.5t-61.5 -24.5q-38 0 -62.5 24.5zM59.5 587.5q-24.5 24.5 -24.5 62.5q0 39 24.5 63t62.5 24t62 -24t24 -63q0 -38 -24.5 -62.5t-61.5 -24.5q-38 0 -62.5 24.5z" />
    <glyph glyph-name="Amacron" unicode="&#x100;" horiz-adv-x="508" 
d="M325 11l-13 87q0 5 -6 5h-108q-6 0 -6 -5l-12 -87q-1 -11 -13 -11h-142q-13 0 -10 13l145 676q2 11 13 11h163q11 0 13 -11l144 -676l1 -4q0 -9 -11 -9h-145q-12 0 -13 11zM218 231h67q4 0 4 5l-36 228q-1 4 -3 4t-3 -4l-33 -228q0 -5 4 -5zM140.5 762.5
q-3.5 3.5 -3.5 8.5v88q0 5 3.5 8.5t8.5 3.5h202q5 0 8.5 -3.5t3.5 -8.5v-88q0 -5 -3.5 -8.5t-8.5 -3.5h-202q-5 0 -8.5 3.5z" />
    <glyph glyph-name="amacron" unicode="&#x101;" horiz-adv-x="457" 
d="M376.5 479q56.5 -46 56.5 -121v-346q0 -5 -3.5 -8.5t-8.5 -3.5h-142q-5 0 -8.5 3.5t-3.5 8.5v24q0 3 -2 3.5t-4 -2.5q-34 -45 -106 -45q-138 0 -138 157q0 67 25 102t68.5 46.5t111.5 11.5h40q5 0 5 5v24q0 20 -11 32.5t-28 12.5q-13 0 -21.5 -7.5t-11.5 -21.5
q-1 -12 -12 -12l-146 1q-12 0 -12 12q5 79 60.5 124.5t142.5 45.5q92 0 148.5 -46zM253 126.5q14 11.5 14 29.5v37q0 5 -5 5h-30q-20 0 -32.5 -12t-12.5 -32q0 -19 10 -29t25 -10q17 0 31 11.5zM114.5 579.5q-3.5 3.5 -3.5 8.5v88q0 5 3.5 8.5t8.5 3.5h202q5 0 8.5 -3.5
t3.5 -8.5v-88q0 -5 -3.5 -8.5t-8.5 -3.5h-202q-5 0 -8.5 3.5z" />
    <glyph glyph-name="Abreve" unicode="&#x102;" horiz-adv-x="508" 
d="M325 11l-13 87q0 5 -6 5h-108q-6 0 -6 -5l-12 -87q-1 -11 -13 -11h-142q-13 0 -10 13l145 676q2 11 13 11h163q11 0 13 -11l144 -676l1 -4q0 -9 -11 -9h-145q-12 0 -13 11zM218 231h67q4 0 4 5l-36 228q-1 4 -3 4t-3 -4l-33 -228q0 -5 4 -5zM167.5 759q-33.5 30 -38.5 80
q0 12 12 12h61q12 0 13 -12q2 -18 13 -29t27 -11t26.5 11t13.5 29q2 12 13 12h61q12 0 12 -12q-5 -50 -39 -80t-87 -30q-54 0 -87.5 30z" />
    <glyph glyph-name="abreve" unicode="&#x103;" horiz-adv-x="457" 
d="M376.5 479q56.5 -46 56.5 -121v-346q0 -5 -3.5 -8.5t-8.5 -3.5h-142q-5 0 -8.5 3.5t-3.5 8.5v24q0 3 -2 3.5t-4 -2.5q-34 -45 -106 -45q-138 0 -138 157q0 67 25 102t68.5 46.5t111.5 11.5h40q5 0 5 5v24q0 20 -11 32.5t-28 12.5q-13 0 -21.5 -7.5t-11.5 -21.5
q-1 -12 -12 -12l-146 1q-12 0 -12 12q5 79 60.5 124.5t142.5 45.5q92 0 148.5 -46zM253 126.5q14 11.5 14 29.5v37q0 5 -5 5h-30q-20 0 -32.5 -12t-12.5 -32q0 -19 10 -29t25 -10q17 0 31 11.5zM141.5 576q-33.5 30 -38.5 80q0 12 12 12h61q12 0 13 -12q2 -18 13 -29t27 -11
t26.5 11t13.5 29q2 12 13 12h61q12 0 12 -12q-5 -50 -39 -80t-87 -30q-54 0 -87.5 30z" />
    <glyph glyph-name="Aogonek" unicode="&#x104;" horiz-adv-x="508" 
d="M325 11l-13 87q0 5 -6 5h-108q-6 0 -6 -5l-12 -87q-1 -11 -13 -11h-142q-13 0 -10 13l145 676q2 11 13 11h163q11 0 13 -11l144 -676l1 -4q0 -9 -11 -9h-145q-12 0 -13 11zM218 231h67q4 0 4 5l-36 228q-1 4 -3 4t-3 -4l-33 -228q0 -5 4 -5zM491 -173q0 -8 -9 -12
q-26 -8 -53 -8q-74 0 -89 63q-3 13 -3 27q0 52 44 97q6 6 15 6h78q10 0 10 -6q0 -4 -5 -9q-21 -19 -30.5 -37t-6.5 -32q5 -23 28 -21h3q10 0 11 -9l7 -56v-3z" />
    <glyph glyph-name="aogonek" unicode="&#x105;" horiz-adv-x="457" 
d="M426 -6q-54 -46 -47 -78q5 -23 28 -21h3q10 0 11 -9l7 -56v-3q0 -8 -9 -12q-26 -8 -53 -8q-32 0 -57 14.5t-33 48.5q-3 13 -3 27q0 52 45 97q2 2 1 4t-4 2h-36q-5 0 -8.5 3.5t-3.5 8.5v24q0 3 -2 3.5t-4 -2.5q-34 -45 -106 -45q-138 0 -138 157q0 67 25 102t68.5 46.5
t111.5 11.5h40q5 0 5 5v24q0 20 -11 32.5t-28 12.5q-13 0 -21.5 -7.5t-11.5 -21.5q-1 -12 -12 -12l-146 1q-12 0 -12 12q5 79 60.5 124.5t142.5 45.5q92 0 148.5 -46t56.5 -121v-349q0 -9 -7 -15zM253 126.5q14 11.5 14 29.5v37q0 5 -5 5h-30q-20 0 -32.5 -12t-12.5 -32
q0 -19 10 -29t25 -10q17 0 31 11.5z" />
    <glyph glyph-name="Cacute" unicode="&#x106;" horiz-adv-x="470" 
d="M84 48q-57 56 -57 149v307q0 94 57 149t152 55t152.5 -55t57.5 -149v-9q0 -5 -3.5 -8.5t-8.5 -3.5l-142 -6q-12 0 -12 12v27q0 23 -12 36.5t-32 13.5q-19 0 -31 -13.5t-12 -36.5v-333q0 -22 12 -35.5t31 -13.5q20 0 32 13.5t12 35.5v29q0 5 3.5 8.5t8.5 3.5l142 -6
q5 0 8.5 -3.5t3.5 -8.5v-9q0 -93 -57.5 -149t-152.5 -56t-152 56zM164 765q-3 4 1 10l59 100q4 8 14 8h112q10 0 10 -7q0 -3 -3 -8l-78 -100q-6 -7 -15 -7h-90q-7 0 -10 4z" />
    <glyph glyph-name="cacute" unicode="&#x107;" horiz-adv-x="445" 
d="M77 37.5q-53 45.5 -53 127.5v187q0 78 53.5 125.5t147.5 47.5t147 -47t53 -123v-22q0 -5 -3.5 -8.5t-8.5 -3.5l-142 -6q-12 0 -12 12v15q0 17 -9.5 29t-24.5 12q-16 0 -25.5 -12t-9.5 -32v-161q0 -20 9.5 -32t25.5 -12q15 0 24.5 12t9.5 30v15q0 5 3.5 8.5t8.5 3.5
l142 -1q5 0 8.5 -3.5t3.5 -8.5v-27q0 -81 -52.5 -126t-147.5 -45t-148 45.5zM153 582q-3 4 1 10l59 100q4 8 14 8h112q10 0 10 -7q0 -3 -3 -8l-78 -100q-6 -7 -15 -7h-90q-7 0 -10 4z" />
    <glyph glyph-name="Ccircumflex" unicode="&#x108;" horiz-adv-x="470" 
d="M84 48q-57 56 -57 149v307q0 94 57 149t152 55t152.5 -55t57.5 -149v-9q0 -5 -3.5 -8.5t-8.5 -3.5l-142 -6q-12 0 -12 12v27q0 23 -12 36.5t-32 13.5q-19 0 -31 -13.5t-12 -36.5v-333q0 -22 12 -35.5t31 -13.5q20 0 32 13.5t12 35.5v29q0 5 3.5 8.5t8.5 3.5l142 -6
q5 0 8.5 -3.5t3.5 -8.5v-9q0 -93 -57.5 -149t-152.5 -56t-152 56zM77.5 758.5q-2.5 3.5 1.5 10.5l63 106q4 8 14 8h154q10 0 14 -8l66 -106q2 -6 2 -7q0 -7 -10 -7h-105q-10 0 -14 9l-26 51q-3 5 -6 0l-26 -51q-5 -9 -14 -9h-104q-7 0 -9.5 3.5z" />
    <glyph glyph-name="ccircumflex" unicode="&#x109;" horiz-adv-x="445" 
d="M77 37.5q-53 45.5 -53 127.5v187q0 78 53.5 125.5t147.5 47.5t147 -47t53 -123v-22q0 -5 -3.5 -8.5t-8.5 -3.5l-142 -6q-12 0 -12 12v15q0 17 -9.5 29t-24.5 12q-16 0 -25.5 -12t-9.5 -32v-161q0 -20 9.5 -32t25.5 -12q15 0 24.5 12t9.5 30v15q0 5 3.5 8.5t8.5 3.5
l142 -1q5 0 8.5 -3.5t3.5 -8.5v-27q0 -81 -52.5 -126t-147.5 -45t-148 45.5zM65.5 575.5q-2.5 3.5 1.5 10.5l63 106q4 8 14 8h154q10 0 14 -8l66 -106q2 -6 2 -7q0 -7 -10 -7h-105q-10 0 -14 9l-26 51q-3 5 -6 0l-26 -51q-5 -9 -14 -9h-104q-7 0 -9.5 3.5z" />
    <glyph glyph-name="Cdotaccent" unicode="&#x10a;" horiz-adv-x="470" 
d="M84 48q-57 56 -57 149v307q0 94 57 149t152 55t152.5 -55t57.5 -149v-9q0 -5 -3.5 -8.5t-8.5 -3.5l-142 -6q-12 0 -12 12v27q0 23 -12 36.5t-32 13.5q-19 0 -31 -13.5t-12 -36.5v-333q0 -22 12 -35.5t31 -13.5q20 0 32 13.5t12 35.5v29q0 5 3.5 8.5t8.5 3.5l142 -6
q5 0 8.5 -3.5t3.5 -8.5v-9q0 -93 -57.5 -149t-152.5 -56t-152 56zM174.5 770.5q-24.5 24.5 -24.5 62.5q0 39 24.5 63t62.5 24t62 -24t24 -63q0 -38 -24.5 -62.5t-61.5 -24.5q-38 0 -62.5 24.5z" />
    <glyph glyph-name="cdotaccent" unicode="&#x10b;" horiz-adv-x="445" 
d="M77 37.5q-53 45.5 -53 127.5v187q0 78 53.5 125.5t147.5 47.5t147 -47t53 -123v-22q0 -5 -3.5 -8.5t-8.5 -3.5l-142 -6q-12 0 -12 12v15q0 17 -9.5 29t-24.5 12q-16 0 -25.5 -12t-9.5 -32v-161q0 -20 9.5 -32t25.5 -12q15 0 24.5 12t9.5 30v15q0 5 3.5 8.5t8.5 3.5
l142 -1q5 0 8.5 -3.5t3.5 -8.5v-27q0 -81 -52.5 -126t-147.5 -45t-148 45.5zM162.5 587.5q-24.5 24.5 -24.5 62.5q0 39 24.5 63t62.5 24t62 -24t24 -63q0 -38 -24.5 -62.5t-61.5 -24.5q-38 0 -62.5 24.5z" />
    <glyph glyph-name="Ccaron" unicode="&#x10c;" horiz-adv-x="470" 
d="M84 48q-57 56 -57 149v307q0 94 57 149t152 55t152.5 -55t57.5 -149v-9q0 -5 -3.5 -8.5t-8.5 -3.5l-142 -6q-12 0 -12 12v27q0 23 -12 36.5t-32 13.5q-19 0 -31 -13.5t-12 -36.5v-333q0 -22 12 -35.5t31 -13.5q20 0 32 13.5t12 35.5v29q0 5 3.5 8.5t8.5 3.5l142 -6
q5 0 8.5 -3.5t3.5 -8.5v-9q0 -93 -57.5 -149t-152.5 -56t-152 56zM83 876q0 7 10 7h104q10 0 14 -9l26 -51q3 -4 6 0l26 51q5 9 14 9h105q7 0 9.5 -3.5t-1.5 -10.5l-66 -106q-4 -8 -14 -8h-154q-10 0 -14 8l-63 106q-2 6 -2 7z" />
    <glyph glyph-name="ccaron" unicode="&#x10d;" horiz-adv-x="445" 
d="M77 37.5q-53 45.5 -53 127.5v187q0 78 53.5 125.5t147.5 47.5t147 -47t53 -123v-22q0 -5 -3.5 -8.5t-8.5 -3.5l-142 -6q-12 0 -12 12v15q0 17 -9.5 29t-24.5 12q-16 0 -25.5 -12t-9.5 -32v-161q0 -20 9.5 -32t25.5 -12q15 0 24.5 12t9.5 30v15q0 5 3.5 8.5t8.5 3.5
l142 -1q5 0 8.5 -3.5t3.5 -8.5v-27q0 -81 -52.5 -126t-147.5 -45t-148 45.5zM72 693q0 7 10 7h104q10 0 14 -9l26 -51q3 -4 6 0l26 51q5 9 14 9h105q7 0 9.5 -3.5t-1.5 -10.5l-66 -106q-4 -8 -14 -8h-154q-10 0 -14 8l-63 106q-2 6 -2 7z" />
    <glyph glyph-name="Dcaron" unicode="&#x10e;" horiz-adv-x="480" 
d="M38.5 3.5q-3.5 3.5 -3.5 8.5v676q0 5 3.5 8.5t8.5 3.5h191q96 0 154 -54t58 -143v-306q0 -89 -58 -143t-154 -54h-191q-5 0 -8.5 3.5zM206 142l28 1q21 1 35 18.5t15 46.5v284q0 30 -14 48t-37 18h-27q-5 0 -5 -5v-406q0 -5 5 -5zM77 875q0 7 10 7h104q10 0 14 -9l26 -51
q3 -4 6 0l26 51q5 9 14 9h105q7 0 9.5 -3.5t-1.5 -10.5l-66 -106q-4 -8 -14 -8h-154q-10 0 -14 8l-63 106q-2 6 -2 7z" />
    <glyph glyph-name="dcaron" unicode="&#x10f;" horiz-adv-x="453" 
d="M261.5 696.5q3.5 3.5 8.5 3.5h142q5 0 8.5 -3.5t3.5 -8.5v-676q0 -5 -3.5 -8.5t-8.5 -3.5h-142q-5 0 -8.5 3.5t-3.5 8.5v20q0 3 -2 3.5t-4 -1.5q-33 -42 -91 -42q-137 0 -137 173v187q0 173 137 173q58 0 91 -44q2 -3 4 -2.5t2 3.5v206q0 5 3.5 8.5zM248.5 146
q9.5 12 9.5 32v161q0 20 -9.5 32t-25.5 12q-15 0 -24 -12t-9 -32v-161q0 -20 9 -32t24 -12q16 0 25.5 12zM457 582q-3 4 1 10l59 100q4 8 14 8h112q10 0 10 -7q0 -3 -3 -8l-78 -100q-6 -7 -15 -7h-90q-7 0 -10 4z" />
    <glyph glyph-name="Dcroat" unicode="&#x110;" horiz-adv-x="506" 
d="M418 646q58 -54 58 -143v-306q0 -89 -58 -143t-154 -54h-191q-5 0 -8.5 3.5t-3.5 8.5v302q0 5 -5 5h-9q-5 0 -8.5 3.5t-3.5 8.5v70q0 5 3.5 8.5t8.5 3.5h9q5 0 5 5v270q0 5 3.5 8.5t8.5 3.5h191q96 0 154 -54zM310 492q0 30 -14 48t-37 18h-27q-5 0 -5 -5v-135q0 -5 5 -5
h25q5 0 8.5 -3.5t3.5 -8.5v-70q0 -5 -3.5 -8.5t-8.5 -3.5h-25q-5 0 -5 -5v-167q0 -5 5 -5l28 1q21 1 35 18.5t15 46.5v284z" />
    <glyph glyph-name="dcroat" unicode="&#x111;" horiz-adv-x="453" 
d="M457.5 645.5q3.5 -3.5 3.5 -8.5v-74q0 -5 -3.5 -8.5t-8.5 -3.5h-20q-5 0 -5 -5v-534q0 -5 -3.5 -8.5t-8.5 -3.5h-142q-5 0 -8.5 3.5t-3.5 8.5v20q0 3 -2 3.5t-4 -1.5q-33 -42 -91 -42q-137 0 -137 173v187q0 173 137 173q58 0 91 -44q2 -3 4 -2.5t2 3.5v64q0 5 -5 5h-72
q-5 0 -8.5 3.5t-3.5 8.5v74q0 5 3.5 8.5t8.5 3.5h72q5 0 5 5v34q0 5 3.5 8.5t8.5 3.5h142q5 0 8.5 -3.5t3.5 -8.5v-34q0 -5 5 -5h20q5 0 8.5 -3.5zM248.5 146q9.5 12 9.5 32v161q0 20 -9.5 32t-25.5 12q-15 0 -24 -12t-9 -32v-161q0 -20 9 -32t24 -12q16 0 25.5 12z" />
    <glyph glyph-name="Emacron" unicode="&#x112;" horiz-adv-x="441" 
d="M415.5 561.5q-3.5 -3.5 -8.5 -3.5h-201q-5 0 -5 -5v-126q0 -5 5 -5h110q5 0 8.5 -3.5t3.5 -8.5v-119q0 -5 -3.5 -8.5t-8.5 -3.5h-110q-5 0 -5 -5v-127q0 -5 5 -5h201q5 0 8.5 -3.5t3.5 -8.5v-118q0 -5 -3.5 -8.5t-8.5 -3.5h-360q-5 0 -8.5 3.5t-3.5 8.5v676q0 5 3.5 8.5
t8.5 3.5h360q5 0 8.5 -3.5t3.5 -8.5v-118q0 -5 -3.5 -8.5zM113.5 762.5q-3.5 3.5 -3.5 8.5v88q0 5 3.5 8.5t8.5 3.5h202q5 0 8.5 -3.5t3.5 -8.5v-88q0 -5 -3.5 -8.5t-8.5 -3.5h-202q-5 0 -8.5 3.5z" />
    <glyph glyph-name="emacron" unicode="&#x113;" horiz-adv-x="446" 
d="M421.5 216.5q-3.5 -3.5 -8.5 -3.5h-218q-5 0 -5 -5v-30q0 -20 9.5 -32t25.5 -12q14 0 23 10t12 25q1 11 13 11l138 -8q5 0 8.5 -3.5t2.5 -9.5q-9 -167 -197 -167q-95 0 -148 45.5t-53 127.5v187q0 78 53.5 125.5t147.5 47.5t147 -47t53 -126v-127q0 -5 -3.5 -8.5z
M199.5 371q-9.5 -12 -9.5 -32v-31q0 -5 5 -5h59q5 0 5 5v31q0 19 -9.5 31.5t-24.5 12.5q-16 0 -25.5 -12zM109.5 587.5q-3.5 3.5 -3.5 8.5v87q0 5 3.5 8.5t8.5 3.5h202q5 0 8.5 -3.5t3.5 -8.5v-87q0 -5 -3.5 -8.5t-8.5 -3.5h-202q-5 0 -8.5 3.5z" />
    <glyph glyph-name="Edotaccent" unicode="&#x116;" horiz-adv-x="441" 
d="M415.5 561.5q-3.5 -3.5 -8.5 -3.5h-201q-5 0 -5 -5v-126q0 -5 5 -5h110q5 0 8.5 -3.5t3.5 -8.5v-119q0 -5 -3.5 -8.5t-8.5 -3.5h-110q-5 0 -5 -5v-127q0 -5 5 -5h201q5 0 8.5 -3.5t3.5 -8.5v-118q0 -5 -3.5 -8.5t-8.5 -3.5h-360q-5 0 -8.5 3.5t-3.5 8.5v676q0 5 3.5 8.5
t8.5 3.5h360q5 0 8.5 -3.5t3.5 -8.5v-118q0 -5 -3.5 -8.5zM165.5 770.5q-24.5 24.5 -24.5 62.5q0 39 24.5 63t62.5 24t62 -24t24 -63q0 -38 -24.5 -62.5t-61.5 -24.5q-38 0 -62.5 24.5z" />
    <glyph glyph-name="edotaccent" unicode="&#x117;" horiz-adv-x="446" 
d="M421.5 216.5q-3.5 -3.5 -8.5 -3.5h-218q-5 0 -5 -5v-30q0 -20 9.5 -32t25.5 -12q14 0 23 10t12 25q1 11 13 11l138 -8q5 0 8.5 -3.5t2.5 -9.5q-9 -167 -197 -167q-95 0 -148 45.5t-53 127.5v187q0 78 53.5 125.5t147.5 47.5t147 -47t53 -126v-127q0 -5 -3.5 -8.5z
M199.5 371q-9.5 -12 -9.5 -32v-31q0 -5 5 -5h59q5 0 5 5v31q0 19 -9.5 31.5t-24.5 12.5q-16 0 -25.5 -12zM161.5 587.5q-24.5 24.5 -24.5 62.5q0 39 24.5 63t62.5 24t62 -24t24 -63q0 -38 -24.5 -62.5t-61.5 -24.5q-38 0 -62.5 24.5z" />
    <glyph glyph-name="Eogonek" unicode="&#x118;" horiz-adv-x="441" 
d="M415.5 561.5q-3.5 -3.5 -8.5 -3.5h-201q-5 0 -5 -5v-126q0 -5 5 -5h110q5 0 8.5 -3.5t3.5 -8.5v-119q0 -5 -3.5 -8.5t-8.5 -3.5h-110q-5 0 -5 -5v-127q0 -5 5 -5h201q5 0 8.5 -3.5t3.5 -8.5v-118q0 -5 -3.5 -8.5t-8.5 -3.5h-127q-3 0 -7 -2q-48 -43 -40 -73q6 -20 23 -20
h8q5 0 7.5 -1.5t3.5 -7.5l7 -57v-3q0 -8 -9 -11q-26 -8 -53 -8q-32 0 -56.5 14t-33.5 48q-3 13 -3 27q0 48 36 88q2 2 1.5 4t-3.5 2h-114q-5 0 -8.5 3.5t-3.5 8.5v676q0 5 3.5 8.5t8.5 3.5h360q5 0 8.5 -3.5t3.5 -8.5v-118q0 -5 -3.5 -8.5z" />
    <glyph glyph-name="eogonek" unicode="&#x119;" horiz-adv-x="446" 
d="M421.5 216.5q-3.5 -3.5 -8.5 -3.5h-218q-5 0 -5 -5v-30q0 -20 9.5 -32t25.5 -12q14 0 23 10t12 25q1 11 13 11l138 -8q5 0 8.5 -3.5t2.5 -9.5q-9 -143 -144 -164q-2 0 -6 -2q-41 -39 -35 -68q6 -20 23 -20h8q5 0 7.5 -1.5t3.5 -7.5l7 -57v-3q0 -8 -9 -11q-26 -8 -54 -8
q-39 0 -65.5 20.5t-26.5 69.5q0 44 34 85q4 4 -2 6q-67 14 -103 57t-36 110v187q0 78 53.5 125.5t147.5 47.5t147 -47t53 -126v-127q0 -5 -3.5 -8.5zM199.5 371q-9.5 -12 -9.5 -32v-31q0 -5 5 -5h59q5 0 5 5v31q0 19 -9.5 31.5t-24.5 12.5q-16 0 -25.5 -12z" />
    <glyph glyph-name="Ecaron" unicode="&#x11a;" horiz-adv-x="441" 
d="M415.5 561.5q-3.5 -3.5 -8.5 -3.5h-201q-5 0 -5 -5v-126q0 -5 5 -5h110q5 0 8.5 -3.5t3.5 -8.5v-119q0 -5 -3.5 -8.5t-8.5 -3.5h-110q-5 0 -5 -5v-127q0 -5 5 -5h201q5 0 8.5 -3.5t3.5 -8.5v-118q0 -5 -3.5 -8.5t-8.5 -3.5h-360q-5 0 -8.5 3.5t-3.5 8.5v676q0 5 3.5 8.5
t8.5 3.5h360q5 0 8.5 -3.5t3.5 -8.5v-118q0 -5 -3.5 -8.5zM75 876q0 7 10 7h104q10 0 14 -9l26 -51q3 -4 6 0l26 51q5 9 14 9h105q7 0 9.5 -3.5t-1.5 -10.5l-66 -106q-4 -8 -14 -8h-154q-10 0 -14 8l-63 106q-2 6 -2 7z" />
    <glyph glyph-name="ecaron" unicode="&#x11b;" horiz-adv-x="446" 
d="M421.5 216.5q-3.5 -3.5 -8.5 -3.5h-218q-5 0 -5 -5v-30q0 -20 9.5 -32t25.5 -12q14 0 23 10t12 25q1 11 13 11l138 -8q5 0 8.5 -3.5t2.5 -9.5q-9 -167 -197 -167q-95 0 -148 45.5t-53 127.5v187q0 78 53.5 125.5t147.5 47.5t147 -47t53 -126v-127q0 -5 -3.5 -8.5z
M199.5 371q-9.5 -12 -9.5 -32v-31q0 -5 5 -5h59q5 0 5 5v31q0 19 -9.5 31.5t-24.5 12.5q-16 0 -25.5 -12zM68 693q0 7 10 7h104q10 0 14 -9l26 -51q3 -4 6 0l26 51q5 9 14 9h105q7 0 9.5 -3.5t-1.5 -10.5l-66 -106q-4 -8 -14 -8h-154q-10 0 -14 8l-63 106q-2 6 -2 7z" />
    <glyph glyph-name="Gcircumflex" unicode="&#x11c;" horiz-adv-x="473" 
d="M84 45.5q-57 53.5 -57 143.5v323q0 90 57 143t152 53t152.5 -54t57.5 -144v-37q0 -5 -3.5 -8.5t-8.5 -3.5h-142q-5 0 -8.5 3.5t-3.5 8.5v39q0 24 -12 39t-32 15q-19 0 -31 -15t-12 -39v-324q0 -24 12 -39t31 -15q20 0 32 15t12 39v64q0 5 -5 5h-26q-5 0 -8.5 3.5
t-3.5 8.5v106q0 5 3.5 8.5t8.5 3.5h185q5 0 8.5 -3.5t3.5 -8.5v-186q0 -90 -57.5 -143.5t-152.5 -53.5t-152 53.5zM77.5 758.5q-2.5 3.5 1.5 10.5l63 106q4 8 14 8h154q10 0 14 -8l66 -106q2 -6 2 -7q0 -7 -10 -7h-105q-10 0 -14 9l-26 51q-3 5 -6 0l-26 -51q-5 -9 -14 -9
h-104q-7 0 -9.5 3.5z" />
    <glyph glyph-name="gcircumflex" unicode="&#x11d;" horiz-adv-x="451" 
d="M261.5 513.5q3.5 3.5 8.5 3.5h142q5 0 8.5 -3.5t3.5 -8.5v-475q0 -74 -21 -126t-76.5 -82.5t-155.5 -30.5q-16 0 -54 2q-12 1 -12 13v119q0 13 13 11l23 -1q48 0 73 11.5t34 32t10 53.5q0 4 -2.5 4.5t-4.5 -2.5q-31 -40 -90 -40q-70 0 -103.5 45t-33.5 128v185
q0 173 137 173q61 0 91 -45q2 -3 4 -2.5t2 3.5v24q0 5 3.5 8.5zM248.5 149q9.5 12 9.5 31v159q0 20 -9.5 32t-25.5 12q-15 0 -24 -12t-9 -32v-159q0 -20 9 -31.5t24 -11.5q16 0 25.5 12zM68.5 575.5q-2.5 3.5 1.5 10.5l63 106q4 8 14 8h154q10 0 14 -8l66 -106q2 -6 2 -7
q0 -7 -10 -7h-105q-10 0 -14 9l-26 51q-3 5 -6 0l-26 -51q-5 -9 -14 -9h-104q-7 0 -9.5 3.5z" />
    <glyph glyph-name="Gbreve" unicode="&#x11e;" horiz-adv-x="473" 
d="M84 45.5q-57 53.5 -57 143.5v323q0 90 57 143t152 53t152.5 -54t57.5 -144v-37q0 -5 -3.5 -8.5t-8.5 -3.5h-142q-5 0 -8.5 3.5t-3.5 8.5v39q0 24 -12 39t-32 15q-19 0 -31 -15t-12 -39v-324q0 -24 12 -39t31 -15q20 0 32 15t12 39v64q0 5 -5 5h-26q-5 0 -8.5 3.5
t-3.5 8.5v106q0 5 3.5 8.5t8.5 3.5h185q5 0 8.5 -3.5t3.5 -8.5v-186q0 -90 -57.5 -143.5t-152.5 -53.5t-152 53.5zM149.5 759q-33.5 30 -38.5 80q0 12 12 12h61q12 0 13 -12q2 -18 13 -29t27 -11t26.5 11t13.5 29q2 12 13 12h61q12 0 12 -12q-5 -50 -39 -80t-87 -30
q-54 0 -87.5 30z" />
    <glyph glyph-name="gbreve" unicode="&#x11f;" horiz-adv-x="451" 
d="M261.5 513.5q3.5 3.5 8.5 3.5h142q5 0 8.5 -3.5t3.5 -8.5v-475q0 -74 -21 -126t-76.5 -82.5t-155.5 -30.5q-16 0 -54 2q-12 1 -12 13v119q0 13 13 11l23 -1q48 0 73 11.5t34 32t10 53.5q0 4 -2.5 4.5t-4.5 -2.5q-31 -40 -90 -40q-70 0 -103.5 45t-33.5 128v185
q0 173 137 173q61 0 91 -45q2 -3 4 -2.5t2 3.5v24q0 5 3.5 8.5zM248.5 149q9.5 12 9.5 31v159q0 20 -9.5 32t-25.5 12q-15 0 -24 -12t-9 -32v-159q0 -20 9 -31.5t24 -11.5q16 0 25.5 12zM140.5 576q-33.5 30 -38.5 80q0 12 12 12h61q12 0 13 -12q2 -18 13 -29t27 -11
t26.5 11t13.5 29q2 12 13 12h61q12 0 12 -12q-5 -50 -39 -80t-87 -30q-54 0 -87.5 30z" />
    <glyph glyph-name="Gdotaccent" unicode="&#x120;" horiz-adv-x="473" 
d="M84 45.5q-57 53.5 -57 143.5v323q0 90 57 143t152 53t152.5 -54t57.5 -144v-37q0 -5 -3.5 -8.5t-8.5 -3.5h-142q-5 0 -8.5 3.5t-3.5 8.5v39q0 24 -12 39t-32 15q-19 0 -31 -15t-12 -39v-324q0 -24 12 -39t31 -15q20 0 32 15t12 39v64q0 5 -5 5h-26q-5 0 -8.5 3.5
t-3.5 8.5v106q0 5 3.5 8.5t8.5 3.5h185q5 0 8.5 -3.5t3.5 -8.5v-186q0 -90 -57.5 -143.5t-152.5 -53.5t-152 53.5zM174.5 770.5q-24.5 24.5 -24.5 62.5q0 39 24.5 63t62.5 24t62 -24t24 -63q0 -38 -24.5 -62.5t-61.5 -24.5q-38 0 -62.5 24.5z" />
    <glyph glyph-name="gdotaccent" unicode="&#x121;" horiz-adv-x="451" 
d="M261.5 513.5q3.5 3.5 8.5 3.5h142q5 0 8.5 -3.5t3.5 -8.5v-475q0 -74 -21 -126t-76.5 -82.5t-155.5 -30.5q-16 0 -54 2q-12 1 -12 13v119q0 13 13 11l23 -1q48 0 73 11.5t34 32t10 53.5q0 4 -2.5 4.5t-4.5 -2.5q-31 -40 -90 -40q-70 0 -103.5 45t-33.5 128v185
q0 173 137 173q61 0 91 -45q2 -3 4 -2.5t2 3.5v24q0 5 3.5 8.5zM248.5 149q9.5 12 9.5 31v159q0 20 -9.5 32t-25.5 12q-15 0 -24 -12t-9 -32v-159q0 -20 9 -31.5t24 -11.5q16 0 25.5 12zM165.5 587.5q-24.5 24.5 -24.5 62.5q0 39 24.5 63t62.5 24t62 -24t24 -63
q0 -38 -24.5 -62.5t-61.5 -24.5q-38 0 -62.5 24.5z" />
    <glyph glyph-name="uni0122" unicode="&#x122;" horiz-adv-x="473" 
d="M84 45.5q-57 53.5 -57 143.5v323q0 90 57 143t152 53t152.5 -54t57.5 -144v-37q0 -5 -3.5 -8.5t-8.5 -3.5h-142q-5 0 -8.5 3.5t-3.5 8.5v39q0 24 -12 39t-32 15q-19 0 -31 -15t-12 -39v-324q0 -24 12 -39t31 -15q20 0 32 15t12 39v64q0 5 -5 5h-26q-5 0 -8.5 3.5
t-3.5 8.5v106q0 5 3.5 8.5t8.5 3.5h185q5 0 8.5 -3.5t3.5 -8.5v-186q0 -90 -57.5 -143.5t-152.5 -53.5t-152 53.5zM129 -172q-3 4 1 10l59 100q4 8 14 8h112q10 0 10 -7q0 -3 -3 -8l-78 -100q-6 -7 -15 -7h-90q-7 0 -10 4z" />
    <glyph glyph-name="uni0123" unicode="&#x123;" horiz-adv-x="451" 
d="M332 681q3 -4 -1 -10l-59 -100q-4 -8 -14 -8h-112q-10 0 -10 7q0 4 3 8l78 100q6 7 15 7h90q7 0 10 -4zM261.5 513.5q3.5 3.5 8.5 3.5h142q5 0 8.5 -3.5t3.5 -8.5v-475q0 -74 -21 -126t-76.5 -82.5t-155.5 -30.5q-16 0 -54 2q-12 1 -12 13v119q0 13 13 11l23 -1
q48 0 73 11.5t34 32t10 53.5q0 4 -2.5 4.5t-4.5 -2.5q-31 -40 -90 -40q-70 0 -103.5 45t-33.5 128v185q0 173 137 173q61 0 91 -45q2 -3 4 -2.5t2 3.5v24q0 5 3.5 8.5zM248.5 149q9.5 12 9.5 31v159q0 20 -9.5 32t-25.5 12q-15 0 -24 -12t-9 -32v-159q0 -20 9 -31.5
t24 -11.5q16 0 25.5 12z" />
    <glyph glyph-name="Hcircumflex" unicode="&#x124;" horiz-adv-x="483" 
d="M286.5 696.5q3.5 3.5 8.5 3.5h142q5 0 8.5 -3.5t3.5 -8.5v-676q0 -5 -3.5 -8.5t-8.5 -3.5h-142q-5 0 -8.5 3.5t-3.5 8.5v262q0 5 -5 5h-72q-5 0 -5 -5v-262q0 -5 -3.5 -8.5t-8.5 -3.5h-142q-5 0 -8.5 3.5t-3.5 8.5v676q0 5 3.5 8.5t8.5 3.5h142q5 0 8.5 -3.5t3.5 -8.5
v-261q0 -5 5 -5h72q5 0 5 5v261q0 5 3.5 8.5zM82.5 759.5q-2.5 3.5 1.5 10.5l63 106q4 8 14 8h154q10 0 14 -8l66 -106q2 -6 2 -7q0 -7 -10 -7h-105q-10 0 -14 9l-26 51q-3 5 -6 0l-26 -51q-5 -9 -14 -9h-104q-7 0 -9.5 3.5z" />
    <glyph glyph-name="hcircumflex" unicode="&#x125;" horiz-adv-x="455" 
d="M394 479q34 -46 34 -130v-337q0 -5 -3.5 -8.5t-8.5 -3.5h-142q-5 0 -8.5 3.5t-3.5 8.5v326q0 45 -32 45q-17 0 -26 -12t-9 -34v-325q0 -5 -3.5 -8.5t-8.5 -3.5h-142q-5 0 -8.5 3.5t-3.5 8.5v676q0 5 3.5 8.5t8.5 3.5h142q5 0 8.5 -3.5t3.5 -8.5v-203q0 -2 2 -2q4 0 8 6
q30 36 84 36q71 0 105 -46zM85.5 753.5q-2.5 3.5 1.5 10.5l63 106q4 8 14 8h154q10 0 14 -8l66 -106q2 -6 2 -7q0 -7 -10 -7h-105q-10 0 -14 9l-26 51q-3 5 -6 0l-26 -51q-5 -9 -14 -9h-104q-7 0 -9.5 3.5z" />
    <glyph glyph-name="Hbar" unicode="&#x126;" horiz-adv-x="483" 
d="M493.5 614.5q3.5 -3.5 3.5 -8.5v-87q0 -5 -3.5 -8.5t-8.5 -3.5h-31q-5 0 -5 -5v-490q0 -5 -3.5 -8.5t-8.5 -3.5h-142q-5 0 -8.5 3.5t-3.5 8.5v262q0 5 -5 5h-72q-5 0 -5 -5v-262q0 -5 -3.5 -8.5t-8.5 -3.5h-142q-5 0 -8.5 3.5t-3.5 8.5v490q0 5 -5 5h-31q-5 0 -8.5 3.5
t-3.5 8.5v87q0 5 3.5 8.5t8.5 3.5h31q5 0 5 5v65q0 5 3.5 8.5t8.5 3.5h142q5 0 8.5 -3.5t3.5 -8.5v-65q0 -5 5 -5h72q5 0 5 5v65q0 5 3.5 8.5t8.5 3.5h142q5 0 8.5 -3.5t3.5 -8.5v-65q0 -5 5 -5h31q5 0 8.5 -3.5zM283 427v75q0 5 -5 5h-72q-5 0 -5 -5v-75q0 -5 5 -5h72
q5 0 5 5z" />
    <glyph glyph-name="hbar" unicode="&#x127;" horiz-adv-x="455" 
d="M394 479q34 -46 34 -130v-337q0 -5 -3.5 -8.5t-8.5 -3.5h-142q-5 0 -8.5 3.5t-3.5 8.5v326q0 45 -32 45q-17 0 -26 -12t-9 -34v-325q0 -5 -3.5 -8.5t-8.5 -3.5h-142q-5 0 -8.5 3.5t-3.5 8.5v530q0 5 -5 5h-27q-5 0 -8.5 3.5t-3.5 8.5v75q0 5 3.5 8.5t8.5 3.5h27q5 0 5 5
v37q0 5 3.5 8.5t8.5 3.5h142q5 0 8.5 -3.5t3.5 -8.5v-37q0 -5 5 -5h65q5 0 8.5 -3.5t3.5 -8.5v-75q0 -5 -3.5 -8.5t-8.5 -3.5h-65q-5 0 -5 -5v-57q0 -2 2 -2q4 0 8 6q30 36 84 36q71 0 105 -46z" />
    <glyph glyph-name="Itilde" unicode="&#x128;" horiz-adv-x="235" 
d="M38.5 3.5q-3.5 3.5 -3.5 8.5v676q0 5 3.5 8.5t8.5 3.5h142q5 0 8.5 -3.5t3.5 -8.5v-676q0 -5 -3.5 -8.5t-8.5 -3.5h-142q-5 0 -8.5 3.5zM131 777q-8 4 -14.5 8.5t-13 7t-13.5 2.5q-20 0 -33 -21q-3 -5 -8 -6.5t-9 2.5l-51 36q-8 6 -5 16q13 38 37.5 57t54.5 19
q31 0 66 -23q2 -2 9.5 -6.5t15 -7.5t15.5 -3q22 0 34 18q7 11 16 5l50 -35q5 -3 5 -10q0 -6 -4 -13q-17 -33 -43 -47.5t-54 -14.5q-23 0 -55 16z" />
    <glyph glyph-name="itilde" unicode="&#x129;" horiz-adv-x="197" 
d="M19.5 3.5q-3.5 3.5 -3.5 8.5v493q0 5 3.5 8.5t8.5 3.5h142q5 0 8.5 -3.5t3.5 -8.5v-493q0 -5 -3.5 -8.5t-8.5 -3.5h-142q-5 0 -8.5 3.5zM112 594q-8 4 -14.5 8.5t-13 7t-13.5 2.5q-20 0 -33 -21q-3 -5 -8 -6.5t-9 2.5l-51 36q-8 6 -5 16q13 38 37.5 57t54.5 19
q31 0 66 -23q2 -2 9.5 -6.5t15 -7.5t15.5 -3q22 0 34 18q7 11 16 5l50 -35q5 -3 5 -10q0 -6 -4 -13q-17 -33 -43 -47.5t-54 -14.5q-23 0 -55 16z" />
    <glyph glyph-name="Imacron" unicode="&#x12a;" horiz-adv-x="235" 
d="M38.5 3.5q-3.5 3.5 -3.5 8.5v676q0 5 3.5 8.5t8.5 3.5h142q5 0 8.5 -3.5t3.5 -8.5v-676q0 -5 -3.5 -8.5t-8.5 -3.5h-142q-5 0 -8.5 3.5zM3.5 762.5q-3.5 3.5 -3.5 8.5v88q0 5 3.5 8.5t8.5 3.5h202q5 0 8.5 -3.5t3.5 -8.5v-88q0 -5 -3.5 -8.5t-8.5 -3.5h-202
q-5 0 -8.5 3.5z" />
    <glyph glyph-name="imacron" unicode="&#x12b;" horiz-adv-x="197" 
d="M19.5 3.5q-3.5 3.5 -3.5 8.5v493q0 5 3.5 8.5t8.5 3.5h142q5 0 8.5 -3.5t3.5 -8.5v-493q0 -5 -3.5 -8.5t-8.5 -3.5h-142q-5 0 -8.5 3.5zM-15.5 579.5q-3.5 3.5 -3.5 8.5v88q0 5 3.5 8.5t8.5 3.5h202q5 0 8.5 -3.5t3.5 -8.5v-88q0 -5 -3.5 -8.5t-8.5 -3.5h-202
q-5 0 -8.5 3.5z" />
    <glyph glyph-name="ibreve" unicode="&#x12d;" horiz-adv-x="197" 
d="M19.5 3.5q-3.5 3.5 -3.5 8.5v493q0 5 3.5 8.5t8.5 3.5h142q5 0 8.5 -3.5t3.5 -8.5v-493q0 -5 -3.5 -8.5t-8.5 -3.5h-142q-5 0 -8.5 3.5zM11 590q-34 30 -38 80q0 12 12 12h61q12 0 12 -12q3 -18 14 -29t27 -11q15 0 26 11t14 29q1 12 13 12h61q12 0 11 -12
q-4 -49 -38.5 -79.5t-86.5 -30.5q-54 0 -88 30z" />
    <glyph glyph-name="Iogonek" unicode="&#x12e;" horiz-adv-x="230" 
d="M35.5 3.5q-3.5 3.5 -3.5 8.5v676q0 5 3.5 8.5t8.5 3.5h142q5 0 8.5 -3.5t3.5 -8.5v-676q0 -5 -3.5 -8.5t-8.5 -3.5h-142q-5 0 -8.5 3.5zM193 -173q0 -8 -9 -12q-26 -8 -53 -8q-74 0 -89 63q-4 18 -4 28q0 50 45 96q6 6 15 6h78q10 0 10 -6q0 -5 -6 -9q-37 -35 -37 -61
q0 -16 8 -23t21 -6h3q10 0 11 -9l7 -56v-3z" />
    <glyph glyph-name="iogonek" unicode="&#x12f;" horiz-adv-x="225" 
d="M34.5 3.5q-3.5 3.5 -3.5 8.5v493q0 5 3.5 8.5t8.5 3.5h142q5 0 8.5 -3.5t3.5 -8.5v-493q0 -5 -3.5 -8.5t-8.5 -3.5h-142q-5 0 -8.5 3.5zM51.5 587.5q-24.5 24.5 -24.5 62.5q0 39 24.5 63t62.5 24t62 -24t24 -63q0 -38 -24.5 -62.5t-61.5 -24.5q-38 0 -62.5 24.5z
M193 -173q0 -8 -9 -12q-26 -8 -53 -8q-74 0 -89 63q-4 18 -4 28q0 50 45 96q6 6 15 6h78q10 0 10 -6q0 -5 -6 -9q-37 -35 -37 -61q0 -16 8 -23t21 -6h3q10 0 11 -9l7 -56v-3z" />
    <glyph glyph-name="Idotaccent" unicode="&#x130;" horiz-adv-x="235" 
d="M38.5 3.5q-3.5 3.5 -3.5 8.5v676q0 5 3.5 8.5t8.5 3.5h142q5 0 8.5 -3.5t3.5 -8.5v-676q0 -5 -3.5 -8.5t-8.5 -3.5h-142q-5 0 -8.5 3.5zM55.5 770.5q-24.5 24.5 -24.5 62.5q0 39 24.5 63t62.5 24t62 -24t24 -63q0 -38 -24.5 -62.5t-61.5 -24.5q-38 0 -62.5 24.5z" />
    <glyph glyph-name="dotlessi" unicode="&#x131;" horiz-adv-x="197" 
d="M19.5 3.5q-3.5 3.5 -3.5 8.5v493q0 5 3.5 8.5t8.5 3.5h142q5 0 8.5 -3.5t3.5 -8.5v-493q0 -5 -3.5 -8.5t-8.5 -3.5h-142q-5 0 -8.5 3.5z" />
    <glyph glyph-name="ij" unicode="&#x133;" horiz-adv-x="439" 
d="M48.5 587.5q-24.5 24.5 -24.5 62.5q0 39 24 63t62 24t62.5 -24t24.5 -63q0 -37 -24.5 -62t-62.5 -25q-37 0 -61.5 24.5zM32.5 3.5q-3.5 3.5 -3.5 8.5v493q0 5 3.5 8.5t8.5 3.5h142q5 0 8.5 -3.5t3.5 -8.5v-493q0 -5 -3.5 -8.5t-8.5 -3.5h-142q-5 0 -8.5 3.5zM266 588
q-25 25 -25 62q0 39 24.5 63t62.5 24t62.5 -24t24.5 -63q0 -37 -24.5 -62t-62.5 -25q-37 0 -62 25zM150 -190v117q0 7 4.5 9t14.5 2q44 0 60 19t16 58v490q0 5 3.5 8.5t8.5 3.5h142q5 0 8.5 -3.5t3.5 -8.5v-490q0 -83 -13.5 -127t-67 -68t-168.5 -22q-12 0 -12 12z" />
    <glyph glyph-name="Jcircumflex" unicode="&#x134;" horiz-adv-x="462" 
d="M110 16.5q-47 24.5 -73 68.5t-26 101v65q0 5 3.5 8.5t8.5 3.5h142q5 0 8.5 -3.5t3.5 -8.5v-67q0 -22 11.5 -36t29.5 -14q19 0 31 14t12 36v504q0 5 3.5 8.5t8.5 3.5h142q5 0 8.5 -3.5t3.5 -8.5v-502q0 -57 -26 -101t-73.5 -68.5t-109.5 -24.5q-61 0 -108 24.5z
M181.5 759.5q-2.5 3.5 1.5 10.5l63 106q4 8 14 8h154q10 0 14 -8l66 -106q2 -6 2 -7q0 -7 -10 -7h-105q-10 0 -14 9l-26 51q-3 5 -6 0l-26 -51q-5 -9 -14 -9h-104q-7 0 -9.5 3.5z" />
    <glyph glyph-name="jcircumflex" unicode="&#x135;" horiz-adv-x="227" 
d="M-66 -190v117q0 7 4.5 9t14.5 2q44 0 60 19t16 58v490q0 5 3.5 8.5t8.5 3.5h142q5 0 8.5 -3.5t3.5 -8.5v-490q0 -83 -13.5 -127t-67 -68t-168.5 -22q-12 0 -12 12zM-46.5 575.5q-2.5 3.5 1.5 10.5l63 106q4 8 14 8h154q10 0 14 -8l66 -106q2 -6 2 -7q0 -7 -10 -7h-105
q-10 0 -14 9l-26 51q-3 5 -6 0l-26 -51q-5 -9 -14 -9h-104q-7 0 -9.5 3.5z" />
    <glyph glyph-name="uni0136" unicode="&#x136;" horiz-adv-x="505" 
d="M38.5 3.5q-3.5 3.5 -3.5 8.5v676q0 5 3.5 8.5t8.5 3.5h142q5 0 8.5 -3.5t3.5 -8.5v-226q0 -4 2 -4t4 3l105 230q4 9 14 9h150q7 0 9.5 -3.5t-0.5 -10.5l-145 -294q-1 -4 -1 -6l152 -372q1 -2 1 -6q0 -8 -10 -8h-151q-11 0 -14 9l-90 234q-1 3 -3 3t-4 -3l-18 -36
q-1 -2 -1 -6v-189q0 -5 -3.5 -8.5t-8.5 -3.5h-142q-5 0 -8.5 3.5zM166 -164q-3 4 1 10l59 100q4 8 14 8h112q10 0 10 -7q0 -3 -3 -8l-78 -100q-6 -7 -15 -7h-90q-7 0 -10 4z" />
    <glyph glyph-name="uni0137" unicode="&#x137;" horiz-adv-x="465" 
d="M32.5 3.5q-3.5 3.5 -3.5 8.5v676q0 5 3.5 8.5t8.5 3.5h142q5 0 8.5 -3.5t3.5 -8.5v-306q0 -4 2 -4.5t4 2.5l67 128q5 9 14 9h146q7 0 9.5 -3.5t-1.5 -10.5l-111 -179q-2 -4 -1 -7l122 -303q1 -2 1 -6q0 -8 -10 -8h-146q-10 0 -13 10l-55 171q-1 4 -3 4t-4 -3l-19 -35
q-2 -4 -2 -6v-129q0 -5 -3.5 -8.5t-8.5 -3.5h-142q-5 0 -8.5 3.5zM132 -164q-3 4 1 10l59 100q4 8 14 8h112q10 0 10 -7q0 -3 -3 -8l-78 -100q-6 -7 -15 -7h-90q-7 0 -10 4z" />
    <glyph glyph-name="Lacute" unicode="&#x139;" horiz-adv-x="437" 
d="M38.5 3.5q-3.5 3.5 -3.5 8.5v676q0 5 3.5 8.5t8.5 3.5h142q5 0 8.5 -3.5t3.5 -8.5v-541q0 -5 5 -5h204q5 0 8.5 -3.5t3.5 -8.5v-118q0 -5 -3.5 -8.5t-8.5 -3.5h-363q-5 0 -8.5 3.5zM49 765q-3 4 1 10l59 100q4 8 14 8h112q10 0 10 -7q0 -3 -3 -8l-78 -100q-6 -7 -15 -7
h-90q-7 0 -10 4z" />
    <glyph glyph-name="lacute" unicode="&#x13a;" horiz-adv-x="219" 
d="M30.5 3.5q-3.5 3.5 -3.5 8.5v676q0 5 3.5 8.5t8.5 3.5h142q5 0 8.5 -3.5t3.5 -8.5v-676q0 -5 -3.5 -8.5t-8.5 -3.5h-142q-5 0 -8.5 3.5zM39 765q-3 4 1 10l59 100q4 8 14 8h112q10 0 10 -7q0 -3 -3 -8l-78 -100q-6 -7 -15 -7h-90q-7 0 -10 4z" />
    <glyph glyph-name="uni013B" unicode="&#x13b;" horiz-adv-x="437" 
d="M38.5 3.5q-3.5 3.5 -3.5 8.5v676q0 5 3.5 8.5t8.5 3.5h142q5 0 8.5 -3.5t3.5 -8.5v-541q0 -5 5 -5h204q5 0 8.5 -3.5t3.5 -8.5v-118q0 -5 -3.5 -8.5t-8.5 -3.5h-363q-5 0 -8.5 3.5zM101 -164q-3 4 1 10l59 100q4 8 14 8h112q10 0 10 -7q0 -3 -3 -8l-78 -100q-6 -7 -15 -7
h-90q-7 0 -10 4z" />
    <glyph glyph-name="uni013C" unicode="&#x13c;" horiz-adv-x="219" 
d="M30.5 3.5q-3.5 3.5 -3.5 8.5v676q0 5 3.5 8.5t8.5 3.5h142q5 0 8.5 -3.5t3.5 -8.5v-676q0 -5 -3.5 -8.5t-8.5 -3.5h-142q-5 0 -8.5 3.5zM-38 -164q-3 4 1 10l59 100q4 8 14 8h112q10 0 10 -7q0 -3 -3 -8l-78 -100q-6 -7 -15 -7h-90q-7 0 -10 4z" />
    <glyph glyph-name="Lcaron" unicode="&#x13d;" horiz-adv-x="440" 
d="M38.5 3.5q-3.5 3.5 -3.5 8.5v676q0 5 3.5 8.5t8.5 3.5h142q5 0 8.5 -3.5t3.5 -8.5v-541q0 -5 5 -5h204q5 0 8.5 -3.5t3.5 -8.5v-118q0 -5 -3.5 -8.5t-8.5 -3.5h-363q-5 0 -8.5 3.5zM224 582q-3 4 1 10l59 100q4 8 14 8h112q10 0 10 -7q0 -3 -3 -8l-78 -100q-6 -7 -15 -7
h-90q-7 0 -10 4z" />
    <glyph glyph-name="lcaron" unicode="&#x13e;" horiz-adv-x="432" 
d="M30.5 3.5q-3.5 3.5 -3.5 8.5v676q0 5 3.5 8.5t8.5 3.5h142q5 0 8.5 -3.5t3.5 -8.5v-676q0 -5 -3.5 -8.5t-8.5 -3.5h-142q-5 0 -8.5 3.5zM211 583q-3 4 1 10l59 100q4 8 14 8h112q10 0 10 -7q0 -3 -3 -8l-78 -100q-6 -7 -15 -7h-90q-7 0 -10 4z" />
    <glyph glyph-name="ldot" unicode="&#x140;" horiz-adv-x="229" 
d="M34.5 3.5q-3.5 3.5 -3.5 8.5v676q0 5 3.5 8.5t8.5 3.5h142q5 0 8.5 -3.5t3.5 -8.5v-676q0 -5 -3.5 -8.5t-8.5 -3.5h-142q-5 0 -8.5 3.5zM53.5 770.5q-24.5 24.5 -24.5 62.5q0 39 24.5 63t62.5 24t62 -24t24 -63q0 -38 -24.5 -62.5t-61.5 -24.5q-38 0 -62.5 24.5z" />
    <glyph glyph-name="Lslash" unicode="&#x141;" horiz-adv-x="516" 
d="M285 142h205q5 0 8.5 -3.5t3.5 -8.5v-118q0 -5 -3.5 -8.5t-8.5 -3.5h-364q-5 0 -8.5 3.5t-3.5 8.5v149q0 3 -2 4t-4 -1l-35 -30q-6 -4 -8 -4q-4 0 -9 5l-66 76q-4 6 -4 8q0 4 5 9l120 103q3 2 3 6v351q0 5 3.5 8.5t8.5 3.5h142q5 0 8.5 -3.5t3.5 -8.5v-205q0 -3 2 -4t4 1
l100 85q6 4 8 4q4 0 9 -5l65 -77q4 -6 4 -8q0 -4 -5 -9l-184 -157q-3 -1 -3 -6v-160q0 -5 5 -5z" />
    <glyph glyph-name="lslash" unicode="&#x142;" horiz-adv-x="421" 
d="M409 394q0 -7 -7 -11l-112 -61q-4 -3 -4 -6v-304q0 -5 -3.5 -8.5t-8.5 -3.5h-142q-5 0 -8.5 3.5t-3.5 8.5v212q0 3 -2 4.5t-4 -0.5l-40 -22q-4 -2 -7 -2q-7 0 -10 7l-44 84q-1 2 -1 6q0 7 6 11l98 54q4 3 4 6v316q0 5 3.5 8.5t8.5 3.5h142q5 0 8.5 -3.5t3.5 -8.5v-222
q0 -3 2 -4t4 0l51 28q4 2 7 2q6 0 10 -6l47 -86q2 -4 2 -6z" />
    <glyph glyph-name="Nacute" unicode="&#x143;" horiz-adv-x="522" 
d="M326.5 696.5q3.5 3.5 8.5 3.5h140q5 0 8.5 -3.5t3.5 -8.5v-676q0 -5 -3.5 -8.5t-8.5 -3.5h-159q-11 0 -14 10l-99 348q-1 3 -3.5 3.5t-2.5 -3.5l2 -346q0 -5 -3.5 -8.5t-8.5 -3.5h-140q-5 0 -8.5 3.5t-3.5 8.5v676q0 5 3.5 8.5t8.5 3.5h157q11 0 14 -10l100 -350
q1 -3 3.5 -3t2.5 4l-1 347q0 5 3.5 8.5zM187 766q-3 4 1 10l59 100q4 8 14 8h112q10 0 10 -7q0 -3 -3 -8l-78 -100q-6 -7 -15 -7h-90q-7 0 -10 4z" />
    <glyph glyph-name="nacute" unicode="&#x144;" horiz-adv-x="455" 
d="M394 479q34 -46 34 -130v-337q0 -5 -3.5 -8.5t-8.5 -3.5h-142q-5 0 -8.5 3.5t-3.5 8.5v326q0 45 -32 45q-17 0 -26 -12t-9 -34v-325q0 -5 -3.5 -8.5t-8.5 -3.5h-142q-5 0 -8.5 3.5t-3.5 8.5v493q0 5 3.5 8.5t8.5 3.5h142q5 0 8.5 -3.5t3.5 -8.5v-20q0 -2 2 -2q4 0 8 6
q30 36 84 36q71 0 105 -46zM158 582q-3 4 1 10l59 100q4 8 14 8h112q10 0 10 -7q0 -3 -3 -8l-78 -100q-6 -7 -15 -7h-90q-7 0 -10 4z" />
    <glyph glyph-name="uni0145" unicode="&#x145;" horiz-adv-x="522" 
d="M326.5 696.5q3.5 3.5 8.5 3.5h140q5 0 8.5 -3.5t3.5 -8.5v-676q0 -5 -3.5 -8.5t-8.5 -3.5h-159q-11 0 -14 10l-99 348q-1 3 -3.5 3.5t-2.5 -3.5l2 -346q0 -5 -3.5 -8.5t-8.5 -3.5h-140q-5 0 -8.5 3.5t-3.5 8.5v676q0 5 3.5 8.5t8.5 3.5h157q11 0 14 -10l100 -350
q1 -3 3.5 -3t2.5 4l-1 347q0 5 3.5 8.5zM165 -164q-3 4 1 10l59 100q4 8 14 8h112q10 0 10 -7q0 -3 -3 -8l-78 -100q-6 -7 -15 -7h-90q-7 0 -10 4z" />
    <glyph glyph-name="uni0146" unicode="&#x146;" horiz-adv-x="455" 
d="M394 479q34 -46 34 -130v-337q0 -5 -3.5 -8.5t-8.5 -3.5h-142q-5 0 -8.5 3.5t-3.5 8.5v326q0 45 -32 45q-17 0 -26 -12t-9 -34v-325q0 -5 -3.5 -8.5t-8.5 -3.5h-142q-5 0 -8.5 3.5t-3.5 8.5v493q0 5 3.5 8.5t8.5 3.5h142q5 0 8.5 -3.5t3.5 -8.5v-20q0 -2 2 -2q4 0 8 6
q30 36 84 36q71 0 105 -46zM126 -164q-3 4 1 10l59 100q4 8 14 8h112q10 0 10 -7q0 -3 -3 -8l-78 -100q-6 -7 -15 -7h-90q-7 0 -10 4z" />
    <glyph glyph-name="Ncaron" unicode="&#x147;" horiz-adv-x="522" 
d="M326.5 696.5q3.5 3.5 8.5 3.5h140q5 0 8.5 -3.5t3.5 -8.5v-676q0 -5 -3.5 -8.5t-8.5 -3.5h-159q-11 0 -14 10l-99 348q-1 3 -3.5 3.5t-2.5 -3.5l2 -346q0 -5 -3.5 -8.5t-8.5 -3.5h-140q-5 0 -8.5 3.5t-3.5 8.5v676q0 5 3.5 8.5t8.5 3.5h157q11 0 14 -10l100 -350
q1 -3 3.5 -3t2.5 4l-1 347q0 5 3.5 8.5zM106 877q0 7 10 7h104q10 0 14 -9l26 -51q3 -4 6 0l26 51q5 9 14 9h105q7 0 9.5 -3.5t-1.5 -10.5l-66 -106q-4 -8 -14 -8h-154q-10 0 -14 8l-63 106q-2 6 -2 7z" />
    <glyph glyph-name="ncaron" unicode="&#x148;" horiz-adv-x="455" 
d="M394 479q34 -46 34 -130v-337q0 -5 -3.5 -8.5t-8.5 -3.5h-142q-5 0 -8.5 3.5t-3.5 8.5v326q0 45 -32 45q-17 0 -26 -12t-9 -34v-325q0 -5 -3.5 -8.5t-8.5 -3.5h-142q-5 0 -8.5 3.5t-3.5 8.5v493q0 5 3.5 8.5t8.5 3.5h142q5 0 8.5 -3.5t3.5 -8.5v-20q0 -2 2 -2q4 0 8 6
q30 36 84 36q71 0 105 -46zM77 693q0 7 10 7h104q10 0 14 -9l26 -51q3 -4 6 0l26 51q5 9 14 9h105q7 0 9.5 -3.5t-1.5 -10.5l-66 -106q-4 -8 -14 -8h-154q-10 0 -14 8l-63 106q-2 6 -2 7z" />
    <glyph glyph-name="Eng" unicode="&#x14a;" horiz-adv-x="522" 
d="M326.5 696.5q3.5 3.5 8.5 3.5h140q5 0 8.5 -3.5t3.5 -8.5v-688q-1 -77 -14.5 -117.5t-63.5 -63t-157 -20.5q-12 0 -12 12l-1 118q0 6 4 8.5t12 2.5q32 0 41 13.5t9 43.5l-1 6l-101 355q-1 3 -3.5 3.5t-2.5 -3.5l2 -346q0 -5 -3.5 -8.5t-8.5 -3.5h-140q-5 0 -8.5 3.5
t-3.5 8.5v676q0 5 3.5 8.5t8.5 3.5h157q11 0 14 -10l100 -350q1 -3 3.5 -3t2.5 4l-1 347q0 5 3.5 8.5z" />
    <glyph glyph-name="eng" unicode="&#x14b;" horiz-adv-x="455" 
d="M418.5 -101q-9.5 -41 -58.5 -68t-161 -25q-13 0 -13 12v115q0 13 13 11q40 0 51.5 16t11.5 51v327q0 45 -32 45q-17 0 -26 -12t-9 -34v-325q0 -5 -3.5 -8.5t-8.5 -3.5h-142q-5 0 -8.5 3.5t-3.5 8.5v493q0 5 3.5 8.5t8.5 3.5h142q5 0 8.5 -3.5t3.5 -8.5v-20q0 -3 2 -3.5
t4 2.5q32 41 88 41q71 0 105 -46t34 -130v-327q0 -82 -9.5 -123z" />
    <glyph glyph-name="Omacron" unicode="&#x14c;" horiz-adv-x="479" 
d="M84.5 48q-57.5 56 -57.5 151v302q0 94 57.5 150.5t154.5 56.5q96 0 154.5 -56.5t58.5 -150.5v-302q0 -95 -58.5 -151t-154.5 -56q-97 0 -154.5 56zM273.5 149.5q12.5 15.5 12.5 42.5v316q0 27 -12.5 42.5t-34.5 15.5t-34 -15.5t-12 -42.5v-316q0 -27 12 -42.5t34 -15.5
t34.5 15.5zM125.5 762.5q-3.5 3.5 -3.5 8.5v88q0 5 3.5 8.5t8.5 3.5h202q5 0 8.5 -3.5t3.5 -8.5v-88q0 -5 -3.5 -8.5t-8.5 -3.5h-202q-5 0 -8.5 3.5z" />
    <glyph glyph-name="omacron" unicode="&#x14d;" horiz-adv-x="452" 
d="M77 38q-53 46 -53 127v187q0 78 53.5 125.5t148.5 47.5t148.5 -47t53.5 -126v-187q0 -81 -53 -127t-149 -46t-149 46zM252 147q10 12 10 32v160q0 19 -10 31.5t-26 12.5t-26 -12.5t-10 -31.5v-160q0 -20 10 -32t26 -12t26 12zM112.5 579.5q-3.5 3.5 -3.5 8.5v88
q0 5 3.5 8.5t8.5 3.5h202q5 0 8.5 -3.5t3.5 -8.5v-88q0 -5 -3.5 -8.5t-8.5 -3.5h-202q-5 0 -8.5 3.5z" />
    <glyph glyph-name="obreve" unicode="&#x14f;" horiz-adv-x="452" 
d="M77 38q-53 46 -53 127v187q0 78 53.5 125.5t148.5 47.5t148.5 -47t53.5 -126v-187q0 -81 -53 -127t-149 -46t-149 46zM252 147q10 12 10 32v160q0 19 -10 31.5t-26 12.5t-26 -12.5t-10 -31.5v-160q0 -20 10 -32t26 -12t26 12zM139 590q-34 30 -38 80q0 12 12 12h61
q12 0 12 -12q3 -18 14 -29t27 -11q15 0 26 11t14 29q1 12 13 12h61q12 0 11 -12q-4 -49 -38.5 -79.5t-86.5 -30.5q-54 0 -88 30z" />
    <glyph glyph-name="Ohungarumlaut" unicode="&#x150;" horiz-adv-x="479" 
d="M84.5 48q-57.5 56 -57.5 151v302q0 94 57.5 150.5t154.5 56.5q96 0 154.5 -56.5t58.5 -150.5v-302q0 -95 -58.5 -151t-154.5 -56q-97 0 -154.5 56zM273.5 149.5q12.5 15.5 12.5 42.5v316q0 27 -12.5 42.5t-34.5 15.5t-34 -15.5t-12 -42.5v-316q0 -27 12 -42.5t34 -15.5
t34.5 15.5zM99.5 764.5q-2.5 3.5 0.5 10.5l45 99q4 9 14 9h116q7 0 9.5 -3.5t-0.5 -10.5l-52 -99q-5 -9 -14 -9h-109q-7 0 -9.5 3.5zM269.5 765q-2.5 4 0.5 10l52 99q4 9 15 9h108q7 0 9.5 -3.5t-0.5 -10.5l-52 -99q-5 -9 -14 -9h-109q-7 0 -9.5 4z" />
    <glyph glyph-name="ohungarumlaut" unicode="&#x151;" horiz-adv-x="452" 
d="M77 38q-53 46 -53 127v187q0 78 53.5 125.5t148.5 47.5t148.5 -47t53.5 -126v-187q0 -81 -53 -127t-149 -46t-149 46zM252 147q10 12 10 32v160q0 19 -10 31.5t-26 12.5t-26 -12.5t-10 -31.5v-160q0 -20 10 -32t26 -12t26 12zM86.5 581.5q-2.5 3.5 0.5 10.5l45 99
q4 9 14 9h116q7 0 9.5 -3.5t-0.5 -10.5l-52 -99q-5 -9 -14 -9h-109q-7 0 -9.5 3.5zM256.5 582q-2.5 4 0.5 10l52 99q4 9 15 9h108q7 0 9.5 -3.5t-0.5 -10.5l-52 -99q-5 -9 -14 -9h-109q-7 0 -9.5 4z" />
    <glyph glyph-name="OE" unicode="&#x152;" horiz-adv-x="693" 
d="M666.5 561.5q-3.5 -3.5 -8.5 -3.5h-201q-5 0 -5 -5v-126q0 -5 5 -5h111q5 0 8.5 -3.5t3.5 -8.5v-119q0 -5 -3.5 -8.5t-8.5 -3.5h-111q-5 0 -5 -5v-127q0 -5 5 -5h201q5 0 8.5 -3.5t3.5 -8.5v-118q0 -5 -3.5 -8.5t-8.5 -3.5h-360q-5 0 -8.5 3t-3.5 7v3q0 3 -2 4t-4 -1
q-35 -24 -84 -24q-44 0 -82.5 25.5t-62.5 73t-24 108.5v302q0 61 24 108t63 73t82 26q49 0 84 -24q2 -2 4 -1t2 4v1q0 5 3.5 8.5t8.5 3.5h360q5 0 8.5 -3.5t3.5 -8.5v-118q0 -5 -3.5 -8.5zM273.5 149.5q12.5 15.5 12.5 42.5v316q0 27 -12.5 42.5t-34.5 15.5t-34 -15.5
t-12 -42.5v-316q0 -27 12 -42.5t34 -15.5t34.5 15.5z" />
    <glyph glyph-name="oe" unicode="&#x153;" horiz-adv-x="703" 
d="M678.5 215.5q-3.5 -3.5 -8.5 -3.5h-218q-5 0 -5 -5v-29q0 -20 9.5 -32t25.5 -12q27 0 35 36q3 10 13 10l138 -8q5 0 8.5 -3.5t2.5 -9.5q-5 -82 -54 -124.5t-143 -42.5q-77 0 -124 50q-3 4 -7 0q-47 -50 -125 -50q-96 0 -149 46t-53 127v187q0 78 53.5 125.5t148.5 47.5
q78 0 125 -52q4 -4 7 0q47 52 124 52q94 0 147 -47t53 -126v-128q0 -5 -3.5 -8.5zM252 371q-10 12 -26 12t-26 -12.5t-10 -31.5v-161q0 -19 10 -31.5t26 -12.5t26 12t10 32v161q0 20 -10 32zM456.5 371q-9.5 -12 -9.5 -32v-29q0 -5 5 -5h59q5 0 5 5v29q0 19 -9.5 31.5
t-24.5 12.5q-16 0 -25.5 -12z" />
    <glyph glyph-name="Racute" unicode="&#x154;" horiz-adv-x="481" 
d="M294 10l-68 265q-1 4 -5 4h-15q-5 0 -5 -5v-262q0 -5 -3.5 -8.5t-8.5 -3.5h-142q-5 0 -8.5 3.5t-3.5 8.5v676q0 5 3.5 8.5t8.5 3.5h215q58 0 103 -27.5t69.5 -77t24.5 -112.5q0 -56 -20.5 -100.5t-57.5 -71.5q-2 -1 -3 -2.5t0 -3.5l86 -291l1 -4q0 -10 -11 -10h-146
q-11 0 -14 10zM201 553v-142q0 -5 5 -5h28q27 0 43 20t16 55q0 37 -16 57t-43 20h-28q-5 0 -5 -5zM159 765q-3 4 1 10l59 100q4 8 14 8h112q10 0 10 -7q0 -3 -3 -8l-78 -100q-6 -7 -15 -7h-90q-7 0 -10 4z" />
    <glyph glyph-name="racute" unicode="&#x155;" horiz-adv-x="336" 
d="M324 513q7 -6 6 -15l-23 -141q-1 -11 -14 -8q-14 4 -25 4q-17 0 -32 -6q-18 -6 -29.5 -25t-11.5 -42v-267q0 -5 -3.5 -8.5t-8.5 -3.5h-142q-5 0 -8.5 3.5t-3.5 8.5v492q0 5 3.5 8.5t8.5 3.5h142q5 0 8.5 -3.5t3.5 -8.5v-32q0 -4 1.5 -4.5t3.5 2.5q27 53 81 53
q25 0 43 -11zM111 582q-3 4 1 10l59 100q4 8 14 8h112q10 0 10 -7q0 -3 -3 -8l-78 -100q-6 -7 -15 -7h-90q-7 0 -10 4z" />
    <glyph glyph-name="uni0156" unicode="&#x156;" horiz-adv-x="481" 
d="M294 10l-68 265q-1 4 -5 4h-15q-5 0 -5 -5v-262q0 -5 -3.5 -8.5t-8.5 -3.5h-142q-5 0 -8.5 3.5t-3.5 8.5v676q0 5 3.5 8.5t8.5 3.5h215q58 0 103 -27.5t69.5 -77t24.5 -112.5q0 -56 -20.5 -100.5t-57.5 -71.5q-2 -1 -3 -2.5t0 -3.5l86 -291l1 -4q0 -10 -11 -10h-146
q-11 0 -14 10zM201 553v-142q0 -5 5 -5h28q27 0 43 20t16 55q0 37 -16 57t-43 20h-28q-5 0 -5 -5zM139 -164q-3 4 1 10l59 100q4 8 14 8h112q10 0 10 -7q0 -3 -3 -8l-78 -100q-6 -7 -15 -7h-90q-7 0 -10 4z" />
    <glyph glyph-name="uni0157" unicode="&#x157;" horiz-adv-x="336" 
d="M324 513q7 -6 6 -15l-23 -141q-1 -11 -14 -8q-14 4 -25 4q-17 0 -32 -6q-18 -6 -29.5 -25t-11.5 -42v-267q0 -5 -3.5 -8.5t-8.5 -3.5h-142q-5 0 -8.5 3.5t-3.5 8.5v492q0 5 3.5 8.5t8.5 3.5h142q5 0 8.5 -3.5t3.5 -8.5v-32q0 -4 1.5 -4.5t3.5 2.5q27 53 81 53
q25 0 43 -11zM-38 -164q-3 4 1 10l59 100q4 8 14 8h112q10 0 10 -7q0 -3 -3 -8l-78 -100q-6 -7 -15 -7h-90q-7 0 -10 4z" />
    <glyph glyph-name="Rcaron" unicode="&#x158;" horiz-adv-x="481" 
d="M294 10l-68 265q-1 4 -5 4h-15q-5 0 -5 -5v-262q0 -5 -3.5 -8.5t-8.5 -3.5h-142q-5 0 -8.5 3.5t-3.5 8.5v676q0 5 3.5 8.5t8.5 3.5h215q58 0 103 -27.5t69.5 -77t24.5 -112.5q0 -56 -20.5 -100.5t-57.5 -71.5q-2 -1 -3 -2.5t0 -3.5l86 -291l1 -4q0 -10 -11 -10h-146
q-11 0 -14 10zM201 553v-142q0 -5 5 -5h28q27 0 43 20t16 55q0 37 -16 57t-43 20h-28q-5 0 -5 -5zM78 876q0 7 10 7h104q10 0 14 -9l26 -51q3 -4 6 0l26 51q5 9 14 9h105q7 0 9.5 -3.5t-1.5 -10.5l-66 -106q-4 -8 -14 -8h-154q-10 0 -14 8l-63 106q-2 6 -2 7z" />
    <glyph glyph-name="rcaron" unicode="&#x159;" horiz-adv-x="336" 
d="M324 513q7 -6 6 -15l-23 -141q-1 -11 -14 -8q-14 4 -25 4q-17 0 -32 -6q-18 -6 -29.5 -25t-11.5 -42v-267q0 -5 -3.5 -8.5t-8.5 -3.5h-142q-5 0 -8.5 3.5t-3.5 8.5v492q0 5 3.5 8.5t8.5 3.5h142q5 0 8.5 -3.5t3.5 -8.5v-32q0 -4 1.5 -4.5t3.5 2.5q27 53 81 53
q25 0 43 -11zM30 693q0 7 10 7h104q10 0 14 -9l26 -51q3 -4 6 0l26 51q5 9 14 9h105q7 0 9.5 -3.5t-1.5 -10.5l-66 -106q-4 -8 -14 -8h-154q-10 0 -14 8l-63 106q-2 6 -2 7z" />
    <glyph glyph-name="Sacute" unicode="&#x15a;" horiz-adv-x="454" 
d="M123 15.5q-46 23.5 -71.5 66t-25.5 96.5v31q0 5 3.5 8.5t8.5 3.5h140q5 0 8.5 -3.5t3.5 -8.5v-23q0 -24 11.5 -38t29.5 -14t29.5 13.5t11.5 34.5q0 23 -18 41.5t-72 57.5q-50 36 -82 64.5t-55 71t-23 98.5q0 57 25.5 101t72 68t106.5 24q61 0 107.5 -24.5t72 -69
t25.5 -102.5v-24q0 -5 -3.5 -8.5t-8.5 -3.5h-139q-5 0 -8.5 3.5t-3.5 8.5v28q0 22 -12 36t-30 14t-29 -14t-11 -37q0 -25 17 -45t69 -58q63 -47 95 -76t50 -64.5t18 -83.5q0 -90 -56.5 -143t-148.5 -53q-61 0 -107 23.5zM154 765q-3 4 1 10l59 100q4 8 14 8h112q10 0 10 -7
q0 -3 -3 -8l-78 -100q-6 -7 -15 -7h-90q-7 0 -10 4z" />
    <glyph glyph-name="sacute" unicode="&#x15b;" horiz-adv-x="426" 
d="M72 35.5q-54 43.5 -54 114.5v6q0 5 3.5 8.5t8.5 3.5h134q5 0 8.5 -3.5t3.5 -8.5v-2q0 -18 12.5 -28.5t27.5 -10.5q14 0 22 8.5t8 21.5q0 18 -17 27.5t-54 21.5l-22 7q-129 44 -129 160q0 76 51 120t136 44q87 0 139 -47.5t52 -125.5q0 -11 -12 -11h-130q-5 0 -8.5 3.5
t-3.5 8.5v8q0 16 -9 25.5t-24 9.5t-23.5 -10.5t-8.5 -24.5q0 -22 20 -34t56 -24q44 -15 76 -31.5t55 -47t23 -77.5q0 -72 -53.5 -113.5t-142.5 -41.5q-91 0 -145 43.5zM139 582q-3 4 1 10l59 100q4 8 14 8h112q10 0 10 -7q0 -3 -3 -8l-78 -100q-6 -7 -15 -7h-90q-7 0 -10 4z
" />
    <glyph glyph-name="Scircumflex" unicode="&#x15c;" horiz-adv-x="454" 
d="M123 15.5q-46 23.5 -71.5 66t-25.5 96.5v31q0 5 3.5 8.5t8.5 3.5h140q5 0 8.5 -3.5t3.5 -8.5v-23q0 -24 11.5 -38t29.5 -14t29.5 13.5t11.5 34.5q0 23 -18 41.5t-72 57.5q-50 36 -82 64.5t-55 71t-23 98.5q0 57 25.5 101t72 68t106.5 24q61 0 107.5 -24.5t72 -69
t25.5 -102.5v-24q0 -5 -3.5 -8.5t-8.5 -3.5h-139q-5 0 -8.5 3.5t-3.5 8.5v28q0 22 -12 36t-30 14t-29 -14t-11 -37q0 -25 17 -45t69 -58q63 -47 95 -76t50 -64.5t18 -83.5q0 -90 -56.5 -143t-148.5 -53q-61 0 -107 23.5zM66.5 758.5q-2.5 3.5 1.5 10.5l63 106q4 8 14 8h154
q10 0 14 -8l66 -106q2 -6 2 -7q0 -7 -10 -7h-105q-10 0 -14 9l-26 51q-3 5 -6 0l-26 -51q-5 -9 -14 -9h-104q-7 0 -9.5 3.5z" />
    <glyph glyph-name="scircumflex" unicode="&#x15d;" horiz-adv-x="426" 
d="M72 35.5q-54 43.5 -54 114.5v6q0 5 3.5 8.5t8.5 3.5h134q5 0 8.5 -3.5t3.5 -8.5v-2q0 -18 12.5 -28.5t27.5 -10.5q14 0 22 8.5t8 21.5q0 18 -17 27.5t-54 21.5l-22 7q-129 44 -129 160q0 76 51 120t136 44q87 0 139 -47.5t52 -125.5q0 -11 -12 -11h-130q-5 0 -8.5 3.5
t-3.5 8.5v8q0 16 -9 25.5t-24 9.5t-23.5 -10.5t-8.5 -24.5q0 -22 20 -34t56 -24q44 -15 76 -31.5t55 -47t23 -77.5q0 -72 -53.5 -113.5t-142.5 -41.5q-91 0 -145 43.5zM51.5 575.5q-2.5 3.5 1.5 10.5l63 106q4 8 14 8h154q10 0 14 -8l66 -106q2 -6 2 -7q0 -7 -10 -7h-105
q-10 0 -14 9l-26 51q-3 5 -6 0l-26 -51q-5 -9 -14 -9h-104q-7 0 -9.5 3.5z" />
    <glyph glyph-name="Scedilla" unicode="&#x15e;" horiz-adv-x="454" 
d="M395.5 63q-39.5 -50 -107.5 -65q-3 0 -3.5 -2t1.5 -4q36 -42 36 -87q0 -10 -4 -28q-8 -34 -32.5 -48t-56.5 -14q-27 0 -53 8q-10 3 -9 14l7 57q1 6 4 7.5t8 1.5h7q17 0 23 20q3 16 -7.5 35t-32.5 38l-6 3q-66 16 -105 64t-39 115v31q0 5 3.5 8.5t8.5 3.5h140
q5 0 8.5 -3.5t3.5 -8.5v-23q0 -24 11.5 -38t29.5 -14t29.5 13.5t11.5 34.5q0 23 -18 41.5t-72 57.5q-50 36 -82 64.5t-55 71t-23 98.5q0 57 25.5 101t72 68t106.5 24q61 0 107.5 -24.5t72 -69t25.5 -102.5v-24q0 -5 -3.5 -8.5t-8.5 -3.5h-139q-5 0 -8.5 3.5t-3.5 8.5v28
q0 22 -12 36t-30 14t-29 -14t-11 -37q0 -25 17 -45t69 -58q63 -47 95 -76t50 -64.5t18 -83.5q0 -75 -39.5 -125z" />
    <glyph glyph-name="scedilla" unicode="&#x15f;" horiz-adv-x="426" 
d="M377 50q-36 -39 -100 -53q-3 0 -3.5 -2t1.5 -4q35 -43 35 -85q0 -10 -4 -28q-15 -63 -89 -63q-27 0 -53 8q-10 3 -9 14l7 57q1 11 14 9q23 -2 28 21q3 14 -6.5 32.5t-30.5 37.5l-6 3q-66 12 -104.5 53t-38.5 100v6q0 5 3.5 8.5t8.5 3.5h134q5 0 8.5 -3.5t3.5 -8.5v-2
q0 -18 12.5 -28.5t27.5 -10.5q14 0 22 8.5t8 21.5q0 18 -17 27.5t-54 21.5l-22 7q-129 44 -129 160q0 76 51 120t136 44q87 0 139 -47.5t52 -125.5q0 -11 -12 -11h-130q-5 0 -8.5 3.5t-3.5 8.5v8q0 16 -9 25.5t-24 9.5t-23.5 -10.5t-8.5 -24.5q0 -22 20 -34t56 -24
q44 -15 76 -31.5t55 -47t23 -77.5q0 -58 -36 -97z" />
    <glyph glyph-name="Scaron" unicode="&#x160;" horiz-adv-x="454" 
d="M123 15.5q-46 23.5 -71.5 66t-25.5 96.5v31q0 5 3.5 8.5t8.5 3.5h140q5 0 8.5 -3.5t3.5 -8.5v-23q0 -24 11.5 -38t29.5 -14t29.5 13.5t11.5 34.5q0 23 -18 41.5t-72 57.5q-50 36 -82 64.5t-55 71t-23 98.5q0 57 25.5 101t72 68t106.5 24q61 0 107.5 -24.5t72 -69
t25.5 -102.5v-24q0 -5 -3.5 -8.5t-8.5 -3.5h-139q-5 0 -8.5 3.5t-3.5 8.5v28q0 22 -12 36t-30 14t-29 -14t-11 -37q0 -25 17 -45t69 -58q63 -47 95 -76t50 -64.5t18 -83.5q0 -90 -56.5 -143t-148.5 -53q-61 0 -107 23.5zM73 876q0 7 10 7h104q10 0 14 -9l26 -51q3 -4 6 0
l26 51q5 9 14 9h105q7 0 9.5 -3.5t-1.5 -10.5l-66 -106q-4 -8 -14 -8h-154q-10 0 -14 8l-63 106q-2 6 -2 7z" />
    <glyph glyph-name="scaron" unicode="&#x161;" horiz-adv-x="426" 
d="M72 35.5q-54 43.5 -54 114.5v6q0 5 3.5 8.5t8.5 3.5h134q5 0 8.5 -3.5t3.5 -8.5v-2q0 -18 12.5 -28.5t27.5 -10.5q14 0 22 8.5t8 21.5q0 18 -17 27.5t-54 21.5l-22 7q-129 44 -129 160q0 76 51 120t136 44q87 0 139 -47.5t52 -125.5q0 -11 -12 -11h-130q-5 0 -8.5 3.5
t-3.5 8.5v8q0 16 -9 25.5t-24 9.5t-23.5 -10.5t-8.5 -24.5q0 -22 20 -34t56 -24q44 -15 76 -31.5t55 -47t23 -77.5q0 -72 -53.5 -113.5t-142.5 -41.5q-91 0 -145 43.5zM58 693q0 7 10 7h104q10 0 14 -9l26 -51q3 -4 6 0l26 51q5 9 14 9h105q7 0 9.5 -3.5t-1.5 -10.5
l-66 -106q-4 -8 -14 -8h-154q-10 0 -14 8l-63 106q-2 6 -2 7z" />
    <glyph glyph-name="uni0162" unicode="&#x162;" horiz-adv-x="485" 
d="M460.5 696.5q3.5 -3.5 3.5 -8.5v-118q0 -5 -3.5 -8.5t-8.5 -3.5h-124q-5 0 -5 -5v-541q0 -5 -3.5 -8.5t-8.5 -3.5h-142q-5 0 -8.5 3.5t-3.5 8.5v541q0 5 -5 5h-119q-5 0 -8.5 3.5t-3.5 8.5v118q0 5 3.5 8.5t8.5 3.5h419q5 0 8.5 -3.5zM220 -170l7 56q1 11 14 9
q23 -2 28 21q3 14 -7 32t-30 37q-5 5 -5 9q0 6 10 6h78q9 0 15 -6q45 -46 45 -98q0 -13 -3 -26q-9 -34 -33.5 -48.5t-56.5 -14.5q-27 0 -53 8q-10 4 -9 15z" />
    <glyph glyph-name="uni0163" unicode="&#x163;" horiz-adv-x="299" 
d="M280.5 405.5q-3.5 -3.5 -8.5 -3.5h-51q-5 0 -5 -5v-214q0 -23 9.5 -32t28.5 -8h5q5 0 8.5 -3.5t3.5 -8.5v-119q0 -5 -3.5 -8.5t-8.5 -3.5h-13q-3 0 -4 -2t1 -4q27 -36 27 -77q0 -14 -3 -27q-8 -34 -33 -48.5t-57 -14.5q-27 0 -53 8q-10 3 -9 14l8 57q1 11 14 9
q22 -2 27 21q4 15 -7 34t-34 40l-5 3q-61 24 -61 104v280q0 5 -5 5h-32q-5 0 -8.5 3.5t-3.5 8.5v91q0 5 3.5 8.5t8.5 3.5h32q5 0 5 5v111q0 5 3.5 8.5t8.5 3.5h135q5 0 8.5 -3.5t3.5 -8.5v-111q0 -5 5 -5h51q5 0 8.5 -3.5t3.5 -8.5v-91q0 -5 -3.5 -8.5z" />
    <glyph glyph-name="Tcaron" unicode="&#x164;" horiz-adv-x="485" 
d="M460.5 696.5q3.5 -3.5 3.5 -8.5v-118q0 -5 -3.5 -8.5t-8.5 -3.5h-124q-5 0 -5 -5v-541q0 -5 -3.5 -8.5t-8.5 -3.5h-142q-5 0 -8.5 3.5t-3.5 8.5v541q0 5 -5 5h-119q-5 0 -8.5 3.5t-3.5 8.5v118q0 5 3.5 8.5t8.5 3.5h419q5 0 8.5 -3.5zM88 875q0 7 10 7h104q10 0 14 -9
l26 -51q3 -4 6 0l26 51q5 9 14 9h105q7 0 9.5 -3.5t-1.5 -10.5l-66 -106q-4 -8 -14 -8h-154q-10 0 -14 8l-63 106q-2 6 -2 7z" />
    <glyph glyph-name="tcaron" unicode="&#x165;" horiz-adv-x="299" 
d="M280.5 405.5q-3.5 -3.5 -8.5 -3.5h-51q-5 0 -5 -5v-214q0 -23 9.5 -32t28.5 -8h5q5 0 8.5 -3.5t3.5 -8.5v-119q0 -5 -3.5 -8.5t-8.5 -3.5h-45q-78 0 -117.5 24t-39.5 93v280q0 5 -5 5h-32q-5 0 -8.5 3.5t-3.5 8.5v91q0 5 3.5 8.5t8.5 3.5h32q5 0 5 5v111q0 5 3.5 8.5
t8.5 3.5h135q5 0 8.5 -3.5t3.5 -8.5v-111q0 -5 5 -5h51q5 0 8.5 -3.5t3.5 -8.5v-91q0 -5 -3.5 -8.5zM237 583q-3 4 1 10l59 100q4 8 14 8h112q10 0 10 -7q0 -3 -3 -8l-78 -100q-6 -7 -15 -7h-90q-7 0 -10 4z" />
    <glyph glyph-name="Tbar" unicode="&#x166;" horiz-adv-x="485" 
d="M460.5 561.5q-3.5 -3.5 -8.5 -3.5h-124q-5 0 -5 -5v-142q0 -5 5 -5h40q5 0 8.5 -3.5t3.5 -8.5v-74q0 -5 -3.5 -8.5t-8.5 -3.5h-40q-5 0 -5 -5v-291q0 -5 -3.5 -8.5t-8.5 -3.5h-142q-5 0 -8.5 3.5t-3.5 8.5v291q0 5 -5 5h-52q-5 0 -8.5 3.5t-3.5 8.5v74q0 5 3.5 8.5
t8.5 3.5h52q5 0 5 5v142q0 5 -5 5h-119q-5 0 -8.5 3.5t-3.5 8.5v118q0 5 3.5 8.5t8.5 3.5h419q5 0 8.5 -3.5t3.5 -8.5v-118q0 -5 -3.5 -8.5z" />
    <glyph glyph-name="tbar" unicode="&#x167;" horiz-adv-x="299" 
d="M286.5 260.5q-3.5 -3.5 -8.5 -3.5h-57q-5 0 -5 -5v-69q0 -23 9.5 -32t28.5 -8h5q5 0 8.5 -3.5t3.5 -8.5v-119q0 -5 -3.5 -8.5t-8.5 -3.5h-45q-78 0 -117.5 24t-39.5 93v135q0 5 -5 5h-31q-5 0 -8.5 3.5t-3.5 8.5v74q0 5 3.5 8.5t8.5 3.5h31q5 0 5 5v37q0 5 -5 5h-32
q-5 0 -8.5 3.5t-3.5 8.5v91q0 5 3.5 8.5t8.5 3.5h32q5 0 5 5v111q0 5 3.5 8.5t8.5 3.5h135q5 0 8.5 -3.5t3.5 -8.5v-111q0 -5 5 -5h51q5 0 8.5 -3.5t3.5 -8.5v-91q0 -5 -3.5 -8.5t-8.5 -3.5h-51q-5 0 -5 -5v-37q0 -5 5 -5h57q5 0 8.5 -3.5t3.5 -8.5v-74q0 -5 -3.5 -8.5z" />
    <glyph glyph-name="Utilde" unicode="&#x168;" horiz-adv-x="480" 
d="M131 18.5q-47 26.5 -73 74.5t-26 111v484q0 5 3.5 8.5t8.5 3.5h142q5 0 8.5 -3.5t3.5 -8.5v-500q0 -24 11.5 -39t30.5 -15t30.5 15t11.5 39v500q0 5 3.5 8.5t8.5 3.5h142q5 0 8.5 -3.5t3.5 -8.5v-484q0 -63 -26 -111t-73 -74.5t-109 -26.5t-109 26.5zM254 777
q-8 4 -14.5 8.5t-13 7t-13.5 2.5q-20 0 -33 -21q-3 -5 -8 -6.5t-9 2.5l-51 36q-8 6 -5 16q13 38 37.5 57t54.5 19q31 0 66 -23q2 -2 9.5 -6.5t15 -7.5t15.5 -3q22 0 34 18q7 11 16 5l50 -35q5 -3 5 -10q0 -6 -4 -13q-17 -33 -43 -47.5t-54 -14.5q-23 0 -55 16z" />
    <glyph glyph-name="utilde" unicode="&#x169;" horiz-adv-x="455" 
d="M263.5 513.5q3.5 3.5 8.5 3.5h142q5 0 8.5 -3.5t3.5 -8.5v-493q0 -5 -3.5 -8.5t-8.5 -3.5h-142q-5 0 -8.5 3.5t-3.5 8.5v13q0 3 -2 3.5t-4 -2.5q-15 -19 -36.5 -26.5t-50.5 -7.5q-60 0 -100 37t-40 114v362q0 5 3.5 8.5t8.5 3.5h142q5 0 8.5 -3.5t3.5 -8.5v-325
q0 -45 32 -45q17 0 26 12t9 34v324q0 5 3.5 8.5zM239 594q-8 4 -14.5 8.5t-13 7t-13.5 2.5q-20 0 -33 -21q-3 -5 -8 -6.5t-9 2.5l-51 36q-8 6 -5 16q13 38 37.5 57t54.5 19q31 0 66 -23q2 -2 9.5 -6.5t15 -7.5t15.5 -3q22 0 34 18q7 11 16 5l50 -35q5 -3 5 -10q0 -6 -4 -13
q-17 -33 -43 -47.5t-54 -14.5q-23 0 -55 16z" />
    <glyph glyph-name="Umacron" unicode="&#x16a;" horiz-adv-x="480" 
d="M131 18.5q-47 26.5 -73 74.5t-26 111v484q0 5 3.5 8.5t8.5 3.5h142q5 0 8.5 -3.5t3.5 -8.5v-500q0 -24 11.5 -39t30.5 -15t30.5 15t11.5 39v500q0 5 3.5 8.5t8.5 3.5h142q5 0 8.5 -3.5t3.5 -8.5v-484q0 -63 -26 -111t-73 -74.5t-109 -26.5t-109 26.5zM126.5 762.5
q-3.5 3.5 -3.5 8.5v88q0 5 3.5 8.5t8.5 3.5h202q5 0 8.5 -3.5t3.5 -8.5v-88q0 -5 -3.5 -8.5t-8.5 -3.5h-202q-5 0 -8.5 3.5z" />
    <glyph glyph-name="umacron" unicode="&#x16b;" horiz-adv-x="455" 
d="M263.5 513.5q3.5 3.5 8.5 3.5h142q5 0 8.5 -3.5t3.5 -8.5v-493q0 -5 -3.5 -8.5t-8.5 -3.5h-142q-5 0 -8.5 3.5t-3.5 8.5v13q0 3 -2 3.5t-4 -2.5q-15 -19 -36.5 -26.5t-50.5 -7.5q-60 0 -100 37t-40 114v362q0 5 3.5 8.5t8.5 3.5h142q5 0 8.5 -3.5t3.5 -8.5v-325
q0 -45 32 -45q17 0 26 12t9 34v324q0 5 3.5 8.5zM111.5 579.5q-3.5 3.5 -3.5 8.5v88q0 5 3.5 8.5t8.5 3.5h202q5 0 8.5 -3.5t3.5 -8.5v-88q0 -5 -3.5 -8.5t-8.5 -3.5h-202q-5 0 -8.5 3.5z" />
    <glyph glyph-name="Ubreve" unicode="&#x16c;" horiz-adv-x="480" 
d="M131 18.5q-47 26.5 -73 74.5t-26 111v484q0 5 3.5 8.5t8.5 3.5h142q5 0 8.5 -3.5t3.5 -8.5v-500q0 -24 11.5 -39t30.5 -15t30.5 15t11.5 39v500q0 5 3.5 8.5t8.5 3.5h142q5 0 8.5 -3.5t3.5 -8.5v-484q0 -63 -26 -111t-73 -74.5t-109 -26.5t-109 26.5zM153 773
q-34 30 -38 80q0 12 12 12h61q12 0 12 -12q3 -18 14 -29t27 -11q15 0 26 11t14 29q1 12 13 12h61q12 0 11 -12q-4 -49 -38.5 -79.5t-86.5 -30.5q-54 0 -88 30z" />
    <glyph glyph-name="ubreve" unicode="&#x16d;" horiz-adv-x="455" 
d="M263.5 513.5q3.5 3.5 8.5 3.5h142q5 0 8.5 -3.5t3.5 -8.5v-493q0 -5 -3.5 -8.5t-8.5 -3.5h-142q-5 0 -8.5 3.5t-3.5 8.5v13q0 3 -2 3.5t-4 -2.5q-15 -19 -36.5 -26.5t-50.5 -7.5q-60 0 -100 37t-40 114v362q0 5 3.5 8.5t8.5 3.5h142q5 0 8.5 -3.5t3.5 -8.5v-325
q0 -45 32 -45q17 0 26 12t9 34v324q0 5 3.5 8.5zM138 590q-34 30 -38 80q0 12 12 12h61q12 0 12 -12q3 -18 14 -29t27 -11q15 0 26 11t14 29q1 12 13 12h61q12 0 11 -12q-4 -49 -38.5 -79.5t-86.5 -30.5q-54 0 -88 30z" />
    <glyph glyph-name="Uring" unicode="&#x16e;" horiz-adv-x="480" 
d="M131 18.5q-47 26.5 -73 74.5t-26 111v484q0 5 3.5 8.5t8.5 3.5h142q5 0 8.5 -3.5t3.5 -8.5v-500q0 -24 11.5 -39t30.5 -15t30.5 15t11.5 39v500q0 5 3.5 8.5t8.5 3.5h142q5 0 8.5 -3.5t3.5 -8.5v-484q0 -63 -26 -111t-73 -74.5t-109 -26.5t-109 26.5zM148 777.5
q-37 37.5 -37 92.5t37.5 92t92.5 37t92 -37t37 -92q0 -56 -37 -93t-92 -37q-56 0 -93 37.5zM272 838q13 13 13 32t-13 32.5t-31 13.5q-19 0 -32 -13.5t-13 -32.5t13 -32t32 -13q18 0 31 13z" />
    <glyph glyph-name="uring" unicode="&#x16f;" horiz-adv-x="455" 
d="M263.5 513.5q3.5 3.5 8.5 3.5h142q5 0 8.5 -3.5t3.5 -8.5v-493q0 -5 -3.5 -8.5t-8.5 -3.5h-142q-5 0 -8.5 3.5t-3.5 8.5v13q0 3 -2 3.5t-4 -2.5q-15 -19 -36.5 -26.5t-50.5 -7.5q-60 0 -100 37t-40 114v362q0 5 3.5 8.5t8.5 3.5h142q5 0 8.5 -3.5t3.5 -8.5v-325
q0 -45 32 -45q17 0 26 12t9 34v324q0 5 3.5 8.5zM133 594.5q-37 37.5 -37 92.5t37.5 92t92.5 37t92 -37t37 -92q0 -56 -37 -93t-92 -37q-56 0 -93 37.5zM257 655q13 13 13 32t-13 32.5t-31 13.5q-19 0 -32 -13.5t-13 -32.5t13 -32t32 -13q18 0 31 13z" />
    <glyph glyph-name="Uhungarumlaut" unicode="&#x170;" horiz-adv-x="480" 
d="M131 18.5q-47 26.5 -73 74.5t-26 111v484q0 5 3.5 8.5t8.5 3.5h142q5 0 8.5 -3.5t3.5 -8.5v-500q0 -24 11.5 -39t30.5 -15t30.5 15t11.5 39v500q0 5 3.5 8.5t8.5 3.5h142q5 0 8.5 -3.5t3.5 -8.5v-484q0 -63 -26 -111t-73 -74.5t-109 -26.5t-109 26.5zM100.5 764.5
q-2.5 3.5 0.5 10.5l45 99q4 9 14 9h116q7 0 9.5 -3.5t-0.5 -10.5l-52 -99q-5 -9 -14 -9h-109q-7 0 -9.5 3.5zM270.5 765q-2.5 4 0.5 10l52 99q4 9 15 9h108q7 0 9.5 -3.5t-0.5 -10.5l-52 -99q-5 -9 -14 -9h-109q-7 0 -9.5 4z" />
    <glyph glyph-name="uhungarumlaut" unicode="&#x171;" horiz-adv-x="455" 
d="M263.5 513.5q3.5 3.5 8.5 3.5h142q5 0 8.5 -3.5t3.5 -8.5v-493q0 -5 -3.5 -8.5t-8.5 -3.5h-142q-5 0 -8.5 3.5t-3.5 8.5v13q0 3 -2 3.5t-4 -2.5q-15 -19 -36.5 -26.5t-50.5 -7.5q-60 0 -100 37t-40 114v362q0 5 3.5 8.5t8.5 3.5h142q5 0 8.5 -3.5t3.5 -8.5v-325
q0 -45 32 -45q17 0 26 12t9 34v324q0 5 3.5 8.5zM85.5 581.5q-2.5 3.5 0.5 10.5l45 99q4 9 14 9h116q7 0 9.5 -3.5t-0.5 -10.5l-52 -99q-5 -9 -14 -9h-109q-7 0 -9.5 3.5zM255.5 582q-2.5 4 0.5 10l52 99q4 9 15 9h108q7 0 9.5 -3.5t-0.5 -10.5l-52 -99q-5 -9 -14 -9h-109
q-7 0 -9.5 4z" />
    <glyph glyph-name="Uogonek" unicode="&#x172;" horiz-adv-x="480" 
d="M285.5 696.5q3.5 3.5 8.5 3.5h142q5 0 8.5 -3.5t3.5 -8.5v-484q0 -80 -40 -134t-110 -71l-6 -3q-21 -20 -31 -38.5t-7 -32.5q6 -20 23 -20h8q5 0 7.5 -1.5t3.5 -7.5l7 -57v-3q0 -8 -9 -11q-26 -8 -53 -8q-32 0 -56.5 14t-33.5 48q-3 13 -3 27q0 45 35 86q3 5 -2 7
q-70 17 -109.5 71t-39.5 134v484q0 5 3.5 8.5t8.5 3.5h142q5 0 8.5 -3.5t3.5 -8.5v-500q0 -24 11.5 -39t30.5 -15t30.5 15t11.5 39v500q0 5 3.5 8.5z" />
    <glyph glyph-name="uogonek" unicode="&#x173;" horiz-adv-x="455" 
d="M419 -6q-54 -46 -47 -78q5 -23 28 -21h3q10 0 11 -9l7 -56v-3q0 -8 -9 -12q-26 -8 -53 -8q-32 0 -57 14.5t-33 48.5q-3 13 -3 27q0 52 45 97q2 2 1 4t-4 2h-36q-5 0 -8.5 3.5t-3.5 8.5v13q0 3 -2 3.5t-4 -2.5q-15 -19 -36.5 -26.5t-50.5 -7.5q-60 0 -100 37t-40 114v362
q0 5 3.5 8.5t8.5 3.5h142q5 0 8.5 -3.5t3.5 -8.5v-325q0 -45 32 -45q17 0 26 12t9 34v324q0 5 3.5 8.5t8.5 3.5h142q5 0 8.5 -3.5t3.5 -8.5v-496q0 -9 -7 -15z" />
    <glyph glyph-name="Wcircumflex" unicode="&#x174;" horiz-adv-x="701" 
d="M154 11l-136 676l-1 4q0 9 11 9h147q12 0 13 -11l45 -329q1 -3 3 -3t3 3l45 329q1 11 13 11h117q12 0 13 -11l50 -329q1 -3 3 -3t2 3l41 329q1 11 12 11h144q13 0 11 -13l-129 -676q-1 -11 -13 -11h-128q-12 0 -13 11l-50 342q-1 3 -3.5 3t-2.5 -3l-44 -342
q-1 -11 -12 -11h-128q-11 0 -13 11zM187.5 758.5q-2.5 3.5 1.5 10.5l63 106q4 8 14 8h154q10 0 14 -8l66 -106q2 -6 2 -7q0 -7 -10 -7h-105q-10 0 -14 9l-26 51q-3 5 -6 0l-26 -51q-5 -9 -14 -9h-104q-7 0 -9.5 3.5z" />
    <glyph glyph-name="wcircumflex" unicode="&#x175;" horiz-adv-x="634" 
d="M122 11l-108 494v4q0 9 11 9h135q11 0 12 -11l33 -250q0 -3 3 -3t3 3l34 250q1 11 13 11h120q12 0 13 -11l36 -250q1 -4 3.5 -3.5t2.5 3.5l33 250q1 11 12 11l133 -2q13 0 10 -13l-107 -492q-2 -11 -13 -11h-138q-12 0 -13 11l-33 214q-1 4 -3 4t-3 -4l-31 -214
q-1 -11 -13 -11h-132q-11 0 -13 11zM157.5 575.5q-2.5 3.5 1.5 10.5l63 106q4 8 14 8h154q10 0 14 -8l66 -106q2 -6 2 -7q0 -7 -10 -7h-105q-10 0 -14 9l-26 51q-3 5 -6 0l-26 -51q-5 -9 -14 -9h-104q-7 0 -9.5 3.5z" />
    <glyph glyph-name="Ycircumflex" unicode="&#x176;" horiz-adv-x="492" 
d="M165.5 5.5q-3.5 3.5 -3.5 8.5v246l-1 6l-140 420q-1 2 -1 5q0 9 10 9h150q10 0 13 -11l50 -220q1 -4 3 -4t3 4l50 220q3 11 13 11h150q6 0 8.5 -3.5t0.5 -10.5l-142 -420l-1 -6v-246q0 -5 -3.5 -8.5t-8.5 -3.5h-142q-5 0 -8.5 3.5zM87.5 758.5q-2.5 3.5 1.5 10.5l63 106
q4 8 14 8h154q10 0 14 -8l66 -106q2 -6 2 -7q0 -7 -10 -7h-105q-10 0 -14 9l-26 51q-3 5 -6 0l-26 -51q-5 -9 -14 -9h-104q-7 0 -9.5 3.5z" />
    <glyph glyph-name="ycircumflex" unicode="&#x177;" horiz-adv-x="442" 
d="M30 -187v112q0 12 9 12q54 0 77 12t22 48l-1 6l-126 502v4q0 9 11 9h153q11 0 12 -11l32 -263q0 -3 3 -2.5t3 3.5l30 262q1 11 12 11l153 -2q14 0 11 -13l-129 -513q-21 -75 -45.5 -113.5t-73.5 -57t-141 -18.5h-6q-6 0 -6 12zM61.5 575.5q-2.5 3.5 1.5 10.5l63 106
q4 8 14 8h154q10 0 14 -8l66 -106q2 -6 2 -7q0 -7 -10 -7h-105q-10 0 -14 9l-26 51q-3 5 -6 0l-26 -51q-5 -9 -14 -9h-104q-7 0 -9.5 3.5z" />
    <glyph glyph-name="Ydieresis" unicode="&#x178;" horiz-adv-x="492" 
d="M165.5 5.5q-3.5 3.5 -3.5 8.5v246l-1 6l-140 420q-1 2 -1 5q0 9 10 9h150q10 0 13 -11l50 -220q1 -4 3 -4t3 4l50 220q3 11 13 11h150q6 0 8.5 -3.5t0.5 -10.5l-142 -420l-1 -6v-246q0 -5 -3.5 -8.5t-8.5 -3.5h-142q-5 0 -8.5 3.5zM282.5 770.5q-24.5 24.5 -24.5 62.5
q0 39 24.5 63t62.5 24t62 -24t24 -63q0 -38 -24.5 -62.5t-61.5 -24.5q-38 0 -62.5 24.5zM85.5 770.5q-24.5 24.5 -24.5 62.5q0 39 24.5 63t62.5 24t62 -24t24 -63q0 -38 -24.5 -62.5t-61.5 -24.5q-38 0 -62.5 24.5z" />
    <glyph glyph-name="Zacute" unicode="&#x179;" horiz-adv-x="419" 
d="M19.5 3.5q-3.5 3.5 -3.5 8.5v122q0 5 4 15l202 403q1 3 0 4.5t-4 1.5h-190q-5 0 -8.5 3.5t-3.5 8.5v118q0 5 3.5 8.5t8.5 3.5h360q5 0 8.5 -3.5t3.5 -8.5v-122q0 -5 -4 -15l-204 -403q-1 -3 0 -4.5t4 -1.5h192q5 0 8.5 -3.5t3.5 -8.5v-118q0 -5 -3.5 -8.5t-8.5 -3.5h-360
q-5 0 -8.5 3.5zM136 765q-3 4 1 10l59 100q4 8 14 8h112q10 0 10 -7q0 -3 -3 -8l-78 -100q-6 -7 -15 -7h-90q-7 0 -10 4z" />
    <glyph glyph-name="zacute" unicode="&#x17a;" horiz-adv-x="377" 
d="M16.5 3.5q-3.5 3.5 -3.5 8.5v130q0 7 5 15l137 204q2 2 1 4t-4 2h-121q-5 0 -8.5 3.5t-3.5 8.5v126q0 5 3.5 8.5t8.5 3.5h314q5 0 8.5 -3.5t3.5 -8.5v-130q0 -7 -5 -15l-146 -204q-2 -2 -1 -4t4 -2h144q5 0 8.5 -3.5t3.5 -8.5v-126q0 -5 -3.5 -8.5t-8.5 -3.5h-328
q-5 0 -8.5 3.5zM116 582q-3 4 1 10l59 100q4 8 14 8h112q10 0 10 -7q0 -3 -3 -8l-78 -100q-6 -7 -15 -7h-90q-7 0 -10 4z" />
    <glyph glyph-name="Zdotaccent" unicode="&#x17b;" horiz-adv-x="419" 
d="M19.5 3.5q-3.5 3.5 -3.5 8.5v122q0 5 4 15l202 403q1 3 0 4.5t-4 1.5h-190q-5 0 -8.5 3.5t-3.5 8.5v118q0 5 3.5 8.5t8.5 3.5h360q5 0 8.5 -3.5t3.5 -8.5v-122q0 -5 -4 -15l-204 -403q-1 -3 0 -4.5t4 -1.5h192q5 0 8.5 -3.5t3.5 -8.5v-118q0 -5 -3.5 -8.5t-8.5 -3.5h-360
q-5 0 -8.5 3.5zM145.5 770.5q-24.5 24.5 -24.5 62.5q0 39 24.5 63t62.5 24t62 -24t24 -63q0 -38 -24.5 -62.5t-61.5 -24.5q-38 0 -62.5 24.5z" />
    <glyph glyph-name="zdotaccent" unicode="&#x17c;" horiz-adv-x="377" 
d="M16.5 3.5q-3.5 3.5 -3.5 8.5v130q0 7 5 15l137 204q2 2 1 4t-4 2h-121q-5 0 -8.5 3.5t-3.5 8.5v126q0 5 3.5 8.5t8.5 3.5h314q5 0 8.5 -3.5t3.5 -8.5v-130q0 -7 -5 -15l-146 -204q-2 -2 -1 -4t4 -2h144q5 0 8.5 -3.5t3.5 -8.5v-126q0 -5 -3.5 -8.5t-8.5 -3.5h-328
q-5 0 -8.5 3.5zM126.5 587.5q-24.5 24.5 -24.5 62.5q0 39 24.5 63t62.5 24t62 -24t24 -63q0 -38 -24.5 -62.5t-61.5 -24.5q-38 0 -62.5 24.5z" />
    <glyph glyph-name="Zcaron" unicode="&#x17d;" horiz-adv-x="419" 
d="M19.5 3.5q-3.5 3.5 -3.5 8.5v122q0 5 4 15l202 403q1 3 0 4.5t-4 1.5h-190q-5 0 -8.5 3.5t-3.5 8.5v118q0 5 3.5 8.5t8.5 3.5h360q5 0 8.5 -3.5t3.5 -8.5v-122q0 -5 -4 -15l-204 -403q-1 -3 0 -4.5t4 -1.5h192q5 0 8.5 -3.5t3.5 -8.5v-118q0 -5 -3.5 -8.5t-8.5 -3.5h-360
q-5 0 -8.5 3.5zM55 876q0 7 10 7h104q10 0 14 -9l26 -51q3 -4 6 0l26 51q5 9 14 9h105q7 0 9.5 -3.5t-1.5 -10.5l-66 -106q-4 -8 -14 -8h-154q-10 0 -14 8l-63 106q-2 6 -2 7z" />
    <glyph glyph-name="zcaron" unicode="&#x17e;" horiz-adv-x="377" 
d="M16.5 3.5q-3.5 3.5 -3.5 8.5v130q0 7 5 15l137 204q2 2 1 4t-4 2h-121q-5 0 -8.5 3.5t-3.5 8.5v126q0 5 3.5 8.5t8.5 3.5h314q5 0 8.5 -3.5t3.5 -8.5v-130q0 -7 -5 -15l-146 -204q-2 -2 -1 -4t4 -2h144q5 0 8.5 -3.5t3.5 -8.5v-126q0 -5 -3.5 -8.5t-8.5 -3.5h-328
q-5 0 -8.5 3.5zM35 693q0 7 10 7h104q10 0 14 -9l26 -51q3 -4 6 0l26 51q5 9 14 9h105q7 0 9.5 -3.5t-1.5 -10.5l-66 -106q-4 -8 -14 -8h-154q-10 0 -14 8l-63 106q-2 6 -2 7z" />
    <glyph glyph-name="uni018F" unicode="&#x18f;" horiz-adv-x="551" 
d="M457.5 646.5q66.5 -61.5 66.5 -166.5v-263q0 -67 -30 -118.5t-86.5 -80.5t-133.5 -29t-133.5 29t-86.5 80.5t-30 118.5v174q0 5 3.5 8.5t8.5 3.5h317q5 0 5 5v60q0 43 -23.5 70t-60.5 27q-33 0 -55 -21.5t-28 -55.5q-3 -10 -13 -10l-139 8q-5 0 -8.5 3.5t-2.5 8.5
q8 101 70.5 155.5t175.5 54.5q117 0 183.5 -61.5zM334.5 159.5q23.5 27.5 23.5 70.5v41q0 5 -5 5h-159q-5 0 -5 -5v-41q0 -43 24 -70.5t61 -27.5t60.5 27.5z" />
    <glyph glyph-name="florin" unicode="&#x192;" horiz-adv-x="481" 
d="M385 570.5q-13 -13.5 -16 -34.5l-17 -109q0 -5 4 -5h56q5 0 8.5 -3.5t3.5 -8.5v-106q0 -5 -3.5 -8.5t-8.5 -3.5h-77q-6 0 -6 -5l-55 -342q-10 -59 -35.5 -90.5t-75 -44.5t-136.5 -11q-12 0 -12 12l1 92q0 5 3.5 8.5t8.5 3.5h32q22 1 35 14.5t16 34.5l51 323q0 5 -4 5h-40
q-5 0 -8.5 3.5t-3.5 8.5v106q0 5 3.5 8.5t8.5 3.5h61q6 0 6 5l20 128q10 59 35.5 90.5t75.5 44.5t137 11q12 0 12 -12l-1 -92q0 -5 -3.5 -8.5t-8.5 -3.5h-32q-22 -1 -35 -14.5z" />
    <glyph glyph-name="Ohorn" unicode="&#x1a0;" horiz-adv-x="479" 
d="M394 651q58 -56 58 -150v-302q0 -95 -58.5 -151t-154.5 -56q-97 0 -154.5 56t-57.5 151v302q0 94 57.5 150.5t154.5 56.5q28 0 63 -7q2 -1 6 -1q47 4 52 74q0 12 12 12h61q5 0 8.5 -5t2.5 -14q-4 -73 -50 -109q-3 -3 0 -7zM286 508q0 27 -12.5 42.5t-34.5 15.5t-34 -15.5
t-12 -42.5v-316q0 -27 12 -42.5t34 -15.5t34.5 15.5t12.5 42.5v316z" />
    <glyph glyph-name="ohorn" unicode="&#x1a1;" horiz-adv-x="452" 
d="M384 468q44 -44 44 -116v-187q0 -81 -53 -127t-149 -46t-149 46t-53 127v187q0 78 53.5 125.5t148.5 47.5q32 0 67 -7q2 -1 6 -1q19 2 33.5 19t17.5 56q0 12 12 12h61q5 0 8.5 -5t2.5 -14q-4 -74 -50 -110q-3 -3 0 -7zM252 370.5q-10 12.5 -26 12.5t-26 -12.5t-10 -31.5
v-160q0 -20 10 -32t26 -12t26 12t10 32v160q0 19 -10 31.5z" />
    <glyph glyph-name="Uhorn" unicode="&#x1af;" horiz-adv-x="480" 
d="M527 774q-4 -100 -75 -130q-4 -3 -4 -6v-434q0 -63 -26 -111t-73 -74.5t-109 -26.5t-109 26.5t-73 74.5t-26 111v484q0 5 3.5 8.5t8.5 3.5h142q5 0 8.5 -3.5t3.5 -8.5v-500q0 -24 11.5 -39t30.5 -15t30.5 15t11.5 39v500q0 5 3.5 8.5t8.5 3.5h90q53 0 58 73q0 13 12 13
h61q12 0 12 -12z" />
    <glyph glyph-name="uhorn" unicode="&#x1b0;" horiz-adv-x="455" 
d="M502 592q-4 -98 -72 -130q-4 -3 -4 -6v-444q0 -5 -3.5 -8.5t-8.5 -3.5h-142q-5 0 -8.5 3.5t-3.5 8.5v13q0 3 -2 3.5t-4 -2.5q-15 -19 -36.5 -26.5t-50.5 -7.5q-60 0 -100 37t-40 114v362q0 5 3.5 8.5t8.5 3.5h142q5 0 8.5 -3.5t3.5 -8.5v-325q0 -45 32 -45q17 0 26 12
t9 34v324q0 5 3.5 8.5t8.5 3.5h87q22 0 38.5 16.5t19.5 58.5q0 12 12 12h61q12 0 12 -12z" />
    <glyph glyph-name="uni01CD" unicode="&#x1cd;" horiz-adv-x="508" 
d="M325 11l-13 87q0 5 -6 5h-108q-6 0 -6 -5l-12 -87q-1 -11 -13 -11h-142q-13 0 -10 13l145 676q2 11 13 11h163q11 0 13 -11l144 -676l1 -4q0 -9 -11 -9h-145q-12 0 -13 11zM218 231h67q4 0 4 5l-36 228q-1 4 -3 4t-3 -4l-33 -228q0 -5 4 -5zM99 875q0 7 10 7h104
q10 0 14 -9l26 -51q3 -4 6 0l26 51q5 9 14 9h105q7 0 9.5 -3.5t-1.5 -10.5l-66 -106q-4 -8 -14 -8h-154q-10 0 -14 8l-63 106q-2 6 -2 7z" />
    <glyph glyph-name="uni01CE" unicode="&#x1ce;" horiz-adv-x="457" 
d="M376.5 479q56.5 -46 56.5 -121v-346q0 -5 -3.5 -8.5t-8.5 -3.5h-142q-5 0 -8.5 3.5t-3.5 8.5v24q0 3 -2 3.5t-4 -2.5q-34 -45 -106 -45q-138 0 -138 157q0 67 25 102t68.5 46.5t111.5 11.5h40q5 0 5 5v24q0 20 -11 32.5t-28 12.5q-13 0 -21.5 -7.5t-11.5 -21.5
q-1 -12 -12 -12l-146 1q-12 0 -12 12q5 79 60.5 124.5t142.5 45.5q92 0 148.5 -46zM253 126.5q14 11.5 14 29.5v37q0 5 -5 5h-30q-20 0 -32.5 -12t-12.5 -32q0 -19 10 -29t25 -10q17 0 31 11.5zM73 693q0 7 10 7h104q10 0 14 -9l26 -51q3 -4 6 0l26 51q5 9 14 9h105
q7 0 9.5 -3.5t-1.5 -10.5l-66 -106q-4 -8 -14 -8h-154q-10 0 -14 8l-63 106q-2 6 -2 7z" />
    <glyph glyph-name="uni01D4" unicode="&#x1d4;" horiz-adv-x="455" 
d="M263.5 513.5q3.5 3.5 8.5 3.5h142q5 0 8.5 -3.5t3.5 -8.5v-493q0 -5 -3.5 -8.5t-8.5 -3.5h-142q-5 0 -8.5 3.5t-3.5 8.5v13q0 3 -2 3.5t-4 -2.5q-15 -19 -36.5 -26.5t-50.5 -7.5q-60 0 -100 37t-40 114v362q0 5 3.5 8.5t8.5 3.5h142q5 0 8.5 -3.5t3.5 -8.5v-325
q0 -45 32 -45q17 0 26 12t9 34v324q0 5 3.5 8.5zM69 693q0 7 10 7h104q10 0 14 -9l26 -51q3 -4 6 0l26 51q5 9 14 9h105q7 0 9.5 -3.5t-1.5 -10.5l-66 -106q-4 -8 -14 -8h-154q-10 0 -14 8l-63 106q-2 6 -2 7z" />
    <glyph glyph-name="uni01E5" unicode="&#x1e5;" horiz-adv-x="465" 
d="M452.5 305.5q3.5 -3.5 3.5 -8.5v-74q0 -5 -3.5 -8.5t-8.5 -3.5h-15q-5 0 -5 -5v-176q0 -74 -21 -126t-76.5 -82.5t-155.5 -30.5q-16 0 -54 2q-12 1 -12 13v119q0 13 13 11l23 -1q48 0 73 11.5t34 32t10 53.5q0 4 -2.5 4.5t-4.5 -2.5q-31 -40 -90 -40q-70 0 -103.5 45
t-33.5 128v185q0 173 137 173q61 0 91 -45q2 -3 4 -2.5t2 3.5v24q0 5 3.5 8.5t8.5 3.5h142q5 0 8.5 -3.5t3.5 -8.5v-191q0 -5 5 -5h15q5 0 8.5 -3.5zM248.5 149q9.5 12 9.5 31v26q0 5 -5 5h-21q-5 0 -8.5 3.5t-3.5 8.5v74q0 5 3.5 8.5t8.5 3.5h21q5 0 5 5v25q0 20 -9.5 32
t-25.5 12q-15 0 -24 -12t-9 -32v-159q0 -20 9 -31.5t24 -11.5q16 0 25.5 12z" />
    <glyph glyph-name="gcaron" unicode="&#x1e7;" horiz-adv-x="451" 
d="M261.5 513.5q3.5 3.5 8.5 3.5h142q5 0 8.5 -3.5t3.5 -8.5v-475q0 -74 -21 -126t-76.5 -82.5t-155.5 -30.5q-16 0 -54 2q-12 1 -12 13v119q0 13 13 11l23 -1q48 0 73 11.5t34 32t10 53.5q0 4 -2.5 4.5t-4.5 -2.5q-31 -40 -90 -40q-70 0 -103.5 45t-33.5 128v185
q0 173 137 173q61 0 91 -45q2 -3 4 -2.5t2 3.5v24q0 5 3.5 8.5zM248.5 149q9.5 12 9.5 31v159q0 20 -9.5 32t-25.5 12q-15 0 -24 -12t-9 -32v-159q0 -20 9 -31.5t24 -11.5q16 0 25.5 12zM72 693q0 7 10 7h104q10 0 14 -9l26 -51q3 -4 6 0l26 51q5 9 14 9h105q7 0 9.5 -3.5
t-1.5 -10.5l-66 -106q-4 -8 -14 -8h-154q-10 0 -14 8l-63 106q-2 6 -2 7z" />
    <glyph glyph-name="uni01E9" unicode="&#x1e9;" horiz-adv-x="465" 
d="M32.5 3.5q-3.5 3.5 -3.5 8.5v676q0 5 3.5 8.5t8.5 3.5h142q5 0 8.5 -3.5t3.5 -8.5v-306q0 -4 2 -4.5t4 2.5l67 128q5 9 14 9h146q7 0 9.5 -3.5t-1.5 -10.5l-111 -179q-2 -4 -1 -7l122 -303q1 -2 1 -6q0 -8 -10 -8h-146q-10 0 -13 10l-55 171q-1 4 -3 4t-4 -3l-19 -35
q-2 -4 -2 -6v-129q0 -5 -3.5 -8.5t-8.5 -3.5h-142q-5 0 -8.5 3.5zM75 875q0 7 10 7h104q10 0 14 -9l26 -51q3 -4 6 0l26 51q5 9 14 9h105q7 0 9.5 -3.5t-1.5 -10.5l-66 -106q-4 -8 -14 -8h-154q-10 0 -14 8l-63 106q-2 6 -2 7z" />
    <glyph glyph-name="uni01EF" unicode="&#x1ef;" horiz-adv-x="407" 
d="M236.5 254q0.5 -2 3.5 -3q68 -23 108.5 -79t40.5 -129q0 -66 -32.5 -120.5t-89.5 -86t-128 -31.5q-46 0 -97 15q-10 3 -10 13l3 121q0 14 14 9q33 -13 67 -13q46 0 76.5 25.5t30.5 79.5q0 43 -22 72.5t-59 29.5q-23 0 -49 -13q-3 -2 -8 -2t-8 6l-42 88q-1 2 -1 6
q0 6 5 11l124 108q2 2 1.5 4t-3.5 2h-125q-5 0 -8.5 3.5t-3.5 8.5v126q0 5 3.5 8.5t8.5 3.5h311q5 0 8.5 -3.5t3.5 -8.5v-129q0 -8 -7 -15l-114 -103q-2 -2 -1.5 -4zM34 693q0 7 10 7h104q10 0 14 -9l26 -51q3 -4 6 0l26 51q5 9 14 9h105q7 0 9.5 -3.5t-1.5 -10.5l-66 -106
q-4 -8 -14 -8h-154q-10 0 -14 8l-63 106q-2 6 -2 7z" />
    <glyph glyph-name="oslashacute" unicode="&#x1ff;" horiz-adv-x="452" 
d="M440 508l-35 -62q-1 -3 0 -6q22 -38 22 -88v-187q0 -81 -53 -127t-149 -46q-37 0 -72 8q-4 2 -6 -3l-30 -55q-3 -5 -7.5 -6t-9.5 2l-81 51q-9 6 -4 16l32 60q1 4 0 6q-24 41 -24 94v187q0 78 53.5 125.5t148.5 47.5q38 0 76 -10q5 -1 6 3l29 53q3 5 7.5 6.5t9.5 -1.5
l83 -52q10 -7 4 -16zM251 370.5q-10 12.5 -26 12.5t-26 -12.5t-10 -31.5v-160q0 -20 10 -32t26 -12t26 12t10 32v160q0 19 -10 31.5zM155 582q-3 4 1 10l59 100q4 8 14 8h112q10 0 10 -7q0 -3 -3 -8l-78 -100q-6 -7 -15 -7h-90q-7 0 -10 4z" />
    <glyph glyph-name="uni0218" unicode="&#x218;" horiz-adv-x="454" 
d="M123 15.5q-46 23.5 -71.5 66t-25.5 96.5v31q0 5 3.5 8.5t8.5 3.5h140q5 0 8.5 -3.5t3.5 -8.5v-23q0 -24 11.5 -38t29.5 -14t29.5 13.5t11.5 34.5q0 23 -18 41.5t-72 57.5q-50 36 -82 64.5t-55 71t-23 98.5q0 57 25.5 101t72 68t106.5 24q61 0 107.5 -24.5t72 -69
t25.5 -102.5v-24q0 -5 -3.5 -8.5t-8.5 -3.5h-139q-5 0 -8.5 3.5t-3.5 8.5v28q0 22 -12 36t-30 14t-29 -14t-11 -37q0 -25 17 -45t69 -58q63 -47 95 -76t50 -64.5t18 -83.5q0 -90 -56.5 -143t-148.5 -53q-61 0 -107 23.5zM126 -172q-3 4 1 10l59 100q4 8 14 8h112q10 0 10 -7
q0 -3 -3 -8l-78 -100q-6 -7 -15 -7h-90q-7 0 -10 4z" />
    <glyph glyph-name="uni0219" unicode="&#x219;" horiz-adv-x="426" 
d="M72 35.5q-54 43.5 -54 114.5v6q0 5 3.5 8.5t8.5 3.5h134q5 0 8.5 -3.5t3.5 -8.5v-2q0 -18 12.5 -28.5t27.5 -10.5q14 0 22 8.5t8 21.5q0 18 -17 27.5t-54 21.5l-22 7q-129 44 -129 160q0 76 51 120t136 44q87 0 139 -47.5t52 -125.5q0 -11 -12 -11h-130q-5 0 -8.5 3.5
t-3.5 8.5v8q0 16 -9 25.5t-24 9.5t-23.5 -10.5t-8.5 -24.5q0 -22 20 -34t56 -24q44 -15 76 -31.5t55 -47t23 -77.5q0 -72 -53.5 -113.5t-142.5 -41.5q-91 0 -145 43.5zM113 -171q-3 4 1 10l59 100q4 8 14 8h112q10 0 10 -7q0 -3 -3 -8l-78 -100q-6 -7 -15 -7h-90q-7 0 -10 4
z" />
    <glyph glyph-name="uni021A" unicode="&#x21a;" horiz-adv-x="485" 
d="M460.5 696.5q3.5 -3.5 3.5 -8.5v-118q0 -5 -3.5 -8.5t-8.5 -3.5h-124q-5 0 -5 -5v-541q0 -5 -3.5 -8.5t-8.5 -3.5h-142q-5 0 -8.5 3.5t-3.5 8.5v541q0 5 -5 5h-119q-5 0 -8.5 3.5t-3.5 8.5v118q0 5 3.5 8.5t8.5 3.5h419q5 0 8.5 -3.5zM87 -165q-3 4 1 10l59 100q4 8 14 8
h112q10 0 10 -7q0 -3 -3 -8l-78 -100q-6 -7 -15 -7h-90q-7 0 -10 4z" />
    <glyph glyph-name="uni021B" unicode="&#x21b;" horiz-adv-x="299" 
d="M280.5 405.5q-3.5 -3.5 -8.5 -3.5h-51q-5 0 -5 -5v-214q0 -23 9.5 -32t28.5 -8h5q5 0 8.5 -3.5t3.5 -8.5v-119q0 -5 -3.5 -8.5t-8.5 -3.5h-45q-78 0 -117.5 24t-39.5 93v280q0 5 -5 5h-32q-5 0 -8.5 3.5t-3.5 8.5v91q0 5 3.5 8.5t8.5 3.5h32q5 0 5 5v111q0 5 3.5 8.5
t8.5 3.5h135q5 0 8.5 -3.5t3.5 -8.5v-111q0 -5 5 -5h51q5 0 8.5 -3.5t3.5 -8.5v-91q0 -5 -3.5 -8.5zM74 -160q-3 4 1 10l59 100q4 8 14 8h112q10 0 10 -7q0 -3 -3 -8l-78 -100q-6 -7 -15 -7h-90q-7 0 -10 4z" />
    <glyph glyph-name="uni021F" unicode="&#x21f;" horiz-adv-x="455" 
d="M394 479q34 -46 34 -130v-337q0 -5 -3.5 -8.5t-8.5 -3.5h-142q-5 0 -8.5 3.5t-3.5 8.5v326q0 45 -32 45q-17 0 -26 -12t-9 -34v-325q0 -5 -3.5 -8.5t-8.5 -3.5h-142q-5 0 -8.5 3.5t-3.5 8.5v676q0 5 3.5 8.5t8.5 3.5h142q5 0 8.5 -3.5t3.5 -8.5v-203q0 -2 2 -2q4 0 8 6
q30 36 84 36q71 0 105 -46zM75 875q0 7 10 7h104q10 0 14 -9l26 -51q3 -4 6 0l26 51q5 9 14 9h105q7 0 9.5 -3.5t-1.5 -10.5l-66 -106q-4 -8 -14 -8h-154q-10 0 -14 8l-63 106q-2 6 -2 7z" />
    <glyph glyph-name="uni0228" unicode="&#x228;" horiz-adv-x="441" 
d="M415.5 561.5q-3.5 -3.5 -8.5 -3.5h-201q-5 0 -5 -5v-126q0 -5 5 -5h110q5 0 8.5 -3.5t3.5 -8.5v-119q0 -5 -3.5 -8.5t-8.5 -3.5h-110q-5 0 -5 -5v-127q0 -5 5 -5h201q5 0 8.5 -3.5t3.5 -8.5v-118q0 -5 -3.5 -8.5t-8.5 -3.5h-124q-3 0 -4 -2t1 -4q31 -40 31 -82
q0 -14 -3 -27q-8 -34 -32.5 -48t-56.5 -14q-28 0 -54 8q-10 3 -9 14l8 57q1 11 14 9q12 -2 20 5t8 23q0 25 -33 58q-3 3 -7 3h-119q-5 0 -8.5 3.5t-3.5 8.5v676q0 5 3.5 8.5t8.5 3.5h360q5 0 8.5 -3.5t3.5 -8.5v-118q0 -5 -3.5 -8.5z" />
    <glyph glyph-name="uni0229" unicode="&#x229;" horiz-adv-x="446" 
d="M421.5 216.5q-3.5 -3.5 -8.5 -3.5h-218q-5 0 -5 -5v-30q0 -20 9.5 -32t25.5 -12q14 0 23 10t12 25q1 11 13 11l138 -8q5 0 8.5 -3.5t2.5 -9.5q-9 -137 -133 -162q-6 -2 -3 -6q29 -36 29 -79q0 -14 -3 -27q-8 -34 -32.5 -48t-56.5 -14q-28 0 -54 8q-10 3 -9 14l7 57
q1 6 4 7.5t8 1.5h7q17 0 23 20q6 27 -29 62l-5 3q-72 11 -111.5 55t-39.5 114v187q0 78 53.5 125.5t147.5 47.5t147 -47t53 -126v-127q0 -5 -3.5 -8.5zM199.5 371q-9.5 -12 -9.5 -32v-31q0 -5 5 -5h59q5 0 5 5v31q0 19 -9.5 31.5t-24.5 12.5q-16 0 -25.5 -12z" />
    <glyph glyph-name="uni0237" unicode="&#x237;" horiz-adv-x="227" 
d="M-66 -190v117q0 7 4.5 9t14.5 2q44 0 60 19t16 58v490q0 5 3.5 8.5t8.5 3.5h142q5 0 8.5 -3.5t3.5 -8.5v-490q0 -83 -13.5 -127t-67 -68t-168.5 -22q-12 0 -12 12z" />
    <glyph glyph-name="uni0259" unicode="&#x259;" horiz-adv-x="446" 
d="M369 479.5q53 -45.5 53 -127.5v-187q0 -78 -53.5 -125.5t-147.5 -47.5t-147 47t-53 126v127q0 5 3.5 8.5t8.5 3.5h218q5 0 5 5v30q0 20 -9.5 32t-25.5 12q-14 0 -23 -10t-11 -25q-3 -10 -14 -10l-138 8q-5 0 -8.5 3.5t-3.5 8.5q5 84 54 125.5t144 41.5t148 -45.5z
M246.5 146q9.5 12 9.5 32v32q0 5 -5 5h-59q-5 0 -5 -5v-32q0 -19 9.5 -31.5t24.5 -12.5q16 0 25.5 12z" />
    <glyph glyph-name="uni0292" unicode="&#x292;" horiz-adv-x="407" 
d="M236.5 254q0.5 -2 3.5 -3q68 -23 108.5 -79t40.5 -129q0 -66 -32.5 -120.5t-89.5 -86t-128 -31.5q-46 0 -97 15q-10 3 -10 13l3 121q0 14 14 9q33 -13 67 -13q46 0 76.5 25.5t30.5 79.5q0 43 -22 72.5t-59 29.5q-23 0 -49 -13q-3 -2 -8 -2t-8 6l-42 88q-1 2 -1 6
q0 6 5 11l124 108q2 2 1.5 4t-3.5 2h-125q-5 0 -8.5 3.5t-3.5 8.5v126q0 5 3.5 8.5t8.5 3.5h311q5 0 8.5 -3.5t3.5 -8.5v-129q0 -8 -7 -15l-114 -103q-2 -2 -1.5 -4z" />
    <glyph glyph-name="uni02BB" unicode="&#x2bb;" horiz-adv-x="211" 
d="M4 691q0 9 10 9h141q12 0 13 -11l40 -209l1 -4q0 -9 -11 -9h-108q-10 0 -13 10l-72 209q-1 2 -1 5z" />
    <glyph glyph-name="uni02BC" unicode="&#x2bc;" horiz-adv-x="211" 
d="M205.5 696.5q2.5 -3.5 0.5 -10.5l-72 -209q-3 -10 -13 -10h-108q-13 0 -11 13l40 209q1 11 13 11h142q6 0 8.5 -3.5z" />
    <glyph glyph-name="circumflex" unicode="&#x2c6;" horiz-adv-x="328" 
d="M16.5 575.5q-2.5 3.5 1.5 10.5l63 106q4 8 14 8h154q10 0 14 -8l66 -106q2 -6 2 -7q0 -7 -10 -7h-105q-10 0 -14 9l-26 51q-3 5 -6 0l-26 -51q-5 -9 -14 -9h-104q-7 0 -9.5 3.5z" />
    <glyph glyph-name="caron" unicode="&#x2c7;" horiz-adv-x="351" 
d="M18 693q0 7 10 7h104q10 0 14 -9l26 -51q3 -4 6 0l26 51q5 9 14 9h105q7 0 9.5 -3.5t-1.5 -10.5l-66 -106q-4 -8 -14 -8h-154q-10 0 -14 8l-63 106q-2 6 -2 7z" />
    <glyph glyph-name="uni02C9" unicode="&#x2c9;" horiz-adv-x="226" 
d="M3.5 592.5q-3.5 3.5 -3.5 8.5v87q0 5 3.5 8.5t8.5 3.5h202q5 0 8.5 -3.5t3.5 -8.5v-87q0 -5 -3.5 -8.5t-8.5 -3.5h-202q-5 0 -8.5 3.5z" />
    <glyph glyph-name="breve" unicode="&#x2d8;" horiz-adv-x="273" 
d="M49.5 576q-33.5 30 -38.5 80q0 12 12 12h61q12 0 13 -12q2 -18 13 -29t27 -11t26.5 11t13.5 29q2 12 13 12h61q12 0 12 -12q-5 -50 -39 -80t-87 -30q-54 0 -87.5 30z" />
    <glyph glyph-name="dotaccent" unicode="&#x2d9;" horiz-adv-x="195" 
d="M35.5 587.5q-24.5 24.5 -24.5 62.5q0 39 24.5 63t62.5 24t62 -24t24 -63q0 -38 -24.5 -62.5t-61.5 -24.5q-38 0 -62.5 24.5z" />
    <glyph glyph-name="ring" unicode="&#x2da;" horiz-adv-x="280" 
d="M48 594.5q-37 37.5 -37 92.5t37.5 92t92.5 37t92 -37t37 -92q0 -56 -37 -93t-92 -37q-56 0 -93 37.5zM172 655q13 13 13 32t-13 32.5t-31 13.5q-19 0 -32 -13.5t-13 -32.5t13 -32t32 -13q18 0 31 13z" />
    <glyph glyph-name="ogonek" unicode="&#x2db;" horiz-adv-x="162" 
d="M154 -173q0 -8 -9 -12q-26 -8 -53 -8q-74 0 -89 63q-3 13 -3 27q0 52 44 97q6 6 15 6h78q10 0 10 -6q0 -4 -5 -9q-21 -19 -30.5 -37t-6.5 -32q5 -23 28 -21h3q10 0 11 -9l7 -56v-3z" />
    <glyph glyph-name="tilde" unicode="&#x2dc;" horiz-adv-x="331" 
d="M161 594q-8 4 -14.5 8.5t-13 7t-13.5 2.5q-20 0 -33 -21q-3 -5 -8 -6.5t-9 2.5l-51 36q-8 6 -5 16q13 38 37.5 57t54.5 19q31 0 66 -23q2 -2 9.5 -6.5t15 -7.5t15.5 -3q22 0 34 18q7 11 16 5l50 -35q5 -3 5 -10q0 -6 -4 -13q-17 -33 -43 -47.5t-54 -14.5q-23 0 -55 16z
" />
    <glyph glyph-name="hungarumlaut" unicode="&#x2dd;" horiz-adv-x="400" 
d="M18 590q-3 4 1 10l57 100q5 8 15 8h109q8 0 10 -4.5t-2 -10.5l-77 -100q-6 -7 -15 -7h-88q-7 0 -10 4zM188 590q-3 4 1 10l58 100q4 8 15 8h109q8 0 10 -4.5t-2 -10.5l-77 -100q-6 -7 -15 -7h-89q-7 0 -10 4z" />
    <glyph glyph-name="gravecomb" unicode="&#x300;" 
d="M-15 586q0 -8 -11 -8h-91q-9 0 -15 7l-78 100q-3 5 -3 7q0 8 11 8h112q10 0 14 -8l59 -100z" />
    <glyph glyph-name="acutecomb" unicode="&#x301;" 
d="M-214 582q-3 4 1 10l59 100q4 8 14 8h112q10 0 10 -7q0 -3 -3 -8l-78 -100q-6 -7 -15 -7h-90q-7 0 -10 4z" />
    <glyph glyph-name="uni0302" unicode="&#x302;" 
d="M-332.5 575.5q-2.5 3.5 1.5 10.5l63 106q4 8 14 8h154q10 0 14 -8l66 -106q2 -6 2 -7q0 -7 -10 -7h-105q-10 0 -14 9l-26 51q-3 5 -6 0l-26 -51q-5 -9 -14 -9h-104q-7 0 -9.5 3.5z" />
    <glyph glyph-name="tildecomb" unicode="&#x303;" 
d="M-160 594q-8 4 -14.5 8.5t-13 7t-13.5 2.5q-20 0 -33 -21q-3 -5 -8 -6.5t-9 2.5l-51 36q-8 6 -5 16q13 38 37.5 57t54.5 19q31 0 66 -23q2 -2 9.5 -6.5t15 -7.5t15.5 -3q22 0 34 18q7 11 16 5l50 -35q5 -3 5 -10q0 -6 -4 -13q-17 -33 -43 -47.5t-54 -14.5q-23 0 -55 16z
" />
    <glyph glyph-name="uni0304" unicode="&#x304;" 
d="M-222.5 587.5q-3.5 3.5 -3.5 8.5v87q0 5 3.5 8.5t8.5 3.5h202q5 0 8.5 -3.5t3.5 -8.5v-87q0 -5 -3.5 -8.5t-8.5 -3.5h-202q-5 0 -8.5 3.5z" />
    <glyph glyph-name="uni0306" unicode="&#x306;" 
d="M-224 590q-34 30 -38 80q0 12 12 12h61q12 0 12 -12q3 -18 14 -29t27 -11q15 0 26 11t14 29q1 12 13 12h61q12 0 11 -12q-4 -49 -38.5 -79.5t-86.5 -30.5q-54 0 -88 30z" />
    <glyph glyph-name="uni0307" unicode="&#x307;" 
d="M-158.5 587.5q-24.5 24.5 -24.5 62.5q0 39 24.5 63t62.5 24t62 -24t24 -63q0 -38 -24.5 -62.5t-61.5 -24.5q-38 0 -62.5 24.5z" />
    <glyph glyph-name="uni0308" unicode="&#x308;" 
d="M-148.5 587.5q-24.5 24.5 -24.5 62.5q0 39 24.5 63t62.5 24t62 -24t24 -63q0 -38 -24.5 -62.5t-61.5 -24.5q-38 0 -62.5 24.5zM-345.5 587.5q-24.5 24.5 -24.5 62.5q0 39 24.5 63t62.5 24t62 -24t24 -63q0 -38 -24.5 -62.5t-61.5 -24.5q-38 0 -62.5 24.5z" />
    <glyph glyph-name="hookabovecomb" unicode="&#x309;" 
d="M-334 574q12 29 32 51q9 11 13 18.5t4 20.5q0 8 -7 14t-16 6q-11 0 -20.5 -6t-22.5 -23q-5 -5 -9 -5t-8 3l-42 30q-6 5 -6 9t3 8q23 33 48 47t61 14q49 0 77 -25.5t28 -71.5q0 -23 -9.5 -39t-28.5 -36q-21 -23 -26 -32q-6 -8 -15 -7l-48 9q-14 3 -8 15z" />
    <glyph glyph-name="uni030A" unicode="&#x30a;" 
d="M-201 594.5q-37 37.5 -37 92.5t37.5 92t92.5 37t92 -37t37 -92q0 -56 -37 -93t-92 -37q-56 0 -93 37.5zM-77 655q13 13 13 32t-13 32.5t-31 13.5q-19 0 -32 -13.5t-13 -32.5t13 -32t32 -13q18 0 31 13z" />
    <glyph glyph-name="uni030B" unicode="&#x30b;" 
d="M-372.5 581.5q-2.5 3.5 0.5 10.5l45 99q4 9 14 9h116q7 0 9.5 -3.5t-0.5 -10.5l-52 -99q-5 -9 -14 -9h-109q-7 0 -9.5 3.5zM-202.5 582q-2.5 4 0.5 10l52 99q4 9 15 9h108q7 0 9.5 -3.5t-0.5 -10.5l-52 -99q-5 -9 -14 -9h-109q-7 0 -9.5 4z" />
    <glyph glyph-name="uni030C" unicode="&#x30c;" 
d="M-333 693q0 7 10 7h104q10 0 14 -9l26 -51q3 -4 6 0l26 51q5 9 14 9h105q7 0 9.5 -3.5t-1.5 -10.5l-66 -106q-4 -8 -14 -8h-154q-10 0 -14 8l-63 106q-2 6 -2 7z" />
    <glyph glyph-name="uni0312" unicode="&#x312;" 
d="M-18 696q3 -4 -1 -10l-59 -100q-4 -8 -14 -8h-112q-8 0 -10 4.5t2 10.5l78 100q6 7 15 7h91q7 0 10 -4z" />
    <glyph glyph-name="uni0313" unicode="&#x313;" 
d="M-214 582q-3 4 1 10l59 100q4 8 14 8h112q10 0 10 -7q0 -3 -3 -8l-78 -100q-6 -7 -15 -7h-90q-7 0 -10 4z" />
    <glyph glyph-name="uni031B" unicode="&#x31b;" 
d="M-136 459v47q0 10 11 12q42 8 47 74q0 12 12 12h61q5 0 8.5 -5t2.5 -13q-5 -69 -40.5 -102t-89.5 -37q-12 0 -12 12z" />
    <glyph glyph-name="dotbelowcomb" unicode="&#x323;" 
d="M-156.5 -234.5q-23.5 23.5 -23.5 59.5q0 37 23.5 60.5t60.5 23.5q36 0 59.5 -23.5t23.5 -60.5q0 -35 -23.5 -59t-59.5 -24q-37 0 -60.5 23.5z" />
    <glyph glyph-name="uni0326" unicode="&#x326;" 
d="M-233 -164q-3 4 1 10l59 100q4 8 14 8h112q10 0 10 -7q0 -3 -3 -8l-78 -100q-6 -7 -15 -7h-90q-7 0 -10 4z" />
    <glyph glyph-name="uni0327" unicode="&#x327;" 
d="M-154 -170l7 56q1 11 14 9q23 -2 28 21q3 14 -7 32t-30 37q-5 5 -5 9q0 6 10 6h78q9 0 15 -6q45 -46 45 -98q0 -13 -3 -26q-9 -34 -33.5 -48.5t-56.5 -14.5q-27 0 -53 8q-10 4 -9 15z" />
    <glyph glyph-name="uni0328" unicode="&#x328;" 
d="M-8 -173q0 -8 -9 -12q-26 -8 -53 -8q-74 0 -89 63q-4 18 -4 28q0 50 45 96q6 6 15 6h78q10 0 10 -6q0 -5 -6 -9q-37 -35 -37 -61q0 -16 8 -23t21 -6h3q10 0 11 -9l7 -56v-3z" />
    <glyph glyph-name="uni0335" unicode="&#x335;" 
d="M-300.5 645.5q3.5 3.5 8.5 3.5h268q5 0 8.5 -3.5t3.5 -8.5v-74q0 -5 -3.5 -8.5t-8.5 -3.5h-268q-5 0 -8.5 3.5t-3.5 8.5v74q0 5 3.5 8.5z" />
    <glyph glyph-name="uni0336" unicode="&#x336;" 
d="M-505.5 510.5q-3.5 3.5 -3.5 8.5v87q0 5 3.5 8.5t8.5 3.5h485q5 0 8.5 -3.5t3.5 -8.5v-87q0 -5 -3.5 -8.5t-8.5 -3.5h-485q-5 0 -8.5 3.5z" />
    <glyph glyph-name="uni0337" unicode="&#x337;" 
d="M-356 119q-4 0 -9 5l-65 77q-4 6 -4 8q0 4 5 9l395 336q6 4 8 4q4 0 9 -5l65 -77q4 -6 4 -8q0 -4 -5 -9l-395 -336q-6 -4 -8 -4z" />
    <glyph glyph-name="uni0338" unicode="&#x338;" 
d="M-412.5 -30.5q-2.5 3.5 0.5 10.5l333 746q4 9 14 9h50q7 0 9.5 -3.5t-0.5 -10.5l-334 -746q-4 -9 -14 -9h-49q-7 0 -9.5 3.5z" />
    <glyph glyph-name="uni0394" unicode="&#x394;" horiz-adv-x="555" 
d="M15.5 3.5q-3.5 3.5 -3.5 8.5v122q0 6 3 15l200 541q3 10 14 10h96q11 0 14 -10l201 -542q3 -9 3 -15v-121q0 -5 -3.5 -8.5t-8.5 -3.5h-507q-5 0 -8.5 3.5zM179 143h197q6 0 4 6l-99 328q-1 4 -3 4t-3 -4l-100 -328q-1 -6 4 -6z" />
    <glyph glyph-name="uni03A9" unicode="&#x3a9;" horiz-adv-x="501" 
d="M30.5 3.5q-3.5 3.5 -3.5 8.5v118q0 5 3.5 8.5t8.5 3.5h28q3 0 4 2t-1 4q-31 47 -31 112v241q0 94 58 150.5t155 56.5q96 0 154 -56.5t58 -150.5v-241q0 -66 -32 -112q-2 -2 -1 -4t4 -2h28q5 0 8.5 -3.5t3.5 -8.5v-118q0 -5 -3.5 -8.5t-8.5 -3.5h-187q-5 0 -8.5 3.5
t-3.5 8.5v120q0 8 9 14q12 6 18.5 20t6.5 33v309q0 27 -12 42.5t-34 15.5t-34.5 -15.5t-12.5 -42.5v-309q0 -39 24 -53q9 -4 9 -13v-121q0 -5 -3.5 -8.5t-8.5 -3.5h-187q-5 0 -8.5 3.5z" />
    <glyph glyph-name="uni03BC" unicode="&#x3bc;" horiz-adv-x="458" 
d="M265.5 513.5q3.5 3.5 8.5 3.5h142q5 0 8.5 -3.5t3.5 -8.5v-493q0 -5 -3.5 -8.5t-8.5 -3.5h-142q-5 0 -8.5 3.5t-3.5 8.5v13q0 3 -2 3.5t-4 -1.5q-20 -27 -56 -32q-5 -2 -5 -6v-177q0 -5 -3.5 -8.5t-8.5 -3.5h-142q-5 0 -8.5 3.5t-3.5 8.5v693q0 5 3.5 8.5t8.5 3.5h142
q5 0 8.5 -3.5t3.5 -8.5v-325q0 -45 33 -45q34 0 34 46v324q0 5 3.5 8.5z" />
    <glyph glyph-name="pi" unicode="&#x3c0;" horiz-adv-x="549" 
d="M524.5 379.5q-3.5 -3.5 -8.5 -3.5h-38q-5 0 -5 -5v-170q0 -40 9 -52t25 -10h2q11 0 11 -11v-116q0 -12 -12 -12q-60 -3 -68 -3q-60 0 -97.5 23t-36.5 88v263q0 5 -5 5h-55q-5 0 -5 -5v-359q0 -5 -3.5 -8.5t-8.5 -3.5h-142q-5 0 -8.5 3.5t-3.5 8.5v359q0 5 -5 5h-37
q-5 0 -8.5 3.5t-3.5 8.5v117q0 5 3.5 8.5t8.5 3.5h483q5 0 8.5 -3.5t3.5 -8.5v-117q0 -5 -3.5 -8.5z" />
    <glyph glyph-name="Wgrave" unicode="&#x1e80;" horiz-adv-x="701" 
d="M154 11l-136 676l-1 4q0 9 11 9h147q12 0 13 -11l45 -329q1 -3 3 -3t3 3l45 329q1 11 13 11h117q12 0 13 -11l50 -329q1 -3 3 -3t2 3l41 329q1 11 12 11h144q13 0 11 -13l-129 -676q-1 -11 -13 -11h-128q-12 0 -13 11l-50 342q-1 3 -3.5 3t-2.5 -3l-44 -342
q-1 -11 -12 -11h-128q-11 0 -13 11zM400 769q0 -8 -11 -8h-91q-9 0 -15 7l-78 100q-3 5 -3 7q0 8 11 8h112q10 0 14 -8l59 -100z" />
    <glyph glyph-name="wgrave" unicode="&#x1e81;" horiz-adv-x="634" 
d="M122 11l-108 494v4q0 9 11 9h135q11 0 12 -11l33 -250q0 -3 3 -3t3 3l34 250q1 11 13 11h120q12 0 13 -11l36 -250q1 -4 3.5 -3.5t2.5 3.5l33 250q1 11 12 11l133 -2q13 0 10 -13l-107 -492q-2 -11 -13 -11h-138q-12 0 -13 11l-33 214q-1 4 -3 4t-3 -4l-31 -214
q-1 -11 -13 -11h-132q-11 0 -13 11zM370 586q0 -8 -11 -8h-91q-9 0 -15 7l-78 100q-3 5 -3 7q0 8 11 8h112q10 0 14 -8l59 -100z" />
    <glyph glyph-name="Wacute" unicode="&#x1e82;" horiz-adv-x="701" 
d="M154 11l-136 676l-1 4q0 9 11 9h147q12 0 13 -11l45 -329q1 -3 3 -3t3 3l45 329q1 11 13 11h117q12 0 13 -11l50 -329q1 -3 3 -3t2 3l41 329q1 11 12 11h144q13 0 11 -13l-129 -676q-1 -11 -13 -11h-128q-12 0 -13 11l-50 342q-1 3 -3.5 3t-2.5 -3l-44 -342
q-1 -11 -12 -11h-128q-11 0 -13 11zM275 765q-3 4 1 10l59 100q4 8 14 8h112q10 0 10 -7q0 -3 -3 -8l-78 -100q-6 -7 -15 -7h-90q-7 0 -10 4z" />
    <glyph glyph-name="wacute" unicode="&#x1e83;" horiz-adv-x="634" 
d="M122 11l-108 494v4q0 9 11 9h135q11 0 12 -11l33 -250q0 -3 3 -3t3 3l34 250q1 11 13 11h120q12 0 13 -11l36 -250q1 -4 3.5 -3.5t2.5 3.5l33 250q1 11 12 11l133 -2q13 0 10 -13l-107 -492q-2 -11 -13 -11h-138q-12 0 -13 11l-33 214q-1 4 -3 4t-3 -4l-31 -214
q-1 -11 -13 -11h-132q-11 0 -13 11zM245 582q-3 4 1 10l59 100q4 8 14 8h112q10 0 10 -7q0 -3 -3 -8l-78 -100q-6 -7 -15 -7h-90q-7 0 -10 4z" />
    <glyph glyph-name="Wdieresis" unicode="&#x1e84;" horiz-adv-x="701" 
d="M154 11l-136 676l-1 4q0 9 11 9h147q12 0 13 -11l45 -329q1 -3 3 -3t3 3l45 329q1 11 13 11h117q12 0 13 -11l50 -329q1 -3 3 -3t2 3l41 329q1 11 12 11h144q13 0 11 -13l-129 -676q-1 -11 -13 -11h-128q-12 0 -13 11l-50 342q-1 3 -3.5 3t-2.5 -3l-44 -342
q-1 -11 -12 -11h-128q-11 0 -13 11zM382.5 770.5q-24.5 24.5 -24.5 62.5q0 39 24.5 63t62.5 24t62 -24t24 -63q0 -38 -24.5 -62.5t-61.5 -24.5q-38 0 -62.5 24.5zM185.5 770.5q-24.5 24.5 -24.5 62.5q0 39 24.5 63t62.5 24t62 -24t24 -63q0 -38 -24.5 -62.5t-61.5 -24.5
q-38 0 -62.5 24.5z" />
    <glyph glyph-name="wdieresis" unicode="&#x1e85;" horiz-adv-x="634" 
d="M122 11l-108 494v4q0 9 11 9h135q11 0 12 -11l33 -250q0 -3 3 -3t3 3l34 250q1 11 13 11h120q12 0 13 -11l36 -250q1 -4 3.5 -3.5t2.5 3.5l33 250q1 11 12 11l133 -2q13 0 10 -13l-107 -492q-2 -11 -13 -11h-138q-12 0 -13 11l-33 214q-1 4 -3 4t-3 -4l-31 -214
q-1 -11 -13 -11h-132q-11 0 -13 11zM352.5 587.5q-24.5 24.5 -24.5 62.5q0 39 24.5 63t62.5 24t62 -24t24 -63q0 -38 -24.5 -62.5t-61.5 -24.5q-38 0 -62.5 24.5zM155.5 587.5q-24.5 24.5 -24.5 62.5q0 39 24.5 63t62.5 24t62 -24t24 -63q0 -38 -24.5 -62.5t-61.5 -24.5
q-38 0 -62.5 24.5z" />
    <glyph glyph-name="uni1EA0" unicode="&#x1ea0;" horiz-adv-x="508" 
d="M325 11l-13 87q0 5 -6 5h-108q-6 0 -6 -5l-12 -87q-1 -11 -13 -11h-142q-13 0 -10 13l145 676q2 11 13 11h163q11 0 13 -11l144 -676l1 -4q0 -9 -11 -9h-145q-12 0 -13 11zM218 231h67q4 0 4 5l-36 228q-1 4 -3 4t-3 -4l-33 -228q0 -5 4 -5zM194.5 -234.5
q-23.5 23.5 -23.5 59.5q0 37 23.5 60.5t60.5 23.5q36 0 59.5 -23.5t23.5 -60.5q0 -35 -23.5 -59t-59.5 -24q-37 0 -60.5 23.5z" />
    <glyph glyph-name="uni1EA1" unicode="&#x1ea1;" horiz-adv-x="457" 
d="M376.5 479q56.5 -46 56.5 -121v-346q0 -5 -3.5 -8.5t-8.5 -3.5h-142q-5 0 -8.5 3.5t-3.5 8.5v24q0 3 -2 3.5t-4 -2.5q-34 -45 -106 -45q-138 0 -138 157q0 67 25 102t68.5 46.5t111.5 11.5h40q5 0 5 5v24q0 20 -11 32.5t-28 12.5q-13 0 -21.5 -7.5t-11.5 -21.5
q-1 -12 -12 -12l-146 1q-12 0 -12 12q5 79 60.5 124.5t142.5 45.5q92 0 148.5 -46zM253 126.5q14 11.5 14 29.5v37q0 5 -5 5h-30q-20 0 -32.5 -12t-12.5 -32q0 -19 10 -29t25 -10q17 0 31 11.5zM168.5 -234.5q-23.5 23.5 -23.5 59.5q0 37 23.5 60.5t60.5 23.5
q36 0 59.5 -23.5t23.5 -60.5q0 -35 -23.5 -59t-59.5 -24q-37 0 -60.5 23.5z" />
    <glyph glyph-name="uni1EA2" unicode="&#x1ea2;" horiz-adv-x="508" 
d="M325 11l-13 87q0 5 -6 5h-108q-6 0 -6 -5l-12 -87q-1 -11 -13 -11h-142q-13 0 -10 13l145 676q2 11 13 11h163q11 0 13 -11l144 -676l1 -4q0 -9 -11 -9h-145q-12 0 -13 11zM218 231h67q4 0 4 5l-36 228q-1 4 -3 4t-3 -4l-33 -228q0 -5 4 -5zM230 757q12 29 32 51
q9 11 13 18.5t4 20.5q0 8 -7 14t-16 6q-11 0 -20.5 -6t-22.5 -23q-5 -5 -9 -5t-8 3l-42 30q-6 5 -6 9t3 8q23 33 48 47t61 14q49 0 77 -25.5t28 -71.5q0 -23 -9.5 -39t-28.5 -36q-21 -23 -26 -32q-6 -8 -15 -7l-48 9q-14 3 -8 15z" />
    <glyph glyph-name="uni1EA3" unicode="&#x1ea3;" horiz-adv-x="457" 
d="M376.5 479q56.5 -46 56.5 -121v-346q0 -5 -3.5 -8.5t-8.5 -3.5h-142q-5 0 -8.5 3.5t-3.5 8.5v24q0 3 -2 3.5t-4 -2.5q-34 -45 -106 -45q-138 0 -138 157q0 67 25 102t68.5 46.5t111.5 11.5h40q5 0 5 5v24q0 20 -11 32.5t-28 12.5q-13 0 -21.5 -7.5t-11.5 -21.5
q-1 -12 -12 -12l-146 1q-12 0 -12 12q5 79 60.5 124.5t142.5 45.5q92 0 148.5 -46zM253 126.5q14 11.5 14 29.5v37q0 5 -5 5h-30q-20 0 -32.5 -12t-12.5 -32q0 -19 10 -29t25 -10q17 0 31 11.5zM204 574q12 29 32 51q9 11 13 18.5t4 20.5q0 8 -7 14t-16 6q-11 0 -20.5 -6
t-22.5 -23q-5 -5 -9 -5t-8 3l-42 30q-6 5 -6 9t3 8q23 33 48 47t61 14q49 0 77 -25.5t28 -71.5q0 -23 -9.5 -39t-28.5 -36q-21 -23 -26 -32q-6 -8 -15 -7l-48 9q-14 3 -8 15z" />
    <glyph glyph-name="uni1EA4" unicode="&#x1ea4;" horiz-adv-x="508" 
d="M325 11l-13 87q0 5 -6 5h-108q-6 0 -6 -5l-12 -87q-1 -11 -13 -11h-142q-13 0 -10 13l145 676q2 11 13 11h163q11 0 13 -11l144 -676l1 -4q0 -9 -11 -9h-145q-12 0 -13 11zM218 231h67q4 0 4 5l-36 228q-1 4 -3 4t-3 -4l-33 -228q0 -5 4 -5zM95.5 758.5
q-2.5 3.5 1.5 10.5l63 106q4 8 14 8h154q10 0 14 -8l66 -106q2 -6 2 -7q0 -7 -10 -7h-105q-10 0 -14 9l-26 51q-3 5 -6 0l-26 -51q-5 -9 -14 -9h-104q-7 0 -9.5 3.5zM399 848q-3 4 1 10l59 100q4 8 14 8h112q10 0 10 -7q0 -3 -3 -8l-78 -100q-6 -7 -15 -7h-90q-7 0 -10 4z
" />
    <glyph glyph-name="uni1EA5" unicode="&#x1ea5;" horiz-adv-x="457" 
d="M376.5 479q56.5 -46 56.5 -121v-346q0 -5 -3.5 -8.5t-8.5 -3.5h-142q-5 0 -8.5 3.5t-3.5 8.5v24q0 3 -2 3.5t-4 -2.5q-34 -45 -106 -45q-138 0 -138 157q0 67 25 102t68.5 46.5t111.5 11.5h40q5 0 5 5v24q0 20 -11 32.5t-28 12.5q-13 0 -21.5 -7.5t-11.5 -21.5
q-1 -12 -12 -12l-146 1q-12 0 -12 12q5 79 60.5 124.5t142.5 45.5q92 0 148.5 -46zM253 126.5q14 11.5 14 29.5v37q0 5 -5 5h-30q-20 0 -32.5 -12t-12.5 -32q0 -19 10 -29t25 -10q17 0 31 11.5zM69.5 575.5q-2.5 3.5 1.5 10.5l63 106q4 8 14 8h154q10 0 14 -8l66 -106
q2 -6 2 -7q0 -7 -10 -7h-105q-10 0 -14 9l-26 51q-3 5 -6 0l-26 -51q-5 -9 -14 -9h-104q-7 0 -9.5 3.5zM373 665q-3 4 1 10l59 100q4 8 14 8h112q10 0 10 -7q0 -3 -3 -8l-78 -100q-6 -7 -15 -7h-90q-7 0 -10 4z" />
    <glyph glyph-name="uni1EA6" unicode="&#x1ea6;" horiz-adv-x="508" 
d="M325 11l-13 87q0 5 -6 5h-108q-6 0 -6 -5l-12 -87q-1 -11 -13 -11h-142q-13 0 -10 13l145 676q2 11 13 11h163q11 0 13 -11l144 -676l1 -4q0 -9 -11 -9h-145q-12 0 -13 11zM218 231h67q4 0 4 5l-36 228q-1 4 -3 4t-3 -4l-33 -228q0 -5 4 -5zM95.5 758.5
q-2.5 3.5 1.5 10.5l63 106q4 8 14 8h154q10 0 14 -8l66 -106q2 -6 2 -7q0 -7 -10 -7h-105q-10 0 -14 9l-26 51q-3 5 -6 0l-26 -51q-5 -9 -14 -9h-104q-7 0 -9.5 3.5zM481 888q0 -8 -11 -8h-91q-9 0 -15 7l-78 100q-3 5 -3 7q0 8 11 8h112q10 0 14 -8l59 -100z" />
    <glyph glyph-name="uni1EA7" unicode="&#x1ea7;" horiz-adv-x="457" 
d="M376.5 479q56.5 -46 56.5 -121v-346q0 -5 -3.5 -8.5t-8.5 -3.5h-142q-5 0 -8.5 3.5t-3.5 8.5v24q0 3 -2 3.5t-4 -2.5q-34 -45 -106 -45q-138 0 -138 157q0 67 25 102t68.5 46.5t111.5 11.5h40q5 0 5 5v24q0 20 -11 32.5t-28 12.5q-13 0 -21.5 -7.5t-11.5 -21.5
q-1 -12 -12 -12l-146 1q-12 0 -12 12q5 79 60.5 124.5t142.5 45.5q92 0 148.5 -46zM253 126.5q14 11.5 14 29.5v37q0 5 -5 5h-30q-20 0 -32.5 -12t-12.5 -32q0 -19 10 -29t25 -10q17 0 31 11.5zM70.5 575.5q-2.5 3.5 1.5 10.5l63 106q4 8 14 8h154q10 0 14 -8l66 -106
q2 -6 2 -7q0 -7 -10 -7h-105q-10 0 -14 9l-26 51q-3 5 -6 0l-26 -51q-5 -9 -14 -9h-104q-7 0 -9.5 3.5zM456 705q0 -8 -11 -8h-91q-9 0 -15 7l-78 100q-3 5 -3 7q0 8 11 8h112q10 0 14 -8l59 -100z" />
    <glyph glyph-name="uni1EA8" unicode="&#x1ea8;" horiz-adv-x="508" 
d="M325 11l-13 87q0 5 -6 5h-108q-6 0 -6 -5l-12 -87q-1 -11 -13 -11h-142q-13 0 -10 13l145 676q2 11 13 11h163q11 0 13 -11l144 -676l1 -4q0 -9 -11 -9h-145q-12 0 -13 11zM218 231h67q4 0 4 5l-36 228q-1 4 -3 4t-3 -4l-33 -228q0 -5 4 -5zM393 877q11 28 29 47
q8 9 12 16.5t4 18.5q0 8 -6.5 13.5t-14.5 5.5q-10 0 -18.5 -5.5t-20.5 -20.5q-4 -6 -9 -6q-3 0 -8 3l-38 28q-5 5 -5 9t3 8q21 30 44 42.5t56 12.5q44 0 70 -24t26 -66q0 -22 -9 -37t-26 -32q-15 -15 -24 -29q-6 -8 -15 -7l-42 8q-14 3 -8 15zM95.5 758.5q-2.5 3.5 1.5 10.5
l63 106q4 8 14 8h154q10 0 14 -8l66 -106q2 -6 2 -7q0 -7 -10 -7h-105q-10 0 -14 9l-26 51q-3 5 -6 0l-26 -51q-5 -9 -14 -9h-104q-7 0 -9.5 3.5z" />
    <glyph glyph-name="uni1EA9" unicode="&#x1ea9;" horiz-adv-x="457" 
d="M376.5 479q56.5 -46 56.5 -121v-346q0 -5 -3.5 -8.5t-8.5 -3.5h-142q-5 0 -8.5 3.5t-3.5 8.5v24q0 3 -2 3.5t-4 -2.5q-34 -45 -106 -45q-138 0 -138 157q0 67 25 102t68.5 46.5t111.5 11.5h40q5 0 5 5v24q0 20 -11 32.5t-28 12.5q-13 0 -21.5 -7.5t-11.5 -21.5
q-1 -12 -12 -12l-146 1q-12 0 -12 12q5 79 60.5 124.5t142.5 45.5q92 0 148.5 -46zM253 126.5q14 11.5 14 29.5v37q0 5 -5 5h-30q-20 0 -32.5 -12t-12.5 -32q0 -19 10 -29t25 -10q17 0 31 11.5zM368 694q11 28 29 47q8 9 12 16.5t4 18.5q0 8 -6.5 13.5t-14.5 5.5
q-10 0 -18.5 -5.5t-20.5 -20.5q-4 -6 -9 -6q-3 0 -8 3l-38 28q-5 5 -5 9t3 8q21 30 44 42.5t56 12.5q44 0 70 -24t26 -66q0 -22 -9 -37t-26 -32q-15 -15 -24 -29q-6 -8 -15 -7l-42 8q-14 3 -8 15zM70.5 575.5q-2.5 3.5 1.5 10.5l63 106q4 8 14 8h154q10 0 14 -8l66 -106
q2 -6 2 -7q0 -7 -10 -7h-105q-10 0 -14 9l-26 51q-3 5 -6 0l-26 -51q-5 -9 -14 -9h-104q-7 0 -9.5 3.5z" />
    <glyph glyph-name="uni1EAA" unicode="&#x1eaa;" horiz-adv-x="508" 
d="M325 11l-13 87q0 5 -6 5h-108q-6 0 -6 -5l-12 -87q-1 -11 -13 -11h-142q-13 0 -10 13l145 676q2 11 13 11h163q11 0 13 -11l144 -676l1 -4q0 -9 -11 -9h-145q-12 0 -13 11zM218 231h67q4 0 4 5l-36 228q-1 4 -3 4t-3 -4l-33 -228q0 -5 4 -5zM95.5 758.5
q-2.5 3.5 1.5 10.5l63 106q4 8 14 8h154q10 0 14 -8l66 -106q2 -6 2 -7q0 -7 -10 -7h-105q-10 0 -14 9l-26 51q-3 5 -6 0l-26 -51q-5 -9 -14 -9h-104q-7 0 -9.5 3.5zM246 937q-8 4 -14.5 8.5t-13 7t-13.5 2.5q-20 0 -33 -21q-3 -5 -8 -6.5t-9 2.5l-51 36q-8 6 -5 16
q13 38 37.5 57t54.5 19q31 0 66 -23q2 -2 9.5 -6.5t15 -7.5t15.5 -3q22 0 34 18q7 11 16 5l50 -35q5 -3 5 -10q0 -6 -4 -13q-17 -33 -43 -47.5t-54 -14.5q-23 0 -55 16z" />
    <glyph glyph-name="uni1EAB" unicode="&#x1eab;" horiz-adv-x="457" 
d="M376.5 479q56.5 -46 56.5 -121v-346q0 -5 -3.5 -8.5t-8.5 -3.5h-142q-5 0 -8.5 3.5t-3.5 8.5v24q0 3 -2 3.5t-4 -2.5q-34 -45 -106 -45q-138 0 -138 157q0 67 25 102t68.5 46.5t111.5 11.5h40q5 0 5 5v24q0 20 -11 32.5t-28 12.5q-13 0 -21.5 -7.5t-11.5 -21.5
q-1 -12 -12 -12l-146 1q-12 0 -12 12q5 79 60.5 124.5t142.5 45.5q92 0 148.5 -46zM253 126.5q14 11.5 14 29.5v37q0 5 -5 5h-30q-20 0 -32.5 -12t-12.5 -32q0 -19 10 -29t25 -10q17 0 31 11.5zM70.5 575.5q-2.5 3.5 1.5 10.5l63 106q4 8 14 8h154q10 0 14 -8l66 -106
q2 -6 2 -7q0 -7 -10 -7h-105q-10 0 -14 9l-26 51q-3 5 -6 0l-26 -51q-5 -9 -14 -9h-104q-7 0 -9.5 3.5zM221 754q-8 4 -14.5 8.5t-13 7t-13.5 2.5q-20 0 -33 -21q-3 -5 -8 -6.5t-9 2.5l-51 36q-8 6 -5 16q13 38 37.5 57t54.5 19q31 0 66 -23q2 -2 9.5 -6.5t15 -7.5t15.5 -3
q22 0 34 18q7 11 16 5l50 -35q5 -3 5 -10q0 -6 -4 -13q-17 -33 -43 -47.5t-54 -14.5q-23 0 -55 16z" />
    <glyph glyph-name="uni1EAC" unicode="&#x1eac;" horiz-adv-x="508" 
d="M325 11l-13 87q0 5 -6 5h-108q-6 0 -6 -5l-12 -87q-1 -11 -13 -11h-142q-13 0 -10 13l145 676q2 11 13 11h163q11 0 13 -11l144 -676l1 -4q0 -9 -11 -9h-145q-12 0 -13 11zM218 231h67q4 0 4 5l-36 228q-1 4 -3 4t-3 -4l-33 -228q0 -5 4 -5zM194.5 -234.5
q-23.5 23.5 -23.5 59.5q0 37 23.5 60.5t60.5 23.5q36 0 59.5 -23.5t23.5 -60.5q0 -35 -23.5 -59t-59.5 -24q-37 0 -60.5 23.5zM95.5 758.5q-2.5 3.5 1.5 10.5l63 106q4 8 14 8h154q10 0 14 -8l66 -106q2 -6 2 -7q0 -7 -10 -7h-105q-10 0 -14 9l-26 51q-3 5 -6 0l-26 -51
q-5 -9 -14 -9h-104q-7 0 -9.5 3.5z" />
    <glyph glyph-name="uni1EAD" unicode="&#x1ead;" horiz-adv-x="457" 
d="M376.5 479q56.5 -46 56.5 -121v-346q0 -5 -3.5 -8.5t-8.5 -3.5h-142q-5 0 -8.5 3.5t-3.5 8.5v24q0 3 -2 3.5t-4 -2.5q-34 -45 -106 -45q-138 0 -138 157q0 67 25 102t68.5 46.5t111.5 11.5h40q5 0 5 5v24q0 20 -11 32.5t-28 12.5q-13 0 -21.5 -7.5t-11.5 -21.5
q-1 -12 -12 -12l-146 1q-12 0 -12 12q5 79 60.5 124.5t142.5 45.5q92 0 148.5 -46zM253 126.5q14 11.5 14 29.5v37q0 5 -5 5h-30q-20 0 -32.5 -12t-12.5 -32q0 -19 10 -29t25 -10q17 0 31 11.5zM168.5 -234.5q-23.5 23.5 -23.5 59.5q0 37 23.5 60.5t60.5 23.5
q36 0 59.5 -23.5t23.5 -60.5q0 -35 -23.5 -59t-59.5 -24q-37 0 -60.5 23.5zM69.5 575.5q-2.5 3.5 1.5 10.5l63 106q4 8 14 8h154q10 0 14 -8l66 -106q2 -6 2 -7q0 -7 -10 -7h-105q-10 0 -14 9l-26 51q-3 5 -6 0l-26 -51q-5 -9 -14 -9h-104q-7 0 -9.5 3.5z" />
    <glyph glyph-name="uni1EAE" unicode="&#x1eae;" horiz-adv-x="508" 
d="M325 11l-13 87q0 5 -6 5h-108q-6 0 -6 -5l-12 -87q-1 -11 -13 -11h-142q-13 0 -10 13l145 676q2 11 13 11h163q11 0 13 -11l144 -676l1 -4q0 -9 -11 -9h-145q-12 0 -13 11zM218 231h67q4 0 4 5l-36 228q-1 4 -3 4t-3 -4l-33 -228q0 -5 4 -5zM167 773q-34 30 -38 80
q0 12 12 12h61q12 0 12 -12q3 -18 14 -29t27 -11q15 0 26 11t14 29q1 12 13 12h61q12 0 11 -12q-4 -49 -38.5 -79.5t-86.5 -30.5q-54 0 -88 30zM183 926q-3 4 1 10l59 100q4 8 14 8h112q10 0 10 -7q0 -3 -3 -8l-78 -100q-6 -7 -15 -7h-90q-7 0 -10 4z" />
    <glyph glyph-name="uni1EAF" unicode="&#x1eaf;" horiz-adv-x="457" 
d="M376.5 479q56.5 -46 56.5 -121v-346q0 -5 -3.5 -8.5t-8.5 -3.5h-142q-5 0 -8.5 3.5t-3.5 8.5v24q0 3 -2 3.5t-4 -2.5q-34 -45 -106 -45q-138 0 -138 157q0 67 25 102t68.5 46.5t111.5 11.5h40q5 0 5 5v24q0 20 -11 32.5t-28 12.5q-13 0 -21.5 -7.5t-11.5 -21.5
q-1 -12 -12 -12l-146 1q-12 0 -12 12q5 79 60.5 124.5t142.5 45.5q92 0 148.5 -46zM253 126.5q14 11.5 14 29.5v37q0 5 -5 5h-30q-20 0 -32.5 -12t-12.5 -32q0 -19 10 -29t25 -10q17 0 31 11.5zM141 590q-34 30 -38 80q0 12 12 12h61q12 0 12 -12q3 -18 14 -29t27 -11
q15 0 26 11t14 29q1 12 13 12h61q12 0 11 -12q-4 -49 -38.5 -79.5t-86.5 -30.5q-54 0 -88 30zM157 743q-3 4 1 10l59 100q4 8 14 8h112q10 0 10 -7q0 -3 -3 -8l-78 -100q-6 -7 -15 -7h-90q-7 0 -10 4z" />
    <glyph glyph-name="uni1EB0" unicode="&#x1eb0;" horiz-adv-x="508" 
d="M325 11l-13 87q0 5 -6 5h-108q-6 0 -6 -5l-12 -87q-1 -11 -13 -11h-142q-13 0 -10 13l145 676q2 11 13 11h163q11 0 13 -11l144 -676l1 -4q0 -9 -11 -9h-145q-12 0 -13 11zM218 231h67q4 0 4 5l-36 228q-1 4 -3 4t-3 -4l-33 -228q0 -5 4 -5zM167 773q-34 30 -38 80
q0 12 12 12h61q12 0 12 -12q3 -18 14 -29t27 -11q15 0 26 11t14 29q1 12 13 12h61q12 0 11 -12q-4 -49 -38.5 -79.5t-86.5 -30.5q-54 0 -88 30zM308 930q0 -8 -11 -8h-91q-9 0 -15 7l-78 100q-3 5 -3 7q0 8 11 8h112q10 0 14 -8l59 -100z" />
    <glyph glyph-name="uni1EB1" unicode="&#x1eb1;" horiz-adv-x="457" 
d="M376.5 479q56.5 -46 56.5 -121v-346q0 -5 -3.5 -8.5t-8.5 -3.5h-142q-5 0 -8.5 3.5t-3.5 8.5v24q0 3 -2 3.5t-4 -2.5q-34 -45 -106 -45q-138 0 -138 157q0 67 25 102t68.5 46.5t111.5 11.5h40q5 0 5 5v24q0 20 -11 32.5t-28 12.5q-13 0 -21.5 -7.5t-11.5 -21.5
q-1 -12 -12 -12l-146 1q-12 0 -12 12q5 79 60.5 124.5t142.5 45.5q92 0 148.5 -46zM253 126.5q14 11.5 14 29.5v37q0 5 -5 5h-30q-20 0 -32.5 -12t-12.5 -32q0 -19 10 -29t25 -10q17 0 31 11.5zM141 590q-34 30 -38 80q0 12 12 12h61q12 0 12 -12q3 -18 14 -29t27 -11
q15 0 26 11t14 29q1 12 13 12h61q12 0 11 -12q-4 -49 -38.5 -79.5t-86.5 -30.5q-54 0 -88 30zM282 747q0 -8 -11 -8h-91q-9 0 -15 7l-78 100q-3 5 -3 7q0 8 11 8h112q10 0 14 -8l59 -100z" />
    <glyph glyph-name="uni1EB2" unicode="&#x1eb2;" horiz-adv-x="508" 
d="M325 11l-13 87q0 5 -6 5h-108q-6 0 -6 -5l-12 -87q-1 -11 -13 -11h-142q-13 0 -10 13l145 676q2 11 13 11h163q11 0 13 -11l144 -676l1 -4q0 -9 -11 -9h-145q-12 0 -13 11zM218 231h67q4 0 4 5l-36 228q-1 4 -3 4t-3 -4l-33 -228q0 -5 4 -5zM235 911q10 24 26 42
q8 9 11.5 15.5t3.5 17.5q0 7 -6 12t-14 5q-9 0 -16.5 -5t-18.5 -19q-5 -5 -9 -5q-3 0 -8 3l-33 24q-5 5 -5 9t3 8q19 27 39.5 38.5t51.5 11.5q41 0 65 -22t24 -60q0 -21 -8 -34t-24 -30q-16 -16 -22 -26q-6 -8 -15 -7l-37 7q-14 3 -8 15zM167.5 773q-33.5 30 -38.5 80
q0 12 12 12h61q11 0 13 -12q2 -18 13 -29t27 -11t26.5 11t13.5 29q1 12 13 12h61q12 0 12 -12q-5 -50 -39 -80t-87 -30q-54 0 -87.5 30z" />
    <glyph glyph-name="uni1EB3" unicode="&#x1eb3;" horiz-adv-x="457" 
d="M376.5 479q56.5 -46 56.5 -121v-346q0 -5 -3.5 -8.5t-8.5 -3.5h-142q-5 0 -8.5 3.5t-3.5 8.5v24q0 3 -2 3.5t-4 -2.5q-34 -45 -106 -45q-138 0 -138 157q0 67 25 102t68.5 46.5t111.5 11.5h40q5 0 5 5v24q0 20 -11 32.5t-28 12.5q-13 0 -21.5 -7.5t-11.5 -21.5
q-1 -12 -12 -12l-146 1q-12 0 -12 12q5 79 60.5 124.5t142.5 45.5q92 0 148.5 -46zM253 126.5q14 11.5 14 29.5v37q0 5 -5 5h-30q-20 0 -32.5 -12t-12.5 -32q0 -19 10 -29t25 -10q17 0 31 11.5zM209 728q10 24 26 42q8 9 11.5 15.5t3.5 17.5q0 7 -6 12t-14 5q-9 0 -16.5 -5
t-18.5 -19q-5 -5 -9 -5q-3 0 -8 3l-33 24q-5 5 -5 9t3 8q19 27 39.5 38.5t51.5 11.5q41 0 65 -22t24 -60q0 -21 -8 -34t-24 -30q-16 -16 -22 -26q-6 -8 -15 -7l-37 7q-14 3 -8 15zM141.5 590q-33.5 30 -38.5 80q0 12 12 12h61q11 0 13 -12q2 -18 13 -29t27 -11t26.5 11
t13.5 29q1 12 13 12h61q12 0 12 -12q-5 -50 -39 -80t-87 -30q-54 0 -87.5 30z" />
    <glyph glyph-name="uni1EB4" unicode="&#x1eb4;" horiz-adv-x="508" 
d="M325 11l-13 87q0 5 -6 5h-108q-6 0 -6 -5l-12 -87q-1 -11 -13 -11h-142q-13 0 -10 13l145 676q2 11 13 11h163q11 0 13 -11l144 -676l1 -4q0 -9 -11 -9h-145q-12 0 -13 11zM218 231h67q4 0 4 5l-36 228q-1 4 -3 4t-3 -4l-33 -228q0 -5 4 -5zM167 773q-34 30 -38 80
q0 12 12 12h61q12 0 12 -12q3 -18 14 -29t27 -11q15 0 26 11t14 29q1 12 13 12h61q12 0 11 -12q-4 -49 -38.5 -79.5t-86.5 -30.5q-54 0 -88 30zM266 930q-8 4 -14.5 8.5t-13 7t-13.5 2.5q-20 0 -33 -21q-3 -5 -8 -6.5t-9 2.5l-51 36q-8 6 -5 16q13 38 37.5 57t54.5 19
q31 0 66 -23q2 -2 9.5 -6.5t15 -7.5t15.5 -3q22 0 34 18q7 11 16 5l50 -35q5 -3 5 -10q0 -6 -4 -13q-17 -33 -43 -47.5t-54 -14.5q-23 0 -55 16z" />
    <glyph glyph-name="uni1EB5" unicode="&#x1eb5;" horiz-adv-x="457" 
d="M376.5 479q56.5 -46 56.5 -121v-346q0 -5 -3.5 -8.5t-8.5 -3.5h-142q-5 0 -8.5 3.5t-3.5 8.5v24q0 3 -2 3.5t-4 -2.5q-34 -45 -106 -45q-138 0 -138 157q0 67 25 102t68.5 46.5t111.5 11.5h40q5 0 5 5v24q0 20 -11 32.5t-28 12.5q-13 0 -21.5 -7.5t-11.5 -21.5
q-1 -12 -12 -12l-146 1q-12 0 -12 12q5 79 60.5 124.5t142.5 45.5q92 0 148.5 -46zM253 126.5q14 11.5 14 29.5v37q0 5 -5 5h-30q-20 0 -32.5 -12t-12.5 -32q0 -19 10 -29t25 -10q17 0 31 11.5zM141 590q-34 30 -38 80q0 12 12 12h61q12 0 12 -12q3 -18 14 -29t27 -11
q15 0 26 11t14 29q1 12 13 12h61q12 0 11 -12q-4 -49 -38.5 -79.5t-86.5 -30.5q-54 0 -88 30zM240 747q-8 4 -14.5 8.5t-13 7t-13.5 2.5q-20 0 -33 -21q-3 -5 -8 -6.5t-9 2.5l-51 36q-8 6 -5 16q13 38 37.5 57t54.5 19q31 0 66 -23q2 -2 9.5 -6.5t15 -7.5t15.5 -3
q22 0 34 18q7 11 16 5l50 -35q5 -3 5 -10q0 -6 -4 -13q-17 -33 -43 -47.5t-54 -14.5q-23 0 -55 16z" />
    <glyph glyph-name="uni1EB6" unicode="&#x1eb6;" horiz-adv-x="508" 
d="M325 11l-13 87q0 5 -6 5h-108q-6 0 -6 -5l-12 -87q-1 -11 -13 -11h-142q-13 0 -10 13l145 676q2 11 13 11h163q11 0 13 -11l144 -676l1 -4q0 -9 -11 -9h-145q-12 0 -13 11zM218 231h67q4 0 4 5l-36 228q-1 4 -3 4t-3 -4l-33 -228q0 -5 4 -5zM194.5 -234.5
q-23.5 23.5 -23.5 59.5q0 37 23.5 60.5t60.5 23.5q36 0 59.5 -23.5t23.5 -60.5q0 -35 -23.5 -59t-59.5 -24q-37 0 -60.5 23.5zM167 773q-34 30 -38 80q0 12 12 12h61q12 0 12 -12q3 -18 14 -29t27 -11q15 0 26 11t14 29q1 12 13 12h61q12 0 11 -12q-4 -49 -38.5 -79.5
t-86.5 -30.5q-54 0 -88 30z" />
    <glyph glyph-name="uni1EB7" unicode="&#x1eb7;" horiz-adv-x="457" 
d="M376.5 479q56.5 -46 56.5 -121v-346q0 -5 -3.5 -8.5t-8.5 -3.5h-142q-5 0 -8.5 3.5t-3.5 8.5v24q0 3 -2 3.5t-4 -2.5q-34 -45 -106 -45q-138 0 -138 157q0 67 25 102t68.5 46.5t111.5 11.5h40q5 0 5 5v24q0 20 -11 32.5t-28 12.5q-13 0 -21.5 -7.5t-11.5 -21.5
q-1 -12 -12 -12l-146 1q-12 0 -12 12q5 79 60.5 124.5t142.5 45.5q92 0 148.5 -46zM253 126.5q14 11.5 14 29.5v37q0 5 -5 5h-30q-20 0 -32.5 -12t-12.5 -32q0 -19 10 -29t25 -10q17 0 31 11.5zM168.5 -234.5q-23.5 23.5 -23.5 59.5q0 37 23.5 60.5t60.5 23.5
q36 0 59.5 -23.5t23.5 -60.5q0 -35 -23.5 -59t-59.5 -24q-37 0 -60.5 23.5zM141 590q-34 30 -38 80q0 12 12 12h61q12 0 12 -12q3 -18 14 -29t27 -11q15 0 26 11t14 29q1 12 13 12h61q12 0 11 -12q-4 -49 -38.5 -79.5t-86.5 -30.5q-54 0 -88 30z" />
    <glyph glyph-name="uni1EB8" unicode="&#x1eb8;" horiz-adv-x="441" 
d="M415.5 561.5q-3.5 -3.5 -8.5 -3.5h-201q-5 0 -5 -5v-126q0 -5 5 -5h110q5 0 8.5 -3.5t3.5 -8.5v-119q0 -5 -3.5 -8.5t-8.5 -3.5h-110q-5 0 -5 -5v-127q0 -5 5 -5h201q5 0 8.5 -3.5t3.5 -8.5v-118q0 -5 -3.5 -8.5t-8.5 -3.5h-360q-5 0 -8.5 3.5t-3.5 8.5v676q0 5 3.5 8.5
t8.5 3.5h360q5 0 8.5 -3.5t3.5 -8.5v-118q0 -5 -3.5 -8.5zM159.5 -234.5q-23.5 23.5 -23.5 59.5q0 37 23.5 60.5t60.5 23.5q36 0 59.5 -23.5t23.5 -60.5q0 -35 -23.5 -59t-59.5 -24q-37 0 -60.5 23.5z" />
    <glyph glyph-name="uni1EB9" unicode="&#x1eb9;" horiz-adv-x="446" 
d="M421.5 216.5q-3.5 -3.5 -8.5 -3.5h-218q-5 0 -5 -5v-30q0 -20 9.5 -32t25.5 -12q14 0 23 10t12 25q1 11 13 11l138 -8q5 0 8.5 -3.5t2.5 -9.5q-9 -167 -197 -167q-95 0 -148 45.5t-53 127.5v187q0 78 53.5 125.5t147.5 47.5t147 -47t53 -126v-127q0 -5 -3.5 -8.5z
M199.5 371q-9.5 -12 -9.5 -32v-31q0 -5 5 -5h59q5 0 5 5v31q0 19 -9.5 31.5t-24.5 12.5q-16 0 -25.5 -12zM163.5 -234.5q-23.5 23.5 -23.5 59.5q0 37 23.5 60.5t60.5 23.5q36 0 59.5 -23.5t23.5 -60.5q0 -35 -23.5 -59t-59.5 -24q-37 0 -60.5 23.5z" />
    <glyph glyph-name="uni1EBA" unicode="&#x1eba;" horiz-adv-x="441" 
d="M415.5 561.5q-3.5 -3.5 -8.5 -3.5h-201q-5 0 -5 -5v-126q0 -5 5 -5h110q5 0 8.5 -3.5t3.5 -8.5v-119q0 -5 -3.5 -8.5t-8.5 -3.5h-110q-5 0 -5 -5v-127q0 -5 5 -5h201q5 0 8.5 -3.5t3.5 -8.5v-118q0 -5 -3.5 -8.5t-8.5 -3.5h-360q-5 0 -8.5 3.5t-3.5 8.5v676q0 5 3.5 8.5
t8.5 3.5h360q5 0 8.5 -3.5t3.5 -8.5v-118q0 -5 -3.5 -8.5zM203 757q12 29 32 51q9 11 13 18.5t4 20.5q0 8 -7 14t-16 6q-11 0 -20.5 -6t-22.5 -23q-5 -5 -9 -5t-8 3l-42 30q-6 5 -6 9t3 8q23 33 48 47t61 14q49 0 77 -25.5t28 -71.5q0 -23 -9.5 -39t-28.5 -36
q-21 -23 -26 -32q-6 -8 -15 -7l-48 9q-14 3 -8 15z" />
    <glyph glyph-name="uni1EBB" unicode="&#x1ebb;" horiz-adv-x="446" 
d="M421.5 216.5q-3.5 -3.5 -8.5 -3.5h-218q-5 0 -5 -5v-30q0 -20 9.5 -32t25.5 -12q14 0 23 10t12 25q1 11 13 11l138 -8q5 0 8.5 -3.5t2.5 -9.5q-9 -167 -197 -167q-95 0 -148 45.5t-53 127.5v187q0 78 53.5 125.5t147.5 47.5t147 -47t53 -126v-127q0 -5 -3.5 -8.5z
M199.5 371q-9.5 -12 -9.5 -32v-31q0 -5 5 -5h59q5 0 5 5v31q0 19 -9.5 31.5t-24.5 12.5q-16 0 -25.5 -12zM199 574q12 29 32 51q9 11 13 18.5t4 20.5q0 8 -7 14t-16 6q-11 0 -20.5 -6t-22.5 -23q-5 -5 -9 -5t-8 3l-42 30q-6 5 -6 9t3 8q23 33 48 47t61 14q49 0 77 -25.5
t28 -71.5q0 -23 -9.5 -39t-28.5 -36q-21 -23 -26 -32q-6 -8 -15 -7l-48 9q-14 3 -8 15z" />
    <glyph glyph-name="uni1EBC" unicode="&#x1ebc;" horiz-adv-x="441" 
d="M415.5 561.5q-3.5 -3.5 -8.5 -3.5h-201q-5 0 -5 -5v-126q0 -5 5 -5h110q5 0 8.5 -3.5t3.5 -8.5v-119q0 -5 -3.5 -8.5t-8.5 -3.5h-110q-5 0 -5 -5v-127q0 -5 5 -5h201q5 0 8.5 -3.5t3.5 -8.5v-118q0 -5 -3.5 -8.5t-8.5 -3.5h-360q-5 0 -8.5 3.5t-3.5 8.5v676q0 5 3.5 8.5
t8.5 3.5h360q5 0 8.5 -3.5t3.5 -8.5v-118q0 -5 -3.5 -8.5zM241 777q-8 4 -14.5 8.5t-13 7t-13.5 2.5q-20 0 -33 -21q-3 -5 -8 -6.5t-9 2.5l-51 36q-8 6 -5 16q13 38 37.5 57t54.5 19q31 0 66 -23q2 -2 9.5 -6.5t15 -7.5t15.5 -3q22 0 34 18q7 11 16 5l50 -35q5 -3 5 -10
q0 -6 -4 -13q-17 -33 -43 -47.5t-54 -14.5q-23 0 -55 16z" />
    <glyph glyph-name="uni1EBD" unicode="&#x1ebd;" horiz-adv-x="446" 
d="M421.5 216.5q-3.5 -3.5 -8.5 -3.5h-218q-5 0 -5 -5v-30q0 -20 9.5 -32t25.5 -12q14 0 23 10t12 25q1 11 13 11l138 -8q5 0 8.5 -3.5t2.5 -9.5q-9 -167 -197 -167q-95 0 -148 45.5t-53 127.5v187q0 78 53.5 125.5t147.5 47.5t147 -47t53 -126v-127q0 -5 -3.5 -8.5z
M199.5 371q-9.5 -12 -9.5 -32v-31q0 -5 5 -5h59q5 0 5 5v31q0 19 -9.5 31.5t-24.5 12.5q-16 0 -25.5 -12zM237 594q-8 4 -14.5 8.5t-13 7t-13.5 2.5q-20 0 -33 -21q-3 -5 -8 -6.5t-9 2.5l-51 36q-8 6 -5 16q13 38 37.5 57t54.5 19q31 0 66 -23q2 -2 9.5 -6.5t15 -7.5
t15.5 -3q22 0 34 18q7 11 16 5l50 -35q5 -3 5 -10q0 -6 -4 -13q-17 -33 -43 -47.5t-54 -14.5q-23 0 -55 16z" />
    <glyph glyph-name="uni1EBE" unicode="&#x1ebe;" horiz-adv-x="441" 
d="M415.5 561.5q-3.5 -3.5 -8.5 -3.5h-201q-5 0 -5 -5v-126q0 -5 5 -5h110q5 0 8.5 -3.5t3.5 -8.5v-119q0 -5 -3.5 -8.5t-8.5 -3.5h-110q-5 0 -5 -5v-127q0 -5 5 -5h201q5 0 8.5 -3.5t3.5 -8.5v-118q0 -5 -3.5 -8.5t-8.5 -3.5h-360q-5 0 -8.5 3.5t-3.5 8.5v676q0 5 3.5 8.5
t8.5 3.5h360q5 0 8.5 -3.5t3.5 -8.5v-118q0 -5 -3.5 -8.5zM68.5 758.5q-2.5 3.5 1.5 10.5l63 106q4 8 14 8h154q10 0 14 -8l66 -106q2 -6 2 -7q0 -7 -10 -7h-105q-10 0 -14 9l-26 51q-3 5 -6 0l-26 -51q-5 -9 -14 -9h-104q-7 0 -9.5 3.5zM372 848q-3 4 1 10l59 100q4 8 14 8
h112q10 0 10 -7q0 -3 -3 -8l-78 -100q-6 -7 -15 -7h-90q-7 0 -10 4z" />
    <glyph glyph-name="uni1EBF" unicode="&#x1ebf;" horiz-adv-x="446" 
d="M421.5 216.5q-3.5 -3.5 -8.5 -3.5h-218q-5 0 -5 -5v-30q0 -20 9.5 -32t25.5 -12q14 0 23 10t12 25q1 11 13 11l138 -8q5 0 8.5 -3.5t2.5 -9.5q-9 -167 -197 -167q-95 0 -148 45.5t-53 127.5v187q0 78 53.5 125.5t147.5 47.5t147 -47t53 -126v-127q0 -5 -3.5 -8.5z
M199.5 371q-9.5 -12 -9.5 -32v-31q0 -5 5 -5h59q5 0 5 5v31q0 19 -9.5 31.5t-24.5 12.5q-16 0 -25.5 -12zM64.5 575.5q-2.5 3.5 1.5 10.5l63 106q4 8 14 8h154q10 0 14 -8l66 -106q2 -6 2 -7q0 -7 -10 -7h-105q-10 0 -14 9l-26 51q-3 5 -6 0l-26 -51q-5 -9 -14 -9h-104
q-7 0 -9.5 3.5zM368 665q-3 4 1 10l59 100q4 8 14 8h112q10 0 10 -7q0 -3 -3 -8l-78 -100q-6 -7 -15 -7h-90q-7 0 -10 4z" />
    <glyph glyph-name="uni1EC0" unicode="&#x1ec0;" horiz-adv-x="441" 
d="M415.5 561.5q-3.5 -3.5 -8.5 -3.5h-201q-5 0 -5 -5v-126q0 -5 5 -5h110q5 0 8.5 -3.5t3.5 -8.5v-119q0 -5 -3.5 -8.5t-8.5 -3.5h-110q-5 0 -5 -5v-127q0 -5 5 -5h201q5 0 8.5 -3.5t3.5 -8.5v-118q0 -5 -3.5 -8.5t-8.5 -3.5h-360q-5 0 -8.5 3.5t-3.5 8.5v676q0 5 3.5 8.5
t8.5 3.5h360q5 0 8.5 -3.5t3.5 -8.5v-118q0 -5 -3.5 -8.5zM69.5 758.5q-2.5 3.5 1.5 10.5l63 106q4 8 14 8h154q10 0 14 -8l66 -106q2 -6 2 -7q0 -7 -10 -7h-105q-10 0 -14 9l-26 51q-3 5 -6 0l-26 -51q-5 -9 -14 -9h-104q-7 0 -9.5 3.5zM455 888q0 -8 -11 -8h-91
q-9 0 -15 7l-78 100q-3 5 -3 7q0 8 11 8h112q10 0 14 -8l59 -100z" />
    <glyph glyph-name="uni1EC1" unicode="&#x1ec1;" horiz-adv-x="446" 
d="M421.5 216.5q-3.5 -3.5 -8.5 -3.5h-218q-5 0 -5 -5v-30q0 -20 9.5 -32t25.5 -12q14 0 23 10t12 25q1 11 13 11l138 -8q5 0 8.5 -3.5t2.5 -9.5q-9 -167 -197 -167q-95 0 -148 45.5t-53 127.5v187q0 78 53.5 125.5t147.5 47.5t147 -47t53 -126v-127q0 -5 -3.5 -8.5z
M199.5 371q-9.5 -12 -9.5 -32v-31q0 -5 5 -5h59q5 0 5 5v31q0 19 -9.5 31.5t-24.5 12.5q-16 0 -25.5 -12zM64.5 575.5q-2.5 3.5 1.5 10.5l63 106q4 8 14 8h154q10 0 14 -8l66 -106q2 -6 2 -7q0 -7 -10 -7h-105q-10 0 -14 9l-26 51q-3 5 -6 0l-26 -51q-5 -9 -14 -9h-104
q-7 0 -9.5 3.5zM450 705q0 -8 -11 -8h-91q-9 0 -15 7l-78 100q-3 5 -3 7q0 8 11 8h112q10 0 14 -8l59 -100z" />
    <glyph glyph-name="uni1EC2" unicode="&#x1ec2;" horiz-adv-x="441" 
d="M415.5 561.5q-3.5 -3.5 -8.5 -3.5h-201q-5 0 -5 -5v-126q0 -5 5 -5h110q5 0 8.5 -3.5t3.5 -8.5v-119q0 -5 -3.5 -8.5t-8.5 -3.5h-110q-5 0 -5 -5v-127q0 -5 5 -5h201q5 0 8.5 -3.5t3.5 -8.5v-118q0 -5 -3.5 -8.5t-8.5 -3.5h-360q-5 0 -8.5 3.5t-3.5 8.5v676q0 5 3.5 8.5
t8.5 3.5h360q5 0 8.5 -3.5t3.5 -8.5v-118q0 -5 -3.5 -8.5zM367 877q11 28 29 47q8 9 12 16.5t4 18.5q0 8 -6.5 13.5t-14.5 5.5q-10 0 -18.5 -5.5t-20.5 -20.5q-4 -6 -9 -6q-3 0 -8 3l-38 28q-5 5 -5 9t3 8q21 30 44 42.5t56 12.5q44 0 70 -24t26 -66q0 -22 -9 -37t-26 -32
q-15 -15 -24 -29q-6 -8 -15 -7l-42 8q-14 3 -8 15zM69.5 758.5q-2.5 3.5 1.5 10.5l63 106q4 8 14 8h154q10 0 14 -8l66 -106q2 -6 2 -7q0 -7 -10 -7h-105q-10 0 -14 9l-26 51q-3 5 -6 0l-26 -51q-5 -9 -14 -9h-104q-7 0 -9.5 3.5z" />
    <glyph glyph-name="uni1EC3" unicode="&#x1ec3;" horiz-adv-x="446" 
d="M421.5 216.5q-3.5 -3.5 -8.5 -3.5h-218q-5 0 -5 -5v-30q0 -20 9.5 -32t25.5 -12q14 0 23 10t12 25q1 11 13 11l138 -8q5 0 8.5 -3.5t2.5 -9.5q-9 -167 -197 -167q-95 0 -148 45.5t-53 127.5v187q0 78 53.5 125.5t147.5 47.5t147 -47t53 -126v-127q0 -5 -3.5 -8.5z
M199.5 371q-9.5 -12 -9.5 -32v-31q0 -5 5 -5h59q5 0 5 5v31q0 19 -9.5 31.5t-24.5 12.5q-16 0 -25.5 -12zM362 694q11 28 29 47q8 9 12 16.5t4 18.5q0 8 -6.5 13.5t-14.5 5.5q-10 0 -18.5 -5.5t-20.5 -20.5q-4 -6 -9 -6q-3 0 -8 3l-38 28q-5 5 -5 9t3 8q21 30 44 42.5
t56 12.5q44 0 70 -24t26 -66q0 -22 -9 -37t-26 -32q-15 -15 -24 -29q-6 -8 -15 -7l-42 8q-14 3 -8 15zM64.5 575.5q-2.5 3.5 1.5 10.5l63 106q4 8 14 8h154q10 0 14 -8l66 -106q2 -6 2 -7q0 -7 -10 -7h-105q-10 0 -14 9l-26 51q-3 5 -6 0l-26 -51q-5 -9 -14 -9h-104
q-7 0 -9.5 3.5z" />
    <glyph glyph-name="uni1EC4" unicode="&#x1ec4;" horiz-adv-x="441" 
d="M415.5 561.5q-3.5 -3.5 -8.5 -3.5h-201q-5 0 -5 -5v-126q0 -5 5 -5h110q5 0 8.5 -3.5t3.5 -8.5v-119q0 -5 -3.5 -8.5t-8.5 -3.5h-110q-5 0 -5 -5v-127q0 -5 5 -5h201q5 0 8.5 -3.5t3.5 -8.5v-118q0 -5 -3.5 -8.5t-8.5 -3.5h-360q-5 0 -8.5 3.5t-3.5 8.5v676q0 5 3.5 8.5
t8.5 3.5h360q5 0 8.5 -3.5t3.5 -8.5v-118q0 -5 -3.5 -8.5zM69.5 758.5q-2.5 3.5 1.5 10.5l63 106q4 8 14 8h154q10 0 14 -8l66 -106q2 -6 2 -7q0 -7 -10 -7h-105q-10 0 -14 9l-26 51q-3 5 -6 0l-26 -51q-5 -9 -14 -9h-104q-7 0 -9.5 3.5zM220 937q-8 4 -14.5 8.5t-13 7
t-13.5 2.5q-20 0 -33 -21q-3 -5 -8 -6.5t-9 2.5l-51 36q-8 6 -5 16q13 38 37.5 57t54.5 19q31 0 66 -23q2 -2 9.5 -6.5t15 -7.5t15.5 -3q22 0 34 18q7 11 16 5l50 -35q5 -3 5 -10q0 -6 -4 -13q-17 -33 -43 -47.5t-54 -14.5q-23 0 -55 16z" />
    <glyph glyph-name="uni1EC5" unicode="&#x1ec5;" horiz-adv-x="446" 
d="M421.5 216.5q-3.5 -3.5 -8.5 -3.5h-218q-5 0 -5 -5v-30q0 -20 9.5 -32t25.5 -12q14 0 23 10t12 25q1 11 13 11l138 -8q5 0 8.5 -3.5t2.5 -9.5q-9 -167 -197 -167q-95 0 -148 45.5t-53 127.5v187q0 78 53.5 125.5t147.5 47.5t147 -47t53 -126v-127q0 -5 -3.5 -8.5z
M199.5 371q-9.5 -12 -9.5 -32v-31q0 -5 5 -5h59q5 0 5 5v31q0 19 -9.5 31.5t-24.5 12.5q-16 0 -25.5 -12zM64.5 575.5q-2.5 3.5 1.5 10.5l63 106q4 8 14 8h154q10 0 14 -8l66 -106q2 -6 2 -7q0 -7 -10 -7h-105q-10 0 -14 9l-26 51q-3 5 -6 0l-26 -51q-5 -9 -14 -9h-104
q-7 0 -9.5 3.5zM215 754q-8 4 -14.5 8.5t-13 7t-13.5 2.5q-20 0 -33 -21q-3 -5 -8 -6.5t-9 2.5l-51 36q-8 6 -5 16q13 38 37.5 57t54.5 19q31 0 66 -23q2 -2 9.5 -6.5t15 -7.5t15.5 -3q22 0 34 18q7 11 16 5l50 -35q5 -3 5 -10q0 -6 -4 -13q-17 -33 -43 -47.5t-54 -14.5
q-23 0 -55 16z" />
    <glyph glyph-name="uni1EC6" unicode="&#x1ec6;" horiz-adv-x="441" 
d="M415.5 561.5q-3.5 -3.5 -8.5 -3.5h-201q-5 0 -5 -5v-126q0 -5 5 -5h110q5 0 8.5 -3.5t3.5 -8.5v-119q0 -5 -3.5 -8.5t-8.5 -3.5h-110q-5 0 -5 -5v-127q0 -5 5 -5h201q5 0 8.5 -3.5t3.5 -8.5v-118q0 -5 -3.5 -8.5t-8.5 -3.5h-360q-5 0 -8.5 3.5t-3.5 8.5v676q0 5 3.5 8.5
t8.5 3.5h360q5 0 8.5 -3.5t3.5 -8.5v-118q0 -5 -3.5 -8.5zM159.5 -234.5q-23.5 23.5 -23.5 59.5q0 37 23.5 60.5t60.5 23.5q36 0 59.5 -23.5t23.5 -60.5q0 -35 -23.5 -59t-59.5 -24q-37 0 -60.5 23.5zM68.5 758.5q-2.5 3.5 1.5 10.5l63 106q4 8 14 8h154q10 0 14 -8l66 -106
q2 -6 2 -7q0 -7 -10 -7h-105q-10 0 -14 9l-26 51q-3 5 -6 0l-26 -51q-5 -9 -14 -9h-104q-7 0 -9.5 3.5z" />
    <glyph glyph-name="uni1EC7" unicode="&#x1ec7;" horiz-adv-x="446" 
d="M421.5 216.5q-3.5 -3.5 -8.5 -3.5h-218q-5 0 -5 -5v-30q0 -20 9.5 -32t25.5 -12q14 0 23 10t12 25q1 11 13 11l138 -8q5 0 8.5 -3.5t2.5 -9.5q-9 -167 -197 -167q-95 0 -148 45.5t-53 127.5v187q0 78 53.5 125.5t147.5 47.5t147 -47t53 -126v-127q0 -5 -3.5 -8.5z
M199.5 371q-9.5 -12 -9.5 -32v-31q0 -5 5 -5h59q5 0 5 5v31q0 19 -9.5 31.5t-24.5 12.5q-16 0 -25.5 -12zM163.5 -234.5q-23.5 23.5 -23.5 59.5q0 37 23.5 60.5t60.5 23.5q36 0 59.5 -23.5t23.5 -60.5q0 -35 -23.5 -59t-59.5 -24q-37 0 -60.5 23.5zM64.5 575.5
q-2.5 3.5 1.5 10.5l63 106q4 8 14 8h154q10 0 14 -8l66 -106q2 -6 2 -7q0 -7 -10 -7h-105q-10 0 -14 9l-26 51q-3 5 -6 0l-26 -51q-5 -9 -14 -9h-104q-7 0 -9.5 3.5z" />
    <glyph glyph-name="uni1EC8" unicode="&#x1ec8;" horiz-adv-x="235" 
d="M38.5 3.5q-3.5 3.5 -3.5 8.5v676q0 5 3.5 8.5t8.5 3.5h142q5 0 8.5 -3.5t3.5 -8.5v-676q0 -5 -3.5 -8.5t-8.5 -3.5h-142q-5 0 -8.5 3.5zM93 757q12 29 32 51q9 11 13 18.5t4 20.5q0 8 -7 14t-16 6q-11 0 -20.5 -6t-22.5 -23q-5 -5 -9 -5t-8 3l-42 30q-6 5 -6 9t3 8
q23 33 48 47t61 14q49 0 77 -25.5t28 -71.5q0 -23 -9.5 -39t-28.5 -36q-21 -23 -26 -32q-6 -8 -15 -7l-48 9q-14 3 -8 15z" />
    <glyph glyph-name="uni1EC9" unicode="&#x1ec9;" horiz-adv-x="197" 
d="M19.5 3.5q-3.5 3.5 -3.5 8.5v493q0 5 3.5 8.5t8.5 3.5h142q5 0 8.5 -3.5t3.5 -8.5v-493q0 -5 -3.5 -8.5t-8.5 -3.5h-142q-5 0 -8.5 3.5zM74 574q12 29 32 51q9 11 13 18.5t4 20.5q0 8 -7 14t-16 6q-11 0 -20.5 -6t-22.5 -23q-5 -5 -9 -5t-8 3l-42 30q-6 5 -6 9t3 8
q23 33 48 47t61 14q49 0 77 -25.5t28 -71.5q0 -23 -9.5 -39t-28.5 -36q-21 -23 -26 -32q-6 -8 -15 -7l-48 9q-14 3 -8 15z" />
    <glyph glyph-name="uni1ECA" unicode="&#x1eca;" horiz-adv-x="235" 
d="M38.5 3.5q-3.5 3.5 -3.5 8.5v676q0 5 3.5 8.5t8.5 3.5h142q5 0 8.5 -3.5t3.5 -8.5v-676q0 -5 -3.5 -8.5t-8.5 -3.5h-142q-5 0 -8.5 3.5zM57.5 -234.5q-23.5 23.5 -23.5 59.5q0 37 23.5 60.5t60.5 23.5q36 0 59.5 -23.5t23.5 -60.5q0 -35 -23.5 -59t-59.5 -24
q-37 0 -60.5 23.5z" />
    <glyph glyph-name="uni1ECB" unicode="&#x1ecb;" horiz-adv-x="223" 
d="M48.5 587.5q-24.5 24.5 -24.5 62.5q0 39 24 63t62 24t62.5 -24t24.5 -63q0 -37 -24.5 -62t-62.5 -25q-37 0 -61.5 24.5zM32.5 3.5q-3.5 3.5 -3.5 8.5v493q0 5 3.5 8.5t8.5 3.5h142q5 0 8.5 -3.5t3.5 -8.5v-493q0 -5 -3.5 -8.5t-8.5 -3.5h-142q-5 0 -8.5 3.5zM51.5 -234.5
q-23.5 23.5 -23.5 59.5q0 37 23.5 60.5t60.5 23.5q36 0 59.5 -23.5t23.5 -60.5q0 -35 -23.5 -59t-59.5 -24q-37 0 -60.5 23.5z" />
    <glyph glyph-name="uni1ECC" unicode="&#x1ecc;" horiz-adv-x="479" 
d="M84.5 48q-57.5 56 -57.5 151v302q0 94 57.5 150.5t154.5 56.5q96 0 154.5 -56.5t58.5 -150.5v-302q0 -95 -58.5 -151t-154.5 -56q-97 0 -154.5 56zM273.5 149.5q12.5 15.5 12.5 42.5v316q0 27 -12.5 42.5t-34.5 15.5t-34 -15.5t-12 -42.5v-316q0 -27 12 -42.5t34 -15.5
t34.5 15.5zM179.5 -234.5q-23.5 23.5 -23.5 59.5q0 37 23.5 60.5t60.5 23.5q36 0 59.5 -23.5t23.5 -60.5q0 -35 -23.5 -59t-59.5 -24q-37 0 -60.5 23.5z" />
    <glyph glyph-name="uni1ECD" unicode="&#x1ecd;" horiz-adv-x="452" 
d="M77 38q-53 46 -53 127v187q0 78 53.5 125.5t148.5 47.5t148.5 -47t53.5 -126v-187q0 -81 -53 -127t-149 -46t-149 46zM252 147q10 12 10 32v160q0 19 -10 31.5t-26 12.5t-26 -12.5t-10 -31.5v-160q0 -20 10 -32t26 -12t26 12zM166.5 -234.5q-23.5 23.5 -23.5 59.5
q0 37 23.5 60.5t60.5 23.5q36 0 59.5 -23.5t23.5 -60.5q0 -35 -23.5 -59t-59.5 -24q-37 0 -60.5 23.5z" />
    <glyph glyph-name="uni1ECE" unicode="&#x1ece;" horiz-adv-x="479" 
d="M84.5 48q-57.5 56 -57.5 151v302q0 94 57.5 150.5t154.5 56.5q96 0 154.5 -56.5t58.5 -150.5v-302q0 -95 -58.5 -151t-154.5 -56q-97 0 -154.5 56zM273.5 149.5q12.5 15.5 12.5 42.5v316q0 27 -12.5 42.5t-34.5 15.5t-34 -15.5t-12 -42.5v-316q0 -27 12 -42.5t34 -15.5
t34.5 15.5zM215 757q12 29 32 51q9 11 13 18.5t4 20.5q0 8 -7 14t-16 6q-11 0 -20.5 -6t-22.5 -23q-5 -5 -9 -5t-8 3l-42 30q-6 5 -6 9t3 8q23 33 48 47t61 14q49 0 77 -25.5t28 -71.5q0 -23 -9.5 -39t-28.5 -36q-21 -23 -26 -32q-6 -8 -15 -7l-48 9q-14 3 -8 15z" />
    </font>
</defs>
</svg>
