<?xml version="1.0" standalone="no"?>
<!DOCTYPE svg PUBLIC "-//W3C//DTD SVG 1.1//EN" "http://www.w3.org/Graphics/SVG/1.1/DTD/svg11.dtd" >
<svg xmlns="http://www.w3.org/2000/svg" xmlns:xlink="http://www.w3.org/1999/xlink" version="1.1">
<metadata>
Created by FontForge 20201107 at Wed Nov  7 06:08:25 2018
 By 
Copyright 2017 The Barlow Project Authors (https://github.com/jpt/barlow)
</metadata>
<defs>
<font id="BarlowCondensed-Bold" horiz-adv-x="447" >
  <font-face 
    font-family="Barlow Condensed"
    font-weight="700"
    font-stretch="condensed"
    units-per-em="1000"
    panose-1="0 0 8 6 0 0 0 0 0 0"
    ascent="800"
    descent="-200"
    x-height="514"
    cap-height="700"
    bbox="-599.818 -240 1003 1070"
    underline-thickness="50"
    underline-position="-100"
    unicode-range="U+000D-FB02"
  />
<missing-glyph horiz-adv-x="404" 
d="M5 0h394q5 0 5 5v690q0 5 -5 5h-394q-5 0 -5 -5v-690q0 -5 5 -5zM150.5 251.5q-3.5 3.5 -3.5 8.5v20q0 36 15 58t43 46q23 20 33.5 34.5t10.5 35.5q0 23 -11 37t-30 14q-21 0 -32.5 -15t-11.5 -39v-8q0 -11 -12 -11l-77 3q-5 0 -8.5 4t-3.5 9v3q0 65 41 105.5t107 40.5
q63 0 101 -38t38 -101q0 -45 -16.5 -71t-46.5 -51q-21 -18 -30.5 -30.5t-9.5 -31.5v-14q0 -5 -3.5 -8.5t-8.5 -3.5h-76q-5 0 -8.5 3.5zM156.5 104q-15.5 16 -15.5 40q0 25 15.5 41t40.5 16t41 -16t16 -41q0 -24 -16 -40t-41 -16t-40.5 16z" />
    <glyph glyph-name="fi" unicode="fi" horiz-adv-x="516" 
d="M273.5 510.5q3.5 -3.5 3.5 -8.5v-75q0 -5 -3.5 -8.5t-8.5 -3.5h-55q-5 0 -5 -5v-398q0 -5 -3.5 -8.5t-8.5 -3.5h-116q-5 0 -8.5 3.5t-3.5 8.5v398q0 5 -5 5h-30q-5 0 -8.5 3.5t-3.5 8.5v75q0 5 3.5 8.5t8.5 3.5h30q5 0 5 5v27q0 90 45.5 124.5t144.5 32.5h4q5 0 8.5 -3.5
t3.5 -8.5l-1 -80q0 -5 -3.5 -8.5t-8.5 -3.5h-2q-51 -1 -51 -62v-18q0 -5 5 -5h55q5 0 8.5 -3.5zM349.5 594.5q-22.5 22.5 -22.5 56.5q0 35 22 57t57 22t56.5 -22t21.5 -57q0 -34 -22 -56.5t-56 -22.5t-56.5 22.5zM340.5 3.5q-3.5 3.5 -3.5 8.5v490q0 5 3.5 8.5t8.5 3.5h117
q5 0 8.5 -3.5t3.5 -8.5v-490q0 -5 -3.5 -8.5t-8.5 -3.5h-117q-5 0 -8.5 3.5z" />
    <glyph glyph-name="fl" unicode="fl" horiz-adv-x="506" 
d="M273.5 510.5q3.5 -3.5 3.5 -8.5v-75q0 -5 -3.5 -8.5t-8.5 -3.5h-55q-5 0 -5 -5v-398q0 -5 -3.5 -8.5t-8.5 -3.5h-116q-5 0 -8.5 3.5t-3.5 8.5v398q0 5 -5 5h-30q-5 0 -8.5 3.5t-3.5 8.5v75q0 5 3.5 8.5t8.5 3.5h30q5 0 5 5v27q0 90 45.5 124.5t144.5 32.5h4q5 0 8.5 -3.5
t3.5 -8.5l-1 -80q0 -5 -3.5 -8.5t-8.5 -3.5h-2q-51 -1 -51 -62v-18q0 -5 5 -5h55q5 0 8.5 -3.5zM334.5 3.5q-3.5 3.5 -3.5 8.5v676q0 5 3.5 8.5t8.5 3.5h117q5 0 8.5 -3.5t3.5 -8.5v-676q0 -5 -3.5 -8.5t-8.5 -3.5h-117q-5 0 -8.5 3.5z" />
    <glyph glyph-name="I_J.liga" unicode="IJ" horiz-adv-x="682" 
d="M47.5 3.5q-3.5 3.5 -3.5 8.5v676q0 5 3.5 8.5t8.5 3.5h117q5 0 8.5 -3.5t3.5 -8.5v-676q0 -5 -3.5 -8.5t-8.5 -3.5h-117q-5 0 -8.5 3.5zM298 43.5q-54 51.5 -54 136.5v69q0 5 3.5 8.5t8.5 3.5h117q5 0 8.5 -3.5t3.5 -8.5v-71q0 -29 15 -47t40 -18q26 0 41.5 18t15.5 47
v510q0 5 3.5 8.5t8.5 3.5h117q5 0 8.5 -3.5t3.5 -8.5v-508q0 -85 -54.5 -136.5t-143.5 -51.5q-88 0 -142 51.5z" />
    <glyph glyph-name="f_f_i.liga" unicode="ffi" horiz-adv-x="784" 
d="M618 594.5q-22 22.5 -22 56.5q0 35 21.5 57t56.5 22t57 -22t22 -57q0 -34 -22.5 -56.5t-56.5 -22.5t-56 22.5zM470 519q0 -5 5 -5h55q5 0 8.5 -3.5t3.5 -8.5v-75q0 -5 -3.5 -8.5t-8.5 -3.5h-55q-5 0 -5 -5v-398q0 -5 -3.5 -8.5t-8.5 -3.5h-117q-5 0 -8.5 3.5t-3.5 8.5
v398q0 5 -5 5h-113q-5 0 -5 -5v-398q0 -5 -3.5 -8.5t-8.5 -3.5h-117q-5 0 -8.5 3.5t-3.5 8.5v398q0 5 -5 5h-30q-5 0 -8.5 3.5t-3.5 8.5v75q0 5 3.5 8.5t8.5 3.5h30q5 0 5 5v35q0 87 46 120t144 29h1q5 0 8.5 -3.5t3.5 -8.5v-72q0 -5 -3.5 -8.5t-8.5 -3.5q-50 -3 -50 -65
v-23q0 -5 5 -5h113q5 0 5 5v35q0 87 46.5 120t144.5 29h1q5 0 8.5 -3.5t3.5 -8.5v-72q0 -5 -3.5 -8.5t-8.5 -3.5q-51 -3 -51 -65v-23zM608.5 3.5q-3.5 3.5 -3.5 8.5v490q0 5 3.5 8.5t8.5 3.5h117q5 0 8.5 -3.5t3.5 -8.5v-490q0 -5 -3.5 -8.5t-8.5 -3.5h-117q-5 0 -8.5 3.5z
" />
    <glyph glyph-name="f_f_l.liga" unicode="ffl" horiz-adv-x="776" 
d="M475 519q0 -5 5 -5h55q5 0 8.5 -3.5t3.5 -8.5v-75q0 -5 -3.5 -8.5t-8.5 -3.5h-55q-5 0 -5 -5v-398q0 -5 -3.5 -8.5t-8.5 -3.5h-117q-5 0 -8.5 3.5t-3.5 8.5v398q0 5 -5 5h-118q-5 0 -5 -5v-398q0 -5 -3.5 -8.5t-8.5 -3.5h-117q-5 0 -8.5 3.5t-3.5 8.5v398q0 5 -5 5h-30
q-5 0 -8.5 3.5t-3.5 8.5v75q0 5 3.5 8.5t8.5 3.5h30q5 0 5 5v35q0 87 46 120t144 29h1q5 0 8.5 -3.5t3.5 -8.5v-72q0 -5 -3.5 -8.5t-8.5 -3.5q-50 -3 -50 -65v-23q0 -5 5 -5h118q5 0 5 5v35q0 87 46.5 120t144.5 29h1q5 0 8.5 -3.5t3.5 -8.5v-72q0 -5 -3.5 -8.5t-8.5 -3.5
q-51 -3 -51 -65v-23zM604.5 696.5q3.5 3.5 8.5 3.5h117q5 0 8.5 -3.5t3.5 -8.5v-676q0 -5 -3.5 -8.5t-8.5 -3.5h-117q-5 0 -8.5 3.5t-3.5 8.5v676q0 5 3.5 8.5z" />
    <glyph glyph-name="g_j.liga" unicode="gj" horiz-adv-x="658" 
d="M492.5 594.5q-22.5 22.5 -22.5 56.5q0 35 22 57t57 22t57 -22t22 -57q0 -34 -22.5 -56.5t-56.5 -22.5t-56.5 22.5zM265 475q2 1 2 4v23q0 5 3.5 8.5t8.5 3.5h117q5 0 8.5 -3.5t3.5 -8.5v-478q0 -111 -52.5 -171t-188.5 -60q-27 0 -42 1q-12 1 -12 13v98q0 13 13 11
q59 -2 89.5 11.5t41 40.5t10.5 71q0 3 -2 3t-4 -3q-18 -24 -43.5 -33.5t-49.5 -9.5q-69 0 -103 44.5t-34 123.5v190q0 81 34.5 124.5t102.5 43.5q61 0 93 -45q2 -3 4 -2zM479 502q0 5 3.5 8.5t8.5 3.5h116q5 0 8.5 -3.5t3.5 -8.5v-502q0 -72 -14 -115.5t-56 -66.5t-125 -22
q-13 0 -12 12l8 97q2 11 11 11q27 0 37.5 21.5t10.5 62.5v502zM253.5 134q13.5 16 13.5 41v169q0 25 -13.5 41t-34.5 16t-34 -16t-13 -41v-169q0 -25 13 -41t34 -16t34.5 16z" />
    <glyph glyph-name="i_j.liga" unicode="ij" horiz-adv-x="429" 
d="M52.5 594.5q-22.5 22.5 -22.5 56.5q0 35 22 57t57 22t56.5 -22t21.5 -57q0 -34 -22 -56.5t-56 -22.5t-56.5 22.5zM264.5 594.5q-22.5 22.5 -22.5 56.5q0 35 22 57t57 22t57 -22t22 -57q0 -34 -22.5 -56.5t-56.5 -22.5t-56.5 22.5zM42.5 3.5q-3.5 3.5 -3.5 8.5v490
q0 5 3.5 8.5t8.5 3.5h117q5 0 8.5 -3.5t3.5 -8.5v-490q0 -5 -3.5 -8.5t-8.5 -3.5h-117q-5 0 -8.5 3.5zM156 -192v97q0 12 13 11q45 -1 63 20.5t18 63.5v502q0 5 3.5 8.5t8.5 3.5h117q5 0 8.5 -3.5t3.5 -8.5v-502q0 -75 -13.5 -117t-61.5 -65t-148 -22q-12 0 -12 12z" />
    <glyph glyph-name="hyphen_hyphen.liga" unicode="&#x2d;&#x2d;" horiz-adv-x="593" 
d="M27.5 235.5q-3.5 3.5 -3.5 8.5v97q0 5 3.5 8.5t8.5 3.5h521q5 0 8.5 -3.5t3.5 -8.5v-97q0 -5 -3.5 -8.5t-8.5 -3.5h-521q-5 0 -8.5 3.5z" />
    <glyph glyph-name=".notdef" horiz-adv-x="404" 
d="M5 0h394q5 0 5 5v690q0 5 -5 5h-394q-5 0 -5 -5v-690q0 -5 5 -5zM150.5 251.5q-3.5 3.5 -3.5 8.5v20q0 36 15 58t43 46q23 20 33.5 34.5t10.5 35.5q0 23 -11 37t-30 14q-21 0 -32.5 -15t-11.5 -39v-8q0 -11 -12 -11l-77 3q-5 0 -8.5 4t-3.5 9v3q0 65 41 105.5t107 40.5
q63 0 101 -38t38 -101q0 -45 -16.5 -71t-46.5 -51q-21 -18 -30.5 -30.5t-9.5 -31.5v-14q0 -5 -3.5 -8.5t-8.5 -3.5h-76q-5 0 -8.5 3.5zM156.5 104q-15.5 16 -15.5 40q0 25 15.5 41t40.5 16t41 -16t16 -41q0 -24 -16 -40t-41 -16t-40.5 16z" />
    <glyph glyph-name=".null" horiz-adv-x="0" 
 />
    <glyph glyph-name="nonmarkingreturn" unicode="&#xd;" horiz-adv-x="200" 
 />
    <glyph glyph-name="NULL" horiz-adv-x="0" 
 />
    <glyph glyph-name="NULL" horiz-adv-x="0" 
 />
    <glyph glyph-name="space" unicode=" " horiz-adv-x="200" 
 />
    <glyph glyph-name="exclam" unicode="!" horiz-adv-x="279" 
d="M86.5 243.5q-3.5 3.5 -3.5 8.5l-15 436q0 5 3.5 8.5t8.5 3.5h117q5 0 8.5 -3.5t3.5 -8.5l-14 -436q0 -5 -3.5 -8.5t-8.5 -3.5h-88q-5 0 -8.5 3.5zM83.5 23.5q-22.5 22.5 -22.5 56.5q0 35 22 57t57 22t56.5 -22t21.5 -57q0 -34 -22 -56.5t-56 -22.5t-56.5 22.5z" />
    <glyph glyph-name="quotedbl" unicode="&#x22;" horiz-adv-x="346" 
d="M32 474.5q-4 3.5 -4 8.5l-13 203q0 12 11 12h110q13 0 11 -12l-13 -203q0 -6 -3.5 -9t-9.5 -3h-80q-5 0 -9 3.5zM215 474.5q-4 3.5 -4 8.5l-13 203q0 12 11 12h110q13 0 11 -12l-13 -203q0 -6 -3.5 -9t-9.5 -3h-80q-5 0 -9 3.5z" />
    <glyph glyph-name="numbersign" unicode="#" horiz-adv-x="616" 
d="M578.5 407.5q-3.5 -3.5 -8.5 -3.5h-61q-6 0 -6 -5l-14 -99q0 -5 4 -5h42q5 0 8.5 -3.5t3.5 -8.5v-96q0 -5 -3.5 -8.5t-8.5 -3.5h-60q-6 0 -6 -5l-19 -132q-1 -11 -13 -11h-117q-12 0 -11 13l19 130q0 5 -4 5h-83q-6 0 -6 -5l-19 -132q-1 -11 -13 -11h-117q-12 0 -11 13
l19 130q0 5 -4 5h-44q-5 0 -8.5 3.5t-3.5 8.5v96q0 5 3.5 8.5t8.5 3.5h62q6 0 6 5l14 99q0 5 -4 5h-43q-5 0 -8.5 3.5t-3.5 8.5v97q0 5 3.5 8.5t8.5 3.5h61q6 0 6 5l19 132q1 11 13 11h117q12 0 11 -13l-19 -130q0 -5 4 -5h83q6 0 6 5l19 132q1 11 13 11h117q12 0 11 -13
l-19 -130q0 -5 4 -5h43q5 0 8.5 -3.5t3.5 -8.5v-97q0 -5 -3.5 -8.5zM348 300l14 99q0 5 -4 5h-83q-6 0 -6 -5l-14 -99q0 -5 4 -5h83q6 0 6 5z" />
    <glyph glyph-name="dollar" unicode="$" horiz-adv-x="444" 
d="M381 61.5q-39 -49.5 -104 -63.5q-5 -2 -5 -6l1 -56q0 -5 -3.5 -8.5t-8.5 -3.5h-81q-5 0 -8.5 3.5t-3.5 8.5l1 58q0 4 -4 5q-62 16 -98.5 63t-36.5 113v29q0 5 3.5 8.5t8.5 3.5h115q5 0 8.5 -3.5t3.5 -8.5v-22q0 -31 16 -50t40 -19t40 18t16 47q0 30 -20 51.5t-78 63.5
q-50 36 -81 64t-53 69t-22 95q0 70 37 118t101 63q4 1 4 6l-1 65q0 5 3.5 8.5t8.5 3.5h80q5 0 8.5 -3.5t3.5 -8.5l-1 -65q0 -5 4 -6q65 -15 102.5 -65t37.5 -121v-24q0 -5 -3.5 -8.5t-8.5 -3.5h-115q-5 0 -8.5 3.5t-3.5 8.5v27q0 31 -15.5 49.5t-40.5 18.5q-24 0 -39 -17.5
t-15 -48.5q0 -30 19 -53t75 -64q62 -46 93.5 -74.5t49 -63t17.5 -82.5q0 -73 -39 -122.5z" />
    <glyph glyph-name="percent" unicode="%" horiz-adv-x="766" 
d="M122 414q-36 21 -57 57.5t-21 79.5t21 79t57 57.5t78 21.5t77.5 -21.5t56 -57.5t20.5 -79t-20.5 -79.5t-56 -57.5t-77.5 -21t-78 21zM149 4q-2 4 1 10l364 678q4 8 15 8h75q7 0 9 -4t-1 -10l-364 -678q-4 -8 -15 -8h-75q-7 0 -9 4zM256.5 491q22.5 25 22.5 60t-23 59.5
t-56 24.5q-34 0 -57.5 -24.5t-23.5 -59.5q0 -36 23.5 -60.5t57.5 -24.5t56.5 25zM489.5 12.5q-35.5 21.5 -56.5 58t-21 79.5t21 79t56.5 57t77.5 21t77.5 -21t56.5 -57t21 -79t-21 -79.5t-56.5 -58t-77.5 -21.5t-77.5 21.5zM624 90q23 25 23 60t-23.5 59.5t-56.5 24.5
q-34 0 -57 -24.5t-23 -59.5q0 -36 23 -60.5t57 -24.5t57 25z" />
    <glyph glyph-name="ampersand" unicode="&#x26;" horiz-adv-x="603" 
d="M570 7q0 -7 -10 -7h-127q-9 0 -15 7l-24 31q-3 3 -7 1q-73 -48 -165 -48q-91 0 -143 45t-52 132q0 65 28.5 110t78.5 83q4 3 1 7q-46 62 -59.5 92.5t-13.5 67.5q0 82 50.5 131t133.5 49q55 0 99 -23t69 -64.5t25 -95.5q0 -62 -31 -106.5t-85 -82.5q-5 -3 -1 -7l27 -35
l31 -41l16 -20q4 -4 7 0q22 29 46 74q5 11 16 5l87 -49q10 -6 5 -17q-36 -67 -74 -117q-3 -3 0 -7l84 -107q3 -4 3 -8zM215.5 564.5q-12.5 -15.5 -12.5 -41.5q0 -18 6 -33.5t30 -49.5q3 -3 7 -1q52 40 52 85q0 25 -13.5 40.5t-34.5 15.5q-22 0 -34.5 -15.5zM309 137q4 4 1 7
l-28 36l-62 77q-3 4 -7 1q-44 -39 -44 -79q0 -29 17.5 -48.5t50.5 -19.5q30 0 72 26z" />
    <glyph glyph-name="quotesingle" unicode="'" horiz-adv-x="170" 
d="M31 476.5q-4 3.5 -4 8.5l-12 202q0 12 11 12h118q13 0 11 -12l-14 -202q-1 -5 -4.5 -8.5t-8.5 -3.5h-88q-5 0 -9 3.5z" />
    <glyph glyph-name="parenleft" unicode="(" horiz-adv-x="311" 
d="M112 -83q-50 77 -80.5 181t-30.5 234q0 131 30.5 237t80.5 182q4 8 14 8h115q7 0 9.5 -4t-0.5 -10q-91 -199 -91 -412t91 -410q2 -4 2 -6q0 -8 -11 -8h-115q-10 0 -14 8z" />
    <glyph glyph-name="parenright" unicode=")" horiz-adv-x="311" 
d="M199 751q50 -77 80.5 -181.5t30.5 -234.5t-30.5 -236t-80.5 -182q-4 -8 -14 -8h-115q-7 0 -9.5 4t0.5 10q91 197 91 412q0 122 -25.5 222.5t-65.5 187.5q-2 4 -2 6q0 8 11 8h115q10 0 14 -8z" />
    <glyph glyph-name="asterisk" unicode="*" horiz-adv-x="361" 
d="M144.5 399.5q-3.5 3.5 -3.5 8.5l1 83q0 3 -2 4t-4 -1l-72 -42q-4 -2 -6 -2q-5 0 -10 7l-28 50q-2 4 -2 6q0 6 6 10l77 44q2 2 2 4t-2 3l-77 43q-10 7 -4 16l28 53q3 5 7.5 6.5t9.5 -1.5l71 -44q2 -2 4 -1t2 4l-1 84q0 5 3.5 8.5t8.5 3.5h56q5 0 8.5 -3.5t3.5 -8.5l-1 -84
q0 -3 2 -4t4 1l71 44q4 2 6 2q7 0 11 -7l28 -53q2 -4 2 -6q0 -5 -6 -10l-76 -43q-2 -1 -2 -3t2 -4l76 -44q9 -6 4 -16l-28 -53q-3 -5 -7.5 -6t-9.5 2l-71 44q-2 2 -4 1t-2 -4l1 -83q0 -5 -3.5 -8.5t-8.5 -3.5h-56q-5 0 -8.5 3.5z" />
    <glyph glyph-name="plus" unicode="+" horiz-adv-x="438" 
d="M411.5 360.5q3.5 -3.5 3.5 -8.5v-82q0 -5 -3.5 -8.5t-8.5 -3.5h-126q-5 0 -5 -5v-125q0 -5 -3.5 -8.5t-8.5 -3.5h-82q-5 0 -8.5 3.5t-3.5 8.5v125q0 5 -5 5h-125q-5 0 -8.5 3.5t-3.5 8.5v82q0 5 3.5 8.5t8.5 3.5h125q5 0 5 5v126q0 5 3.5 8.5t8.5 3.5h82q5 0 8.5 -3.5
t3.5 -8.5v-126q0 -5 5 -5h126q5 0 8.5 -3.5z" />
    <glyph glyph-name="comma" unicode="," horiz-adv-x="211" 
d="M32.5 -94.5q-3.5 3.5 -2.5 9.5l22 232q2 11 12 11h102q14 0 11 -13l-53 -232q-3 -11 -13 -11h-69q-6 0 -9.5 3.5z" />
    <glyph glyph-name="hyphen" unicode="-" horiz-adv-x="331" 
d="M27.5 238.5q-3.5 3.5 -3.5 8.5v97q0 5 3.5 8.5t8.5 3.5h259q5 0 8.5 -3.5t3.5 -8.5v-97q0 -5 -3.5 -8.5t-8.5 -3.5h-259q-5 0 -8.5 3.5z" />
    <glyph glyph-name="period" unicode="." horiz-adv-x="223" 
d="M55.5 18.5q-22.5 22.5 -22.5 56.5q0 35 22 57t57 22t57 -22t22 -57q0 -34 -22.5 -56.5t-56.5 -22.5t-56.5 22.5z" />
    <glyph glyph-name="slash" unicode="/" horiz-adv-x="415" 
d="M19 3.5q-3 3.5 -1 10.5l219 676q3 10 13 10h117q6 0 9 -3.5t1 -10.5l-219 -676q-3 -10 -13 -10h-117q-6 0 -9 3.5z" />
    <glyph glyph-name="zero" unicode="0" horiz-adv-x="453" 
d="M84 44.5q-54 55.5 -54 146.5v318q0 91 54 146.5t142 55.5q58 0 103 -25t69.5 -71t24.5 -106v-318q0 -60 -24.5 -106t-69.5 -71t-103 -25q-88 0 -142 55.5zM266.5 130q15.5 20 15.5 53v334q0 33 -15.5 53t-40.5 20t-40 -20t-15 -53v-334q0 -33 15 -53t40 -20t40.5 20z" />
    <glyph glyph-name="one" unicode="1" horiz-adv-x="284" 
d="M115 700h121q5 0 8.5 -3.5t3.5 -8.5v-676q0 -5 -3.5 -8.5t-8.5 -3.5h-117q-5 0 -8.5 3.5t-3.5 8.5v546q0 4 -5 4l-77 -9h-2q-11 0 -11 11l-3 86q0 10 9 14l82 33q8 3 15 3z" />
    <glyph glyph-name="two" unicode="2" horiz-adv-x="438" 
d="M196 123q1 -2 4 -2h209q5 0 8.5 -3.5t3.5 -8.5v-97q0 -5 -3.5 -8.5t-8.5 -3.5h-370q-5 0 -8.5 3.5t-3.5 8.5v101q0 9 5 15q40 53 56 72q88 113 125 171q54 86 54 145q0 34 -13.5 52.5t-36.5 18.5t-37 -18.5t-13 -47.5v-41q0 -5 -3.5 -8.5t-8.5 -3.5h-119q-5 0 -8.5 3.5
t-3.5 8.5v47q4 82 59 131.5t140 49.5q84 0 135.5 -53t51.5 -140q0 -52 -16.5 -99t-53.5 -101q-28 -41 -96 -128l-47 -60q-2 -2 -1 -4z" />
    <glyph glyph-name="three" unicode="3" horiz-adv-x="436" 
d="M404 222q0 -44 -4 -75q-8 -72 -55.5 -113.5t-127.5 -41.5q-83 0 -135 44t-56 117q-3 27 -3 58q0 12 12 12h117q12 0 12 -12q0 -23 3 -43q3 -26 16 -40.5t34 -14.5q20 0 33 14t17 38q3 35 3 72q0 47 -5 74q-4 23 -16.5 35.5t-31.5 12.5q-15 0 -30 -13q-6 -4 -8 -4
q-4 0 -9 5l-60 61q-4 4 -4 9q0 4 3 8l121 149q2 2 1 4t-4 2h-180q-5 0 -8.5 3.5t-3.5 8.5v96q0 5 3.5 8.5t8.5 3.5h344q5 0 8.5 -3.5t3.5 -8.5v-100q0 -8 -5 -15l-112 -141q-1 -2 -1 -4t2 -2q44 -4 74.5 -40t37.5 -90q5 -38 5 -74z" />
    <glyph glyph-name="four" unicode="4" horiz-adv-x="484" 
d="M466.5 300.5q3.5 -3.5 3.5 -8.5v-103q0 -5 -3.5 -8.5t-8.5 -3.5h-31q-5 0 -5 -5v-160q0 -5 -3.5 -8.5t-8.5 -3.5h-117q-5 0 -8.5 3.5t-3.5 8.5v160q0 5 -5 5h-250q-5 0 -8.5 3.5t-3.5 8.5v82q0 9 2 15l133 404q3 10 13 10h127q6 0 9 -3.5t1 -10.5l-120 -376q-1 -6 4 -6
h93q5 0 5 5v104q0 5 3.5 8.5t8.5 3.5h117q5 0 8.5 -3.5t3.5 -8.5v-104q0 -5 5 -5h31q5 0 8.5 -3.5z" />
    <glyph glyph-name="five" unicode="5" horiz-adv-x="439" 
d="M416 218q0 -33 -3 -63q-4 -77 -54.5 -120t-135.5 -43q-80 0 -129 40t-59 119l-3 28q0 12 12 12h117q12 0 13 -12q0 -6 2 -16q9 -50 47 -50q20 0 32.5 13.5t16.5 37.5q3 26 3 55q0 21 -4 51q-4 23 -16.5 35t-31.5 12q-38 0 -49 -35q-3 -11 -13 -11h-118q-5 0 -8.5 3.5
t-3.5 8.5v405q0 5 3.5 8.5t8.5 3.5h353q5 0 8.5 -3.5t3.5 -8.5v-97q0 -5 -3.5 -8.5t-8.5 -3.5h-219q-5 0 -5 -5v-168q0 -3 2 -4t4 2q17 17 40 26t49 9q64 0 102.5 -42t42.5 -117q4 -38 4 -62z" />
    <glyph glyph-name="six" unicode="6" horiz-adv-x="440" 
d="M417 218q0 -22 -2 -60q-3 -79 -54 -122.5t-136 -43.5q-80 0 -129.5 40t-58.5 119q-4 21 -4 55l-2 323q0 82 52.5 130.5t139.5 48.5q81 0 132.5 -49t51.5 -130v-30q0 -5 -3.5 -8.5t-8.5 -3.5h-117q-5 0 -8.5 3.5t-3.5 8.5v22q0 27 -13 45t-30 18q-22 0 -36 -17.5
t-14 -45.5v-101q0 -3 2 -3.5t4 1.5q33 28 75 28q70 0 112.5 -46t46.5 -123q4 -24 4 -59zM274 228q0 27 -4 62q-3 23 -15 36t-31 13q-20 0 -32.5 -13.5t-15.5 -37.5q-3 -39 -3 -60q0 -24 3 -62q3 -26 15.5 -40t32.5 -14t32.5 15t15.5 42q2 48 2 59z" />
    <glyph glyph-name="seven" unicode="7" horiz-adv-x="407" 
d="M84 4q-3 4 -1 10l163 559q2 6 -4 6h-110q-5 0 -5 -5v-35q0 -5 -3.5 -8.5t-8.5 -3.5h-90q-5 0 -8.5 3.5t-3.5 8.5l1 149q0 5 3.5 8.5t8.5 3.5h359q5 0 8.5 -3.5t3.5 -8.5v-102q0 -4 -2 -14l-165 -562q-3 -10 -13 -10h-124q-6 0 -9 4z" />
    <glyph glyph-name="eight" unicode="8" horiz-adv-x="440" 
d="M341 362q33 -21 49 -59q20 -43 20 -101q0 -46 -16 -92q-21 -55 -67 -86.5t-107 -31.5t-107 31t-67 87q-16 41 -16 92q0 56 18 98q14 38 51 61q6 3 0 6q-35 24 -50 60q-19 44 -19 93q0 54 19 93q21 47 66.5 73.5t104.5 26.5q58 0 103 -25.5t67 -73.5q20 -42 20 -94
q0 -49 -19 -92q-15 -36 -51 -59q-4 -4 1 -7zM169 507q0 -23 7 -46q4 -20 15.5 -32t28.5 -12t29 12.5t16 32.5q6 20 6 44q0 26 -7 44q-5 19 -16.5 30.5t-27.5 11.5q-17 0 -28.5 -11.5t-16.5 -32.5q-6 -18 -6 -41zM271 211q0 30 -6 52q-5 22 -16.5 34.5t-28.5 12.5
q-18 0 -30 -13t-16 -36q-5 -23 -5 -48q0 -28 4 -48q4 -24 16 -38t31 -14t31.5 14.5t15.5 39.5q4 26 4 44z" />
    <glyph glyph-name="nine" unicode="9" horiz-adv-x="435" 
d="M351.5 40.5q-52.5 -48.5 -139.5 -48.5q-82 0 -133 48.5t-51 130.5v30q0 5 3.5 8.5t8.5 3.5h117q5 0 8.5 -3.5t3.5 -8.5v-22q0 -27 12.5 -45t30.5 -18q22 0 35.5 17.5t13.5 45.5v100q0 3 -2 3.5t-4 -1.5q-32 -27 -74 -27q-70 0 -112.5 46t-47.5 123q-3 27 -3 59q0 22 2 60
q3 79 54 122.5t136 43.5q80 0 129.5 -40t58.5 -119q4 -32 4 -55l1 -323q1 -82 -51.5 -130.5zM261 472q0 37 -2 62q-3 26 -15.5 40t-32.5 14t-32.5 -15t-15.5 -42q-2 -24 -2 -59q0 -23 3 -62q4 -23 16 -36t31 -13t31.5 13.5t16.5 37.5q2 26 2 60z" />
    <glyph glyph-name="colon" unicode=":" horiz-adv-x="275" 
d="M82.5 351.5q-22.5 22.5 -22.5 56.5q0 35 22 57t57 22t57 -22t22 -57q0 -34 -22.5 -56.5t-56.5 -22.5t-56.5 22.5zM82.5 23.5q-22.5 22.5 -22.5 56.5q0 35 22 57t57 22t57 -22t22 -57q0 -34 -22.5 -56.5t-56.5 -22.5t-56.5 22.5z" />
    <glyph glyph-name="semicolon" unicode=";" horiz-adv-x="232" 
d="M55 338q-24 25 -24 62q0 35 26 60.5t59 25.5t59 -25.5t26 -60.5q0 -37 -24 -62t-61 -25t-61 25zM38 -85l17 229q1 5 4.5 8.5t8.5 3.5h102q13 0 10 -13l-48 -229q-2 -11 -13 -11h-70q-12 0 -11 12z" />
    <glyph glyph-name="less" unicode="&#x3c;" horiz-adv-x="438" 
d="M411 54q-4 -3 -10 0l-368 170q-9 5 -9 14v101q0 10 9 14l368 170q2 1 5 1q9 0 9 -11v-109q0 -9 -9 -14l-240 -98q-6 -3 0 -6l240 -99q9 -4 9 -14v-109q0 -7 -4 -10z" />
    <glyph glyph-name="equal" unicode="=" horiz-adv-x="438" 
d="M27.5 357.5q-3.5 3.5 -3.5 8.5v82q0 5 3.5 8.5t8.5 3.5h367q5 0 8.5 -3.5t3.5 -8.5v-82q0 -5 -3.5 -8.5t-8.5 -3.5h-367q-5 0 -8.5 3.5zM27.5 173.5q-3.5 3.5 -3.5 8.5v82q0 5 3.5 8.5t8.5 3.5h367q5 0 8.5 -3.5t3.5 -8.5v-82q0 -5 -3.5 -8.5t-8.5 -3.5h-367
q-5 0 -8.5 3.5z" />
    <glyph glyph-name="greater" unicode="&#x3e;" horiz-adv-x="438" 
d="M33 53q-9 0 -9 11v109q0 10 9 14l240 99q6 3 0 6l-240 98q-9 5 -9 14v109q0 7 4 10t10 0l368 -170q9 -4 9 -14v-101q0 -9 -9 -14l-368 -170q-2 -1 -5 -1z" />
    <glyph glyph-name="question" unicode="?" horiz-adv-x="437" 
d="M138.5 225.5q-3.5 3.5 -3.5 8.5v32q0 50 20.5 80.5t59.5 64.5q32 28 47 48.5t15 50.5q0 32 -15.5 51.5t-40.5 19.5q-29 0 -46 -20.5t-17 -54.5v-16q0 -11 -12 -11l-117 5q-5 0 -8.5 3.5t-3.5 8.5v10q0 60 26 106.5t73 72t108 25.5q89 0 142 -53.5t53 -141.5
q0 -44 -12.5 -75.5t-30 -51.5t-45.5 -44q-29 -25 -42.5 -43t-13.5 -44v-23q0 -5 -3.5 -8.5t-8.5 -3.5h-116q-5 0 -8.5 3.5zM149 20q-22 22 -22 57t22 56.5t56 21.5q35 0 57 -22t22 -56t-22 -56.5t-57 -22.5q-34 0 -56 22z" />
    <glyph glyph-name="at" unicode="@" horiz-adv-x="759" 
d="M582.5 618.5q69.5 -36.5 108 -103t38.5 -153.5q0 -24 -3 -50q-13 -99 -66 -154.5t-131 -55.5q-67 0 -103 41q-4 3 -7 -1q-15 -22 -37.5 -30.5t-43.5 -8.5q-54 0 -82.5 32t-28.5 77q0 21 5 54l3 26q3 34 8 60q10 61 38.5 89.5t79.5 28.5q12 0 27 -5t26 -17q7 -5 7 2v3
q1 11 13 11h71q12 0 11 -13l-23 -175q-1 -7 -1 -19q0 -31 14.5 -47.5t36.5 -16.5q33 0 54 34t28 88q3 21 3 40q0 64 -27 112t-75.5 74t-110.5 26q-70 0 -131 -36.5t-101.5 -101t-50.5 -146.5q-3 -24 -3 -45q0 -71 29.5 -121.5t76 -75.5t98.5 -25q67 0 125 40q5 3 7 3
q6 0 9 -6l33 -55q2 -2 2 -7q0 -6 -5 -10q-83 -55 -187 -55q-80 0 -145.5 37t-103 106t-37.5 161q0 30 4 57q13 106 68.5 190t140.5 131t181 47q88 0 157.5 -36.5zM378.5 192q10.5 11 13.5 30l8 64q3 34 8 61q2 18 -6 29.5t-24 11.5t-27.5 -11.5t-13.5 -29.5q-7 -53 -8 -64
l-8 -61q-2 -19 6.5 -30t24.5 -11t26.5 11z" />
    <glyph glyph-name="A" unicode="A" horiz-adv-x="482" 
d="M325 11l-16 96q0 5 -6 5h-127q-6 0 -6 -5l-16 -96q-1 -11 -13 -11h-117q-13 0 -10 13l147 676q2 11 13 11h135q11 0 13 -11l146 -676l1 -4q0 -9 -11 -9h-120q-12 0 -13 11zM194 221h90q5 0 4 5l-47 273q-1 3 -3 3t-3 -3l-45 -273q0 -5 4 -5z" />
    <glyph glyph-name="B" unicode="B" horiz-adv-x="470" 
d="M390 50q-56 -50 -145 -50h-189q-5 0 -8.5 3.5t-3.5 8.5v676q0 5 3.5 8.5t8.5 3.5h167q100 0 156.5 -48t56.5 -143q0 -99 -68 -144q-4 -3 -1 -6q79 -56 79 -166q0 -93 -56 -143zM185 574v-157q0 -5 5 -5h36q34 0 53 21.5t19 60.5q0 41 -18.5 63t-53.5 22h-36q-5 0 -5 -5z
M286 146q19 24 19 68t-19 70t-51 26h-45q-5 0 -5 -5v-178q0 -5 5 -5h44q33 0 52 24z" />
    <glyph glyph-name="C" unicode="C" horiz-adv-x="464" 
d="M88.5 45.5q-54.5 53.5 -54.5 143.5v324q0 89 54.5 142t144.5 53q91 0 145.5 -53t54.5 -142v-11q0 -5 -3.5 -8.5t-8.5 -3.5l-117 -5q-12 0 -12 11v26q0 29 -16 47t-43 18q-26 0 -42 -18t-16 -47v-345q0 -29 16 -46.5t42 -17.5q27 0 43 17.5t16 46.5v27q0 5 3.5 8.5
t8.5 3.5l117 -5q5 0 8.5 -3.5t3.5 -8.5v-10q0 -90 -55 -143.5t-145 -53.5t-144.5 53.5z" />
    <glyph glyph-name="D" unicode="D" horiz-adv-x="476" 
d="M47.5 3.5q-3.5 3.5 -3.5 8.5v676q0 5 3.5 8.5t8.5 3.5h181q91 0 146 -53t55 -141v-312q0 -88 -55 -141t-146 -53h-181q-5 0 -8.5 3.5zM190 121l45 1q27 1 44 23t18 58v294q0 38 -17 60t-46 22h-44q-5 0 -5 -5v-448q0 -5 5 -5z" />
    <glyph glyph-name="E" unicode="E" horiz-adv-x="438" 
d="M407.5 582.5q-3.5 -3.5 -8.5 -3.5h-209q-5 0 -5 -5v-158q0 -5 5 -5h120q5 0 8.5 -3.5t3.5 -8.5v-97q0 -5 -3.5 -8.5t-8.5 -3.5h-120q-5 0 -5 -5v-159q0 -5 5 -5h209q5 0 8.5 -3.5t3.5 -8.5v-97q0 -5 -3.5 -8.5t-8.5 -3.5h-343q-5 0 -8.5 3.5t-3.5 8.5v676q0 5 3.5 8.5
t8.5 3.5h343q5 0 8.5 -3.5t3.5 -8.5v-97q0 -5 -3.5 -8.5z" />
    <glyph glyph-name="F" unicode="F" horiz-adv-x="421" 
d="M406.5 582.5q-3.5 -3.5 -8.5 -3.5h-208q-5 0 -5 -5v-158q0 -5 5 -5h119q5 0 8.5 -3.5t3.5 -8.5v-97q0 -5 -3.5 -8.5t-8.5 -3.5h-119q-5 0 -5 -5v-273q0 -5 -3.5 -8.5t-8.5 -3.5h-117q-5 0 -8.5 3.5t-3.5 8.5v676q0 5 3.5 8.5t8.5 3.5h342q5 0 8.5 -3.5t3.5 -8.5v-97
q0 -5 -3.5 -8.5z" />
    <glyph glyph-name="G" unicode="G" horiz-adv-x="467" 
d="M88.5 43.5q-54.5 51.5 -54.5 137.5v338q0 86 54.5 137.5t144.5 51.5t145 -52t55 -138v-38q0 -5 -3.5 -8.5t-8.5 -3.5h-117q-5 0 -8.5 3.5t-3.5 8.5v40q0 30 -16 48.5t-43 18.5q-26 0 -42 -18.5t-16 -48.5v-340q0 -30 16 -48.5t42 -18.5q27 0 43 18.5t16 48.5v80q0 5 -5 5
h-44q-5 0 -8.5 3.5t-3.5 8.5v89q0 5 3.5 8.5t8.5 3.5h178q5 0 8.5 -3.5t3.5 -8.5v-185q0 -86 -55 -137.5t-145 -51.5t-144.5 51.5z" />
    <glyph glyph-name="H" unicode="H" horiz-adv-x="480" 
d="M298.5 696.5q3.5 3.5 8.5 3.5h117q5 0 8.5 -3.5t3.5 -8.5v-676q0 -5 -3.5 -8.5t-8.5 -3.5h-117q-5 0 -8.5 3.5t-3.5 8.5v273q0 5 -5 5h-100q-5 0 -5 -5v-273q0 -5 -3.5 -8.5t-8.5 -3.5h-117q-5 0 -8.5 3.5t-3.5 8.5v676q0 5 3.5 8.5t8.5 3.5h117q5 0 8.5 -3.5t3.5 -8.5
v-272q0 -5 5 -5h100q5 0 5 5v272q0 5 3.5 8.5z" />
    <glyph glyph-name="I" unicode="I" horiz-adv-x="230" 
d="M47.5 3.5q-3.5 3.5 -3.5 8.5v676q0 5 3.5 8.5t8.5 3.5h117q5 0 8.5 -3.5t3.5 -8.5v-676q0 -5 -3.5 -8.5t-8.5 -3.5h-117q-5 0 -8.5 3.5z" />
    <glyph glyph-name="J" unicode="J" horiz-adv-x="452" 
d="M68 43.5q-54 51.5 -54 136.5v69q0 5 3.5 8.5t8.5 3.5h117q5 0 8.5 -3.5t3.5 -8.5v-71q0 -29 15 -47t40 -18q26 0 41.5 18t15.5 47v510q0 5 3.5 8.5t8.5 3.5h117q5 0 8.5 -3.5t3.5 -8.5v-508q0 -85 -54.5 -136.5t-143.5 -51.5q-88 0 -142 51.5z" />
    <glyph glyph-name="K" unicode="K" horiz-adv-x="491" 
d="M47.5 3.5q-3.5 3.5 -3.5 8.5v676q0 5 3.5 8.5t8.5 3.5h117q5 0 8.5 -3.5t3.5 -8.5v-252q0 -4 2.5 -4.5t3.5 3.5l129 256q5 9 14 9h124q7 0 9.5 -3.5t-0.5 -10.5l-148 -288q-1 -4 -1 -6l157 -378q1 -2 1 -6q0 -8 -10 -8h-125q-11 0 -14 9l-104 262q-1 3 -3 2.5t-4 -2.5
l-29 -52q-2 -4 -2 -6v-201q0 -5 -3.5 -8.5t-8.5 -3.5h-117q-5 0 -8.5 3.5z" />
    <glyph glyph-name="L" unicode="L" horiz-adv-x="426" 
d="M47.5 3.5q-3.5 3.5 -3.5 8.5v676q0 5 3.5 8.5t8.5 3.5h117q5 0 8.5 -3.5t3.5 -8.5v-562q0 -5 5 -5h210q5 0 8.5 -3.5t3.5 -8.5v-97q0 -5 -3.5 -8.5t-8.5 -3.5h-344q-5 0 -8.5 3.5z" />
    <glyph glyph-name="M" unicode="M" horiz-adv-x="548" 
d="M379 700h116q5 0 8.5 -3.5t3.5 -8.5v-676q0 -5 -3.5 -8.5t-8.5 -3.5h-117q-5 0 -8.5 3.5t-3.5 8.5v449q0 4 -2 4t-4 -3l-78 -138q-5 -8 -8 -8t-8 8l-78 138q-2 3 -4 3t-2 -4v-449q0 -5 -3.5 -8.5t-8.5 -3.5h-117q-5 0 -8.5 3.5t-3.5 8.5v676q0 5 3.5 8.5t8.5 3.5h115
q10 0 15 -8l89 -159q3 -4 6 0l86 159q4 8 15 8z" />
    <glyph glyph-name="N" unicode="N" horiz-adv-x="514" 
d="M333.5 696.5q3.5 3.5 8.5 3.5h116q5 0 8.5 -3.5t3.5 -8.5v-676q0 -5 -3.5 -8.5t-8.5 -3.5h-132q-10 0 -13 10l-124 387q-1 3 -3.5 2.5t-2.5 -3.5l1 -384q0 -5 -3.5 -8.5t-8.5 -3.5h-116q-5 0 -8.5 3.5t-3.5 8.5v676q0 5 3.5 8.5t8.5 3.5h131q10 0 13 -10l125 -387
q1 -3 3.5 -2.5t2.5 3.5l-1 384q0 5 3.5 8.5z" />
    <glyph glyph-name="O" unicode="O" horiz-adv-x="473" 
d="M89 46q-55 54 -55 144v320q0 90 55 144t147 54t147.5 -54t55.5 -144v-320q0 -90 -55.5 -144t-147.5 -54t-147 54zM281 132.5q17 19.5 17 51.5v332q0 32 -17 51.5t-45 19.5t-44.5 -19.5t-16.5 -51.5v-332q0 -32 16.5 -51.5t44.5 -19.5t45 19.5z" />
    <glyph glyph-name="P" unicode="P" horiz-adv-x="465" 
d="M355 674q43 -27 66.5 -75.5t23.5 -110.5q0 -93 -50 -149t-131 -56h-75q-5 0 -5 -5v-266q0 -5 -3.5 -8.5t-8.5 -3.5h-117q-5 0 -8.5 3.5t-3.5 8.5v677q0 5 3.5 8.5t8.5 3.5h202q55 0 98 -27zM284.5 417.5q19.5 24.5 19.5 67.5q0 44 -19.5 69t-51.5 25h-44q-5 0 -5 -5v-176
q0 -5 5 -5h44q32 0 51.5 24.5z" />
    <glyph glyph-name="Q" unicode="Q" horiz-adv-x="461" 
d="M373 651.5q54 -56.5 54 -148.5v-306q0 -70 -32.5 -121t-89.5 -72q-4 -1 -4 -5v-85q0 -5 -3.5 -8.5t-8.5 -3.5h-117q-5 0 -8.5 3.5t-3.5 8.5v85q0 4 -4 5q-57 21 -89.5 72t-32.5 121v306q0 61 24.5 107.5t69 72t102.5 25.5q89 0 143 -56.5zM175 182q0 -31 15 -50t40 -19
t40.5 19t15.5 50v336q0 31 -15.5 50t-40.5 19t-40 -19t-15 -50v-336z" />
    <glyph glyph-name="R" unicode="R" horiz-adv-x="471" 
d="M306 10l-77 276q-2 4 -5 4h-34q-5 0 -5 -5v-273q0 -5 -3.5 -8.5t-8.5 -3.5h-117q-5 0 -8.5 3.5t-3.5 8.5v676q0 5 3.5 8.5t8.5 3.5h202q55 0 98 -26.5t66.5 -74.5t23.5 -110q0 -59 -22.5 -104t-62.5 -70q-2 -1 -3 -2.5t0 -3.5l92 -295l1 -4q0 -10 -11 -10h-120
q-11 0 -14 10zM185 574v-171q0 -5 5 -5h45q31 0 50.5 24.5t19.5 65.5q0 42 -19.5 66.5t-50.5 24.5h-45q-5 0 -5 -5z" />
    <glyph glyph-name="S" unicode="S" horiz-adv-x="444" 
d="M122 15q-44 23 -68 64.5t-24 95.5v29q0 5 3.5 8.5t8.5 3.5h115q5 0 8.5 -3.5t3.5 -8.5v-22q0 -31 16 -50t40 -19t40 18t16 47q0 30 -20 51.5t-78 63.5q-50 36 -81 64t-53 69t-22 95q0 85 53 136t140 51q88 0 141.5 -53t53.5 -139v-24q0 -5 -3.5 -8.5t-8.5 -3.5h-115
q-5 0 -8.5 3.5t-3.5 8.5v27q0 31 -15.5 49.5t-40.5 18.5q-24 0 -39 -17.5t-15 -48.5q0 -30 19 -53t75 -64q62 -46 93.5 -74.5t49 -63t17.5 -82.5q0 -88 -54 -140t-142 -52q-58 0 -102 23z" />
    <glyph glyph-name="T" unicode="T" horiz-adv-x="468" 
d="M440.5 696.5q3.5 -3.5 3.5 -8.5v-97q0 -5 -3.5 -8.5t-8.5 -3.5h-125q-5 0 -5 -5v-562q0 -5 -3.5 -8.5t-8.5 -3.5h-117q-5 0 -8.5 3.5t-3.5 8.5v562q0 5 -5 5h-120q-5 0 -8.5 3.5t-3.5 8.5v97q0 5 3.5 8.5t8.5 3.5h396q5 0 8.5 -3.5z" />
    <glyph glyph-name="U" unicode="U" horiz-adv-x="479" 
d="M95.5 48.5q-54.5 56.5 -54.5 150.5v489q0 5 3.5 8.5t8.5 3.5h117q5 0 8.5 -3.5t3.5 -8.5v-503q0 -32 16 -52t42 -20t41.5 20t15.5 52v503q0 5 3.5 8.5t8.5 3.5h117q5 0 8.5 -3.5t3.5 -8.5v-489q0 -94 -54.5 -150.5t-143.5 -56.5q-90 0 -144.5 56.5z" />
    <glyph glyph-name="V" unicode="V" horiz-adv-x="488" 
d="M166 11l-143 676l-1 4q0 9 11 9h129q12 0 13 -11l69 -440q1 -4 3 -4t3 4l67 440q1 11 13 11h125q13 0 10 -13l-144 -676q-2 -11 -13 -11h-129q-11 0 -13 11z" />
    <glyph glyph-name="W" unicode="W" horiz-adv-x="689" 
d="M156 11l-135 676l-1 4q0 9 11 9h122q12 0 13 -11l57 -360q1 -4 3 -4t3 4l54 360q1 11 13 11h101q12 0 13 -11l59 -360q1 -4 3 -4t3 4l51 360q1 11 13 11h118q13 0 11 -13l-127 -676q-1 -11 -13 -11h-108q-12 0 -13 11l-59 370q-1 4 -3 4t-3 -4l-53 -370q-1 -11 -13 -11
h-107q-11 0 -13 11z" />
    <glyph glyph-name="X" unicode="X" horiz-adv-x="475" 
d="M26 4q-2 4 0 10l136 333q1 3 0 6l-136 333q-1 2 -1 6q0 8 10 8h120q10 0 13 -10l67 -192q1 -3 3 -3t3 3l67 192q3 10 13 10h119q7 0 9 -4t0 -10l-136 -333q-1 -3 0 -6l136 -333q1 -2 1 -6q0 -8 -10 -8h-119q-10 0 -13 10l-67 191q-1 3 -3 3t-3 -3l-68 -191
q-3 -10 -13 -10h-119q-7 0 -9 4z" />
    <glyph glyph-name="Y" unicode="Y" horiz-adv-x="474" 
d="M169.5 4.5q-3.5 3.5 -3.5 8.5v260l-1 6l-140 407q-1 2 -1 5q0 9 11 9h123q11 0 14 -10l62 -239q1 -3 3 -3t3 3l62 239q3 10 14 10h123q6 0 9 -3.5t1 -10.5l-141 -407l-1 -6v-260q0 -5 -3.5 -8.5t-8.5 -3.5h-117q-5 0 -8.5 3.5z" />
    <glyph glyph-name="Z" unicode="Z" horiz-adv-x="412" 
d="M23.5 3.5q-3.5 3.5 -3.5 8.5v101q0 8 3 15l214 445q1 3 0 4.5t-4 1.5h-201q-5 0 -8.5 3.5t-3.5 8.5v97q0 5 3.5 8.5t8.5 3.5h344q5 0 8.5 -3.5t3.5 -8.5v-101q0 -7 -3 -15l-214 -445q-1 -3 0 -4.5t4 -1.5h201q5 0 8.5 -3.5t3.5 -8.5v-97q0 -5 -3.5 -8.5t-8.5 -3.5h-344
q-5 0 -8.5 3.5z" />
    <glyph glyph-name="bracketleft" unicode="[" horiz-adv-x="345" 
d="M31.5 -143.5q-3.5 3.5 -3.5 8.5v923q0 5 3.5 8.5t8.5 3.5h204q5 0 8.5 -3.5t3.5 -8.5v-97q0 -5 -3.5 -8.5t-8.5 -3.5h-70q-5 0 -5 -5v-694q0 -5 5 -5h70q5 0 8.5 -3.5t3.5 -8.5v-98q0 -5 -3.5 -8.5t-8.5 -3.5h-204q-5 0 -8.5 3.5z" />
    <glyph glyph-name="backslash" unicode="\" horiz-adv-x="415" 
d="M399 9q0 -9 -11 -9h-117q-10 0 -13 10l-220 676q-1 2 -1 5q0 9 11 9h117q10 0 13 -10l220 -676q1 -2 1 -5z" />
    <glyph glyph-name="bracketright" unicode="]" horiz-adv-x="345" 
d="M312.5 -143.5q-3.5 -3.5 -8.5 -3.5h-204q-5 0 -8.5 3.5t-3.5 8.5v98q0 5 3.5 8.5t8.5 3.5h70q5 0 5 5v694q0 5 -5 5h-70q-5 0 -8.5 3.5t-3.5 8.5v97q0 5 3.5 8.5t8.5 3.5h204q5 0 8.5 -3.5t3.5 -8.5v-923q0 -5 -3.5 -8.5z" />
    <glyph glyph-name="asciicircum" unicode="^" horiz-adv-x="422" 
d="M29 301.5q-3 3.5 -1 10.5l120 378q3 10 13 10h98q10 0 13 -10l123 -378q1 -2 1 -5q0 -9 -11 -9h-94q-11 0 -14 10l-63 230q-1 3 -3 3t-3 -3l-63 -230q-3 -10 -14 -10h-93q-6 0 -9 3.5z" />
    <glyph glyph-name="underscore" unicode="_" horiz-adv-x="421" 
d="M17.5 3.5q-3.5 3.5 -3.5 8.5v83q0 5 3.5 8.5t8.5 3.5h369q5 0 8.5 -3.5t3.5 -8.5v-83q0 -5 -3.5 -8.5t-8.5 -3.5h-369q-5 0 -8.5 3.5z" />
    <glyph glyph-name="grave" unicode="`" horiz-adv-x="220" 
d="M200 584q0 -8 -11 -8h-75q-8 0 -14 7l-76 102q-3 5 -3 8q0 7 10 7h93q10 0 14 -8l60 -102z" />
    <glyph glyph-name="a" unicode="a" horiz-adv-x="446" 
d="M362 476q53 -46 53 -121v-343q0 -5 -3.5 -8.5t-8.5 -3.5h-117q-5 0 -8.5 3.5t-3.5 8.5v22q0 3 -2 4t-4 -2q-33 -42 -102 -44q-58 0 -100.5 32t-42.5 122q0 93 51.5 128t148.5 35h46q5 0 5 5v25q0 27 -14.5 44.5t-36.5 17.5q-17 0 -28.5 -10.5t-14.5 -29.5q-1 -12 -13 -12
l-120 1q-12 0 -12 12q5 73 57 116.5t132 43.5q85 0 138 -46zM255.5 116.5q18.5 15.5 18.5 41.5v47q0 5 -5 5h-41q-27 0 -43.5 -15.5t-16.5 -42.5q0 -25 12.5 -38t33.5 -13q23 0 41.5 15.5z" />
    <glyph glyph-name="b" unicode="b" horiz-adv-x="445" 
d="M378.5 478.5q35.5 -43.5 35.5 -124.5v-194q0 -79 -35 -123.5t-104 -44.5q-56 0 -90 38q-2 2 -4 1.5t-2 -3.5v-16q0 -5 -3.5 -8.5t-8.5 -3.5h-117q-5 0 -8.5 3.5t-3.5 8.5v676q0 5 3.5 8.5t8.5 3.5h117q5 0 8.5 -3.5t3.5 -8.5v-203q0 -2 2 -2q4 0 8 5q34 34 86 34
q68 0 103.5 -43.5zM260 385q-13 16 -34 16q-18 0 -31 -12t-16 -32v-200q3 -20 16 -32t31 -12q21 0 34 16t13 41v174q0 25 -13 41z" />
    <glyph glyph-name="c" unicode="c" horiz-adv-x="434" 
d="M81.5 37q-50.5 45 -50.5 123v194q0 76 50.5 122t138.5 46t138.5 -45t50.5 -117v-18q0 -5 -3.5 -8.5t-8.5 -3.5l-117 -5q-12 0 -12 12v12q0 22 -13.5 37t-34.5 15q-22 0 -35 -16t-13 -42v-172q0 -26 13 -42t35 -16q21 0 34.5 15.5t13.5 36.5v13q0 5 3.5 8.5t8.5 3.5
l117 -1q5 0 8.5 -3.5t3.5 -8.5v-23q0 -74 -50.5 -118t-138.5 -44t-138.5 45z" />
    <glyph glyph-name="d" unicode="d" horiz-adv-x="445" 
d="M269.5 696.5q3.5 3.5 8.5 3.5h117q5 0 8.5 -3.5t3.5 -8.5v-676q0 -5 -3.5 -8.5t-8.5 -3.5h-117q-5 0 -8.5 3.5t-3.5 8.5v16q0 3 -2 3.5t-4 -1.5q-34 -38 -90 -38q-69 0 -104 44.5t-35 123.5v194q0 81 35.5 124.5t103.5 43.5q22 0 46 -8.5t44 -30.5q2 -2 4 -1.5t2 3.5v203
q0 5 3.5 8.5zM250 125q13 12 16 32v200q-3 20 -16 32t-31 12q-21 0 -34 -16t-13 -41v-174q0 -25 13 -41t34 -16q18 0 31 12z" />
    <glyph glyph-name="e" unicode="e" horiz-adv-x="436" 
d="M405.5 216.5q-3.5 -3.5 -8.5 -3.5h-220q-5 0 -5 -5v-37q0 -25 13.5 -41.5t34.5 -16.5q19 0 31 12.5t16 31.5q3 10 13 10l115 -6q5 0 8.5 -3.5t2.5 -9.5q-7 -77 -53.5 -116.5t-132.5 -39.5q-89 0 -139 44.5t-50 123.5v194q0 76 50.5 122t138.5 46t138.5 -46t50.5 -122
v-129q0 -5 -3.5 -8.5zM185.5 385q-13.5 -16 -13.5 -41v-39q0 -5 5 -5h86q5 0 5 5v39q0 25 -13.5 41t-34.5 16t-34.5 -16z" />
    <glyph glyph-name="f" unicode="f" horiz-adv-x="298" 
d="M273.5 510.5q3.5 -3.5 3.5 -8.5v-75q0 -5 -3.5 -8.5t-8.5 -3.5h-55q-5 0 -5 -5v-398q0 -5 -3.5 -8.5t-8.5 -3.5h-116q-5 0 -8.5 3.5t-3.5 8.5v398q0 5 -5 5h-30q-5 0 -8.5 3.5t-3.5 8.5v75q0 5 3.5 8.5t8.5 3.5h30q5 0 5 5v27q0 90 45.5 124.5t144.5 32.5h4q5 0 8.5 -3.5
t3.5 -8.5l-1 -80q0 -5 -3.5 -8.5t-8.5 -3.5h-2q-51 -1 -51 -62v-18q0 -5 5 -5h55q5 0 8.5 -3.5z" />
    <glyph glyph-name="g" unicode="g" horiz-adv-x="441" 
d="M270.5 510.5q3.5 3.5 8.5 3.5h117q5 0 8.5 -3.5t3.5 -8.5v-478q0 -111 -52.5 -171t-188.5 -60q-27 0 -42 1q-12 1 -12 13v98q0 13 13 11q59 -2 89.5 11.5t41 40.5t10.5 71q0 3 -2 3t-4 -3q-18 -24 -43.5 -33.5t-49.5 -9.5q-69 0 -103 44.5t-34 123.5v190q0 81 34.5 124.5
t102.5 43.5q61 0 93 -45q2 -3 4 -2t2 4v23q0 5 3.5 8.5zM253.5 134q13.5 16 13.5 41v169q0 25 -13.5 41t-34.5 16t-34 -16t-13 -41v-169q0 -25 13 -41t34 -16t34.5 16z" />
    <glyph glyph-name="h" unicode="h" 
d="M379 477q34 -45 34 -126v-339q0 -5 -3.5 -8.5t-8.5 -3.5h-117q-5 0 -8.5 3.5t-3.5 8.5v328q0 29 -11.5 45t-33.5 16q-23 0 -35.5 -16.5t-12.5 -46.5v-326q0 -5 -3.5 -8.5t-8.5 -3.5h-117q-5 0 -8.5 3.5t-3.5 8.5v676q0 5 3.5 8.5t8.5 3.5h117q5 0 8.5 -3.5t3.5 -8.5v-205
q0 -3 2.5 -3t6.5 4q32 38 89 38q68 0 102 -45z" />
    <glyph glyph-name="i" unicode="i" horiz-adv-x="219" 
d="M52.5 594.5q-22.5 22.5 -22.5 56.5q0 35 22 57t57 22t56.5 -22t21.5 -57q0 -34 -22 -56.5t-56 -22.5t-56.5 22.5zM43.5 3.5q-3.5 3.5 -3.5 8.5v490q0 5 3.5 8.5t8.5 3.5h117q5 0 8.5 -3.5t3.5 -8.5v-490q0 -5 -3.5 -8.5t-8.5 -3.5h-117q-5 0 -8.5 3.5z" />
    <glyph glyph-name="j" unicode="j" horiz-adv-x="217" 
d="M51.5 594.5q-22.5 22.5 -22.5 56.5q0 35 22 57t57 22t57 -22t22 -57q0 -34 -22.5 -56.5t-56.5 -22.5t-56.5 22.5zM-56 -192v97q0 12 13 11q45 -1 63 20.5t18 63.5v502q0 5 3.5 8.5t8.5 3.5h117q5 0 8.5 -3.5t3.5 -8.5v-502q0 -75 -13.5 -117t-61.5 -65t-148 -22
q-12 0 -12 12z" />
    <glyph glyph-name="k" unicode="k" horiz-adv-x="449" 
d="M41.5 3.5q-3.5 3.5 -3.5 8.5v676q0 5 3.5 8.5t8.5 3.5h117q5 0 8.5 -3.5t3.5 -8.5v-331q0 -4 2 -4.5t4 2.5l87 151q4 8 15 8h120q7 0 9.5 -4t-1.5 -10l-108 -168q-2 -4 -1 -7l122 -311q1 -2 1 -5q0 -9 -11 -9h-121q-10 0 -13 10l-64 198q-1 3 -3 3.5t-3 -2.5l-33 -52
q-2 -4 -2 -6v-139q0 -5 -3.5 -8.5t-8.5 -3.5h-117q-5 0 -8.5 3.5z" />
    <glyph glyph-name="l" unicode="l" horiz-adv-x="209" 
d="M37.5 3.5q-3.5 3.5 -3.5 8.5v676q0 5 3.5 8.5t8.5 3.5h117q5 0 8.5 -3.5t3.5 -8.5v-676q0 -5 -3.5 -8.5t-8.5 -3.5h-117q-5 0 -8.5 3.5z" />
    <glyph glyph-name="m" unicode="m" horiz-adv-x="675" 
d="M607 476q34 -46 34 -129v-335q0 -5 -3.5 -8.5t-8.5 -3.5h-117q-5 0 -8.5 3.5t-3.5 8.5v326q0 30 -12 46.5t-32 16.5q-22 0 -34.5 -16.5t-12.5 -46.5v-326q0 -5 -3.5 -8.5t-8.5 -3.5h-116q-5 0 -8.5 3.5t-3.5 8.5v326q0 30 -12 46.5t-32 16.5q-22 0 -34.5 -16.5
t-12.5 -46.5v-326q0 -5 -3.5 -8.5t-8.5 -3.5h-117q-5 0 -8.5 3.5t-3.5 8.5v490q0 5 3.5 8.5t8.5 3.5h117q5 0 8.5 -3.5t3.5 -8.5v-13q0 -3 2 -4t4 1q20 20 44 28t46 8q78 0 112 -62l2 -1q3 0 7 6q21 32 50.5 44.5t59.5 12.5q68 0 102 -46z" />
    <glyph glyph-name="n" unicode="n" 
d="M379 477q34 -45 34 -126v-339q0 -5 -3.5 -8.5t-8.5 -3.5h-117q-5 0 -8.5 3.5t-3.5 8.5v328q0 29 -11.5 45t-33.5 16q-23 0 -35.5 -16.5t-12.5 -46.5v-326q0 -5 -3.5 -8.5t-8.5 -3.5h-117q-5 0 -8.5 3.5t-3.5 8.5v490q0 5 3.5 8.5t8.5 3.5h117q5 0 8.5 -3.5t3.5 -8.5v-19
q0 -3 2.5 -3t6.5 4q32 38 89 38q68 0 102 -45z" />
    <glyph glyph-name="o" unicode="o" horiz-adv-x="442" 
d="M81.5 37q-50.5 45 -50.5 123v194q0 76 51 122t139 46q89 0 140 -46t51 -122v-194q0 -78 -50.5 -123t-140.5 -45q-89 0 -139.5 45zM257 130q14 16 14 41v173q0 25 -14 41t-36 16t-35.5 -16t-13.5 -41v-173q0 -25 13.5 -41t35.5 -16t36 16z" />
    <glyph glyph-name="p" unicode="p" horiz-adv-x="448" 
d="M382.5 477.5q35.5 -44.5 35.5 -122.5v-195q0 -81 -36 -124.5t-104 -43.5q-22 0 -46 8.5t-44 30.5q-2 3 -4 2t-2 -4v-203q0 -5 -3.5 -8.5t-8.5 -3.5h-117q-5 0 -8.5 3.5t-3.5 8.5v676q0 5 3.5 8.5t8.5 3.5h117q5 0 8.5 -3.5t3.5 -8.5v-16q0 -2 2 -2q4 0 8 5q34 33 86 33
q69 0 104.5 -44.5zM264 386q-13 16 -35 16q-21 0 -34 -16t-13 -42v-173q0 -26 13 -42t34 -16q22 0 35 16t13 42v173q0 26 -13 42z" />
    <glyph glyph-name="q" unicode="q" horiz-adv-x="448" 
d="M269.5 510.5q3.5 3.5 8.5 3.5h117q5 0 8.5 -3.5t3.5 -8.5v-676q0 -5 -3.5 -8.5t-8.5 -3.5h-117q-5 0 -8.5 3.5t-3.5 8.5v203q0 3 -2 3.5t-4 -1.5q-20 -22 -44 -30.5t-46 -8.5q-68 0 -103.5 43.5t-35.5 124.5v195q0 78 35 122.5t104 44.5q55 0 90 -37q2 -2 4 -1.5t2 3.5
v15q0 5 3.5 8.5zM250 125.5q13 12.5 16 32.5v199q-3 20 -16 32.5t-31 12.5q-21 0 -34 -16t-13 -42v-173q0 -26 13 -42t34 -16q18 0 31 12.5z" />
    <glyph glyph-name="r" unicode="r" horiz-adv-x="324" 
d="M310 510q8 -5 6 -15l-19 -117q-1 -11 -14 -8q-11 4 -27 4q-15 0 -26 -4q-23 -4 -37 -27.5t-14 -54.5v-275q0 -5 -3.5 -8.5t-8.5 -3.5h-117q-5 0 -8.5 3.5t-3.5 8.5v489q0 5 3.5 8.5t8.5 3.5h117q5 0 8.5 -3.5t3.5 -8.5v-39q0 -4 1.5 -4.5t3.5 2.5q27 59 84 59
q27 0 42 -10z" />
    <glyph glyph-name="s" unicode="s" horiz-adv-x="412" 
d="M74.5 33.5q-50.5 40.5 -50.5 108.5v7q0 5 3.5 8.5t8.5 3.5h110q5 0 8.5 -3.5t3.5 -8.5v-3q0 -21 15 -34.5t37 -13.5q20 0 31.5 11.5t11.5 29.5q0 22 -19 34.5t-42.5 21t-32.5 11.5q-55 20 -92.5 55.5t-37.5 102.5q0 73 48 115t128 42q83 0 131.5 -44t48.5 -119
q0 -5 -3.5 -8.5t-8.5 -3.5h-107q-5 0 -8.5 3.5t-3.5 8.5v8q0 20 -12.5 32.5t-32.5 12.5q-21 0 -33 -13.5t-12 -31.5q0 -24 20.5 -37.5t62.5 -29.5q43 -16 73.5 -32.5t52.5 -47t22 -76.5q0 -69 -50.5 -109.5t-134.5 -40.5q-85 0 -135.5 40.5z" />
    <glyph glyph-name="t" unicode="t" horiz-adv-x="291" 
d="M268.5 418.5q-3.5 -3.5 -8.5 -3.5h-56q-5 0 -5 -5v-238q0 -29 11 -40t33 -10h7q5 0 8.5 -3.5t3.5 -8.5v-98q0 -5 -3.5 -8.5t-8.5 -3.5h-40q-73 0 -110 24.5t-37 93.5v292q0 5 -5 5h-33q-5 0 -8.5 3.5t-3.5 8.5v75q0 5 3.5 8.5t8.5 3.5h33q5 0 5 5v111q0 5 3.5 8.5
t8.5 3.5h112q5 0 8.5 -3.5t3.5 -8.5v-111q0 -5 5 -5h56q5 0 8.5 -3.5t3.5 -8.5v-75q0 -5 -3.5 -8.5z" />
    <glyph glyph-name="u" unicode="u" 
d="M271.5 510.5q3.5 3.5 8.5 3.5h117q5 0 8.5 -3.5t3.5 -8.5v-490q0 -5 -3.5 -8.5t-8.5 -3.5h-117q-5 0 -8.5 3.5t-3.5 8.5v17q0 3 -2 4t-4 -2q-15 -21 -37.5 -29.5t-52.5 -8.5q-60 0 -99 36.5t-39 112.5v360q0 5 3.5 8.5t8.5 3.5h117q5 0 8.5 -3.5t3.5 -8.5v-329
q0 -29 11.5 -44.5t33.5 -15.5t35 17t13 46v326q0 5 3.5 8.5z" />
    <glyph glyph-name="v" unicode="v" horiz-adv-x="436" 
d="M137 10l-121 492v4q0 9 11 9h129q12 0 13 -11l46 -275q1 -3 3 -3t3 3l45 275q1 11 13 11l129 -2q14 0 11 -13l-120 -490q-3 -10 -14 -10h-134q-11 0 -14 10z" />
    <glyph glyph-name="w" unicode="w" horiz-adv-x="613" 
d="M124 11l-108 491v4q0 9 11 9h111q12 0 13 -11l43 -274q1 -3 3 -3t3 3l44 274q1 11 13 11h99q12 0 13 -11l47 -275q1 -3 3 -2.5t3 3.5l42 274q1 11 13 11l110 -2q13 0 10 -13l-107 -489q-2 -11 -13 -11h-114q-12 0 -13 11l-43 254q-1 3 -3 3t-3 -3l-41 -254
q-1 -11 -13 -11h-110q-11 0 -13 11z" />
    <glyph glyph-name="x" unicode="x" horiz-adv-x="439" 
d="M16.5 3.5q-2.5 3.5 0.5 10.5l114 240q1 3 0 6l-114 240q-2 4 -2 6q0 8 11 8h128q10 0 14 -9l49 -113q3 -6 6 0l49 113q4 9 14 9h127q7 0 9.5 -3.5t-0.5 -10.5l-114 -240q-1 -3 0 -6l114 -240q2 -4 2 -6q0 -8 -11 -8h-127q-11 0 -14 9l-49 117q-3 8 -6 0l-49 -117
q-3 -9 -14 -9h-128q-7 0 -9.5 3.5z" />
    <glyph glyph-name="y" unicode="y" horiz-adv-x="423" 
d="M34 -195.5q-2 3.5 -2 8.5v92q0 12 9 12q52 1 74 16.5t25 63.5l-1 6l-126 499v4q0 9 11 9h126q12 0 13 -11l46 -297q1 -4 3 -4t3 4l44 297q1 11 13 11l126 -2q14 0 11 -13l-132 -519q-20 -73 -42.5 -109.5t-66 -53.5t-125.5 -17h-5q-2 0 -4 3.5z" />
    <glyph glyph-name="z" unicode="z" horiz-adv-x="373" 
d="M21.5 3.5q-3.5 3.5 -3.5 8.5v108q0 8 4 15l156 246q3 6 -3 6h-139q-5 0 -8.5 3.5t-3.5 8.5v103q0 5 3.5 8.5t8.5 3.5h301q5 0 8.5 -3.5t3.5 -8.5v-107q0 -8 -4 -15l-162 -246q-3 -6 3 -6h157q5 0 8.5 -3.5t3.5 -8.5v-104q0 -5 -3.5 -8.5t-8.5 -3.5h-313q-5 0 -8.5 3.5z
" />
    <glyph glyph-name="braceleft" unicode="{" horiz-adv-x="344" 
d="M129.5 -114.5q-32.5 32.5 -32.5 91.5v207q0 82 -57 89q-12 2 -12 13v87q0 12 12 13q57 8 57 88v203q0 59 32.5 91t91.5 32h83q5 0 8.5 -3.5t3.5 -8.5v-97q0 -5 -3.5 -8.5t-8.5 -3.5h-18q-21 0 -34.5 -17.5t-13.5 -45.5v-161q0 -95 -56 -122q-5 -3 0 -6q56 -30 56 -124
v-165q0 -28 13.5 -45.5t34.5 -17.5h18q5 0 8.5 -3.5t3.5 -8.5v-98q0 -5 -3.5 -8.5t-8.5 -3.5h-83q-59 0 -91.5 32.5z" />
    <glyph glyph-name="bar" unicode="|" horiz-adv-x="186" 
d="M25.5 -76.5q-3.5 3.5 -3.5 8.5v816q0 5 3.5 8.5t8.5 3.5h117q5 0 8.5 -3.5t3.5 -8.5v-816q0 -5 -3.5 -8.5t-8.5 -3.5h-117q-5 0 -8.5 3.5z" />
    <glyph glyph-name="braceright" unicode="}" horiz-adv-x="344" 
d="M40 -147q-5 0 -8.5 3.5t-3.5 8.5v98q0 5 3.5 8.5t8.5 3.5h18q21 0 35 17.5t14 45.5v165q0 94 55 124q5 3 0 6q-55 27 -55 122v161q0 28 -14 45.5t-35 17.5h-18q-5 0 -8.5 3.5t-3.5 8.5v97q0 5 3.5 8.5t8.5 3.5h84q59 0 91.5 -32.5t32.5 -90.5v-203q0 -81 56 -88
q12 -1 12 -13v-87q0 -11 -12 -13q-56 -7 -56 -89v-207q0 -59 -32.5 -91.5t-91.5 -32.5h-84z" />
    <glyph glyph-name="asciitilde" unicode="~" horiz-adv-x="490" 
d="M289 208.5q-17 6.5 -43 20.5q-7 4 -21 13t-26 13.5t-23 4.5q-19 0 -35.5 -10t-28.5 -27q-7 -10 -16 -4l-63 38q-9 6 -6 16q16 47 53.5 77.5t82.5 30.5q22 0 40.5 -6.5t38.5 -18.5q29 -18 43.5 -25t32.5 -7q30 0 54 35q7 10 17 4l67 -41q10 -6 5 -17q-24 -45 -58 -74
t-75 -29q-22 0 -39 6.5z" />
    <glyph glyph-name="uni00A0" unicode="&#xa0;" horiz-adv-x="200" 
 />
    <glyph glyph-name="exclamdown" unicode="&#xa1;" horiz-adv-x="279" 
d="M196 685.5q22 -22.5 22 -56.5t-21.5 -56t-56.5 -22t-57 22t-22 56q0 35 22.5 57t56.5 22t56 -22.5zM86.5 465.5q3.5 3.5 8.5 3.5h88q5 0 8.5 -3.5t3.5 -8.5l14 -436q0 -5 -3.5 -8.5t-8.5 -3.5h-117q-5 0 -8.5 3.5t-3.5 8.5l15 436q0 5 3.5 8.5z" />
    <glyph glyph-name="cent" unicode="&#xa2;" horiz-adv-x="434" 
d="M405.5 423.5q-3.5 -3.5 -8.5 -3.5l-117 -5q-12 0 -12 12v12q0 22 -13.5 37t-34.5 15q-22 0 -35 -16t-13 -42v-172q0 -26 13 -42t35 -16q21 0 34.5 15.5t13.5 36.5v13q0 5 3.5 8.5t8.5 3.5l117 -1q5 0 8.5 -3.5t3.5 -8.5v-23q0 -61 -34 -102t-95 -54q-5 -2 -5 -6l3 -69
q0 -12 -11 -12h-95q-11 0 -11 12l3 69q0 4 -5 6q-61 14 -94.5 56.5t-33.5 105.5v194q0 62 33.5 104.5t94.5 56.5q5 2 5 6l-3 70q0 12 11 12h95q11 0 11 -12l-3 -69q0 -4 5 -6q61 -14 95 -56t34 -100v-18q0 -5 -3.5 -8.5z" />
    <glyph glyph-name="sterling" unicode="&#xa3;" horiz-adv-x="517" 
d="M229 123q1 -2 4 -2h251q5 0 8.5 -3.5t3.5 -8.5v-97q0 -5 -3.5 -8.5t-8.5 -3.5h-395q-5 0 -8.5 3.5t-3.5 8.5v100q0 8 6 15q16 16 22.5 38.5t6.5 56.5v60q0 5 -5 5h-51q-5 0 -8.5 3.5t-3.5 8.5v90q0 5 3.5 8.5t8.5 3.5h51q5 0 5 5v84q0 102 51.5 160t139.5 58
q74 0 121.5 -43t64.5 -123v-3q0 -9 -10 -10l-113 -13h-2q-10 0 -12 11q-7 30 -18.5 45t-30.5 15q-26 0 -38 -22.5t-12 -67.5v-91q0 -5 5 -5h130q5 0 8.5 -3.5t3.5 -8.5v-90q0 -5 -3.5 -8.5t-8.5 -3.5h-130q-5 0 -5 -5v-60q0 -60 -24 -95q-1 -2 0 -4z" />
    <glyph glyph-name="currency" unicode="&#xa4;" horiz-adv-x="567" 
d="M475 200q-1 -4 1 -7l65 -65q4 -4 4 -9q0 -4 -4 -8l-72 -64q-4 -4 -9 -4q-4 0 -8 4l-62 61q-2 3 -7 1q-48 -25 -103 -25q-53 0 -99 23q-4 2 -7 -1l-59 -59q-4 -4 -8 -4q-3 0 -9 4l-72 64q-4 4 -4 8q0 5 4 9l61 61q3 3 1 7q-29 47 -29 107q0 56 26 103q2 5 -1 7l-65 65
q-4 4 -4 9q0 4 4 8l73 63q4 4 9 4q4 0 8 -4l61 -61q3 -3 7 -1q47 26 103 26q59 0 107 -28q5 -1 7 1l64 63q4 4 8 4q5 0 9 -4l72 -63q4 -4 4 -8q0 -5 -4 -9l-69 -69q-2 -2 -1 -7q24 -46 24 -99q0 -57 -26 -103zM209.5 232.5q29.5 -29.5 70.5 -29.5t70.5 29t29.5 71
q0 41 -29.5 70.5t-70.5 29.5t-70.5 -29.5t-29.5 -70.5t29.5 -70.5z" />
    <glyph glyph-name="yen" unicode="&#xa5;" horiz-adv-x="531" 
d="M475 696.5q3 -3.5 1 -10.5l-120 -345q-1 -6 4 -6h95q5 0 8.5 -3.5t3.5 -8.5v-54q0 -5 -3.5 -8.5t-8.5 -3.5h-116q-5 0 -5 -5v-38q0 -5 5 -5h116q5 0 8.5 -3.5t3.5 -8.5v-54q0 -5 -3.5 -8.5t-8.5 -3.5h-116q-5 0 -5 -5v-113q0 -5 -3.5 -8.5t-8.5 -3.5h-117q-5 0 -8.5 3.5
t-3.5 8.5v113q0 5 -5 5h-117q-5 0 -8.5 3.5t-3.5 8.5v54q0 5 3.5 8.5t8.5 3.5h117q5 0 5 5v38q0 5 -5 5h-117q-5 0 -8.5 3.5t-3.5 8.5v54q0 5 3.5 8.5t8.5 3.5h96q6 0 4 6l-118 345q-1 2 -1 5q0 9 10 9h123q11 0 14 -10l62 -239q1 -3 3 -3t3 3l62 239q3 10 14 10h123
q6 0 9 -3.5z" />
    <glyph glyph-name="brokenbar" unicode="&#xa6;" horiz-adv-x="186" 
d="M25.5 388.5q-3.5 3.5 -3.5 8.5v351q0 5 3.5 8.5t8.5 3.5h117q5 0 8.5 -3.5t3.5 -8.5v-351q0 -5 -3.5 -8.5t-8.5 -3.5h-117q-5 0 -8.5 3.5zM25.5 -76.5q-3.5 3.5 -3.5 8.5v348q0 5 3.5 8.5t8.5 3.5h117q5 0 8.5 -3.5t3.5 -8.5v-348q0 -5 -3.5 -8.5t-8.5 -3.5h-117
q-5 0 -8.5 3.5z" />
    <glyph glyph-name="section" unicode="&#xa7;" horiz-adv-x="437" 
d="M83.5 -157.5q-51.5 45.5 -51.5 118.5v17q0 5 3.5 8.5t8.5 3.5h117q5 0 8.5 -3.5t3.5 -8.5v-7q0 -23 13.5 -38t33.5 -15q21 0 34.5 15t13.5 37q0 28 -27 48.5t-83 50.5q-45 25 -72.5 49t-40.5 57q-14 32 -14 72q0 27 6.5 49t21.5 43q20 30 51 47q2 2 2 4t-2 3
q-39 32 -60 67t-21 81q0 48 24 86t66.5 59.5t98.5 21.5q84 0 136 -47.5t52 -124.5v-11q0 -5 -3.5 -8.5t-8.5 -3.5h-117q-5 0 -8.5 3.5t-3.5 8.5v4q0 25 -13 41.5t-34 16.5q-22 0 -35 -16t-13 -39q0 -31 20.5 -50.5t68.5 -42.5q53 -28 80 -45.5t46 -42.5q27 -37 27 -87
t-20 -87q-21 -42 -61 -63q-3 -1 -3 -3t2 -4q40 -29 59.5 -61.5t19.5 -80.5q0 -76 -52.5 -122t-137.5 -46q-84 0 -135.5 45.5zM263 213q8 16 8 39q0 27 -13 45q-6 8 -16 13t-21 5q-14 0 -24 -7t-15 -17q-9 -14 -9 -40q0 -24 9 -39q11 -24 40 -24q28 0 41 25z" />
    <glyph glyph-name="dieresis" unicode="&#xa8;" horiz-adv-x="369" 
d="M219.5 594.5q-22.5 22.5 -22.5 56.5q0 35 22 57t57 22t57 -22t22 -57q0 -34 -22.5 -56.5t-56.5 -22.5t-56.5 22.5zM35.5 594.5q-22.5 22.5 -22.5 56.5q0 35 22 57t57 22t57 -22t22 -57q0 -34 -22.5 -56.5t-56.5 -22.5t-56.5 22.5z" />
    <glyph glyph-name="copyright" unicode="&#xa9;" horiz-adv-x="791" 
d="M210.5 39q-82.5 47 -129.5 129.5t-47 184.5q0 100 47 181t129.5 127.5t184.5 46.5t185 -46.5t130 -127.5t47 -181q0 -102 -47 -184.5t-129.5 -129.5t-185.5 -47q-102 0 -184.5 47zM539.5 106.5q64.5 36.5 101 101.5t36.5 145q0 78 -36.5 141t-101 99.5t-144.5 36.5
t-144 -36.5t-100.5 -99.5t-36.5 -141q0 -80 36.5 -145t100.5 -101.5t144 -36.5t144.5 36.5zM324.5 206q-27.5 26 -27.5 70v147q0 43 27.5 68.5t72.5 25.5t73 -25.5t28 -68.5q0 -5 -3.5 -9t-8.5 -4l-50 -2q-12 0 -12 11v9q0 12 -7.5 19.5t-19.5 7.5t-19 -7.5t-7 -19.5v-158
q0 -12 7 -19.5t19 -7.5q13 0 20 7.5t7 19.5v8q0 12 12 12l50 -2q5 0 8.5 -3.5t3.5 -8.5q0 -44 -28 -70t-73 -26t-72.5 26z" />
    <glyph glyph-name="ordfeminine" unicode="&#xaa;" horiz-adv-x="292" 
d="M172 566q5 0 5 5v17q0 19 -8.5 31t-24.5 12q-11 0 -19 -6t-11 -16q-4 -10 -13 -10l-69 3q-5 0 -8.5 3.5t-2.5 9.5q5 41 38.5 67t82.5 26q57 0 91.5 -30t34.5 -80v-222q0 -5 -3.5 -8.5t-8.5 -3.5h-67q-5 0 -8.5 2.5t-3.5 6.5v1q0 3 -2 3.5t-4 -1.5q-18 -17 -53 -17
q-42 0 -74 22.5t-32 81.5t34.5 81t98.5 22h27zM165 441.5q12 9.5 12 27.5v21q0 5 -5 5h-27q-18 0 -29 -8.5t-11 -24.5q0 -30 31 -30q17 0 29 9.5zM15.5 312.5q3.5 3.5 8.5 3.5h240q5 0 8.5 -3.5t3.5 -8.5v-44q0 -5 -3.5 -8.5t-8.5 -3.5h-240q-5 0 -8.5 3.5t-3.5 8.5v44
q0 5 3.5 8.5z" />
    <glyph glyph-name="guillemotleft" unicode="&#xab;" horiz-adv-x="459" 
d="M247 115q0 -8 -10 -8h-97q-9 0 -14 9l-81 157q-2 6 -2 8q0 4 2 8l81 157q5 9 14 9h97q7 0 9 -4t-1 -10l-82 -157q-1 -3 0 -6l82 -157q2 -4 2 -6zM409 115q0 -8 -10 -8h-97q-9 0 -14 9l-81 157q-2 6 -2 8q0 4 2 8l81 157q5 9 14 9h97q7 0 9 -4t-1 -10l-83 -157q-1 -3 0 -6
l83 -157q2 -4 2 -6z" />
    <glyph glyph-name="logicalnot" unicode="&#xac;" horiz-adv-x="438" 
d="M411.5 358.5q3.5 -3.5 3.5 -8.5v-87v-7h-1v-80q0 -5 -3.5 -8.5t-8.5 -3.5h-83q-5 0 -8.5 3.5t-3.5 8.5v75q0 5 -5 5h-266q-5 0 -8.5 3.5t-3.5 8.5v82q0 5 3.5 8.5t8.5 3.5h367q5 0 8.5 -3.5z" />
    <glyph glyph-name="uni00AD" unicode="&#xad;" horiz-adv-x="331" 
d="M27.5 238.5q-3.5 3.5 -3.5 8.5v97q0 5 3.5 8.5t8.5 3.5h259q5 0 8.5 -3.5t3.5 -8.5v-97q0 -5 -3.5 -8.5t-8.5 -3.5h-259q-5 0 -8.5 3.5z" />
    <glyph glyph-name="registered" unicode="&#xae;" horiz-adv-x="434" 
d="M321 684q47 -26 73.5 -71t26.5 -101q0 -58 -26.5 -105t-73.5 -73.5t-104 -26.5t-103.5 26.5t-73 73.5t-26.5 105q0 56 26.5 101t73 71t103.5 26t104 -26zM320 407.5q41 41.5 41 104.5q0 39 -19 71t-52 50.5t-73 18.5t-73 -18.5t-51.5 -50.5t-18.5 -71q0 -64 40.5 -105
t102.5 -41t103 41.5zM264 497q-4 -1 -2 -6l21 -59q1 -2 1 -5q0 -9 -11 -9h-25q-10 0 -13 10l-19 56q-2 4 -5 4h-2q-5 0 -5 -5v-53q0 -5 -3.5 -8.5t-8.5 -3.5h-22q-5 0 -8.5 3.5t-3.5 8.5v161q0 5 3.5 8.5t8.5 3.5h59q26 0 42.5 -17t16.5 -42q0 -33 -24 -47zM204 558v-30
q0 -5 5 -5h13q9 0 14.5 6t5.5 14q0 9 -5.5 14.5t-14.5 5.5h-13q-5 0 -5 -5z" />
    <glyph glyph-name="macron" unicode="&#xaf;" horiz-adv-x="335" 
d="M60.5 584.5q-3.5 3.5 -3.5 8.5v72q0 5 3.5 8.5t8.5 3.5h196q5 0 8.5 -3.5t3.5 -8.5v-72q0 -5 -3.5 -8.5t-8.5 -3.5h-196q-5 0 -8.5 3.5z" />
    <glyph glyph-name="degree" unicode="&#xb0;" horiz-adv-x="359" 
d="M95.5 494.5q-37.5 22.5 -59.5 61t-22 85.5q0 46 22 84.5t59.5 60.5t83.5 22t84 -22t60 -60.5t22 -84.5q0 -47 -22 -85.5t-60 -61t-84 -22.5t-83.5 22.5zM232.5 585.5q21.5 22.5 21.5 55.5t-21.5 55.5t-53.5 22.5q-31 0 -53 -22.5t-22 -55.5t22 -55.5t53 -22.5
q32 0 53.5 22.5z" />
    <glyph glyph-name="plusminus" unicode="&#xb1;" horiz-adv-x="438" 
d="M411.5 437.5q3.5 -3.5 3.5 -8.5v-82q0 -5 -3.5 -8.5t-8.5 -3.5h-126q-5 0 -5 -5v-125q0 -5 -3.5 -8.5t-8.5 -3.5h-82q-5 0 -8.5 3.5t-3.5 8.5v125q0 5 -5 5h-125q-5 0 -8.5 3.5t-3.5 8.5v82q0 5 3.5 8.5t8.5 3.5h125q5 0 5 5v126q0 5 3.5 8.5t8.5 3.5h82q5 0 8.5 -3.5
t3.5 -8.5v-126q0 -5 5 -5h126q5 0 8.5 -3.5zM27.5 14.5q-3.5 3.5 -3.5 8.5v82q0 5 3.5 8.5t8.5 3.5h367q5 0 8.5 -3.5t3.5 -8.5v-82q0 -5 -3.5 -8.5t-8.5 -3.5h-367q-5 0 -8.5 3.5z" />
    <glyph glyph-name="uni00B2" unicode="&#xb2;" horiz-adv-x="266" 
d="M18.5 419.5q-3.5 3.5 -3.5 8.5v58q0 9 5 15q28 34 26 32q59 72 82 108q31 48 31 83q0 19 -7.5 29t-19.5 10t-20 -10t-8 -26v-20q0 -5 -3.5 -8.5t-8.5 -3.5h-67q-5 0 -8.5 3.5t-3.5 8.5v24q2 52 34.5 81t86.5 29q53 0 84.5 -30t31.5 -93q0 -30 -7 -54.5t-22 -51.5
q-19 -31 -50 -73l-29 -39q-2 -2 -1 -4t4 -2h100q5 0 8.5 -3.5t3.5 -8.5v-54q0 -5 -3.5 -8.5t-8.5 -3.5h-218q-5 0 -8.5 3.5z" />
    <glyph glyph-name="uni00B3" unicode="&#xb3;" horiz-adv-x="282" 
d="M263 549q0 -26 -3 -44q-3 -43 -33.5 -69t-78.5 -26q-51 0 -84 28.5t-35 73.5q-1 9 -1 26q0 12 12 12h66q12 0 12 -12q0 -7 1 -12q3 -37 29 -37q12 0 18.5 7.5t8.5 22.5q4 28 4 40q0 13 -2 37q-5 32 -29 32q-8 0 -15 -5q-5 -4 -10 -4q-4 0 -7 4l-32 34q-4 6 -4 9q0 4 4 8
l68 78q5 6 -3 6h-101q-5 0 -8.5 3.5t-3.5 8.5v53q0 5 3.5 8.5t8.5 3.5h200q5 0 8.5 -3.5t3.5 -8.5v-57q0 -10 -5 -15l-52 -63q-4 -5 1 -7q24 -9 39.5 -35.5t17.5 -57.5q2 -26 2 -39z" />
    <glyph glyph-name="acute" unicode="&#xb4;" horiz-adv-x="220" 
d="M20 580q-3 4 1 10l59 102q4 8 15 8h93q10 0 10 -7q0 -3 -3 -8l-77 -102q-6 -7 -14 -7h-74q-7 0 -10 4z" />
    <glyph glyph-name="uni00B5" unicode="&#xb5;" horiz-adv-x="450" 
d="M274.5 510.5q3.5 3.5 8.5 3.5h117q5 0 8.5 -3.5t3.5 -8.5v-490q0 -5 -3.5 -8.5t-8.5 -3.5h-117q-5 0 -8.5 3.5t-3.5 8.5v17q0 3 -2 3.5t-4 -2.5q-15 -20 -35 -28t-46 -9q-5 0 -5 -5v-176q0 -5 -3.5 -8.5t-8.5 -3.5h-117q-5 0 -8.5 3.5t-3.5 8.5v690q0 5 3.5 8.5t8.5 3.5
h117q5 0 8.5 -3.5t3.5 -8.5v-329q0 -60 45 -60q22 0 34.5 17t12.5 46v326q0 5 3.5 8.5z" />
    <glyph glyph-name="paragraph" unicode="&#xb6;" horiz-adv-x="514" 
d="M458 700q5 0 8.5 -3.5t3.5 -8.5v-876q0 -5 -3.5 -8.5t-8.5 -3.5h-94q-5 0 -8.5 3.5t-3.5 8.5v769q0 5 -5 5h-46q-5 0 -5 -5v-769q0 -5 -3.5 -8.5t-8.5 -3.5h-94q-5 0 -8.5 3.5t-3.5 8.5v436q0 5 -4 6q-71 14 -112.5 73.5t-41.5 147.5q0 65 24 116t68.5 80t102.5 29h243z
" />
    <glyph glyph-name="periodcentered" unicode="&#xb7;" horiz-adv-x="225" 
d="M56.5 233.5q-22.5 22.5 -22.5 56.5q0 35 22 57t57 22t57 -22t22 -57q0 -34 -22.5 -56.5t-56.5 -22.5t-56.5 22.5z" />
    <glyph glyph-name="cedilla" unicode="&#xb8;" horiz-adv-x="151" 
d="M7 -170l6 46q1 12 14 10q27 -4 34 24q6 33 -38 75q-5 5 -5 8q0 7 11 7h62q9 0 15 -6q46 -45 46 -97q0 -14 -3 -26q-8 -34 -31.5 -48t-54.5 -14q-19 0 -47 7q-10 3 -9 14z" />
    <glyph glyph-name="uni00B9" unicode="&#xb9;" horiz-adv-x="157" 
d="M56 836h71q5 0 8.5 -3.5t3.5 -8.5v-396q0 -5 -3.5 -8.5t-8.5 -3.5h-67q-5 0 -8.5 3.5t-3.5 8.5v323q0 5 -5 4l-16 -2h-2q-11 0 -11 12v43q0 10 9 14l18 10q10 4 15 4z" />
    <glyph glyph-name="ordmasculine" unicode="&#xba;" horiz-adv-x="295" 
d="M54.5 387.5q-33.5 29.5 -33.5 81.5v129q0 49 34 79.5t92 30.5t91 -30t33 -80v-129q0 -52 -33 -81.5t-91 -29.5q-59 0 -92.5 29.5zM171 447.5q10 11.5 10 27.5v115q0 18 -9.5 29t-24.5 11t-25 -11t-10 -29v-115q0 -17 10 -28t25 -11q14 0 24 11.5zM19.5 251.5
q-3.5 3.5 -3.5 8.5v44q0 5 3.5 8.5t8.5 3.5h239q5 0 8.5 -3.5t3.5 -8.5v-44q0 -5 -3.5 -8.5t-8.5 -3.5h-239q-5 0 -8.5 3.5z" />
    <glyph glyph-name="guillemotright" unicode="&#xbb;" horiz-adv-x="459" 
d="M51 111q-2 4 1 10l83 157q1 3 0 6l-83 157q-2 4 -2 6q0 8 10 8h97q10 0 14 -9l81 -157q2 -2 2 -8q0 -5 -2 -8l-81 -157q-4 -9 -14 -9h-97q-7 0 -9 4zM213 111q-2 4 1 10l83 157q1 3 0 6l-83 157q-2 4 -2 6q0 8 10 8h97q10 0 14 -9l81 -157q2 -2 2 -8q0 -5 -2 -8l-81 -157
q-4 -9 -14 -9h-97q-7 0 -9 4z" />
    <glyph glyph-name="onequarter" unicode="&#xbc;" horiz-adv-x="716" 
d="M56 700h71q5 0 8.5 -3.5t3.5 -8.5v-396q0 -5 -3.5 -8.5t-8.5 -3.5h-67q-5 0 -8.5 3.5t-3.5 8.5v323q0 5 -5 4l-16 -2h-2q-11 0 -11 12v43q0 10 9 14l18 10q10 4 15 4zM61.5 3.5q-2.5 3.5 1.5 10.5l407 678q4 8 14 8h75q7 0 9.5 -3.5t-1.5 -10.5l-407 -678q-4 -8 -14 -8
h-75q-7 0 -9.5 3.5zM704.5 183.5q3.5 -3.5 3.5 -8.5v-58q0 -5 -3.5 -8.5t-8.5 -3.5h-12q-5 0 -5 -5v-88q0 -5 -3.5 -8.5t-8.5 -3.5h-67q-5 0 -8.5 3.5t-3.5 8.5v88q0 5 -5 5h-142q-5 0 -8.5 3.5t-3.5 8.5v46q0 9 2 15l77 232q3 10 13 10h72q6 0 9 -4t1 -10l-66 -213
q-1 -6 4 -6h42q5 0 5 5v51q0 5 3.5 8.5t8.5 3.5h67q5 0 8.5 -3.5t3.5 -8.5v-51q0 -5 5 -5h12q5 0 8.5 -3.5z" />
    <glyph glyph-name="onehalf" unicode="&#xbd;" horiz-adv-x="691" 
d="M56 700h71q5 0 8.5 -3.5t3.5 -8.5v-396q0 -5 -3.5 -8.5t-8.5 -3.5h-67q-5 0 -8.5 3.5t-3.5 8.5v323q0 5 -5 4l-16 -2h-2q-11 0 -11 12v43q0 10 9 14l18 10q10 4 15 4zM61.5 3.5q-2.5 3.5 1.5 10.5l407 678q4 8 14 8h75q7 0 9.5 -3.5t-1.5 -10.5l-407 -678q-4 -8 -14 -8
h-75q-7 0 -9.5 3.5zM443.5 3.5q-3.5 3.5 -3.5 8.5v58q0 9 5 15q28 34 26 32q59 72 82 108q31 48 31 83q0 19 -7.5 29t-19.5 10t-20 -10t-8 -26v-20q0 -5 -3.5 -8.5t-8.5 -3.5h-67q-5 0 -8.5 3.5t-3.5 8.5v24q2 52 34.5 81t86.5 29q53 0 84.5 -30t31.5 -93q0 -30 -7 -54.5
t-22 -51.5q-19 -31 -50 -73l-29 -39q-2 -2 -1 -4t4 -2h100q5 0 8.5 -3.5t3.5 -8.5v-54q0 -5 -3.5 -8.5t-8.5 -3.5h-218q-5 0 -8.5 3.5z" />
    <glyph glyph-name="threequarters" unicode="&#xbe;" horiz-adv-x="793" 
d="M263 413q0 -26 -3 -44q-3 -43 -33.5 -69t-78.5 -26q-51 0 -84 28.5t-35 73.5q-1 9 -1 26q0 12 12 12h66q12 0 12 -12q0 -7 1 -12q3 -37 29 -37q12 0 18.5 7.5t8.5 22.5q4 28 4 40q0 13 -2 37q-5 32 -29 32q-8 0 -15 -5q-5 -4 -10 -4q-4 0 -7 4l-32 34q-4 6 -4 9q0 4 4 8
l68 78q5 6 -3 6h-101q-5 0 -8.5 3.5t-3.5 8.5v53q0 5 3.5 8.5t8.5 3.5h200q5 0 8.5 -3.5t3.5 -8.5v-57q0 -10 -5 -15l-52 -63q-4 -5 1 -7q24 -9 39.5 -35.5t17.5 -57.5q2 -26 2 -39zM138.5 3.5q-2.5 3.5 1.5 10.5l407 678q4 8 14 8h75q7 0 9.5 -3.5t-1.5 -10.5l-407 -678
q-4 -8 -14 -8h-75q-7 0 -9.5 3.5zM781.5 183.5q3.5 -3.5 3.5 -8.5v-58q0 -5 -3.5 -8.5t-8.5 -3.5h-12q-5 0 -5 -5v-88q0 -5 -3.5 -8.5t-8.5 -3.5h-67q-5 0 -8.5 3.5t-3.5 8.5v88q0 5 -5 5h-142q-5 0 -8.5 3.5t-3.5 8.5v46q0 9 2 15l77 232q3 10 13 10h72q6 0 9 -4t1 -10
l-66 -213q-1 -6 4 -6h42q5 0 5 5v51q0 5 3.5 8.5t8.5 3.5h67q5 0 8.5 -3.5t3.5 -8.5v-51q0 -5 5 -5h12q5 0 8.5 -3.5z" />
    <glyph glyph-name="questiondown" unicode="&#xbf;" horiz-adv-x="437" 
d="M289 480q22 -22 22 -57q0 -34 -22 -56t-57 -22t-57 22t-22 56t22.5 56.5t56.5 22.5q35 0 57 -22zM298.5 274.5q3.5 -3.5 3.5 -8.5v-32q0 -50 -20.5 -80.5t-59.5 -64.5q-32 -28 -47 -48.5t-15 -50.5q0 -32 15.5 -51.5t41.5 -19.5q29 0 45.5 20.5t16.5 54.5v16q0 11 12 11
l117 -5q5 0 8.5 -3.5t3.5 -8.5v-10q0 -60 -26 -106.5t-73 -72t-108 -25.5q-89 0 -142 53.5t-53 141.5q0 44 12.5 75.5t30 51.5t45.5 44q29 25 42.5 43t13.5 44v23q0 5 3.5 8.5t8.5 3.5h116q5 0 8.5 -3.5z" />
    <glyph glyph-name="Agrave" unicode="&#xc0;" horiz-adv-x="482" 
d="M325 11l-16 96q0 5 -6 5h-127q-6 0 -6 -5l-16 -96q-1 -11 -13 -11h-117q-13 0 -10 13l147 676q2 11 13 11h135q11 0 13 -11l146 -676l1 -4q0 -9 -11 -9h-120q-12 0 -13 11zM194 221h90q5 0 4 5l-47 273q-1 3 -3 3t-3 -3l-45 -273q0 -5 4 -5zM287 770q0 -8 -11 -8h-75
q-8 0 -14 7l-76 102q-3 5 -3 8q0 7 10 7h93q10 0 14 -8l60 -102z" />
    <glyph glyph-name="Aacute" unicode="&#xc1;" horiz-adv-x="482" 
d="M325 11l-16 96q0 5 -6 5h-127q-6 0 -6 -5l-16 -96q-1 -11 -13 -11h-117q-13 0 -10 13l147 676q2 11 13 11h135q11 0 13 -11l146 -676l1 -4q0 -9 -11 -9h-120q-12 0 -13 11zM194 221h90q5 0 4 5l-47 273q-1 3 -3 3t-3 -3l-45 -273q0 -5 4 -5zM177 766q-3 4 1 10l59 102
q4 8 15 8h93q10 0 10 -7q0 -3 -3 -8l-77 -102q-6 -7 -14 -7h-74q-7 0 -10 4z" />
    <glyph glyph-name="Acircumflex" unicode="&#xc2;" horiz-adv-x="482" 
d="M325 11l-16 96q0 5 -6 5h-127q-6 0 -6 -5l-16 -96q-1 -11 -13 -11h-117q-13 0 -10 13l147 676q2 11 13 11h135q11 0 13 -11l146 -676l1 -4q0 -9 -11 -9h-120q-12 0 -13 11zM194 221h90q5 0 4 5l-47 273q-1 3 -3 3t-3 -3l-45 -273q0 -5 4 -5zM96.5 763.5
q-2.5 3.5 1.5 10.5l63 104q4 8 14 8h129q9 0 14 -8l66 -104q2 -6 2 -7q0 -7 -10 -7h-88q-10 0 -14 9l-30 56q-3 5 -6 0l-30 -56q-5 -9 -15 -9h-87q-7 0 -9.5 3.5z" />
    <glyph glyph-name="Atilde" unicode="&#xc3;" horiz-adv-x="482" 
d="M325 11l-16 96q0 5 -6 5h-127q-6 0 -6 -5l-16 -96q-1 -11 -13 -11h-117q-13 0 -10 13l147 676q2 11 13 11h135q11 0 13 -11l146 -676l1 -4q0 -9 -11 -9h-120q-12 0 -13 11zM194 221h90q5 0 4 5l-47 273q-1 3 -3 3t-3 -3l-45 -273q0 -5 4 -5zM254 790q-9 4 -20.5 11
t-21.5 7q-22 0 -36 -22q-7 -10 -17 -4l-42 30q-8 6 -5 16q13 35 36.5 52t51.5 17q30 0 64 -23q2 -2 10 -7t15.5 -8t15.5 -3q23 0 36 20q7 12 17 5l40 -28q5 -3 5 -9t-5 -14q-17 -30 -41.5 -44t-48.5 -14q-21 0 -54 18z" />
    <glyph glyph-name="Adieresis" unicode="&#xc4;" horiz-adv-x="482" 
d="M325 11l-16 96q0 5 -6 5h-127q-6 0 -6 -5l-16 -96q-1 -11 -13 -11h-117q-13 0 -10 13l147 676q2 11 13 11h135q11 0 13 -11l146 -676l1 -4q0 -9 -11 -9h-120q-12 0 -13 11zM194 221h90q5 0 4 5l-47 273q-1 3 -3 3t-3 -3l-45 -273q0 -5 4 -5zM276.5 780.5
q-22.5 22.5 -22.5 56.5q0 35 22 57t57 22t57 -22t22 -57q0 -34 -22.5 -56.5t-56.5 -22.5t-56.5 22.5zM92.5 780.5q-22.5 22.5 -22.5 56.5q0 35 22 57t57 22t57 -22t22 -57q0 -34 -22.5 -56.5t-56.5 -22.5t-56.5 22.5z" />
    <glyph glyph-name="Aring" unicode="&#xc5;" horiz-adv-x="482" 
d="M325 11l-16 96q0 5 -6 5h-127q-6 0 -6 -5l-16 -96q-1 -11 -13 -11h-117q-13 0 -10 13l147 676q2 11 13 11h135q11 0 13 -11l146 -676l1 -4q0 -9 -11 -9h-120q-12 0 -13 11zM194 221h90q5 0 4 5l-47 273q-1 3 -3 3t-3 -3l-45 -273q0 -5 4 -5zM154.5 784.5
q-35.5 35.5 -35.5 88.5t35.5 88.5t87.5 35.5t88 -35.5t36 -88.5q0 -52 -36 -88t-88 -36t-87.5 35.5zM277 837.5q15 14.5 15 35.5q0 22 -15 36.5t-35 14.5t-34.5 -14.5t-14.5 -36.5q0 -21 14.5 -35.5t34.5 -14.5t35 14.5z" />
    <glyph glyph-name="AE" unicode="&#xc6;" horiz-adv-x="755" 
d="M724.5 582.5q-3.5 -3.5 -8.5 -3.5h-208q-5 0 -5 -5v-158q0 -5 5 -5h119q5 0 8.5 -3.5t3.5 -8.5v-97q0 -5 -3.5 -8.5t-8.5 -3.5h-119q-5 0 -5 -5v-159q0 -5 5 -5h208q5 0 8.5 -3.5t3.5 -8.5v-97q0 -5 -3.5 -8.5t-8.5 -3.5h-343q-5 0 -8.5 3.5t-3.5 8.5v95q0 5 -5 5h-149
q-3 0 -5 -4l-38 -99q-3 -9 -14 -9h-124q-7 0 -9 4t0 10l281 677q3 9 14 9h404q5 0 8.5 -3.5t3.5 -8.5v-97q0 -5 -3.5 -8.5zM252 221h104q5 0 5 5l1 280q0 4 -2 4t-4 -3l-108 -280q-1 -6 4 -6z" />
    <glyph glyph-name="Ccedilla" unicode="&#xc7;" horiz-adv-x="464" 
d="M429.5 493.5q-3.5 -3.5 -8.5 -3.5l-117 -5q-12 0 -12 11v26q0 29 -16 47t-43 18q-26 0 -42 -18t-16 -47v-345q0 -29 16 -46.5t42 -17.5q27 0 43 17.5t16 46.5v27q0 5 3.5 8.5t8.5 3.5l117 -5q5 0 8.5 -3.5t3.5 -8.5v-10q0 -76 -39.5 -127t-108.5 -65q-6 -2 -2 -6
q36 -40 36 -88q0 -13 -3 -26q-8 -34 -31.5 -48t-54.5 -14q-26 0 -47 7q-9 3 -8 14l6 46q1 11 14 9q14 -2 24 6.5t10 26.5q0 32 -41 71l-6 3q-68 14 -108 64.5t-40 126.5v324q0 89 54.5 142t144.5 53q91 0 145.5 -53t54.5 -142v-11q0 -5 -3.5 -8.5z" />
    <glyph glyph-name="Egrave" unicode="&#xc8;" horiz-adv-x="438" 
d="M407.5 582.5q-3.5 -3.5 -8.5 -3.5h-209q-5 0 -5 -5v-158q0 -5 5 -5h120q5 0 8.5 -3.5t3.5 -8.5v-97q0 -5 -3.5 -8.5t-8.5 -3.5h-120q-5 0 -5 -5v-159q0 -5 5 -5h209q5 0 8.5 -3.5t3.5 -8.5v-97q0 -5 -3.5 -8.5t-8.5 -3.5h-343q-5 0 -8.5 3.5t-3.5 8.5v676q0 5 3.5 8.5
t8.5 3.5h343q5 0 8.5 -3.5t3.5 -8.5v-97q0 -5 -3.5 -8.5zM274 770q0 -8 -11 -8h-75q-8 0 -14 7l-76 102q-3 5 -3 8q0 7 10 7h93q10 0 14 -8l60 -102z" />
    <glyph glyph-name="Eacute" unicode="&#xc9;" horiz-adv-x="438" 
d="M407.5 582.5q-3.5 -3.5 -8.5 -3.5h-209q-5 0 -5 -5v-158q0 -5 5 -5h120q5 0 8.5 -3.5t3.5 -8.5v-97q0 -5 -3.5 -8.5t-8.5 -3.5h-120q-5 0 -5 -5v-159q0 -5 5 -5h209q5 0 8.5 -3.5t3.5 -8.5v-97q0 -5 -3.5 -8.5t-8.5 -3.5h-343q-5 0 -8.5 3.5t-3.5 8.5v676q0 5 3.5 8.5
t8.5 3.5h343q5 0 8.5 -3.5t3.5 -8.5v-97q0 -5 -3.5 -8.5zM164 766q-3 4 1 10l59 102q4 8 15 8h93q10 0 10 -7q0 -3 -3 -8l-77 -102q-6 -7 -14 -7h-74q-7 0 -10 4z" />
    <glyph glyph-name="Ecircumflex" unicode="&#xca;" horiz-adv-x="438" 
d="M407.5 582.5q-3.5 -3.5 -8.5 -3.5h-209q-5 0 -5 -5v-158q0 -5 5 -5h120q5 0 8.5 -3.5t3.5 -8.5v-97q0 -5 -3.5 -8.5t-8.5 -3.5h-120q-5 0 -5 -5v-159q0 -5 5 -5h209q5 0 8.5 -3.5t3.5 -8.5v-97q0 -5 -3.5 -8.5t-8.5 -3.5h-343q-5 0 -8.5 3.5t-3.5 8.5v676q0 5 3.5 8.5
t8.5 3.5h343q5 0 8.5 -3.5t3.5 -8.5v-97q0 -5 -3.5 -8.5zM83.5 763.5q-2.5 3.5 1.5 10.5l63 104q4 8 14 8h129q9 0 14 -8l66 -104q2 -6 2 -7q0 -7 -10 -7h-88q-10 0 -14 9l-30 56q-3 5 -6 0l-30 -56q-5 -9 -15 -9h-87q-7 0 -9.5 3.5z" />
    <glyph glyph-name="Edieresis" unicode="&#xcb;" horiz-adv-x="438" 
d="M407.5 582.5q-3.5 -3.5 -8.5 -3.5h-209q-5 0 -5 -5v-158q0 -5 5 -5h120q5 0 8.5 -3.5t3.5 -8.5v-97q0 -5 -3.5 -8.5t-8.5 -3.5h-120q-5 0 -5 -5v-159q0 -5 5 -5h209q5 0 8.5 -3.5t3.5 -8.5v-97q0 -5 -3.5 -8.5t-8.5 -3.5h-343q-5 0 -8.5 3.5t-3.5 8.5v676q0 5 3.5 8.5
t8.5 3.5h343q5 0 8.5 -3.5t3.5 -8.5v-97q0 -5 -3.5 -8.5zM263.5 780.5q-22.5 22.5 -22.5 56.5q0 35 22 57t57 22t57 -22t22 -57q0 -34 -22.5 -56.5t-56.5 -22.5t-56.5 22.5zM79.5 780.5q-22.5 22.5 -22.5 56.5q0 35 22 57t57 22t57 -22t22 -57q0 -34 -22.5 -56.5
t-56.5 -22.5t-56.5 22.5z" />
    <glyph glyph-name="Igrave" unicode="&#xcc;" horiz-adv-x="230" 
d="M47.5 3.5q-3.5 3.5 -3.5 8.5v676q0 5 3.5 8.5t8.5 3.5h117q5 0 8.5 -3.5t3.5 -8.5v-676q0 -5 -3.5 -8.5t-8.5 -3.5h-117q-5 0 -8.5 3.5zM161 770q0 -8 -11 -8h-75q-8 0 -14 7l-76 102q-3 5 -3 8q0 7 10 7h93q10 0 14 -8l60 -102z" />
    <glyph glyph-name="Iacute" unicode="&#xcd;" horiz-adv-x="230" 
d="M47.5 3.5q-3.5 3.5 -3.5 8.5v676q0 5 3.5 8.5t8.5 3.5h117q5 0 8.5 -3.5t3.5 -8.5v-676q0 -5 -3.5 -8.5t-8.5 -3.5h-117q-5 0 -8.5 3.5zM50 766q-3 4 1 10l59 102q4 8 15 8h93q10 0 10 -7q0 -3 -3 -8l-77 -102q-6 -7 -14 -7h-74q-7 0 -10 4z" />
    <glyph glyph-name="Icircumflex" unicode="&#xce;" horiz-adv-x="230" 
d="M47.5 3.5q-3.5 3.5 -3.5 8.5v676q0 5 3.5 8.5t8.5 3.5h117q5 0 8.5 -3.5t3.5 -8.5v-676q0 -5 -3.5 -8.5t-8.5 -3.5h-117q-5 0 -8.5 3.5zM-30.5 763.5q-2.5 3.5 1.5 10.5l63 104q4 8 14 8h129q9 0 14 -8l66 -104q2 -6 2 -7q0 -7 -10 -7h-88q-10 0 -14 9l-30 56q-3 5 -6 0
l-30 -56q-5 -9 -15 -9h-87q-7 0 -9.5 3.5z" />
    <glyph glyph-name="Idieresis" unicode="&#xcf;" horiz-adv-x="230" 
d="M47.5 3.5q-3.5 3.5 -3.5 8.5v676q0 5 3.5 8.5t8.5 3.5h117q5 0 8.5 -3.5t3.5 -8.5v-676q0 -5 -3.5 -8.5t-8.5 -3.5h-117q-5 0 -8.5 3.5zM149.5 780.5q-22.5 22.5 -22.5 56.5q0 35 22 57t57 22t57 -22t22 -57q0 -34 -22.5 -56.5t-56.5 -22.5t-56.5 22.5zM-34.5 780.5
q-22.5 22.5 -22.5 56.5q0 35 22 57t57 22t57 -22t22 -57q0 -34 -22.5 -56.5t-56.5 -22.5t-56.5 22.5z" />
    <glyph glyph-name="Eth" unicode="&#xd0;" horiz-adv-x="506" 
d="M414 647q55 -53 55 -141v-312q0 -88 -55 -141t-146 -53h-181q-5 0 -8.5 3.5t-3.5 8.5v309q0 5 -5 5h-14q-5 0 -8.5 3.5t-3.5 8.5v57q0 5 3.5 8.5t8.5 3.5h14q5 0 5 5v276q0 5 3.5 8.5t8.5 3.5h181q91 0 146 -53zM328 497q0 37 -17.5 59.5t-46.5 22.5h-43q-5 0 -5 -5v-162
q0 -5 5 -5h37q5 0 8.5 -3.5t3.5 -8.5v-57q0 -5 -3.5 -8.5t-8.5 -3.5h-37q-5 0 -5 -5v-195q0 -5 5 -5l44 1q27 1 44.5 22.5t18.5 58.5v294z" />
    <glyph glyph-name="Ntilde" unicode="&#xd1;" horiz-adv-x="514" 
d="M333.5 696.5q3.5 3.5 8.5 3.5h116q5 0 8.5 -3.5t3.5 -8.5v-676q0 -5 -3.5 -8.5t-8.5 -3.5h-132q-10 0 -13 10l-124 387q-1 3 -3.5 2.5t-2.5 -3.5l1 -384q0 -5 -3.5 -8.5t-8.5 -3.5h-116q-5 0 -8.5 3.5t-3.5 8.5v676q0 5 3.5 8.5t8.5 3.5h131q10 0 13 -10l125 -387
q1 -3 3.5 -2.5t2.5 3.5l-1 384q0 5 3.5 8.5zM269 792q-9 4 -20.5 11t-21.5 7q-22 0 -36 -22q-7 -10 -17 -4l-42 30q-8 6 -5 16q13 35 36.5 52t51.5 17q30 0 64 -23q2 -2 10 -7t15.5 -8t15.5 -3q23 0 36 20q7 12 17 5l40 -28q5 -3 5 -9t-5 -14q-17 -30 -41.5 -44t-48.5 -14
q-21 0 -54 18z" />
    <glyph glyph-name="Ograve" unicode="&#xd2;" horiz-adv-x="473" 
d="M89 46q-55 54 -55 144v320q0 90 55 144t147 54t147.5 -54t55.5 -144v-320q0 -90 -55.5 -144t-147.5 -54t-147 54zM281 132.5q17 19.5 17 51.5v332q0 32 -17 51.5t-45 19.5t-44.5 -19.5t-16.5 -51.5v-332q0 -32 16.5 -51.5t44.5 -19.5t45 19.5zM282 769q0 -8 -11 -8h-75
q-8 0 -14 7l-76 102q-3 5 -3 8q0 7 10 7h93q10 0 14 -8l60 -102z" />
    <glyph glyph-name="Oacute" unicode="&#xd3;" horiz-adv-x="473" 
d="M89 46q-55 54 -55 144v320q0 90 55 144t147 54t147.5 -54t55.5 -144v-320q0 -90 -55.5 -144t-147.5 -54t-147 54zM281 132.5q17 19.5 17 51.5v332q0 32 -17 51.5t-45 19.5t-44.5 -19.5t-16.5 -51.5v-332q0 -32 16.5 -51.5t44.5 -19.5t45 19.5zM172 765q-3 4 1 10l59 102
q4 8 15 8h93q10 0 10 -7q0 -3 -3 -8l-77 -102q-6 -7 -14 -7h-74q-7 0 -10 4z" />
    <glyph glyph-name="Ocircumflex" unicode="&#xd4;" horiz-adv-x="473" 
d="M89 46q-55 54 -55 144v320q0 90 55 144t147 54t147.5 -54t55.5 -144v-320q0 -90 -55.5 -144t-147.5 -54t-147 54zM281 132.5q17 19.5 17 51.5v332q0 32 -17 51.5t-45 19.5t-44.5 -19.5t-16.5 -51.5v-332q0 -32 16.5 -51.5t44.5 -19.5t45 19.5zM90.5 762.5
q-2.5 3.5 1.5 10.5l63 104q4 8 14 8h129q9 0 14 -8l66 -104q2 -6 2 -7q0 -7 -10 -7h-88q-10 0 -14 9l-30 56q-3 5 -6 0l-30 -56q-5 -9 -15 -9h-87q-7 0 -9.5 3.5z" />
    <glyph glyph-name="Otilde" unicode="&#xd5;" horiz-adv-x="473" 
d="M89 46q-55 54 -55 144v320q0 90 55 144t147 54t147.5 -54t55.5 -144v-320q0 -90 -55.5 -144t-147.5 -54t-147 54zM281 132.5q17 19.5 17 51.5v332q0 32 -17 51.5t-45 19.5t-44.5 -19.5t-16.5 -51.5v-332q0 -32 16.5 -51.5t44.5 -19.5t45 19.5zM249 789q-9 4 -20.5 11
t-21.5 7q-22 0 -36 -22q-7 -10 -17 -4l-42 30q-8 6 -5 16q13 35 36.5 52t51.5 17q30 0 64 -23q2 -2 10 -7t15.5 -8t15.5 -3q23 0 36 20q7 12 17 5l40 -28q5 -3 5 -9t-5 -14q-17 -30 -41.5 -44t-48.5 -14q-21 0 -54 18z" />
    <glyph glyph-name="Odieresis" unicode="&#xd6;" horiz-adv-x="473" 
d="M89 46q-55 54 -55 144v320q0 90 55 144t147 54t147.5 -54t55.5 -144v-320q0 -90 -55.5 -144t-147.5 -54t-147 54zM281 132.5q17 19.5 17 51.5v332q0 32 -17 51.5t-45 19.5t-44.5 -19.5t-16.5 -51.5v-332q0 -32 16.5 -51.5t44.5 -19.5t45 19.5zM270.5 779.5
q-22.5 22.5 -22.5 56.5q0 35 22 57t57 22t57 -22t22 -57q0 -34 -22.5 -56.5t-56.5 -22.5t-56.5 22.5zM86.5 779.5q-22.5 22.5 -22.5 56.5q0 35 22 57t57 22t57 -22t22 -57q0 -34 -22.5 -56.5t-56.5 -22.5t-56.5 22.5z" />
    <glyph glyph-name="multiply" unicode="&#xd7;" horiz-adv-x="399" 
d="M370 411q0 -4 -4 -8l-88 -88q-2 -2 -2 -4t2 -4l89 -89q4 -3 4 -8q0 -4 -4 -8l-59 -59q-4 -4 -8 -4q-2 0 -8 4l-89 89q-2 2 -4 2t-4 -2l-89 -89q-4 -4 -8 -4q-2 0 -8 4l-59 59q-4 6 -4 8q0 4 4 8l89 89q2 2 2 4t-2 4l-88 88q-4 4 -4 8q0 5 4 9l58 58q4 4 8 4q5 0 8 -4
l89 -89q2 -2 4 -2t4 2l89 89q4 4 8 4q5 0 8 -4l58 -58q4 -4 4 -9z" />
    <glyph glyph-name="Oslash" unicode="&#xd8;" horiz-adv-x="554" 
d="M448 692l-34 -73q-1 -4 0 -6q24 -45 24 -103v-320q0 -90 -55.5 -144t-147.5 -54q-55 0 -99 21q-2 1 -3.5 0t-2.5 -3l-25 -52q-2 -5 -6.5 -7t-9.5 2l-62 39q-9 6 -4 16l33 74q1 4 0 6q-23 44 -23 102v320q0 90 55 144t147 54q54 0 97 -20q5 -2 7 3l24 51q5 11 16 5l64 -39
q10 -6 5 -16zM297 516q0 32 -17 51.5t-45 19.5t-44.5 -19.5t-16.5 -51.5v-332q0 -32 16.5 -51.5t44.5 -19.5t45 19.5t17 51.5v332z" />
    <glyph glyph-name="Ugrave" unicode="&#xd9;" horiz-adv-x="479" 
d="M95.5 48.5q-54.5 56.5 -54.5 150.5v489q0 5 3.5 8.5t8.5 3.5h117q5 0 8.5 -3.5t3.5 -8.5v-503q0 -32 16 -52t42 -20t41.5 20t15.5 52v503q0 5 3.5 8.5t8.5 3.5h117q5 0 8.5 -3.5t3.5 -8.5v-489q0 -94 -54.5 -150.5t-143.5 -56.5q-90 0 -144.5 56.5zM285 770q0 -8 -11 -8
h-75q-8 0 -14 7l-76 102q-3 5 -3 8q0 7 10 7h93q10 0 14 -8l60 -102z" />
    <glyph glyph-name="Uacute" unicode="&#xda;" horiz-adv-x="479" 
d="M95.5 48.5q-54.5 56.5 -54.5 150.5v489q0 5 3.5 8.5t8.5 3.5h117q5 0 8.5 -3.5t3.5 -8.5v-503q0 -32 16 -52t42 -20t41.5 20t15.5 52v503q0 5 3.5 8.5t8.5 3.5h117q5 0 8.5 -3.5t3.5 -8.5v-489q0 -94 -54.5 -150.5t-143.5 -56.5q-90 0 -144.5 56.5zM175 766q-3 4 1 10
l59 102q4 8 15 8h93q10 0 10 -7q0 -3 -3 -8l-77 -102q-6 -7 -14 -7h-74q-7 0 -10 4z" />
    <glyph glyph-name="Ucircumflex" unicode="&#xdb;" horiz-adv-x="479" 
d="M95.5 48.5q-54.5 56.5 -54.5 150.5v489q0 5 3.5 8.5t8.5 3.5h117q5 0 8.5 -3.5t3.5 -8.5v-503q0 -32 16 -52t42 -20t41.5 20t15.5 52v503q0 5 3.5 8.5t8.5 3.5h117q5 0 8.5 -3.5t3.5 -8.5v-489q0 -94 -54.5 -150.5t-143.5 -56.5q-90 0 -144.5 56.5zM94.5 763.5
q-2.5 3.5 1.5 10.5l63 104q4 8 14 8h129q9 0 14 -8l66 -104q2 -6 2 -7q0 -7 -10 -7h-88q-10 0 -14 9l-30 56q-3 5 -6 0l-30 -56q-5 -9 -15 -9h-87q-7 0 -9.5 3.5z" />
    <glyph glyph-name="Udieresis" unicode="&#xdc;" horiz-adv-x="479" 
d="M95.5 48.5q-54.5 56.5 -54.5 150.5v489q0 5 3.5 8.5t8.5 3.5h117q5 0 8.5 -3.5t3.5 -8.5v-503q0 -32 16 -52t42 -20t41.5 20t15.5 52v503q0 5 3.5 8.5t8.5 3.5h117q5 0 8.5 -3.5t3.5 -8.5v-489q0 -94 -54.5 -150.5t-143.5 -56.5q-90 0 -144.5 56.5zM274.5 780.5
q-22.5 22.5 -22.5 56.5q0 35 22 57t57 22t57 -22t22 -57q0 -34 -22.5 -56.5t-56.5 -22.5t-56.5 22.5zM90.5 780.5q-22.5 22.5 -22.5 56.5q0 35 22 57t57 22t57 -22t22 -57q0 -34 -22.5 -56.5t-56.5 -22.5t-56.5 22.5z" />
    <glyph glyph-name="Yacute" unicode="&#xdd;" horiz-adv-x="474" 
d="M169.5 4.5q-3.5 3.5 -3.5 8.5v260l-1 6l-140 407q-1 2 -1 5q0 9 11 9h123q11 0 14 -10l62 -239q1 -3 3 -3t3 3l62 239q3 10 14 10h123q6 0 9 -3.5t1 -10.5l-141 -407l-1 -6v-260q0 -5 -3.5 -8.5t-8.5 -3.5h-117q-5 0 -8.5 3.5zM173 766q-3 4 1 10l59 102q4 8 15 8h93
q10 0 10 -7q0 -3 -3 -8l-77 -102q-6 -7 -14 -7h-74q-7 0 -10 4z" />
    <glyph glyph-name="Thorn" unicode="&#xde;" horiz-adv-x="465" 
d="M354 533.5q43 -26.5 66.5 -75t23.5 -111.5q0 -61 -22.5 -108t-63.5 -72.5t-95 -25.5h-74q-5 0 -5 -5v-124q0 -5 -3.5 -8.5t-8.5 -3.5h-117q-5 0 -8.5 3.5t-3.5 8.5v676q0 5 3.5 8.5t8.5 3.5h117q5 0 8.5 -3.5t3.5 -8.5v-123q0 -5 5 -5h67q55 0 98 -26.5zM284 276.5
q19 24.5 19 68.5t-19.5 69t-50.5 25h-44q-5 0 -5 -5v-177q0 -5 5 -5h44q32 0 51 24.5z" />
    <glyph glyph-name="germandbls" unicode="&#xdf;" horiz-adv-x="461" 
d="M41.5 4.5q-3.5 3.5 -3.5 8.5v471q0 107 49 165.5t138 58.5q90 0 141.5 -51t52.5 -138q0 -95 -64 -137q-6 -3 -1 -6q36 -23 56 -67.5t20 -103.5q0 -97 -53.5 -151t-151.5 -54h-5q-5 0 -8.5 3.5t-3.5 8.5v96q0 5 3.5 9t8.5 4h5q31 0 49 26t18 73t-16.5 73t-45.5 27h-5
q-5 0 -8.5 3.5t-3.5 8.5v87q0 5 3.5 8.5t8.5 3.5h3q25 0 39 20.5t14 57.5q-1 37 -15.5 58t-38.5 21q-23 0 -35.5 -21t-12.5 -61v-494q0 -5 -3.5 -8.5t-8.5 -3.5l-117 1q-5 0 -8.5 3.5z" />
    <glyph glyph-name="agrave" unicode="&#xe0;" horiz-adv-x="445" 
d="M362 476q53 -46 53 -121v-343q0 -5 -3.5 -8.5t-8.5 -3.5h-117q-5 0 -8.5 3.5t-3.5 8.5v22q0 3 -2 4t-4 -2q-33 -42 -102 -44q-58 0 -100.5 32t-42.5 122q0 93 51.5 128t148.5 35h46q5 0 5 5v25q0 27 -14.5 44.5t-36.5 17.5q-17 0 -28.5 -10.5t-14.5 -29.5q-1 -12 -13 -12
l-120 1q-12 0 -12 12q5 73 57 116.5t132 43.5q85 0 138 -46zM255.5 116.5q18.5 15.5 18.5 41.5v47q0 5 -5 5h-41q-27 0 -43.5 -15.5t-16.5 -42.5q0 -25 12.5 -38t33.5 -13q23 0 41.5 15.5zM268 584q0 -8 -11 -8h-75q-8 0 -14 7l-76 102q-3 5 -3 8q0 7 10 7h93q10 0 14 -8
l60 -102z" />
    <glyph glyph-name="aacute" unicode="&#xe1;" horiz-adv-x="445" 
d="M362 476q53 -46 53 -121v-343q0 -5 -3.5 -8.5t-8.5 -3.5h-117q-5 0 -8.5 3.5t-3.5 8.5v22q0 3 -2 4t-4 -2q-33 -42 -102 -44q-58 0 -100.5 32t-42.5 122q0 93 51.5 128t148.5 35h46q5 0 5 5v25q0 27 -14.5 44.5t-36.5 17.5q-17 0 -28.5 -10.5t-14.5 -29.5q-1 -12 -13 -12
l-120 1q-12 0 -12 12q5 73 57 116.5t132 43.5q85 0 138 -46zM255.5 116.5q18.5 15.5 18.5 41.5v47q0 5 -5 5h-41q-27 0 -43.5 -15.5t-16.5 -42.5q0 -25 12.5 -38t33.5 -13q23 0 41.5 15.5zM158 580q-3 4 1 10l59 102q4 8 15 8h93q10 0 10 -7q0 -3 -3 -8l-77 -102
q-6 -7 -14 -7h-74q-7 0 -10 4z" />
    <glyph glyph-name="acircumflex" unicode="&#xe2;" horiz-adv-x="445" 
d="M362 476q53 -46 53 -121v-343q0 -5 -3.5 -8.5t-8.5 -3.5h-117q-5 0 -8.5 3.5t-3.5 8.5v22q0 3 -2 4t-4 -2q-33 -42 -102 -44q-58 0 -100.5 32t-42.5 122q0 93 51.5 128t148.5 35h46q5 0 5 5v25q0 27 -14.5 44.5t-36.5 17.5q-17 0 -28.5 -10.5t-14.5 -29.5q-1 -12 -13 -12
l-120 1q-12 0 -12 12q5 73 57 116.5t132 43.5q85 0 138 -46zM255.5 116.5q18.5 15.5 18.5 41.5v47q0 5 -5 5h-41q-27 0 -43.5 -15.5t-16.5 -42.5q0 -25 12.5 -38t33.5 -13q23 0 41.5 15.5zM77.5 577.5q-2.5 3.5 1.5 10.5l63 104q4 8 14 8h129q9 0 14 -8l66 -104q2 -6 2 -7
q0 -7 -10 -7h-88q-10 0 -14 9l-30 56q-3 5 -6 0l-30 -56q-5 -9 -15 -9h-87q-7 0 -9.5 3.5z" />
    <glyph glyph-name="atilde" unicode="&#xe3;" horiz-adv-x="445" 
d="M362 476q53 -46 53 -121v-343q0 -5 -3.5 -8.5t-8.5 -3.5h-117q-5 0 -8.5 3.5t-3.5 8.5v22q0 3 -2 4t-4 -2q-33 -42 -102 -44q-58 0 -100.5 32t-42.5 122q0 93 51.5 128t148.5 35h46q5 0 5 5v25q0 27 -14.5 44.5t-36.5 17.5q-17 0 -28.5 -10.5t-14.5 -29.5q-1 -12 -13 -12
l-120 1q-12 0 -12 12q5 73 57 116.5t132 43.5q85 0 138 -46zM255.5 116.5q18.5 15.5 18.5 41.5v47q0 5 -5 5h-41q-27 0 -43.5 -15.5t-16.5 -42.5q0 -25 12.5 -38t33.5 -13q23 0 41.5 15.5zM236 604q-9 4 -20.5 11t-21.5 7q-22 0 -36 -22q-7 -10 -17 -4l-42 30q-8 6 -5 16
q13 35 36.5 52t51.5 17q30 0 64 -23q2 -2 10 -7t15.5 -8t15.5 -3q23 0 36 20q7 12 17 5l40 -28q5 -3 5 -9t-5 -14q-17 -30 -41.5 -44t-48.5 -14q-21 0 -54 18z" />
    <glyph glyph-name="adieresis" unicode="&#xe4;" horiz-adv-x="445" 
d="M362 476q53 -46 53 -121v-343q0 -5 -3.5 -8.5t-8.5 -3.5h-117q-5 0 -8.5 3.5t-3.5 8.5v22q0 3 -2 4t-4 -2q-33 -42 -102 -44q-58 0 -100.5 32t-42.5 122q0 93 51.5 128t148.5 35h46q5 0 5 5v25q0 27 -14.5 44.5t-36.5 17.5q-17 0 -28.5 -10.5t-14.5 -29.5q-1 -12 -13 -12
l-120 1q-12 0 -12 12q5 73 57 116.5t132 43.5q85 0 138 -46zM255.5 116.5q18.5 15.5 18.5 41.5v47q0 5 -5 5h-41q-27 0 -43.5 -15.5t-16.5 -42.5q0 -25 12.5 -38t33.5 -13q23 0 41.5 15.5zM257.5 594.5q-22.5 22.5 -22.5 56.5q0 35 22 57t57 22t57 -22t22 -57
q0 -34 -22.5 -56.5t-56.5 -22.5t-56.5 22.5zM73.5 594.5q-22.5 22.5 -22.5 56.5q0 35 22 57t57 22t57 -22t22 -57q0 -34 -22.5 -56.5t-56.5 -22.5t-56.5 22.5z" />
    <glyph glyph-name="aring" unicode="&#xe5;" horiz-adv-x="445" 
d="M362 476q53 -46 53 -121v-343q0 -5 -3.5 -8.5t-8.5 -3.5h-117q-5 0 -8.5 3.5t-3.5 8.5v22q0 3 -2 4t-4 -2q-33 -42 -102 -44q-58 0 -100.5 32t-42.5 122q0 93 51.5 128t148.5 35h46q5 0 5 5v25q0 27 -14.5 44.5t-36.5 17.5q-17 0 -28.5 -10.5t-14.5 -29.5q-1 -12 -13 -12
l-120 1q-12 0 -12 12q5 73 57 116.5t132 43.5q85 0 138 -46zM255.5 116.5q18.5 15.5 18.5 41.5v47q0 5 -5 5h-41q-27 0 -43.5 -15.5t-16.5 -42.5q0 -25 12.5 -38t33.5 -13q23 0 41.5 15.5zM135.5 598.5q-35.5 35.5 -35.5 88.5t35.5 88.5t87.5 35.5t88 -35.5t36 -88.5
q0 -52 -36 -88t-88 -36t-87.5 35.5zM258 651.5q15 14.5 15 35.5q0 22 -15 36.5t-35 14.5t-34.5 -14.5t-14.5 -36.5q0 -21 14.5 -35.5t34.5 -14.5t35 14.5z" />
    <glyph glyph-name="ae" unicode="&#xe6;" horiz-adv-x="686" 
d="M68 23q-45 31 -45 123q0 90 49 122.5t145 32.5h51q5 0 5 5v33q0 28 -13.5 45t-37.5 17q-18 0 -32 -10.5t-18 -28.5q-2 -11 -12 -11l-118 3q-12 0 -12 12q4 72 57 114t131 42q38 0 66.5 -12t53.5 -36q4 -4 8 0q48 48 129 48q83 0 133.5 -46.5t50.5 -121.5v-135
q0 -5 -3.5 -8.5t-8.5 -3.5h-220q-5 0 -5 -5v-31q0 -24 13.5 -39t34.5 -15q17 0 29.5 11t17.5 26q5 11 14 10l114 -10q12 -2 11 -13q-7 -71 -52 -110t-123 -39q-52 0 -89.5 18t-47.5 41q-1 1 -1.5 2.5t-1.5 0.5q-10 -25 -56 -43.5t-108 -18.5q-64 0 -109 31zM427 301h86
q5 0 5 5v38q0 25 -13.5 41t-34.5 16q-22 0 -35 -15.5t-13 -41.5v-38q0 -5 5 -5zM255 111q18 14 18 38v52q0 5 -5 5h-41q-28 0 -44 -15t-16 -42q0 -26 13 -39t34 -13q23 0 41 14z" />
    <glyph glyph-name="ccedilla" unicode="&#xe7;" horiz-adv-x="434" 
d="M405.5 333.5q-3.5 -3.5 -8.5 -3.5l-117 -5q-12 0 -12 12v12q0 22 -13.5 37t-34.5 15q-22 0 -35 -16t-13 -42v-172q0 -26 13 -42t35 -16q21 0 34.5 15.5t13.5 36.5v13q0 5 3.5 8.5t8.5 3.5l117 -1q5 0 8.5 -3.5t3.5 -8.5v-23q0 -62 -35.5 -103.5t-100.5 -54.5q-6 -2 -2 -6
q35 -41 35 -87q0 -14 -3 -26q-8 -34 -31.5 -48t-54.5 -14q-26 0 -47 7q-10 3 -9 14l6 46q1 11 14 9q12 -2 21 4.5t13 20.5q6 32 -40 78l-5 3q-66 12 -102.5 54.5t-36.5 108.5v194q0 76 50.5 122t138.5 46t138.5 -45t50.5 -117v-18q0 -5 -3.5 -8.5z" />
    <glyph glyph-name="egrave" unicode="&#xe8;" horiz-adv-x="436" 
d="M405.5 216.5q-3.5 -3.5 -8.5 -3.5h-220q-5 0 -5 -5v-37q0 -25 13.5 -41.5t34.5 -16.5q19 0 31 12.5t16 31.5q3 10 13 10l115 -6q5 0 8.5 -3.5t2.5 -9.5q-7 -77 -53.5 -116.5t-132.5 -39.5q-89 0 -139 44.5t-50 123.5v194q0 76 50.5 122t138.5 46t138.5 -46t50.5 -122
v-129q0 -5 -3.5 -8.5zM185.5 385q-13.5 -16 -13.5 -41v-39q0 -5 5 -5h86q5 0 5 5v39q0 25 -13.5 41t-34.5 16t-34.5 -16zM264 584q0 -8 -11 -8h-75q-8 0 -14 7l-76 102q-3 5 -3 8q0 7 10 7h93q10 0 14 -8l60 -102z" />
    <glyph glyph-name="eacute" unicode="&#xe9;" horiz-adv-x="436" 
d="M405.5 216.5q-3.5 -3.5 -8.5 -3.5h-220q-5 0 -5 -5v-37q0 -25 13.5 -41.5t34.5 -16.5q19 0 31 12.5t16 31.5q3 10 13 10l115 -6q5 0 8.5 -3.5t2.5 -9.5q-7 -77 -53.5 -116.5t-132.5 -39.5q-89 0 -139 44.5t-50 123.5v194q0 76 50.5 122t138.5 46t138.5 -46t50.5 -122
v-129q0 -5 -3.5 -8.5zM185.5 385q-13.5 -16 -13.5 -41v-39q0 -5 5 -5h86q5 0 5 5v39q0 25 -13.5 41t-34.5 16t-34.5 -16zM154 580q-3 4 1 10l59 102q4 8 15 8h93q10 0 10 -7q0 -3 -3 -8l-77 -102q-6 -7 -14 -7h-74q-7 0 -10 4z" />
    <glyph glyph-name="ecircumflex" unicode="&#xea;" horiz-adv-x="436" 
d="M405.5 216.5q-3.5 -3.5 -8.5 -3.5h-220q-5 0 -5 -5v-37q0 -25 13.5 -41.5t34.5 -16.5q19 0 31 12.5t16 31.5q3 10 13 10l115 -6q5 0 8.5 -3.5t2.5 -9.5q-7 -77 -53.5 -116.5t-132.5 -39.5q-89 0 -139 44.5t-50 123.5v194q0 76 50.5 122t138.5 46t138.5 -46t50.5 -122
v-129q0 -5 -3.5 -8.5zM185.5 385q-13.5 -16 -13.5 -41v-39q0 -5 5 -5h86q5 0 5 5v39q0 25 -13.5 41t-34.5 16t-34.5 -16zM73.5 577.5q-2.5 3.5 1.5 10.5l63 104q4 8 14 8h129q9 0 14 -8l66 -104q2 -6 2 -7q0 -7 -10 -7h-88q-10 0 -14 9l-30 56q-3 5 -6 0l-30 -56
q-5 -9 -15 -9h-87q-7 0 -9.5 3.5z" />
    <glyph glyph-name="edieresis" unicode="&#xeb;" horiz-adv-x="436" 
d="M405.5 216.5q-3.5 -3.5 -8.5 -3.5h-220q-5 0 -5 -5v-37q0 -25 13.5 -41.5t34.5 -16.5q19 0 31 12.5t16 31.5q3 10 13 10l115 -6q5 0 8.5 -3.5t2.5 -9.5q-7 -77 -53.5 -116.5t-132.5 -39.5q-89 0 -139 44.5t-50 123.5v194q0 76 50.5 122t138.5 46t138.5 -46t50.5 -122
v-129q0 -5 -3.5 -8.5zM185.5 385q-13.5 -16 -13.5 -41v-39q0 -5 5 -5h86q5 0 5 5v39q0 25 -13.5 41t-34.5 16t-34.5 -16zM253.5 594.5q-22.5 22.5 -22.5 56.5q0 35 22 57t57 22t57 -22t22 -57q0 -34 -22.5 -56.5t-56.5 -22.5t-56.5 22.5zM69.5 594.5q-22.5 22.5 -22.5 56.5
q0 35 22 57t57 22t57 -22t22 -57q0 -34 -22.5 -56.5t-56.5 -22.5t-56.5 22.5z" />
    <glyph glyph-name="igrave" unicode="&#xec;" horiz-adv-x="190" 
d="M27.5 3.5q-3.5 3.5 -3.5 8.5v490q0 5 3.5 8.5t8.5 3.5h117q5 0 8.5 -3.5t3.5 -8.5v-490q0 -5 -3.5 -8.5t-8.5 -3.5h-117q-5 0 -8.5 3.5zM141 584q0 -8 -11 -8h-75q-8 0 -14 7l-76 102q-3 5 -3 8q0 7 10 7h93q10 0 14 -8l60 -102z" />
    <glyph glyph-name="iacute" unicode="&#xed;" horiz-adv-x="190" 
d="M27.5 3.5q-3.5 3.5 -3.5 8.5v490q0 5 3.5 8.5t8.5 3.5h117q5 0 8.5 -3.5t3.5 -8.5v-490q0 -5 -3.5 -8.5t-8.5 -3.5h-117q-5 0 -8.5 3.5zM30 580q-3 4 1 10l59 102q4 8 15 8h93q10 0 10 -7q0 -3 -3 -8l-77 -102q-6 -7 -14 -7h-74q-7 0 -10 4z" />
    <glyph glyph-name="icircumflex" unicode="&#xee;" horiz-adv-x="190" 
d="M27.5 3.5q-3.5 3.5 -3.5 8.5v490q0 5 3.5 8.5t8.5 3.5h117q5 0 8.5 -3.5t3.5 -8.5v-490q0 -5 -3.5 -8.5t-8.5 -3.5h-117q-5 0 -8.5 3.5zM-50.5 577.5q-2.5 3.5 1.5 10.5l63 104q4 8 14 8h129q9 0 14 -8l66 -104q2 -6 2 -7q0 -7 -10 -7h-88q-10 0 -14 9l-30 56q-3 5 -6 0
l-30 -56q-5 -9 -15 -9h-87q-7 0 -9.5 3.5z" />
    <glyph glyph-name="idieresis" unicode="&#xef;" horiz-adv-x="190" 
d="M27.5 3.5q-3.5 3.5 -3.5 8.5v490q0 5 3.5 8.5t8.5 3.5h117q5 0 8.5 -3.5t3.5 -8.5v-490q0 -5 -3.5 -8.5t-8.5 -3.5h-117q-5 0 -8.5 3.5zM129.5 594.5q-22.5 22.5 -22.5 56.5q0 35 22 57t57 22t57 -22t22 -57q0 -34 -22.5 -56.5t-56.5 -22.5t-56.5 22.5zM-54.5 594.5
q-22.5 22.5 -22.5 56.5q0 35 22 57t57 22t57 -22t22 -57q0 -34 -22.5 -56.5t-56.5 -22.5t-56.5 22.5z" />
    <glyph glyph-name="eth" unicode="&#xf0;" horiz-adv-x="449" 
d="M415 606q0 -8 -9 -11l-54 -14q-6 -2 -3 -6q31 -59 46.5 -119t16.5 -130v-166q0 -78 -50.5 -123t-140.5 -45q-89 0 -139.5 45t-50.5 123v166q0 49 22 87t60 59.5t84 21.5q39 0 58 -17q4 -3 3 2q-10 33 -28 68q-2 5 -6 3l-76 -19l-4 -1q-8 0 -11 10l-9 35l-1 4q0 8 10 11
l57 15q6 2 3 6q-24 39 -51 74q-3 5 -3 8q0 7 10 7h110q10 0 14 -7q21 -30 37 -52q1 -2 2.5 -3t3.5 0l75 19l4 1q8 0 11 -10l8 -38zM257 356q-14 16 -36 16t-35.5 -16t-13.5 -41v-144q0 -26 13.5 -42t35.5 -16t36 16.5t14 41.5v144q0 25 -14 41z" />
    <glyph glyph-name="ntilde" unicode="&#xf1;" 
d="M163 601q-6 -12 -16 -4l-39 29q-8 6 -5 16q11 34 33.5 51.5t49.5 17.5q29 0 61 -23q13 -9 21 -13.5t18 -4.5q22 0 34 20q8 11 17 4l37 -27q9 -6 5 -16q-16 -34 -40.5 -49.5t-49.5 -15.5q-13 0 -24.5 4.5t-27.5 13.5q-7 4 -18 11t-22 7q-20 0 -34 -21zM379 477
q34 -45 34 -126v-339q0 -5 -3.5 -8.5t-8.5 -3.5h-117q-5 0 -8.5 3.5t-3.5 8.5v328q0 29 -11.5 45t-33.5 16q-23 0 -35.5 -16.5t-12.5 -46.5v-326q0 -5 -3.5 -8.5t-8.5 -3.5h-117q-5 0 -8.5 3.5t-3.5 8.5v490q0 5 3.5 8.5t8.5 3.5h117q5 0 8.5 -3.5t3.5 -8.5v-19q0 -3 2.5 -3
t6.5 4q32 38 89 38q68 0 102 -45z" />
    <glyph glyph-name="ograve" unicode="&#xf2;" horiz-adv-x="442" 
d="M81.5 37q-50.5 45 -50.5 123v194q0 76 51 122t139 46q89 0 140 -46t51 -122v-194q0 -78 -50.5 -123t-140.5 -45q-89 0 -139.5 45zM257 130q14 16 14 41v173q0 25 -14 41t-36 16t-35.5 -16t-13.5 -41v-173q0 -25 13.5 -41t35.5 -16t36 16zM267 584q0 -8 -11 -8h-75
q-8 0 -14 7l-76 102q-3 5 -3 8q0 7 10 7h93q10 0 14 -8l60 -102z" />
    <glyph glyph-name="oacute" unicode="&#xf3;" horiz-adv-x="442" 
d="M81.5 37q-50.5 45 -50.5 123v194q0 76 51 122t139 46q89 0 140 -46t51 -122v-194q0 -78 -50.5 -123t-140.5 -45q-89 0 -139.5 45zM257 130q14 16 14 41v173q0 25 -14 41t-36 16t-35.5 -16t-13.5 -41v-173q0 -25 13.5 -41t35.5 -16t36 16zM157 580q-3 4 1 10l59 102
q4 8 15 8h93q10 0 10 -7q0 -3 -3 -8l-77 -102q-6 -7 -14 -7h-74q-7 0 -10 4z" />
    <glyph glyph-name="ocircumflex" unicode="&#xf4;" horiz-adv-x="442" 
d="M81.5 37q-50.5 45 -50.5 123v194q0 76 51 122t139 46q89 0 140 -46t51 -122v-194q0 -78 -50.5 -123t-140.5 -45q-89 0 -139.5 45zM257 130q14 16 14 41v173q0 25 -14 41t-36 16t-35.5 -16t-13.5 -41v-173q0 -25 13.5 -41t35.5 -16t36 16zM76.5 577.5q-2.5 3.5 1.5 10.5
l63 104q4 8 14 8h129q9 0 14 -8l66 -104q2 -6 2 -7q0 -7 -10 -7h-88q-10 0 -14 9l-30 56q-3 5 -6 0l-30 -56q-5 -9 -15 -9h-87q-7 0 -9.5 3.5z" />
    <glyph glyph-name="otilde" unicode="&#xf5;" horiz-adv-x="442" 
d="M81.5 37q-50.5 45 -50.5 123v194q0 76 51 122t139 46q89 0 140 -46t51 -122v-194q0 -78 -50.5 -123t-140.5 -45q-89 0 -139.5 45zM257 130q14 16 14 41v173q0 25 -14 41t-36 16t-35.5 -16t-13.5 -41v-173q0 -25 13.5 -41t35.5 -16t36 16zM235 604q-9 4 -20.5 11t-21.5 7
q-22 0 -36 -22q-7 -10 -17 -4l-42 30q-8 6 -5 16q13 35 36.5 52t51.5 17q30 0 64 -23q2 -2 10 -7t15.5 -8t15.5 -3q23 0 36 20q7 12 17 5l40 -28q5 -3 5 -9t-5 -14q-17 -30 -41.5 -44t-48.5 -14q-21 0 -54 18z" />
    <glyph glyph-name="odieresis" unicode="&#xf6;" horiz-adv-x="442" 
d="M81.5 37q-50.5 45 -50.5 123v194q0 76 51 122t139 46q89 0 140 -46t51 -122v-194q0 -78 -50.5 -123t-140.5 -45q-89 0 -139.5 45zM257 130q14 16 14 41v173q0 25 -14 41t-36 16t-35.5 -16t-13.5 -41v-173q0 -25 13.5 -41t35.5 -16t36 16zM256.5 594.5
q-22.5 22.5 -22.5 56.5q0 35 22 57t57 22t57 -22t22 -57q0 -34 -22.5 -56.5t-56.5 -22.5t-56.5 22.5zM72.5 594.5q-22.5 22.5 -22.5 56.5q0 35 22 57t57 22t57 -22t22 -57q0 -34 -22.5 -56.5t-56.5 -22.5t-56.5 22.5z" />
    <glyph glyph-name="divide" unicode="&#xf7;" horiz-adv-x="438" 
d="M171.5 432.5q-20.5 20.5 -20.5 48.5t20.5 48t48.5 20t48 -20t20 -48t-20 -48.5t-48 -20.5t-48.5 20.5zM27.5 261.5q-3.5 3.5 -3.5 8.5v82q0 5 3.5 8.5t8.5 3.5h367q5 0 8.5 -3.5t3.5 -8.5v-82q0 -5 -3.5 -8.5t-8.5 -3.5h-367q-5 0 -8.5 3.5zM171.5 98.5
q-20.5 20.5 -20.5 48.5t20.5 48t48.5 20t48 -20t20 -48t-20 -48.5t-48 -20.5t-48.5 20.5z" />
    <glyph glyph-name="oslash" unicode="&#xf8;" horiz-adv-x="457" 
d="M420 499l-29 -56q-1 -4 0 -6q19 -37 19 -83v-194q0 -78 -50.5 -123t-140.5 -45q-34 0 -68 8q-4 2 -6 -3l-21 -42q-2 -5 -7 -6.5t-10 1.5l-75 46q-10 6 -5 16l26 49q1 4 0 7q-24 39 -24 92v194q0 76 51 122t139 46q40 0 76 -11q5 -2 6 3l22 43q2 5 7 6t10 -2l75 -46
q10 -6 5 -16zM255 385q-14 16 -36 16t-35.5 -16t-13.5 -41v-173q0 -25 13.5 -41t35.5 -16t36 16t14 41v173q0 25 -14 41z" />
    <glyph glyph-name="ugrave" unicode="&#xf9;" 
d="M271.5 510.5q3.5 3.5 8.5 3.5h117q5 0 8.5 -3.5t3.5 -8.5v-490q0 -5 -3.5 -8.5t-8.5 -3.5h-117q-5 0 -8.5 3.5t-3.5 8.5v17q0 3 -2 4t-4 -2q-15 -21 -37.5 -29.5t-52.5 -8.5q-60 0 -99 36.5t-39 112.5v360q0 5 3.5 8.5t8.5 3.5h117q5 0 8.5 -3.5t3.5 -8.5v-329
q0 -29 11.5 -44.5t33.5 -15.5t35 17t13 46v326q0 5 3.5 8.5zM266 584q0 -8 -11 -8h-75q-8 0 -14 7l-76 102q-3 5 -3 8q0 7 10 7h93q10 0 14 -8l60 -102z" />
    <glyph glyph-name="uacute" unicode="&#xfa;" 
d="M271.5 510.5q3.5 3.5 8.5 3.5h117q5 0 8.5 -3.5t3.5 -8.5v-490q0 -5 -3.5 -8.5t-8.5 -3.5h-117q-5 0 -8.5 3.5t-3.5 8.5v17q0 3 -2 4t-4 -2q-15 -21 -37.5 -29.5t-52.5 -8.5q-60 0 -99 36.5t-39 112.5v360q0 5 3.5 8.5t8.5 3.5h117q5 0 8.5 -3.5t3.5 -8.5v-329
q0 -29 11.5 -44.5t33.5 -15.5t35 17t13 46v326q0 5 3.5 8.5zM156 580q-3 4 1 10l59 102q4 8 15 8h93q10 0 10 -7q0 -3 -3 -8l-77 -102q-6 -7 -14 -7h-74q-7 0 -10 4z" />
    <glyph glyph-name="ucircumflex" unicode="&#xfb;" 
d="M271.5 510.5q3.5 3.5 8.5 3.5h117q5 0 8.5 -3.5t3.5 -8.5v-490q0 -5 -3.5 -8.5t-8.5 -3.5h-117q-5 0 -8.5 3.5t-3.5 8.5v17q0 3 -2 4t-4 -2q-15 -21 -37.5 -29.5t-52.5 -8.5q-60 0 -99 36.5t-39 112.5v360q0 5 3.5 8.5t8.5 3.5h117q5 0 8.5 -3.5t3.5 -8.5v-329
q0 -29 11.5 -44.5t33.5 -15.5t35 17t13 46v326q0 5 3.5 8.5zM75.5 577.5q-2.5 3.5 1.5 10.5l63 104q4 8 14 8h129q9 0 14 -8l66 -104q2 -6 2 -7q0 -7 -10 -7h-88q-10 0 -14 9l-30 56q-3 5 -6 0l-30 -56q-5 -9 -15 -9h-87q-7 0 -9.5 3.5z" />
    <glyph glyph-name="udieresis" unicode="&#xfc;" 
d="M271.5 510.5q3.5 3.5 8.5 3.5h117q5 0 8.5 -3.5t3.5 -8.5v-490q0 -5 -3.5 -8.5t-8.5 -3.5h-117q-5 0 -8.5 3.5t-3.5 8.5v17q0 3 -2 4t-4 -2q-15 -21 -37.5 -29.5t-52.5 -8.5q-60 0 -99 36.5t-39 112.5v360q0 5 3.5 8.5t8.5 3.5h117q5 0 8.5 -3.5t3.5 -8.5v-329
q0 -29 11.5 -44.5t33.5 -15.5t35 17t13 46v326q0 5 3.5 8.5zM255.5 594.5q-22.5 22.5 -22.5 56.5q0 35 22 57t57 22t57 -22t22 -57q0 -34 -22.5 -56.5t-56.5 -22.5t-56.5 22.5zM71.5 594.5q-22.5 22.5 -22.5 56.5q0 35 22 57t57 22t57 -22t22 -57q0 -34 -22.5 -56.5
t-56.5 -22.5t-56.5 22.5z" />
    <glyph glyph-name="yacute" unicode="&#xfd;" horiz-adv-x="422" 
d="M34 -195.5q-2 3.5 -2 8.5v92q0 12 9 12q52 1 74 16.5t25 63.5l-1 6l-126 499v4q0 9 11 9h126q12 0 13 -11l46 -297q1 -4 3 -4t3 4l44 297q1 11 13 11l126 -2q14 0 11 -13l-132 -519q-20 -73 -42.5 -109.5t-66 -53.5t-125.5 -17h-5q-2 0 -4 3.5zM146 580q-3 4 1 10l59 102
q4 8 15 8h93q10 0 10 -7q0 -3 -3 -8l-77 -102q-6 -7 -14 -7h-74q-7 0 -10 4z" />
    <glyph glyph-name="thorn" unicode="&#xfe;" horiz-adv-x="442" 
d="M377.5 478.5q34.5 -43.5 34.5 -124.5v-194q0 -79 -34 -123.5t-103 -44.5q-64 0 -94 51q-2 3 -4 2.5t-2 -4.5v-229q0 -5 -3.5 -8.5t-8.5 -3.5h-117q-5 0 -8.5 3.5t-3.5 8.5v876q0 5 3.5 8.5t8.5 3.5h117q5 0 8.5 -3.5t3.5 -8.5v-217q0 -2 2 -2q3 0 7 7q31 46 91 46
q68 0 102.5 -43.5zM258 385q-13 16 -35 16q-21 0 -34 -16t-13 -42v-172q0 -26 13 -42t34 -16q22 0 35 16t13 42v172q0 26 -13 42z" />
    <glyph glyph-name="ydieresis" unicode="&#xff;" horiz-adv-x="422" 
d="M34 -195.5q-2 3.5 -2 8.5v92q0 12 9 12q52 1 74 16.5t25 63.5l-1 6l-126 499v4q0 9 11 9h126q12 0 13 -11l46 -297q1 -4 3 -4t3 4l44 297q1 11 13 11l126 -2q14 0 11 -13l-132 -519q-20 -73 -42.5 -109.5t-66 -53.5t-125.5 -17h-5q-2 0 -4 3.5zM245.5 594.5
q-22.5 22.5 -22.5 56.5q0 35 22 57t57 22t57 -22t22 -57q0 -34 -22.5 -56.5t-56.5 -22.5t-56.5 22.5zM61.5 594.5q-22.5 22.5 -22.5 56.5q0 35 22 57t57 22t57 -22t22 -57q0 -34 -22.5 -56.5t-56.5 -22.5t-56.5 22.5z" />
    <glyph glyph-name="Amacron" unicode="&#x100;" horiz-adv-x="482" 
d="M325 11l-16 96q0 5 -6 5h-127q-6 0 -6 -5l-16 -96q-1 -11 -13 -11h-117q-13 0 -10 13l147 676q2 11 13 11h135q11 0 13 -11l146 -676l1 -4q0 -9 -11 -9h-120q-12 0 -13 11zM194 221h90q5 0 4 5l-47 273q-1 3 -3 3t-3 -3l-45 -273q0 -5 4 -5zM130.5 770.5
q-3.5 3.5 -3.5 8.5v72q0 5 3.5 8.5t8.5 3.5h196q5 0 8.5 -3.5t3.5 -8.5v-72q0 -5 -3.5 -8.5t-8.5 -3.5h-196q-5 0 -8.5 3.5z" />
    <glyph glyph-name="amacron" unicode="&#x101;" horiz-adv-x="445" 
d="M362 476q53 -46 53 -121v-343q0 -5 -3.5 -8.5t-8.5 -3.5h-117q-5 0 -8.5 3.5t-3.5 8.5v22q0 3 -2 4t-4 -2q-33 -42 -102 -44q-58 0 -100.5 32t-42.5 122q0 93 51.5 128t148.5 35h46q5 0 5 5v25q0 27 -14.5 44.5t-36.5 17.5q-17 0 -28.5 -10.5t-14.5 -29.5q-1 -12 -13 -12
l-120 1q-12 0 -12 12q5 73 57 116.5t132 43.5q85 0 138 -46zM255.5 116.5q18.5 15.5 18.5 41.5v47q0 5 -5 5h-41q-27 0 -43.5 -15.5t-16.5 -42.5q0 -25 12.5 -38t33.5 -13q23 0 41.5 15.5zM112.5 584.5q-3.5 3.5 -3.5 8.5v72q0 5 3.5 8.5t8.5 3.5h196q5 0 8.5 -3.5t3.5 -8.5
v-72q0 -5 -3.5 -8.5t-8.5 -3.5h-196q-5 0 -8.5 3.5z" />
    <glyph glyph-name="Abreve" unicode="&#x102;" horiz-adv-x="482" 
d="M325 11l-16 96q0 5 -6 5h-127q-6 0 -6 -5l-16 -96q-1 -11 -13 -11h-117q-13 0 -10 13l147 676q2 11 13 11h135q11 0 13 -11l146 -676l1 -4q0 -9 -11 -9h-120q-12 0 -13 11zM194 221h90q5 0 4 5l-47 273q-1 3 -3 3t-3 -3l-45 -273q0 -5 4 -5zM158.5 764q-32.5 29 -36.5 77
v2q0 10 11 10h50q12 0 13 -12q3 -20 15 -32t30 -12t30.5 12t15.5 32q2 12 13 12h50q12 0 12 -12q-5 -48 -37.5 -77t-83.5 -29q-50 0 -82.5 29z" />
    <glyph glyph-name="abreve" unicode="&#x103;" horiz-adv-x="445" 
d="M362 476q53 -46 53 -121v-343q0 -5 -3.5 -8.5t-8.5 -3.5h-117q-5 0 -8.5 3.5t-3.5 8.5v22q0 3 -2 4t-4 -2q-33 -42 -102 -44q-58 0 -100.5 32t-42.5 122q0 93 51.5 128t148.5 35h46q5 0 5 5v25q0 27 -14.5 44.5t-36.5 17.5q-17 0 -28.5 -10.5t-14.5 -29.5q-1 -12 -13 -12
l-120 1q-12 0 -12 12q5 73 57 116.5t132 43.5q85 0 138 -46zM255.5 116.5q18.5 15.5 18.5 41.5v47q0 5 -5 5h-41q-27 0 -43.5 -15.5t-16.5 -42.5q0 -25 12.5 -38t33.5 -13q23 0 41.5 15.5zM139.5 578q-32.5 29 -36.5 77v2q0 10 11 10h50q12 0 13 -12q3 -20 15 -32t30 -12
t30.5 12t15.5 32q2 12 13 12h50q12 0 12 -12q-5 -48 -37.5 -77t-83.5 -29q-50 0 -82.5 29z" />
    <glyph glyph-name="Aogonek" unicode="&#x104;" horiz-adv-x="482" 
d="M325 11l-16 96q0 5 -6 5h-127q-6 0 -6 -5l-16 -96q-1 -11 -13 -11h-117q-13 0 -10 13l147 676q2 11 13 11h135q11 0 13 -11l146 -676l1 -4q0 -9 -11 -9h-120q-12 0 -13 11zM194 221h90q5 0 4 5l-47 273q-1 3 -3 3t-3 -3l-45 -273q0 -5 4 -5zM470 -174q0 -7 -8 -10
q-28 -7 -48 -7q-38 0 -63.5 20t-25.5 68q0 52 46 97q6 6 15 6h63q10 0 10 -6q0 -4 -5 -9q-38 -36 -38 -67q0 -18 10 -26t24 -6h3q10 0 11 -10l6 -46v-4z" />
    <glyph glyph-name="aogonek" unicode="&#x105;" horiz-adv-x="445" 
d="M407 -6q-48 -42 -48 -76q0 -18 10 -26t25 -6h3q10 0 11 -10l6 -46v-3q0 -8 -9 -11q-28 -7 -47 -7q-38 0 -63.5 20t-25.5 68q0 51 45 97q2 2 1 4t-4 2h-25q-5 0 -8.5 3.5t-3.5 8.5v22q0 3 -2 4t-4 -2q-33 -42 -102 -44q-58 0 -100.5 32t-42.5 122q0 93 51.5 128t148.5 35
h46q5 0 5 5v25q0 27 -14.5 44.5t-36.5 17.5q-17 0 -28.5 -10.5t-14.5 -29.5q-1 -12 -13 -12l-120 1q-12 0 -12 12q5 73 57 116.5t132 43.5q85 0 138 -46t53 -121v-355zM255.5 116.5q18.5 15.5 18.5 41.5v47q0 5 -5 5h-41q-27 0 -43.5 -15.5t-16.5 -42.5q0 -25 12.5 -38
t33.5 -13q23 0 41.5 15.5z" />
    <glyph glyph-name="Cacute" unicode="&#x106;" horiz-adv-x="464" 
d="M88.5 45.5q-54.5 53.5 -54.5 143.5v324q0 89 54.5 142t144.5 53q91 0 145.5 -53t54.5 -142v-11q0 -5 -3.5 -8.5t-8.5 -3.5l-117 -5q-12 0 -12 11v26q0 29 -16 47t-43 18q-26 0 -42 -18t-16 -47v-345q0 -29 16 -46.5t42 -17.5q27 0 43 17.5t16 46.5v27q0 5 3.5 8.5
t8.5 3.5l117 -5q5 0 8.5 -3.5t3.5 -8.5v-10q0 -90 -55 -143.5t-145 -53.5t-144.5 53.5zM169 766q-3 4 1 10l59 102q4 8 15 8h93q10 0 10 -7q0 -3 -3 -8l-77 -102q-6 -7 -14 -7h-74q-7 0 -10 4z" />
    <glyph glyph-name="cacute" unicode="&#x107;" horiz-adv-x="434" 
d="M81.5 37q-50.5 45 -50.5 123v194q0 76 50.5 122t138.5 46t138.5 -45t50.5 -117v-18q0 -5 -3.5 -8.5t-8.5 -3.5l-117 -5q-12 0 -12 12v12q0 22 -13.5 37t-34.5 15q-22 0 -35 -16t-13 -42v-172q0 -26 13 -42t35 -16q21 0 34.5 15.5t13.5 36.5v13q0 5 3.5 8.5t8.5 3.5
l117 -1q5 0 8.5 -3.5t3.5 -8.5v-23q0 -74 -50.5 -118t-138.5 -44t-138.5 45zM155 580q-3 4 1 10l59 102q4 8 15 8h93q10 0 10 -7q0 -3 -3 -8l-77 -102q-6 -7 -14 -7h-74q-7 0 -10 4z" />
    <glyph glyph-name="Ccircumflex" unicode="&#x108;" horiz-adv-x="464" 
d="M88.5 45.5q-54.5 53.5 -54.5 143.5v324q0 89 54.5 142t144.5 53q91 0 145.5 -53t54.5 -142v-11q0 -5 -3.5 -8.5t-8.5 -3.5l-117 -5q-12 0 -12 11v26q0 29 -16 47t-43 18q-26 0 -42 -18t-16 -47v-345q0 -29 16 -46.5t42 -17.5q27 0 43 17.5t16 46.5v27q0 5 3.5 8.5
t8.5 3.5l117 -5q5 0 8.5 -3.5t3.5 -8.5v-10q0 -90 -55 -143.5t-145 -53.5t-144.5 53.5zM88.5 763.5q-2.5 3.5 1.5 10.5l63 104q4 8 14 8h129q9 0 14 -8l66 -104q2 -6 2 -7q0 -7 -10 -7h-88q-10 0 -14 9l-30 56q-3 5 -6 0l-30 -56q-5 -9 -15 -9h-87q-7 0 -9.5 3.5z" />
    <glyph glyph-name="ccircumflex" unicode="&#x109;" horiz-adv-x="434" 
d="M81.5 37q-50.5 45 -50.5 123v194q0 76 50.5 122t138.5 46t138.5 -45t50.5 -117v-18q0 -5 -3.5 -8.5t-8.5 -3.5l-117 -5q-12 0 -12 12v12q0 22 -13.5 37t-34.5 15q-22 0 -35 -16t-13 -42v-172q0 -26 13 -42t35 -16q21 0 34.5 15.5t13.5 36.5v13q0 5 3.5 8.5t8.5 3.5
l117 -1q5 0 8.5 -3.5t3.5 -8.5v-23q0 -74 -50.5 -118t-138.5 -44t-138.5 45zM74.5 577.5q-2.5 3.5 1.5 10.5l63 104q4 8 14 8h129q9 0 14 -8l66 -104q2 -6 2 -7q0 -7 -10 -7h-88q-10 0 -14 9l-30 56q-3 5 -6 0l-30 -56q-5 -9 -15 -9h-87q-7 0 -9.5 3.5z" />
    <glyph glyph-name="Cdotaccent" unicode="&#x10a;" horiz-adv-x="464" 
d="M88.5 45.5q-54.5 53.5 -54.5 143.5v324q0 89 54.5 142t144.5 53q91 0 145.5 -53t54.5 -142v-11q0 -5 -3.5 -8.5t-8.5 -3.5l-117 -5q-12 0 -12 11v26q0 29 -16 47t-43 18q-26 0 -42 -18t-16 -47v-345q0 -29 16 -46.5t42 -17.5q27 0 43 17.5t16 46.5v27q0 5 3.5 8.5
t8.5 3.5l117 -5q5 0 8.5 -3.5t3.5 -8.5v-10q0 -90 -55 -143.5t-145 -53.5t-144.5 53.5zM177.5 780.5q-22.5 22.5 -22.5 56.5q0 35 22 57t57 22t57 -22t22 -57q0 -34 -22.5 -56.5t-56.5 -22.5t-56.5 22.5z" />
    <glyph glyph-name="cdotaccent" unicode="&#x10b;" horiz-adv-x="434" 
d="M81.5 37q-50.5 45 -50.5 123v194q0 76 50.5 122t138.5 46t138.5 -45t50.5 -117v-18q0 -5 -3.5 -8.5t-8.5 -3.5l-117 -5q-12 0 -12 12v12q0 22 -13.5 37t-34.5 15q-22 0 -35 -16t-13 -42v-172q0 -26 13 -42t35 -16q21 0 34.5 15.5t13.5 36.5v13q0 5 3.5 8.5t8.5 3.5
l117 -1q5 0 8.5 -3.5t3.5 -8.5v-23q0 -74 -50.5 -118t-138.5 -44t-138.5 45zM163.5 594.5q-22.5 22.5 -22.5 56.5q0 35 22 57t57 22t57 -22t22 -57q0 -34 -22.5 -56.5t-56.5 -22.5t-56.5 22.5z" />
    <glyph glyph-name="Ccaron" unicode="&#x10c;" horiz-adv-x="464" 
d="M88.5 45.5q-54.5 53.5 -54.5 143.5v324q0 89 54.5 142t144.5 53q91 0 145.5 -53t54.5 -142v-11q0 -5 -3.5 -8.5t-8.5 -3.5l-117 -5q-12 0 -12 11v26q0 29 -16 47t-43 18q-26 0 -42 -18t-16 -47v-345q0 -29 16 -46.5t42 -17.5q27 0 43 17.5t16 46.5v27q0 5 3.5 8.5
t8.5 3.5l117 -5q5 0 8.5 -3.5t3.5 -8.5v-10q0 -90 -55 -143.5t-145 -53.5t-144.5 53.5zM93 879q0 7 10 7h87q11 0 15 -9l30 -56q3 -4 6 0l30 56q5 9 14 9h88q7 0 9.5 -3.5t-1.5 -10.5l-66 -104q-5 -8 -14 -8h-129q-10 0 -14 8l-63 104q-2 6 -2 7z" />
    <glyph glyph-name="ccaron" unicode="&#x10d;" horiz-adv-x="434" 
d="M81.5 37q-50.5 45 -50.5 123v194q0 76 50.5 122t138.5 46t138.5 -45t50.5 -117v-18q0 -5 -3.5 -8.5t-8.5 -3.5l-117 -5q-12 0 -12 12v12q0 22 -13.5 37t-34.5 15q-22 0 -35 -16t-13 -42v-172q0 -26 13 -42t35 -16q21 0 34.5 15.5t13.5 36.5v13q0 5 3.5 8.5t8.5 3.5
l117 -1q5 0 8.5 -3.5t3.5 -8.5v-23q0 -74 -50.5 -118t-138.5 -44t-138.5 45zM79 693q0 7 10 7h87q11 0 15 -9l30 -56q3 -4 6 0l30 56q5 9 14 9h88q7 0 9.5 -3.5t-1.5 -10.5l-66 -104q-5 -8 -14 -8h-129q-10 0 -14 8l-63 104q-2 6 -2 7z" />
    <glyph glyph-name="Dcaron" unicode="&#x10e;" horiz-adv-x="476" 
d="M47.5 3.5q-3.5 3.5 -3.5 8.5v676q0 5 3.5 8.5t8.5 3.5h181q91 0 146 -53t55 -141v-312q0 -88 -55 -141t-146 -53h-181q-5 0 -8.5 3.5zM190 121l45 1q27 1 44 23t18 58v294q0 38 -17 60t-46 22h-44q-5 0 -5 -5v-448q0 -5 5 -5zM90 878q0 7 10 7h87q11 0 15 -9l30 -56
q3 -4 6 0l30 56q5 9 14 9h88q7 0 9.5 -3.5t-1.5 -10.5l-66 -104q-5 -8 -14 -8h-129q-10 0 -14 8l-63 104q-2 6 -2 7z" />
    <glyph glyph-name="dcaron" unicode="&#x10f;" horiz-adv-x="445" 
d="M269.5 696.5q3.5 3.5 8.5 3.5h117q5 0 8.5 -3.5t3.5 -8.5v-676q0 -5 -3.5 -8.5t-8.5 -3.5h-117q-5 0 -8.5 3.5t-3.5 8.5v16q0 3 -2 3.5t-4 -1.5q-34 -38 -90 -38q-69 0 -104 44.5t-35 123.5v194q0 81 35.5 124.5t103.5 43.5q22 0 46 -8.5t44 -30.5q2 -2 4 -1.5t2 3.5v203
q0 5 3.5 8.5zM250 125q13 12 16 32v200q-3 20 -16 32t-31 12q-21 0 -34 -16t-13 -41v-174q0 -25 13 -41t34 -16q18 0 31 12zM448 580q-3 4 1 10l59 102q4 8 15 8h93q10 0 10 -7q0 -3 -3 -8l-77 -102q-6 -7 -14 -7h-74q-7 0 -10 4z" />
    <glyph glyph-name="Dcroat" unicode="&#x110;" horiz-adv-x="506" 
d="M414 647q55 -53 55 -141v-312q0 -88 -55 -141t-146 -53h-181q-5 0 -8.5 3.5t-3.5 8.5v309q0 5 -5 5h-14q-5 0 -8.5 3.5t-3.5 8.5v57q0 5 3.5 8.5t8.5 3.5h14q5 0 5 5v276q0 5 3.5 8.5t8.5 3.5h181q91 0 146 -53zM328 497q0 37 -17.5 59.5t-46.5 22.5h-43q-5 0 -5 -5v-162
q0 -5 5 -5h37q5 0 8.5 -3.5t3.5 -8.5v-57q0 -5 -3.5 -8.5t-8.5 -3.5h-37q-5 0 -5 -5v-195q0 -5 5 -5l44 1q27 1 44.5 22.5t18.5 58.5v294z" />
    <glyph glyph-name="dcroat" unicode="&#x111;" horiz-adv-x="445" 
d="M444.5 636.5q3.5 -3.5 3.5 -8.5v-61q0 -5 -3.5 -8.5t-8.5 -3.5h-24q-5 0 -5 -5v-538q0 -5 -3.5 -8.5t-8.5 -3.5h-117q-5 0 -8.5 3.5t-3.5 8.5v16q0 3 -2 3.5t-4 -1.5q-34 -38 -90 -38q-69 0 -104 44.5t-35 123.5v194q0 81 35.5 124.5t103.5 43.5q22 0 46 -8.5t44 -30.5
q2 -2 4 -1.5t2 3.5v65q0 5 -5 5h-87q-5 0 -8.5 3.5t-3.5 8.5v61q0 5 3.5 8.5t8.5 3.5h87q5 0 5 5v43q0 5 3.5 8.5t8.5 3.5h117q5 0 8.5 -3.5t3.5 -8.5v-43q0 -5 5 -5h24q5 0 8.5 -3.5zM250 125q13 12 16 32v200q-3 20 -16 32t-31 12q-21 0 -34 -16t-13 -41v-174
q0 -25 13 -41t34 -16q18 0 31 12z" />
    <glyph glyph-name="Emacron" unicode="&#x112;" horiz-adv-x="438" 
d="M407.5 582.5q-3.5 -3.5 -8.5 -3.5h-209q-5 0 -5 -5v-158q0 -5 5 -5h120q5 0 8.5 -3.5t3.5 -8.5v-97q0 -5 -3.5 -8.5t-8.5 -3.5h-120q-5 0 -5 -5v-159q0 -5 5 -5h209q5 0 8.5 -3.5t3.5 -8.5v-97q0 -5 -3.5 -8.5t-8.5 -3.5h-343q-5 0 -8.5 3.5t-3.5 8.5v676q0 5 3.5 8.5
t8.5 3.5h343q5 0 8.5 -3.5t3.5 -8.5v-97q0 -5 -3.5 -8.5zM117.5 770.5q-3.5 3.5 -3.5 8.5v72q0 5 3.5 8.5t8.5 3.5h196q5 0 8.5 -3.5t3.5 -8.5v-72q0 -5 -3.5 -8.5t-8.5 -3.5h-196q-5 0 -8.5 3.5z" />
    <glyph glyph-name="emacron" unicode="&#x113;" horiz-adv-x="436" 
d="M405.5 216.5q-3.5 -3.5 -8.5 -3.5h-220q-5 0 -5 -5v-37q0 -25 13.5 -41.5t34.5 -16.5q19 0 31 12.5t16 31.5q3 10 13 10l115 -6q5 0 8.5 -3.5t2.5 -9.5q-7 -77 -53.5 -116.5t-132.5 -39.5q-89 0 -139 44.5t-50 123.5v194q0 76 50.5 122t138.5 46t138.5 -46t50.5 -122
v-129q0 -5 -3.5 -8.5zM185.5 385q-13.5 -16 -13.5 -41v-39q0 -5 5 -5h86q5 0 5 5v39q0 25 -13.5 41t-34.5 16t-34.5 -16zM107.5 596.5q-3.5 3.5 -3.5 8.5v72q0 5 3.5 8.5t8.5 3.5h196q5 0 8.5 -3.5t3.5 -8.5v-72q0 -5 -3.5 -8.5t-8.5 -3.5h-196q-5 0 -8.5 3.5z" />
    <glyph glyph-name="Edotaccent" unicode="&#x116;" horiz-adv-x="438" 
d="M407.5 582.5q-3.5 -3.5 -8.5 -3.5h-209q-5 0 -5 -5v-158q0 -5 5 -5h120q5 0 8.5 -3.5t3.5 -8.5v-97q0 -5 -3.5 -8.5t-8.5 -3.5h-120q-5 0 -5 -5v-159q0 -5 5 -5h209q5 0 8.5 -3.5t3.5 -8.5v-97q0 -5 -3.5 -8.5t-8.5 -3.5h-343q-5 0 -8.5 3.5t-3.5 8.5v676q0 5 3.5 8.5
t8.5 3.5h343q5 0 8.5 -3.5t3.5 -8.5v-97q0 -5 -3.5 -8.5zM172.5 780.5q-22.5 22.5 -22.5 56.5q0 35 22 57t57 22t57 -22t22 -57q0 -34 -22.5 -56.5t-56.5 -22.5t-56.5 22.5z" />
    <glyph glyph-name="edotaccent" unicode="&#x117;" horiz-adv-x="436" 
d="M405.5 216.5q-3.5 -3.5 -8.5 -3.5h-220q-5 0 -5 -5v-37q0 -25 13.5 -41.5t34.5 -16.5q19 0 31 12.5t16 31.5q3 10 13 10l115 -6q5 0 8.5 -3.5t2.5 -9.5q-7 -77 -53.5 -116.5t-132.5 -39.5q-89 0 -139 44.5t-50 123.5v194q0 76 50.5 122t138.5 46t138.5 -46t50.5 -122
v-129q0 -5 -3.5 -8.5zM185.5 385q-13.5 -16 -13.5 -41v-39q0 -5 5 -5h86q5 0 5 5v39q0 25 -13.5 41t-34.5 16t-34.5 -16zM162.5 594.5q-22.5 22.5 -22.5 56.5q0 35 22 57t57 22t57 -22t22 -57q0 -34 -22.5 -56.5t-56.5 -22.5t-56.5 22.5z" />
    <glyph glyph-name="Eogonek" unicode="&#x118;" horiz-adv-x="438" 
d="M407.5 582.5q-3.5 -3.5 -8.5 -3.5h-209q-5 0 -5 -5v-158q0 -5 5 -5h120q5 0 8.5 -3.5t3.5 -8.5v-97q0 -5 -3.5 -8.5t-8.5 -3.5h-120q-5 0 -5 -5v-159q0 -5 5 -5h209q5 0 8.5 -3.5t3.5 -8.5v-97q0 -5 -3.5 -8.5t-8.5 -3.5h-126q-3 0 -7 -2q-41 -41 -41 -70q0 -19 10 -27.5
t24 -6.5h3q10 0 11 -9l6 -46v-4q0 -7 -8 -10q-21 -7 -47 -7q-38 0 -63.5 20t-25.5 68t36 88q2 2 1.5 4t-3.5 2h-113q-5 0 -8.5 3.5t-3.5 8.5v676q0 5 3.5 8.5t8.5 3.5h343q5 0 8.5 -3.5t3.5 -8.5v-97q0 -5 -3.5 -8.5z" />
    <glyph glyph-name="eogonek" unicode="&#x119;" horiz-adv-x="436" 
d="M405.5 216.5q-3.5 -3.5 -8.5 -3.5h-220q-5 0 -5 -5v-37q0 -25 13.5 -41.5t34.5 -16.5q19 0 31 12.5t16 31.5q3 10 13 10l115 -6q5 0 8.5 -3.5t2.5 -9.5q-5 -66 -41 -105.5t-102 -48.5q-2 0 -6 -2q-35 -37 -35 -65q0 -18 10 -26.5t24 -6.5h3q10 0 11 -9l6 -46v-4
q0 -7 -8 -10q-21 -7 -47 -7q-38 0 -63.5 20t-25.5 69q0 45 33 84q4 4 -2 6q-63 14 -97.5 56t-34.5 107v194q0 76 50.5 122t138.5 46t138.5 -46t50.5 -122v-129q0 -5 -3.5 -8.5zM185.5 385q-13.5 -16 -13.5 -41v-39q0 -5 5 -5h86q5 0 5 5v39q0 25 -13.5 41t-34.5 16
t-34.5 -16z" />
    <glyph glyph-name="Ecaron" unicode="&#x11a;" horiz-adv-x="438" 
d="M407.5 582.5q-3.5 -3.5 -8.5 -3.5h-209q-5 0 -5 -5v-158q0 -5 5 -5h120q5 0 8.5 -3.5t3.5 -8.5v-97q0 -5 -3.5 -8.5t-8.5 -3.5h-120q-5 0 -5 -5v-159q0 -5 5 -5h209q5 0 8.5 -3.5t3.5 -8.5v-97q0 -5 -3.5 -8.5t-8.5 -3.5h-343q-5 0 -8.5 3.5t-3.5 8.5v676q0 5 3.5 8.5
t8.5 3.5h343q5 0 8.5 -3.5t3.5 -8.5v-97q0 -5 -3.5 -8.5zM88 879q0 7 10 7h87q11 0 15 -9l30 -56q3 -4 6 0l30 56q5 9 14 9h88q7 0 9.5 -3.5t-1.5 -10.5l-66 -104q-5 -8 -14 -8h-129q-10 0 -14 8l-63 104q-2 6 -2 7z" />
    <glyph glyph-name="ecaron" unicode="&#x11b;" horiz-adv-x="436" 
d="M405.5 216.5q-3.5 -3.5 -8.5 -3.5h-220q-5 0 -5 -5v-37q0 -25 13.5 -41.5t34.5 -16.5q19 0 31 12.5t16 31.5q3 10 13 10l115 -6q5 0 8.5 -3.5t2.5 -9.5q-7 -77 -53.5 -116.5t-132.5 -39.5q-89 0 -139 44.5t-50 123.5v194q0 76 50.5 122t138.5 46t138.5 -46t50.5 -122
v-129q0 -5 -3.5 -8.5zM185.5 385q-13.5 -16 -13.5 -41v-39q0 -5 5 -5h86q5 0 5 5v39q0 25 -13.5 41t-34.5 16t-34.5 -16zM76 692q0 7 10 7h87q11 0 15 -9l30 -56q3 -4 6 0l30 56q5 9 14 9h88q7 0 9.5 -3.5t-1.5 -10.5l-66 -104q-5 -8 -14 -8h-129q-10 0 -14 8l-63 104
q-2 6 -2 7z" />
    <glyph glyph-name="Gcircumflex" unicode="&#x11c;" horiz-adv-x="467" 
d="M88.5 43.5q-54.5 51.5 -54.5 137.5v338q0 86 54.5 137.5t144.5 51.5t145 -52t55 -138v-38q0 -5 -3.5 -8.5t-8.5 -3.5h-117q-5 0 -8.5 3.5t-3.5 8.5v40q0 30 -16 48.5t-43 18.5q-26 0 -42 -18.5t-16 -48.5v-340q0 -30 16 -48.5t42 -18.5q27 0 43 18.5t16 48.5v80q0 5 -5 5
h-44q-5 0 -8.5 3.5t-3.5 8.5v89q0 5 3.5 8.5t8.5 3.5h178q5 0 8.5 -3.5t3.5 -8.5v-185q0 -86 -55 -137.5t-145 -51.5t-144.5 51.5zM88.5 763.5q-2.5 3.5 1.5 10.5l63 104q4 8 14 8h129q9 0 14 -8l66 -104q2 -6 2 -7q0 -7 -10 -7h-88q-10 0 -14 9l-30 56q-3 5 -6 0l-30 -56
q-5 -9 -15 -9h-87q-7 0 -9.5 3.5z" />
    <glyph glyph-name="gcircumflex" unicode="&#x11d;" horiz-adv-x="441" 
d="M270.5 510.5q3.5 3.5 8.5 3.5h117q5 0 8.5 -3.5t3.5 -8.5v-478q0 -111 -52.5 -171t-188.5 -60q-27 0 -42 1q-12 1 -12 13v98q0 13 13 11q59 -2 89.5 11.5t41 40.5t10.5 71q0 3 -2 3t-4 -3q-18 -24 -43.5 -33.5t-49.5 -9.5q-69 0 -103 44.5t-34 123.5v190q0 81 34.5 124.5
t102.5 43.5q61 0 93 -45q2 -3 4 -2t2 4v23q0 5 3.5 8.5zM253.5 134q13.5 16 13.5 41v169q0 25 -13.5 41t-34.5 16t-34 -16t-13 -41v-169q0 -25 13 -41t34 -16t34.5 16zM76.5 577.5q-2.5 3.5 1.5 10.5l63 104q4 8 14 8h129q9 0 14 -8l66 -104q2 -6 2 -7q0 -7 -10 -7h-88
q-10 0 -14 9l-30 56q-3 5 -6 0l-30 -56q-5 -9 -15 -9h-87q-7 0 -9.5 3.5z" />
    <glyph glyph-name="Gbreve" unicode="&#x11e;" horiz-adv-x="467" 
d="M88.5 43.5q-54.5 51.5 -54.5 137.5v338q0 86 54.5 137.5t144.5 51.5t145 -52t55 -138v-38q0 -5 -3.5 -8.5t-8.5 -3.5h-117q-5 0 -8.5 3.5t-3.5 8.5v40q0 30 -16 48.5t-43 18.5q-26 0 -42 -18.5t-16 -48.5v-340q0 -30 16 -48.5t42 -18.5q27 0 43 18.5t16 48.5v80q0 5 -5 5
h-44q-5 0 -8.5 3.5t-3.5 8.5v89q0 5 3.5 8.5t8.5 3.5h178q5 0 8.5 -3.5t3.5 -8.5v-185q0 -86 -55 -137.5t-145 -51.5t-144.5 51.5zM150.5 764q-32.5 29 -36.5 77v2q0 10 11 10h50q12 0 13 -12q3 -20 15 -32t30 -12t30.5 12t15.5 32q2 12 13 12h50q12 0 12 -12
q-5 -48 -37.5 -77t-83.5 -29q-50 0 -82.5 29z" />
    <glyph glyph-name="gbreve" unicode="&#x11f;" horiz-adv-x="441" 
d="M270.5 510.5q3.5 3.5 8.5 3.5h117q5 0 8.5 -3.5t3.5 -8.5v-478q0 -111 -52.5 -171t-188.5 -60q-27 0 -42 1q-12 1 -12 13v98q0 13 13 11q59 -2 89.5 11.5t41 40.5t10.5 71q0 3 -2 3t-4 -3q-18 -24 -43.5 -33.5t-49.5 -9.5q-69 0 -103 44.5t-34 123.5v190q0 81 34.5 124.5
t102.5 43.5q61 0 93 -45q2 -3 4 -2t2 4v23q0 5 3.5 8.5zM253.5 134q13.5 16 13.5 41v169q0 25 -13.5 41t-34.5 16t-34 -16t-13 -41v-169q0 -25 13 -41t34 -16t34.5 16zM139.5 578q-32.5 29 -36.5 77v2q0 10 11 10h50q12 0 13 -12q3 -20 15 -32t30 -12t30.5 12t15.5 32
q2 12 13 12h50q12 0 12 -12q-5 -48 -37.5 -77t-83.5 -29q-50 0 -82.5 29z" />
    <glyph glyph-name="Gdotaccent" unicode="&#x120;" horiz-adv-x="467" 
d="M88.5 43.5q-54.5 51.5 -54.5 137.5v338q0 86 54.5 137.5t144.5 51.5t145 -52t55 -138v-38q0 -5 -3.5 -8.5t-8.5 -3.5h-117q-5 0 -8.5 3.5t-3.5 8.5v40q0 30 -16 48.5t-43 18.5q-26 0 -42 -18.5t-16 -48.5v-340q0 -30 16 -48.5t42 -18.5q27 0 43 18.5t16 48.5v80q0 5 -5 5
h-44q-5 0 -8.5 3.5t-3.5 8.5v89q0 5 3.5 8.5t8.5 3.5h178q5 0 8.5 -3.5t3.5 -8.5v-185q0 -86 -55 -137.5t-145 -51.5t-144.5 51.5zM177.5 780.5q-22.5 22.5 -22.5 56.5q0 35 22 57t57 22t57 -22t22 -57q0 -34 -22.5 -56.5t-56.5 -22.5t-56.5 22.5z" />
    <glyph glyph-name="gdotaccent" unicode="&#x121;" horiz-adv-x="441" 
d="M270.5 510.5q3.5 3.5 8.5 3.5h117q5 0 8.5 -3.5t3.5 -8.5v-478q0 -111 -52.5 -171t-188.5 -60q-27 0 -42 1q-12 1 -12 13v98q0 13 13 11q59 -2 89.5 11.5t41 40.5t10.5 71q0 3 -2 3t-4 -3q-18 -24 -43.5 -33.5t-49.5 -9.5q-69 0 -103 44.5t-34 123.5v190q0 81 34.5 124.5
t102.5 43.5q61 0 93 -45q2 -3 4 -2t2 4v23q0 5 3.5 8.5zM253.5 134q13.5 16 13.5 41v169q0 25 -13.5 41t-34.5 16t-34 -16t-13 -41v-169q0 -25 13 -41t34 -16t34.5 16zM165.5 594.5q-22.5 22.5 -22.5 56.5q0 35 22 57t57 22t57 -22t22 -57q0 -34 -22.5 -56.5t-56.5 -22.5
t-56.5 22.5z" />
    <glyph glyph-name="uni0122" unicode="&#x122;" horiz-adv-x="467" 
d="M88.5 43.5q-54.5 51.5 -54.5 137.5v338q0 86 54.5 137.5t144.5 51.5t145 -52t55 -138v-38q0 -5 -3.5 -8.5t-8.5 -3.5h-117q-5 0 -8.5 3.5t-3.5 8.5v40q0 30 -16 48.5t-43 18.5q-26 0 -42 -18.5t-16 -48.5v-340q0 -30 16 -48.5t42 -18.5q27 0 43 18.5t16 48.5v80q0 5 -5 5
h-44q-5 0 -8.5 3.5t-3.5 8.5v89q0 5 3.5 8.5t8.5 3.5h178q5 0 8.5 -3.5t3.5 -8.5v-185q0 -86 -55 -137.5t-145 -51.5t-144.5 51.5zM141 -178q-3 4 1 10l59 102q4 8 15 8h93q10 0 10 -7q0 -3 -3 -8l-77 -102q-6 -7 -14 -7h-74q-7 0 -10 4z" />
    <glyph glyph-name="uni0123" unicode="&#x123;" horiz-adv-x="441" 
d="M312 684q3 -4 -1 -10l-60 -102q-4 -8 -14 -8h-93q-10 0 -10 7q0 4 3 8l77 102q6 7 14 7h74q7 0 10 -4zM270.5 510.5q3.5 3.5 8.5 3.5h117q5 0 8.5 -3.5t3.5 -8.5v-478q0 -111 -52.5 -171t-188.5 -60q-27 0 -42 1q-12 1 -12 13v98q0 13 13 11q59 -2 89.5 11.5t41 40.5
t10.5 71q0 3 -2 3t-4 -3q-18 -24 -43.5 -33.5t-49.5 -9.5q-69 0 -103 44.5t-34 123.5v190q0 81 34.5 124.5t102.5 43.5q61 0 93 -45q2 -3 4 -2t2 4v23q0 5 3.5 8.5zM253.5 134q13.5 16 13.5 41v169q0 25 -13.5 41t-34.5 16t-34 -16t-13 -41v-169q0 -25 13 -41t34 -16
t34.5 16z" />
    <glyph glyph-name="Hcircumflex" unicode="&#x124;" horiz-adv-x="480" 
d="M298.5 696.5q3.5 3.5 8.5 3.5h117q5 0 8.5 -3.5t3.5 -8.5v-676q0 -5 -3.5 -8.5t-8.5 -3.5h-117q-5 0 -8.5 3.5t-3.5 8.5v273q0 5 -5 5h-100q-5 0 -5 -5v-273q0 -5 -3.5 -8.5t-8.5 -3.5h-117q-5 0 -8.5 3.5t-3.5 8.5v676q0 5 3.5 8.5t8.5 3.5h117q5 0 8.5 -3.5t3.5 -8.5
v-272q0 -5 5 -5h100q5 0 5 5v272q0 5 3.5 8.5zM93.5 764.5q-2.5 3.5 1.5 10.5l63 104q4 8 14 8h129q9 0 14 -8l66 -104q2 -6 2 -7q0 -7 -10 -7h-88q-10 0 -14 9l-30 56q-3 5 -6 0l-30 -56q-5 -9 -15 -9h-87q-7 0 -9.5 3.5z" />
    <glyph glyph-name="hcircumflex" unicode="&#x125;" 
d="M379 477q34 -45 34 -126v-339q0 -5 -3.5 -8.5t-8.5 -3.5h-117q-5 0 -8.5 3.5t-3.5 8.5v328q0 29 -11.5 45t-33.5 16q-23 0 -35.5 -16.5t-12.5 -46.5v-326q0 -5 -3.5 -8.5t-8.5 -3.5h-117q-5 0 -8.5 3.5t-3.5 8.5v676q0 5 3.5 8.5t8.5 3.5h117q5 0 8.5 -3.5t3.5 -8.5v-205
q0 -3 2.5 -3t6.5 4q32 38 89 38q68 0 102 -45zM91.5 753.5q-2.5 3.5 1.5 10.5l63 104q4 8 14 8h129q9 0 14 -8l66 -104q2 -6 2 -7q0 -7 -10 -7h-88q-10 0 -14 9l-30 56q-3 5 -6 0l-30 -56q-5 -9 -15 -9h-87q-7 0 -9.5 3.5z" />
    <glyph glyph-name="Hbar" unicode="&#x126;" horiz-adv-x="480" 
d="M480.5 599.5q3.5 -3.5 3.5 -8.5v-72q0 -5 -3.5 -8.5t-8.5 -3.5h-31q-5 0 -5 -5v-490q0 -5 -3.5 -8.5t-8.5 -3.5h-117q-5 0 -8.5 3.5t-3.5 8.5v273q0 5 -5 5h-100q-5 0 -5 -5v-273q0 -5 -3.5 -8.5t-8.5 -3.5h-117q-5 0 -8.5 3.5t-3.5 8.5v490q0 5 -5 5h-30q-5 0 -8.5 3.5
t-3.5 8.5v72q0 5 3.5 8.5t8.5 3.5h30q5 0 5 5v80q0 5 3.5 8.5t8.5 3.5h117q5 0 8.5 -3.5t3.5 -8.5v-80q0 -5 5 -5h100q5 0 5 5v80q0 5 3.5 8.5t8.5 3.5h117q5 0 8.5 -3.5t3.5 -8.5v-80q0 -5 5 -5h31q5 0 8.5 -3.5zM295 416v86q0 5 -5 5h-100q-5 0 -5 -5v-86q0 -5 5 -5h100
q5 0 5 5z" />
    <glyph glyph-name="hbar" unicode="&#x127;" 
d="M379 477q34 -45 34 -126v-339q0 -5 -3.5 -8.5t-8.5 -3.5h-117q-5 0 -8.5 3.5t-3.5 8.5v328q0 29 -11.5 45t-33.5 16q-23 0 -35.5 -16.5t-12.5 -46.5v-326q0 -5 -3.5 -8.5t-8.5 -3.5h-117q-5 0 -8.5 3.5t-3.5 8.5v532q0 5 -5 5h-30q-5 0 -8.5 3.5t-3.5 8.5v61q0 5 3.5 8.5
t8.5 3.5h30q5 0 5 5v49q0 5 3.5 8.5t8.5 3.5h117q5 0 8.5 -3.5t3.5 -8.5v-49q0 -5 5 -5h80q5 0 8.5 -3.5t3.5 -8.5v-61q0 -5 -3.5 -8.5t-8.5 -3.5h-80q-5 0 -5 -5v-61q0 -3 2.5 -3t6.5 4q32 38 89 38q68 0 102 -45z" />
    <glyph glyph-name="Itilde" unicode="&#x128;" horiz-adv-x="230" 
d="M47.5 3.5q-3.5 3.5 -3.5 8.5v676q0 5 3.5 8.5t8.5 3.5h117q5 0 8.5 -3.5t3.5 -8.5v-676q0 -5 -3.5 -8.5t-8.5 -3.5h-117q-5 0 -8.5 3.5zM128 790q-9 4 -20.5 11t-21.5 7q-22 0 -36 -22q-7 -10 -17 -4l-42 30q-8 6 -5 16q13 35 36.5 52t51.5 17q30 0 64 -23q2 -2 10 -7
t15.5 -8t15.5 -3q23 0 36 20q7 12 17 5l40 -28q5 -3 5 -9t-5 -14q-17 -30 -41.5 -44t-48.5 -14q-21 0 -54 18z" />
    <glyph glyph-name="itilde" unicode="&#x129;" horiz-adv-x="190" 
d="M27.5 3.5q-3.5 3.5 -3.5 8.5v490q0 5 3.5 8.5t8.5 3.5h117q5 0 8.5 -3.5t3.5 -8.5v-490q0 -5 -3.5 -8.5t-8.5 -3.5h-117q-5 0 -8.5 3.5zM108 604q-9 4 -20.5 11t-21.5 7q-22 0 -36 -22q-7 -10 -17 -4l-42 30q-8 6 -5 16q13 35 36.5 52t51.5 17q30 0 64 -23q2 -2 10 -7
t15.5 -8t15.5 -3q23 0 36 20q7 12 17 5l40 -28q5 -3 5 -9t-5 -14q-17 -30 -41.5 -44t-48.5 -14q-21 0 -54 18z" />
    <glyph glyph-name="Imacron" unicode="&#x12a;" horiz-adv-x="230" 
d="M47.5 3.5q-3.5 3.5 -3.5 8.5v676q0 5 3.5 8.5t8.5 3.5h117q5 0 8.5 -3.5t3.5 -8.5v-676q0 -5 -3.5 -8.5t-8.5 -3.5h-117q-5 0 -8.5 3.5zM4.5 770.5q-3.5 3.5 -3.5 8.5v72q0 5 3.5 8.5t8.5 3.5h196q5 0 8.5 -3.5t3.5 -8.5v-72q0 -5 -3.5 -8.5t-8.5 -3.5h-196
q-5 0 -8.5 3.5z" />
    <glyph glyph-name="imacron" unicode="&#x12b;" horiz-adv-x="190" 
d="M27.5 3.5q-3.5 3.5 -3.5 8.5v490q0 5 3.5 8.5t8.5 3.5h117q5 0 8.5 -3.5t3.5 -8.5v-490q0 -5 -3.5 -8.5t-8.5 -3.5h-117q-5 0 -8.5 3.5zM-15.5 584.5q-3.5 3.5 -3.5 8.5v72q0 5 3.5 8.5t8.5 3.5h196q5 0 8.5 -3.5t3.5 -8.5v-72q0 -5 -3.5 -8.5t-8.5 -3.5h-196
q-5 0 -8.5 3.5z" />
    <glyph glyph-name="ibreve" unicode="&#x12d;" horiz-adv-x="190" 
d="M27.5 3.5q-3.5 3.5 -3.5 8.5v490q0 5 3.5 8.5t8.5 3.5h117q5 0 8.5 -3.5t3.5 -8.5v-490q0 -5 -3.5 -8.5t-8.5 -3.5h-117q-5 0 -8.5 3.5zM12.5 594q-32.5 29 -36.5 77v2q0 10 11 10h50q12 0 12 -12q3 -20 15.5 -32t30.5 -12q17 0 30 12.5t16 31.5q1 12 13 12h50
q12 0 11 -12q-4 -47 -37 -76.5t-83 -29.5t-82.5 29z" />
    <glyph glyph-name="Iogonek" unicode="&#x12e;" horiz-adv-x="218" 
d="M42.5 3.5q-3.5 3.5 -3.5 8.5v676q0 5 3.5 8.5t8.5 3.5h117q5 0 8.5 -3.5t3.5 -8.5v-676q0 -5 -3.5 -8.5t-8.5 -3.5h-117q-5 0 -8.5 3.5zM180 -173q0 -8 -9 -11q-28 -7 -47 -7q-37 0 -63 20t-26 68q0 52 46 97q6 6 15 6h63q9 0 9 -6q0 -5 -5 -9q-37 -37 -37 -66
q0 -19 9.5 -27t24.5 -6h3q10 0 11 -10l6 -46v-3z" />
    <glyph glyph-name="iogonek" unicode="&#x12f;" horiz-adv-x="225" 
d="M47.5 3.5q-3.5 3.5 -3.5 8.5v490q0 5 3.5 8.5t8.5 3.5h117q5 0 8.5 -3.5t3.5 -8.5v-490q0 -5 -3.5 -8.5t-8.5 -3.5h-117q-5 0 -8.5 3.5zM59.5 594.5q-22.5 22.5 -22.5 56.5q0 35 22 57t57 22t57 -22t22 -57q0 -34 -22.5 -56.5t-56.5 -22.5t-56.5 22.5zM187 -173
q0 -8 -9 -11q-28 -7 -47 -7q-37 0 -63 20t-26 68q0 52 46 97q6 6 15 6h63q9 0 9 -6q0 -5 -5 -9q-37 -37 -37 -66q0 -19 9.5 -27t24.5 -6h3q10 0 11 -10l6 -46v-3z" />
    <glyph glyph-name="Idotaccent" unicode="&#x130;" horiz-adv-x="230" 
d="M47.5 3.5q-3.5 3.5 -3.5 8.5v676q0 5 3.5 8.5t8.5 3.5h117q5 0 8.5 -3.5t3.5 -8.5v-676q0 -5 -3.5 -8.5t-8.5 -3.5h-117q-5 0 -8.5 3.5zM58.5 780.5q-22.5 22.5 -22.5 56.5q0 35 22 57t57 22t57 -22t22 -57q0 -34 -22.5 -56.5t-56.5 -22.5t-56.5 22.5z" />
    <glyph glyph-name="dotlessi" unicode="&#x131;" horiz-adv-x="190" 
d="M27.5 3.5q-3.5 3.5 -3.5 8.5v490q0 5 3.5 8.5t8.5 3.5h117q5 0 8.5 -3.5t3.5 -8.5v-490q0 -5 -3.5 -8.5t-8.5 -3.5h-117q-5 0 -8.5 3.5z" />
    <glyph glyph-name="ij" unicode="&#x133;" horiz-adv-x="431" 
d="M52.5 594.5q-22.5 22.5 -22.5 56.5q0 35 22 57t57 22t56.5 -22t21.5 -57q0 -34 -22 -56.5t-56 -22.5t-56.5 22.5zM43.5 3.5q-3.5 3.5 -3.5 8.5v490q0 5 3.5 8.5t8.5 3.5h117q5 0 8.5 -3.5t3.5 -8.5v-490q0 -5 -3.5 -8.5t-8.5 -3.5h-117q-5 0 -8.5 3.5zM265.5 594.5
q-22.5 22.5 -22.5 56.5q0 35 22 57t57 22t57 -22t22 -57q0 -34 -22.5 -56.5t-56.5 -22.5t-56.5 22.5zM158 -192v97q0 12 13 11q45 -1 63 20.5t18 63.5v502q0 5 3.5 8.5t8.5 3.5h117q5 0 8.5 -3.5t3.5 -8.5v-502q0 -75 -13.5 -117t-61.5 -65t-148 -22q-12 0 -12 12z" />
    <glyph glyph-name="Jcircumflex" unicode="&#x134;" horiz-adv-x="452" 
d="M68 43.5q-54 51.5 -54 136.5v69q0 5 3.5 8.5t8.5 3.5h117q5 0 8.5 -3.5t3.5 -8.5v-71q0 -29 15 -47t40 -18q26 0 41.5 18t15.5 47v510q0 5 3.5 8.5t8.5 3.5h117q5 0 8.5 -3.5t3.5 -8.5v-508q0 -85 -54.5 -136.5t-143.5 -51.5q-88 0 -142 51.5zM189.5 764.5
q-2.5 3.5 1.5 10.5l63 104q4 8 14 8h129q9 0 14 -8l66 -104q2 -6 2 -7q0 -7 -10 -7h-88q-10 0 -14 9l-30 56q-3 5 -6 0l-30 -56q-5 -9 -15 -9h-87q-7 0 -9.5 3.5z" />
    <glyph glyph-name="jcircumflex" unicode="&#x135;" horiz-adv-x="219" 
d="M-56 -192v97q0 12 13 11q45 -1 63 20.5t18 63.5v502q0 5 3.5 8.5t8.5 3.5h117q5 0 8.5 -3.5t3.5 -8.5v-502q0 -75 -13.5 -117t-61.5 -65t-148 -22q-12 0 -12 12zM-37.5 577.5q-2.5 3.5 1.5 10.5l63 104q4 8 14 8h129q9 0 14 -8l66 -104q2 -6 2 -7q0 -7 -10 -7h-88
q-10 0 -14 9l-30 56q-3 5 -6 0l-30 -56q-5 -9 -15 -9h-87q-7 0 -9.5 3.5z" />
    <glyph glyph-name="uni0136" unicode="&#x136;" horiz-adv-x="491" 
d="M47.5 3.5q-3.5 3.5 -3.5 8.5v676q0 5 3.5 8.5t8.5 3.5h117q5 0 8.5 -3.5t3.5 -8.5v-252q0 -4 2.5 -4.5t3.5 3.5l129 256q5 9 14 9h124q7 0 9.5 -3.5t-0.5 -10.5l-148 -288q-1 -4 -1 -6l157 -378q1 -2 1 -6q0 -8 -10 -8h-125q-11 0 -14 9l-104 262q-1 3 -3 2.5t-4 -2.5
l-29 -52q-2 -4 -2 -6v-201q0 -5 -3.5 -8.5t-8.5 -3.5h-117q-5 0 -8.5 3.5zM174 -170q-3 4 1 10l59 102q4 8 15 8h93q10 0 10 -7q0 -3 -3 -8l-77 -102q-6 -7 -14 -7h-74q-7 0 -10 4z" />
    <glyph glyph-name="uni0137" unicode="&#x137;" horiz-adv-x="449" 
d="M41.5 3.5q-3.5 3.5 -3.5 8.5v676q0 5 3.5 8.5t8.5 3.5h117q5 0 8.5 -3.5t3.5 -8.5v-331q0 -4 2 -4.5t4 2.5l87 151q4 8 15 8h120q7 0 9.5 -4t-1.5 -10l-108 -168q-2 -4 -1 -7l122 -311q1 -2 1 -5q0 -9 -11 -9h-121q-10 0 -13 10l-64 198q-1 3 -3 3.5t-3 -2.5l-33 -52
q-2 -4 -2 -6v-139q0 -5 -3.5 -8.5t-8.5 -3.5h-117q-5 0 -8.5 3.5zM140 -170q-3 4 1 10l59 102q4 8 15 8h93q10 0 10 -7q0 -3 -3 -8l-77 -102q-6 -7 -14 -7h-74q-7 0 -10 4z" />
    <glyph glyph-name="Lacute" unicode="&#x139;" horiz-adv-x="426" 
d="M47.5 3.5q-3.5 3.5 -3.5 8.5v676q0 5 3.5 8.5t8.5 3.5h117q5 0 8.5 -3.5t3.5 -8.5v-562q0 -5 5 -5h210q5 0 8.5 -3.5t3.5 -8.5v-97q0 -5 -3.5 -8.5t-8.5 -3.5h-344q-5 0 -8.5 3.5zM53 766q-3 4 1 10l59 102q4 8 15 8h93q10 0 10 -7q0 -3 -3 -8l-77 -102q-6 -7 -14 -7h-74
q-7 0 -10 4z" />
    <glyph glyph-name="lacute" unicode="&#x13a;" horiz-adv-x="209" 
d="M37.5 3.5q-3.5 3.5 -3.5 8.5v676q0 5 3.5 8.5t8.5 3.5h117q5 0 8.5 -3.5t3.5 -8.5v-676q0 -5 -3.5 -8.5t-8.5 -3.5h-117q-5 0 -8.5 3.5zM42 766q-3 4 1 10l59 102q4 8 15 8h93q10 0 10 -7q0 -3 -3 -8l-77 -102q-6 -7 -14 -7h-74q-7 0 -10 4z" />
    <glyph glyph-name="uni013B" unicode="&#x13b;" horiz-adv-x="426" 
d="M47.5 3.5q-3.5 3.5 -3.5 8.5v676q0 5 3.5 8.5t8.5 3.5h117q5 0 8.5 -3.5t3.5 -8.5v-562q0 -5 5 -5h210q5 0 8.5 -3.5t3.5 -8.5v-97q0 -5 -3.5 -8.5t-8.5 -3.5h-344q-5 0 -8.5 3.5zM113 -170q-3 4 1 10l59 102q4 8 15 8h93q10 0 10 -7q0 -3 -3 -8l-77 -102q-6 -7 -14 -7
h-74q-7 0 -10 4z" />
    <glyph glyph-name="uni013C" unicode="&#x13c;" horiz-adv-x="209" 
d="M37.5 3.5q-3.5 3.5 -3.5 8.5v676q0 5 3.5 8.5t8.5 3.5h117q5 0 8.5 -3.5t3.5 -8.5v-676q0 -5 -3.5 -8.5t-8.5 -3.5h-117q-5 0 -8.5 3.5zM-32 -170q-3 4 1 10l59 102q4 8 15 8h93q10 0 10 -7q0 -3 -3 -8l-77 -102q-6 -7 -14 -7h-74q-7 0 -10 4z" />
    <glyph glyph-name="Lcaron" unicode="&#x13d;" horiz-adv-x="429" 
d="M47.5 3.5q-3.5 3.5 -3.5 8.5v676q0 5 3.5 8.5t8.5 3.5h117q5 0 8.5 -3.5t3.5 -8.5v-562q0 -5 5 -5h210q5 0 8.5 -3.5t3.5 -8.5v-97q0 -5 -3.5 -8.5t-8.5 -3.5h-344q-5 0 -8.5 3.5zM216 580q-3 4 1 10l59 102q4 8 15 8h93q10 0 10 -7q0 -3 -3 -8l-77 -102q-6 -7 -14 -7
h-74q-7 0 -10 4z" />
    <glyph glyph-name="lcaron" unicode="&#x13e;" horiz-adv-x="406" 
d="M37.5 3.5q-3.5 3.5 -3.5 8.5v676q0 5 3.5 8.5t8.5 3.5h117q5 0 8.5 -3.5t3.5 -8.5v-676q0 -5 -3.5 -8.5t-8.5 -3.5h-117q-5 0 -8.5 3.5zM199 581q-3 4 1 10l59 102q4 8 15 8h93q10 0 10 -7q0 -3 -3 -8l-77 -102q-6 -7 -14 -7h-74q-7 0 -10 4z" />
    <glyph glyph-name="ldot" unicode="&#x140;" horiz-adv-x="227" 
d="M45.5 3.5q-3.5 3.5 -3.5 8.5v676q0 5 3.5 8.5t8.5 3.5h117q5 0 8.5 -3.5t3.5 -8.5v-676q0 -5 -3.5 -8.5t-8.5 -3.5h-117q-5 0 -8.5 3.5zM58.5 780.5q-22.5 22.5 -22.5 56.5q0 35 22 57t57 22t57 -22t22 -57q0 -34 -22.5 -56.5t-56.5 -22.5t-56.5 22.5z" />
    <glyph glyph-name="Lslash" unicode="&#x141;" horiz-adv-x="492" 
d="M256 121h210q5 0 8.5 -3.5t3.5 -8.5v-97q0 -5 -3.5 -8.5t-8.5 -3.5h-344q-5 0 -8.5 3.5t-3.5 8.5v171q0 3 -2 4t-4 -1l-43 -35q-6 -4 -8 -4q-4 0 -9 5l-54 63q-4 6 -4 8q0 4 5 9l116 96q3 2 3 6v354q0 5 3.5 8.5t8.5 3.5h117q5 0 8.5 -3.5t3.5 -8.5v-234q0 -3 2 -4t4 1
l115 94q6 4 8 4q4 0 9 -5l53 -64q4 -6 4 -8q0 -4 -5 -9l-187 -154q-3 -1 -3 -6v-177q0 -5 5 -5z" />
    <glyph glyph-name="lslash" unicode="&#x142;" horiz-adv-x="387" 
d="M373 393q0 -7 -7 -11l-105 -58q-4 -3 -4 -6v-306q0 -5 -3.5 -8.5t-8.5 -3.5h-117q-5 0 -8.5 3.5t-3.5 8.5v226q0 3 -2 4t-4 0l-41 -23q-4 -2 -7 -2q-6 0 -10 7l-36 69q-2 4 -2 6q0 6 6 10l92 51q4 3 4 6v322q0 5 3.5 8.5t8.5 3.5h117q5 0 8.5 -3.5t3.5 -8.5v-240
q0 -3 2 -4.5t4 0.5l53 29q4 2 6 2q6 0 10 -6l39 -70q2 -4 2 -6z" />
    <glyph glyph-name="Nacute" unicode="&#x143;" horiz-adv-x="514" 
d="M333.5 696.5q3.5 3.5 8.5 3.5h116q5 0 8.5 -3.5t3.5 -8.5v-676q0 -5 -3.5 -8.5t-8.5 -3.5h-132q-10 0 -13 10l-124 387q-1 3 -3.5 2.5t-2.5 -3.5l1 -384q0 -5 -3.5 -8.5t-8.5 -3.5h-116q-5 0 -8.5 3.5t-3.5 8.5v676q0 5 3.5 8.5t8.5 3.5h131q10 0 13 -10l125 -387
q1 -3 3.5 -2.5t2.5 3.5l-1 384q0 5 3.5 8.5zM191 768q-3 4 1 10l59 102q4 8 15 8h93q10 0 10 -7q0 -3 -3 -8l-77 -102q-6 -7 -14 -7h-74q-7 0 -10 4z" />
    <glyph glyph-name="nacute" unicode="&#x144;" 
d="M379 477q34 -45 34 -126v-339q0 -5 -3.5 -8.5t-8.5 -3.5h-117q-5 0 -8.5 3.5t-3.5 8.5v328q0 29 -11.5 45t-33.5 16q-23 0 -35.5 -16.5t-12.5 -46.5v-326q0 -5 -3.5 -8.5t-8.5 -3.5h-117q-5 0 -8.5 3.5t-3.5 8.5v490q0 5 3.5 8.5t8.5 3.5h117q5 0 8.5 -3.5t3.5 -8.5v-19
q0 -3 2.5 -3t6.5 4q32 38 89 38q68 0 102 -45zM162 580q-3 4 1 10l59 102q4 8 15 8h93q10 0 10 -7q0 -3 -3 -8l-77 -102q-6 -7 -14 -7h-74q-7 0 -10 4z" />
    <glyph glyph-name="uni0145" unicode="&#x145;" horiz-adv-x="514" 
d="M333.5 696.5q3.5 3.5 8.5 3.5h116q5 0 8.5 -3.5t3.5 -8.5v-676q0 -5 -3.5 -8.5t-8.5 -3.5h-132q-10 0 -13 10l-124 387q-1 3 -3.5 2.5t-2.5 -3.5l1 -384q0 -5 -3.5 -8.5t-8.5 -3.5h-116q-5 0 -8.5 3.5t-3.5 8.5v676q0 5 3.5 8.5t8.5 3.5h131q10 0 13 -10l125 -387
q1 -3 3.5 -2.5t2.5 3.5l-1 384q0 5 3.5 8.5zM173 -170q-3 4 1 10l59 102q4 8 15 8h93q10 0 10 -7q0 -3 -3 -8l-77 -102q-6 -7 -14 -7h-74q-7 0 -10 4z" />
    <glyph glyph-name="uni0146" unicode="&#x146;" 
d="M379 477q34 -45 34 -126v-339q0 -5 -3.5 -8.5t-8.5 -3.5h-117q-5 0 -8.5 3.5t-3.5 8.5v328q0 29 -11.5 45t-33.5 16q-23 0 -35.5 -16.5t-12.5 -46.5v-326q0 -5 -3.5 -8.5t-8.5 -3.5h-117q-5 0 -8.5 3.5t-3.5 8.5v490q0 5 3.5 8.5t8.5 3.5h117q5 0 8.5 -3.5t3.5 -8.5v-19
q0 -3 2.5 -3t6.5 4q32 38 89 38q68 0 102 -45zM137 -170q-3 4 1 10l59 102q4 8 15 8h93q10 0 10 -7q0 -3 -3 -8l-77 -102q-6 -7 -14 -7h-74q-7 0 -10 4z" />
    <glyph glyph-name="Ncaron" unicode="&#x147;" horiz-adv-x="514" 
d="M333.5 696.5q3.5 3.5 8.5 3.5h116q5 0 8.5 -3.5t3.5 -8.5v-676q0 -5 -3.5 -8.5t-8.5 -3.5h-132q-10 0 -13 10l-124 387q-1 3 -3.5 2.5t-2.5 -3.5l1 -384q0 -5 -3.5 -8.5t-8.5 -3.5h-116q-5 0 -8.5 3.5t-3.5 8.5v676q0 5 3.5 8.5t8.5 3.5h131q10 0 13 -10l125 -387
q1 -3 3.5 -2.5t2.5 3.5l-1 384q0 5 3.5 8.5zM115 881q0 7 10 7h87q11 0 15 -9l30 -56q3 -4 6 0l30 56q5 9 14 9h88q7 0 9.5 -3.5t-1.5 -10.5l-66 -104q-5 -8 -14 -8h-129q-10 0 -14 8l-63 104q-2 6 -2 7z" />
    <glyph glyph-name="ncaron" unicode="&#x148;" 
d="M379 477q34 -45 34 -126v-339q0 -5 -3.5 -8.5t-8.5 -3.5h-117q-5 0 -8.5 3.5t-3.5 8.5v328q0 29 -11.5 45t-33.5 16q-23 0 -35.5 -16.5t-12.5 -46.5v-326q0 -5 -3.5 -8.5t-8.5 -3.5h-117q-5 0 -8.5 3.5t-3.5 8.5v490q0 5 3.5 8.5t8.5 3.5h117q5 0 8.5 -3.5t3.5 -8.5v-19
q0 -3 2.5 -3t6.5 4q32 38 89 38q68 0 102 -45zM85 693q0 7 10 7h87q11 0 15 -9l30 -56q3 -4 6 0l30 56q5 9 14 9h88q7 0 9.5 -3.5t-1.5 -10.5l-66 -104q-5 -8 -14 -8h-129q-10 0 -14 8l-63 104q-2 6 -2 7z" />
    <glyph glyph-name="Eng" unicode="&#x14a;" horiz-adv-x="514" 
d="M333.5 696.5q3.5 3.5 8.5 3.5h116q5 0 8.5 -3.5t3.5 -8.5v-688q0 -71 -12 -109.5t-56.5 -59.5t-139.5 -20q-12 0 -12 12l-1 97q0 11 13 11q35 0 44.5 15t9.5 51l-1 6l-126 393q-1 3 -3.5 3t-2.5 -3l1 -384q0 -5 -3.5 -8.5t-8.5 -3.5h-116q-5 0 -8.5 3.5t-3.5 8.5v676
q0 5 3.5 8.5t8.5 3.5h131q10 0 13 -10l121 -372q2 -4 5 -4q5 0 5 5l-1 369q0 5 3.5 8.5z" />
    <glyph glyph-name="eng" unicode="&#x14b;" 
d="M401.5 -104q-11.5 -38 -56 -61t-137.5 -22q-13 0 -13 12v95q0 12 13 12q29 0 43 10t17.5 26.5t3.5 45.5v326q0 29 -11.5 45t-33.5 16q-23 0 -35.5 -16.5t-12.5 -46.5v-326q0 -5 -3.5 -8.5t-8.5 -3.5h-117q-5 0 -8.5 3.5t-3.5 8.5v490q0 5 3.5 8.5t8.5 3.5h117
q5 0 8.5 -3.5t3.5 -8.5v-19q0 -3 2 -4t4 2q34 41 92 41q68 0 102 -45t34 -126v-351q0 -66 -11.5 -104z" />
    <glyph glyph-name="Omacron" unicode="&#x14c;" horiz-adv-x="473" 
d="M89 46q-55 54 -55 144v320q0 90 55 144t147 54t147.5 -54t55.5 -144v-320q0 -90 -55.5 -144t-147.5 -54t-147 54zM281 132.5q17 19.5 17 51.5v332q0 32 -17 51.5t-45 19.5t-44.5 -19.5t-16.5 -51.5v-332q0 -32 16.5 -51.5t44.5 -19.5t45 19.5zM125.5 769.5
q-3.5 3.5 -3.5 8.5v72q0 5 3.5 8.5t8.5 3.5h196q5 0 8.5 -3.5t3.5 -8.5v-72q0 -5 -3.5 -8.5t-8.5 -3.5h-196q-5 0 -8.5 3.5z" />
    <glyph glyph-name="omacron" unicode="&#x14d;" horiz-adv-x="442" 
d="M81.5 37q-50.5 45 -50.5 123v194q0 76 51 122t139 46q89 0 140 -46t51 -122v-194q0 -78 -50.5 -123t-140.5 -45q-89 0 -139.5 45zM257 130q14 16 14 41v173q0 25 -14 41t-36 16t-35.5 -16t-13.5 -41v-173q0 -25 13.5 -41t35.5 -16t36 16zM110.5 584.5q-3.5 3.5 -3.5 8.5
v72q0 5 3.5 8.5t8.5 3.5h196q5 0 8.5 -3.5t3.5 -8.5v-72q0 -5 -3.5 -8.5t-8.5 -3.5h-196q-5 0 -8.5 3.5z" />
    <glyph glyph-name="obreve" unicode="&#x14f;" horiz-adv-x="442" 
d="M81.5 37q-50.5 45 -50.5 123v194q0 76 51 122t139 46q89 0 140 -46t51 -122v-194q0 -78 -50.5 -123t-140.5 -45q-89 0 -139.5 45zM257 130q14 16 14 41v173q0 25 -14 41t-36 16t-35.5 -16t-13.5 -41v-173q0 -25 13.5 -41t35.5 -16t36 16zM139.5 594q-32.5 29 -36.5 77v2
q0 10 11 10h50q12 0 12 -12q3 -20 15.5 -32t30.5 -12q17 0 30 12.5t16 31.5q1 12 13 12h50q12 0 11 -12q-4 -47 -37 -76.5t-83 -29.5t-82.5 29z" />
    <glyph glyph-name="Ohungarumlaut" unicode="&#x150;" horiz-adv-x="473" 
d="M89 46q-55 54 -55 144v320q0 90 55 144t147 54t147.5 -54t55.5 -144v-320q0 -90 -55.5 -144t-147.5 -54t-147 54zM281 132.5q17 19.5 17 51.5v332q0 32 -17 51.5t-45 19.5t-44.5 -19.5t-16.5 -51.5v-332q0 -32 16.5 -51.5t44.5 -19.5t45 19.5zM112.5 764.5
q-2.5 3.5 0.5 10.5l47 101q4 9 14 9h96q7 0 9.5 -4t-0.5 -10l-53 -101q-5 -9 -15 -9h-89q-7 0 -9.5 3.5zM270.5 765q-2.5 4 0.5 10l53 101q4 9 15 9h89q7 0 9.5 -4t-0.5 -10l-53 -101q-5 -9 -15 -9h-89q-7 0 -9.5 4z" />
    <glyph glyph-name="ohungarumlaut" unicode="&#x151;" horiz-adv-x="442" 
d="M81.5 37q-50.5 45 -50.5 123v194q0 76 51 122t139 46q89 0 140 -46t51 -122v-194q0 -78 -50.5 -123t-140.5 -45q-89 0 -139.5 45zM257 130q14 16 14 41v173q0 25 -14 41t-36 16t-35.5 -16t-13.5 -41v-173q0 -25 13.5 -41t35.5 -16t36 16zM97.5 579.5q-2.5 3.5 0.5 10.5
l47 101q4 9 14 9h96q7 0 9.5 -4t-0.5 -10l-53 -101q-5 -9 -15 -9h-89q-7 0 -9.5 3.5zM255.5 580q-2.5 4 0.5 10l53 101q4 9 15 9h89q7 0 9.5 -4t-0.5 -10l-53 -101q-5 -9 -15 -9h-89q-7 0 -9.5 4z" />
    <glyph glyph-name="OE" unicode="&#x152;" horiz-adv-x="691" 
d="M660.5 582.5q-3.5 -3.5 -8.5 -3.5h-208q-5 0 -5 -5v-158q0 -5 5 -5h119q5 0 8.5 -3.5t3.5 -8.5v-97q0 -5 -3.5 -8.5t-8.5 -3.5h-119q-5 0 -5 -5v-159q0 -5 5 -5h208q5 0 8.5 -3.5t3.5 -8.5v-97q0 -5 -3.5 -8.5t-8.5 -3.5h-342q-5 0 -8.5 3.5t-3.5 8.5v6q0 3 -2 4t-4 -1
q-38 -29 -92 -29q-43 0 -81.5 25t-61.5 70t-23 103v320q0 58 23 103t61.5 70t81.5 25q54 0 92 -29q2 -2 4 -1t2 4v6q0 5 3.5 8.5t8.5 3.5h342q5 0 8.5 -3.5t3.5 -8.5v-97q0 -5 -3.5 -8.5zM281 132.5q17 19.5 17 51.5v332q0 32 -17 51.5t-45 19.5t-44.5 -19.5t-16.5 -51.5
v-332q0 -32 16.5 -51.5t44.5 -19.5t45 19.5z" />
    <glyph glyph-name="oe" unicode="&#x153;" horiz-adv-x="691" 
d="M660.5 213.5q-3.5 -3.5 -8.5 -3.5h-220q-5 0 -5 -5v-35q0 -25 13.5 -41t34.5 -16q19 0 31 12.5t17 32.5q3 11 13 10l114 -7q12 -2 11 -13q-6 -75 -53 -115.5t-133 -40.5q-78 0 -123 53q-3 3 -7 0q-45 -53 -124 -53q-89 0 -139.5 45t-50.5 123v194q0 76 51 122t139 46
q77 0 124 -55q4 -3 7 0q47 55 123 55q88 0 138.5 -46t50.5 -122v-132q0 -5 -3.5 -8.5zM257 385.5q-14 15.5 -36 15.5t-35.5 -16t-13.5 -41v-174q0 -25 13.5 -41t35.5 -16t36 16t14 41v174q0 26 -14 41.5zM440.5 385q-13.5 -16 -13.5 -41v-35q0 -5 5 -5h87q5 0 5 5v35
q0 25 -13.5 41t-35.5 16q-21 0 -34.5 -16z" />
    <glyph glyph-name="Racute" unicode="&#x154;" horiz-adv-x="471" 
d="M306 10l-77 276q-2 4 -5 4h-34q-5 0 -5 -5v-273q0 -5 -3.5 -8.5t-8.5 -3.5h-117q-5 0 -8.5 3.5t-3.5 8.5v676q0 5 3.5 8.5t8.5 3.5h202q55 0 98 -26.5t66.5 -74.5t23.5 -110q0 -59 -22.5 -104t-62.5 -70q-2 -1 -3 -2.5t0 -3.5l92 -295l1 -4q0 -10 -11 -10h-120
q-11 0 -14 10zM185 574v-171q0 -5 5 -5h45q31 0 50.5 24.5t19.5 65.5q0 42 -19.5 66.5t-50.5 24.5h-45q-5 0 -5 -5zM165 766q-3 4 1 10l59 102q4 8 15 8h93q10 0 10 -7q0 -3 -3 -8l-77 -102q-6 -7 -14 -7h-74q-7 0 -10 4z" />
    <glyph glyph-name="racute" unicode="&#x155;" horiz-adv-x="324" 
d="M310 510q8 -5 6 -15l-19 -117q-1 -11 -14 -8q-11 4 -27 4q-15 0 -26 -4q-23 -4 -37 -27.5t-14 -54.5v-275q0 -5 -3.5 -8.5t-8.5 -3.5h-117q-5 0 -8.5 3.5t-3.5 8.5v489q0 5 3.5 8.5t8.5 3.5h117q5 0 8.5 -3.5t3.5 -8.5v-39q0 -4 1.5 -4.5t3.5 2.5q27 59 84 59
q27 0 42 -10zM116 580q-3 4 1 10l59 102q4 8 15 8h93q10 0 10 -7q0 -3 -3 -8l-77 -102q-6 -7 -14 -7h-74q-7 0 -10 4z" />
    <glyph glyph-name="uni0156" unicode="&#x156;" horiz-adv-x="471" 
d="M306 10l-77 276q-2 4 -5 4h-34q-5 0 -5 -5v-273q0 -5 -3.5 -8.5t-8.5 -3.5h-117q-5 0 -8.5 3.5t-3.5 8.5v676q0 5 3.5 8.5t8.5 3.5h202q55 0 98 -26.5t66.5 -74.5t23.5 -110q0 -59 -22.5 -104t-62.5 -70q-2 -1 -3 -2.5t0 -3.5l92 -295l1 -4q0 -10 -11 -10h-120
q-11 0 -14 10zM185 574v-171q0 -5 5 -5h45q31 0 50.5 24.5t19.5 65.5q0 42 -19.5 66.5t-50.5 24.5h-45q-5 0 -5 -5zM150 -170q-3 4 1 10l59 102q4 8 15 8h93q10 0 10 -7q0 -3 -3 -8l-77 -102q-6 -7 -14 -7h-74q-7 0 -10 4z" />
    <glyph glyph-name="uni0157" unicode="&#x157;" horiz-adv-x="324" 
d="M310 510q8 -5 6 -15l-19 -117q-1 -11 -14 -8q-11 4 -27 4q-15 0 -26 -4q-23 -4 -37 -27.5t-14 -54.5v-275q0 -5 -3.5 -8.5t-8.5 -3.5h-117q-5 0 -8.5 3.5t-3.5 8.5v489q0 5 3.5 8.5t8.5 3.5h117q5 0 8.5 -3.5t3.5 -8.5v-39q0 -4 1.5 -4.5t3.5 2.5q27 59 84 59
q27 0 42 -10zM-31 -170q-3 4 1 10l59 102q4 8 15 8h93q10 0 10 -7q0 -3 -3 -8l-77 -102q-6 -7 -14 -7h-74q-7 0 -10 4z" />
    <glyph glyph-name="Rcaron" unicode="&#x158;" horiz-adv-x="471" 
d="M306 10l-77 276q-2 4 -5 4h-34q-5 0 -5 -5v-273q0 -5 -3.5 -8.5t-8.5 -3.5h-117q-5 0 -8.5 3.5t-3.5 8.5v676q0 5 3.5 8.5t8.5 3.5h202q55 0 98 -26.5t66.5 -74.5t23.5 -110q0 -59 -22.5 -104t-62.5 -70q-2 -1 -3 -2.5t0 -3.5l92 -295l1 -4q0 -10 -11 -10h-120
q-11 0 -14 10zM185 574v-171q0 -5 5 -5h45q31 0 50.5 24.5t19.5 65.5q0 42 -19.5 66.5t-50.5 24.5h-45q-5 0 -5 -5zM89 879q0 7 10 7h87q11 0 15 -9l30 -56q3 -4 6 0l30 56q5 9 14 9h88q7 0 9.5 -3.5t-1.5 -10.5l-66 -104q-5 -8 -14 -8h-129q-10 0 -14 8l-63 104q-2 6 -2 7z
" />
    <glyph glyph-name="rcaron" unicode="&#x159;" horiz-adv-x="324" 
d="M310 510q8 -5 6 -15l-19 -117q-1 -11 -14 -8q-11 4 -27 4q-15 0 -26 -4q-23 -4 -37 -27.5t-14 -54.5v-275q0 -5 -3.5 -8.5t-8.5 -3.5h-117q-5 0 -8.5 3.5t-3.5 8.5v489q0 5 3.5 8.5t8.5 3.5h117q5 0 8.5 -3.5t3.5 -8.5v-39q0 -4 1.5 -4.5t3.5 2.5q27 59 84 59
q27 0 42 -10zM39 693q0 7 10 7h87q11 0 15 -9l30 -56q3 -4 6 0l30 56q5 9 14 9h88q7 0 9.5 -3.5t-1.5 -10.5l-66 -104q-5 -8 -14 -8h-129q-10 0 -14 8l-63 104q-2 6 -2 7z" />
    <glyph glyph-name="Sacute" unicode="&#x15a;" horiz-adv-x="444" 
d="M122 15q-44 23 -68 64.5t-24 95.5v29q0 5 3.5 8.5t8.5 3.5h115q5 0 8.5 -3.5t3.5 -8.5v-22q0 -31 16 -50t40 -19t40 18t16 47q0 30 -20 51.5t-78 63.5q-50 36 -81 64t-53 69t-22 95q0 85 53 136t140 51q88 0 141.5 -53t53.5 -139v-24q0 -5 -3.5 -8.5t-8.5 -3.5h-115
q-5 0 -8.5 3.5t-3.5 8.5v27q0 31 -15.5 49.5t-40.5 18.5q-24 0 -39 -17.5t-15 -48.5q0 -30 19 -53t75 -64q62 -46 93.5 -74.5t49 -63t17.5 -82.5q0 -88 -54 -140t-142 -52q-58 0 -102 23zM155 766q-3 4 1 10l59 102q4 8 15 8h93q10 0 10 -7q0 -3 -3 -8l-77 -102
q-6 -7 -14 -7h-74q-7 0 -10 4z" />
    <glyph glyph-name="sacute" unicode="&#x15b;" horiz-adv-x="413" 
d="M74.5 33.5q-50.5 40.5 -50.5 108.5v7q0 5 3.5 8.5t8.5 3.5h110q5 0 8.5 -3.5t3.5 -8.5v-3q0 -21 15 -34.5t37 -13.5q20 0 31.5 11.5t11.5 29.5q0 22 -19 34.5t-42.5 21t-32.5 11.5q-55 20 -92.5 55.5t-37.5 102.5q0 73 48 115t128 42q83 0 131.5 -44t48.5 -119
q0 -5 -3.5 -8.5t-8.5 -3.5h-107q-5 0 -8.5 3.5t-3.5 8.5v8q0 20 -12.5 32.5t-32.5 12.5q-21 0 -33 -13.5t-12 -31.5q0 -24 20.5 -37.5t62.5 -29.5q43 -16 73.5 -32.5t52.5 -47t22 -76.5q0 -69 -50.5 -109.5t-134.5 -40.5q-85 0 -135.5 40.5zM141 580q-3 4 1 10l59 102
q4 8 15 8h93q10 0 10 -7q0 -3 -3 -8l-77 -102q-6 -7 -14 -7h-74q-7 0 -10 4z" />
    <glyph glyph-name="Scircumflex" unicode="&#x15c;" horiz-adv-x="444" 
d="M122 15q-44 23 -68 64.5t-24 95.5v29q0 5 3.5 8.5t8.5 3.5h115q5 0 8.5 -3.5t3.5 -8.5v-22q0 -31 16 -50t40 -19t40 18t16 47q0 30 -20 51.5t-78 63.5q-50 36 -81 64t-53 69t-22 95q0 85 53 136t140 51q88 0 141.5 -53t53.5 -139v-24q0 -5 -3.5 -8.5t-8.5 -3.5h-115
q-5 0 -8.5 3.5t-3.5 8.5v27q0 31 -15.5 49.5t-40.5 18.5q-24 0 -39 -17.5t-15 -48.5q0 -30 19 -53t75 -64q62 -46 93.5 -74.5t49 -63t17.5 -82.5q0 -88 -54 -140t-142 -52q-58 0 -102 23zM74.5 763.5q-2.5 3.5 1.5 10.5l63 104q4 8 14 8h129q9 0 14 -8l66 -104q2 -6 2 -7
q0 -7 -10 -7h-88q-10 0 -14 9l-30 56q-3 5 -6 0l-30 -56q-5 -9 -15 -9h-87q-7 0 -9.5 3.5z" />
    <glyph glyph-name="scircumflex" unicode="&#x15d;" horiz-adv-x="413" 
d="M74.5 33.5q-50.5 40.5 -50.5 108.5v7q0 5 3.5 8.5t8.5 3.5h110q5 0 8.5 -3.5t3.5 -8.5v-3q0 -21 15 -34.5t37 -13.5q20 0 31.5 11.5t11.5 29.5q0 22 -19 34.5t-42.5 21t-32.5 11.5q-55 20 -92.5 55.5t-37.5 102.5q0 73 48 115t128 42q83 0 131.5 -44t48.5 -119
q0 -5 -3.5 -8.5t-8.5 -3.5h-107q-5 0 -8.5 3.5t-3.5 8.5v8q0 20 -12.5 32.5t-32.5 12.5q-21 0 -33 -13.5t-12 -31.5q0 -24 20.5 -37.5t62.5 -29.5q43 -16 73.5 -32.5t52.5 -47t22 -76.5q0 -69 -50.5 -109.5t-134.5 -40.5q-85 0 -135.5 40.5zM60.5 577.5q-2.5 3.5 1.5 10.5
l63 104q4 8 14 8h129q9 0 14 -8l66 -104q2 -6 2 -7q0 -7 -10 -7h-88q-10 0 -14 9l-30 56q-3 5 -6 0l-30 -56q-5 -9 -15 -9h-87q-7 0 -9.5 3.5z" />
    <glyph glyph-name="Scedilla" unicode="&#x15e;" horiz-adv-x="444" 
d="M381 61q-39 -50 -105 -64q-3 0 -3.5 -2t1.5 -4q36 -40 36 -88q0 -13 -3 -26q-8 -34 -31.5 -48t-54.5 -14q-26 0 -47 7q-10 3 -9 14l6 46q2 12 14 9q15 -2 25 6t10 27q0 32 -41 71l-6 3q-66 14 -104.5 61.5t-38.5 115.5v29q0 5 3.5 8.5t8.5 3.5h115q5 0 8.5 -3.5t3.5 -8.5
v-22q0 -31 16 -50t40 -19t40 18t16 47q0 30 -20 51.5t-78 63.5q-50 36 -81 64t-53 69t-22 95q0 85 53 136t140 51q88 0 141.5 -53t53.5 -139v-24q0 -5 -3.5 -8.5t-8.5 -3.5h-115q-5 0 -8.5 3.5t-3.5 8.5v27q0 31 -15.5 49.5t-40.5 18.5q-24 0 -39 -17.5t-15 -48.5
q0 -30 19 -53t75 -64q62 -46 93.5 -74.5t49 -63t17.5 -82.5q0 -73 -39 -123z" />
    <glyph glyph-name="scedilla" unicode="&#x15f;" horiz-adv-x="413" 
d="M360 48q-35 -38 -96 -50q-6 -2 -2 -6q36 -42 36 -88q0 -13 -3 -26q-8 -34 -31.5 -48t-54.5 -14q-19 0 -47 7q-10 3 -9 14l6 46q1 11 14 9q12 -2 21 4.5t13 20.5q6 34 -39 77l-6 3q-65 11 -101.5 49t-36.5 96v7q0 5 3.5 8.5t8.5 3.5h110q5 0 8.5 -3.5t3.5 -8.5v-3
q0 -21 15 -34.5t37 -13.5q20 0 31.5 11.5t11.5 29.5q0 22 -19 34.5t-42.5 21t-32.5 11.5q-55 20 -92.5 55.5t-37.5 102.5q0 73 48 115t128 42q83 0 131.5 -44t48.5 -119q0 -5 -3.5 -8.5t-8.5 -3.5h-107q-5 0 -8.5 3.5t-3.5 8.5v8q0 20 -12.5 32.5t-32.5 12.5
q-21 0 -33 -13.5t-12 -31.5q0 -24 20.5 -37.5t62.5 -29.5q43 -16 73.5 -32.5t52.5 -47t22 -76.5q0 -57 -35 -95z" />
    <glyph glyph-name="Scaron" unicode="&#x160;" horiz-adv-x="444" 
d="M122 15q-44 23 -68 64.5t-24 95.5v29q0 5 3.5 8.5t8.5 3.5h115q5 0 8.5 -3.5t3.5 -8.5v-22q0 -31 16 -50t40 -19t40 18t16 47q0 30 -20 51.5t-78 63.5q-50 36 -81 64t-53 69t-22 95q0 85 53 136t140 51q88 0 141.5 -53t53.5 -139v-24q0 -5 -3.5 -8.5t-8.5 -3.5h-115
q-5 0 -8.5 3.5t-3.5 8.5v27q0 31 -15.5 49.5t-40.5 18.5q-24 0 -39 -17.5t-15 -48.5q0 -30 19 -53t75 -64q62 -46 93.5 -74.5t49 -63t17.5 -82.5q0 -88 -54 -140t-142 -52q-58 0 -102 23zM79 879q0 7 10 7h87q11 0 15 -9l30 -56q3 -4 6 0l30 56q5 9 14 9h88q7 0 9.5 -3.5
t-1.5 -10.5l-66 -104q-5 -8 -14 -8h-129q-10 0 -14 8l-63 104q-2 6 -2 7z" />
    <glyph glyph-name="scaron" unicode="&#x161;" horiz-adv-x="413" 
d="M74.5 33.5q-50.5 40.5 -50.5 108.5v7q0 5 3.5 8.5t8.5 3.5h110q5 0 8.5 -3.5t3.5 -8.5v-3q0 -21 15 -34.5t37 -13.5q20 0 31.5 11.5t11.5 29.5q0 22 -19 34.5t-42.5 21t-32.5 11.5q-55 20 -92.5 55.5t-37.5 102.5q0 73 48 115t128 42q83 0 131.5 -44t48.5 -119
q0 -5 -3.5 -8.5t-8.5 -3.5h-107q-5 0 -8.5 3.5t-3.5 8.5v8q0 20 -12.5 32.5t-32.5 12.5q-21 0 -33 -13.5t-12 -31.5q0 -24 20.5 -37.5t62.5 -29.5q43 -16 73.5 -32.5t52.5 -47t22 -76.5q0 -69 -50.5 -109.5t-134.5 -40.5q-85 0 -135.5 40.5zM65 693q0 7 10 7h87q11 0 15 -9
l30 -56q3 -4 6 0l30 56q5 9 14 9h88q7 0 9.5 -3.5t-1.5 -10.5l-66 -104q-5 -8 -14 -8h-129q-10 0 -14 8l-63 104q-2 6 -2 7z" />
    <glyph glyph-name="uni0162" unicode="&#x162;" horiz-adv-x="468" 
d="M440.5 696.5q3.5 -3.5 3.5 -8.5v-97q0 -5 -3.5 -8.5t-8.5 -3.5h-125q-5 0 -5 -5v-562q0 -5 -3.5 -8.5t-8.5 -3.5h-117q-5 0 -8.5 3.5t-3.5 8.5v562q0 5 -5 5h-120q-5 0 -8.5 3.5t-3.5 8.5v97q0 5 3.5 8.5t8.5 3.5h396q5 0 8.5 -3.5zM209 -170l6 46q1 12 14 10
q27 -4 34 24q6 33 -38 75q-5 5 -5 8q0 7 11 7h62q9 0 15 -6q45 -44 45 -98q0 -17 -2 -25q-8 -34 -31.5 -48t-54.5 -14q-19 0 -47 7q-10 3 -9 14z" />
    <glyph glyph-name="uni0163" unicode="&#x163;" horiz-adv-x="291" 
d="M268.5 418.5q-3.5 -3.5 -8.5 -3.5h-56q-5 0 -5 -5v-238q0 -29 11 -40t33 -10h7q5 0 8.5 -3.5t3.5 -8.5v-98q0 -5 -3.5 -8.5t-8.5 -3.5h-15q-3 0 -4 -2t1 -4q28 -37 28 -77q0 -14 -3 -27q-8 -33 -31 -47t-54 -14q-27 0 -48 7q-10 3 -9 14l6 46q1 6 4 7.5t8 1.5h7
q23 0 28 24q1 3 1 10q0 15 -11.5 34t-32.5 37l-5 3q-28 13 -42.5 38t-14.5 67v292q0 5 -5 5h-33q-5 0 -8.5 3.5t-3.5 8.5v75q0 5 3.5 8.5t8.5 3.5h33q5 0 5 5v111q0 5 3.5 8.5t8.5 3.5h112q5 0 8.5 -3.5t3.5 -8.5v-111q0 -5 5 -5h56q5 0 8.5 -3.5t3.5 -8.5v-75
q0 -5 -3.5 -8.5z" />
    <glyph glyph-name="Tcaron" unicode="&#x164;" horiz-adv-x="468" 
d="M440.5 696.5q3.5 -3.5 3.5 -8.5v-97q0 -5 -3.5 -8.5t-8.5 -3.5h-125q-5 0 -5 -5v-562q0 -5 -3.5 -8.5t-8.5 -3.5h-117q-5 0 -8.5 3.5t-3.5 8.5v562q0 5 -5 5h-120q-5 0 -8.5 3.5t-3.5 8.5v97q0 5 3.5 8.5t8.5 3.5h396q5 0 8.5 -3.5zM92 878q0 7 10 7h87q11 0 15 -9
l30 -56q3 -4 6 0l30 56q5 9 14 9h88q7 0 9.5 -3.5t-1.5 -10.5l-66 -104q-5 -8 -14 -8h-129q-10 0 -14 8l-63 104q-2 6 -2 7z" />
    <glyph glyph-name="tcaron" unicode="&#x165;" horiz-adv-x="291" 
d="M268.5 418.5q-3.5 -3.5 -8.5 -3.5h-56q-5 0 -5 -5v-238q0 -29 11 -40t33 -10h7q5 0 8.5 -3.5t3.5 -8.5v-98q0 -5 -3.5 -8.5t-8.5 -3.5h-40q-73 0 -110 24.5t-37 93.5v292q0 5 -5 5h-33q-5 0 -8.5 3.5t-3.5 8.5v75q0 5 3.5 8.5t8.5 3.5h33q5 0 5 5v111q0 5 3.5 8.5
t8.5 3.5h112q5 0 8.5 -3.5t3.5 -8.5v-111q0 -5 5 -5h56q5 0 8.5 -3.5t3.5 -8.5v-75q0 -5 -3.5 -8.5zM219 581q-3 4 1 10l59 102q4 8 15 8h93q10 0 10 -7q0 -3 -3 -8l-77 -102q-6 -7 -14 -7h-74q-7 0 -10 4z" />
    <glyph glyph-name="Tbar" unicode="&#x166;" horiz-adv-x="468" 
d="M440.5 582.5q-3.5 -3.5 -8.5 -3.5h-125q-5 0 -5 -5v-160q0 -5 5 -5h49q5 0 8.5 -3.5t3.5 -8.5v-61q0 -5 -3.5 -8.5t-8.5 -3.5h-49q-5 0 -5 -5v-307q0 -5 -3.5 -8.5t-8.5 -3.5h-117q-5 0 -8.5 3.5t-3.5 8.5v307q0 5 -5 5h-61q-5 0 -8.5 3.5t-3.5 8.5v61q0 5 3.5 8.5
t8.5 3.5h61q5 0 5 5v160q0 5 -5 5h-120q-5 0 -8.5 3.5t-3.5 8.5v97q0 5 3.5 8.5t8.5 3.5h396q5 0 8.5 -3.5t3.5 -8.5v-97q0 -5 -3.5 -8.5z" />
    <glyph glyph-name="tbar" unicode="&#x167;" horiz-adv-x="291" 
d="M271.5 272.5q-3.5 -3.5 -8.5 -3.5h-59q-5 0 -5 -5v-92q0 -29 11 -40t33 -10h7q5 0 8.5 -3.5t3.5 -8.5v-98q0 -5 -3.5 -8.5t-8.5 -3.5h-40q-73 0 -110 24.5t-37 93.5v146q0 5 -5 5h-32q-5 0 -8.5 3.5t-3.5 8.5v61q0 5 3.5 8.5t8.5 3.5h32q5 0 5 5v51q0 5 -5 5h-33
q-5 0 -8.5 3.5t-3.5 8.5v75q0 5 3.5 8.5t8.5 3.5h33q5 0 5 5v111q0 5 3.5 8.5t8.5 3.5h112q5 0 8.5 -3.5t3.5 -8.5v-111q0 -5 5 -5h56q5 0 8.5 -3.5t3.5 -8.5v-75q0 -5 -3.5 -8.5t-8.5 -3.5h-56q-5 0 -5 -5v-51q0 -5 5 -5h59q5 0 8.5 -3.5t3.5 -8.5v-61q0 -5 -3.5 -8.5z" />
    <glyph glyph-name="Utilde" unicode="&#x168;" horiz-adv-x="479" 
d="M95.5 48.5q-54.5 56.5 -54.5 150.5v489q0 5 3.5 8.5t8.5 3.5h117q5 0 8.5 -3.5t3.5 -8.5v-503q0 -32 16 -52t42 -20t41.5 20t15.5 52v503q0 5 3.5 8.5t8.5 3.5h117q5 0 8.5 -3.5t3.5 -8.5v-489q0 -94 -54.5 -150.5t-143.5 -56.5q-90 0 -144.5 56.5zM253 790
q-9 4 -20.5 11t-21.5 7q-22 0 -36 -22q-7 -10 -17 -4l-42 30q-8 6 -5 16q13 35 36.5 52t51.5 17q30 0 64 -23q2 -2 10 -7t15.5 -8t15.5 -3q23 0 36 20q7 12 17 5l40 -28q5 -3 5 -9t-5 -14q-17 -30 -41.5 -44t-48.5 -14q-21 0 -54 18z" />
    <glyph glyph-name="utilde" unicode="&#x169;" 
d="M271.5 510.5q3.5 3.5 8.5 3.5h117q5 0 8.5 -3.5t3.5 -8.5v-490q0 -5 -3.5 -8.5t-8.5 -3.5h-117q-5 0 -8.5 3.5t-3.5 8.5v17q0 3 -2 4t-4 -2q-15 -21 -37.5 -29.5t-52.5 -8.5q-60 0 -99 36.5t-39 112.5v360q0 5 3.5 8.5t8.5 3.5h117q5 0 8.5 -3.5t3.5 -8.5v-329
q0 -29 11.5 -44.5t33.5 -15.5t35 17t13 46v326q0 5 3.5 8.5zM234 604q-9 4 -20.5 11t-21.5 7q-22 0 -36 -22q-7 -10 -17 -4l-42 30q-8 6 -5 16q13 35 36.5 52t51.5 17q30 0 64 -23q2 -2 10 -7t15.5 -8t15.5 -3q23 0 36 20q7 12 17 5l40 -28q5 -3 5 -9t-5 -14
q-17 -30 -41.5 -44t-48.5 -14q-21 0 -54 18z" />
    <glyph glyph-name="Umacron" unicode="&#x16a;" horiz-adv-x="479" 
d="M95.5 48.5q-54.5 56.5 -54.5 150.5v489q0 5 3.5 8.5t8.5 3.5h117q5 0 8.5 -3.5t3.5 -8.5v-503q0 -32 16 -52t42 -20t41.5 20t15.5 52v503q0 5 3.5 8.5t8.5 3.5h117q5 0 8.5 -3.5t3.5 -8.5v-489q0 -94 -54.5 -150.5t-143.5 -56.5q-90 0 -144.5 56.5zM128.5 770.5
q-3.5 3.5 -3.5 8.5v72q0 5 3.5 8.5t8.5 3.5h196q5 0 8.5 -3.5t3.5 -8.5v-72q0 -5 -3.5 -8.5t-8.5 -3.5h-196q-5 0 -8.5 3.5z" />
    <glyph glyph-name="umacron" unicode="&#x16b;" 
d="M271.5 510.5q3.5 3.5 8.5 3.5h117q5 0 8.5 -3.5t3.5 -8.5v-490q0 -5 -3.5 -8.5t-8.5 -3.5h-117q-5 0 -8.5 3.5t-3.5 8.5v17q0 3 -2 4t-4 -2q-15 -21 -37.5 -29.5t-52.5 -8.5q-60 0 -99 36.5t-39 112.5v360q0 5 3.5 8.5t8.5 3.5h117q5 0 8.5 -3.5t3.5 -8.5v-329
q0 -29 11.5 -44.5t33.5 -15.5t35 17t13 46v326q0 5 3.5 8.5zM110.5 584.5q-3.5 3.5 -3.5 8.5v72q0 5 3.5 8.5t8.5 3.5h196q5 0 8.5 -3.5t3.5 -8.5v-72q0 -5 -3.5 -8.5t-8.5 -3.5h-196q-5 0 -8.5 3.5z" />
    <glyph glyph-name="Ubreve" unicode="&#x16c;" horiz-adv-x="479" 
d="M95.5 48.5q-54.5 56.5 -54.5 150.5v489q0 5 3.5 8.5t8.5 3.5h117q5 0 8.5 -3.5t3.5 -8.5v-503q0 -32 16 -52t42 -20t41.5 20t15.5 52v503q0 5 3.5 8.5t8.5 3.5h117q5 0 8.5 -3.5t3.5 -8.5v-489q0 -94 -54.5 -150.5t-143.5 -56.5q-90 0 -144.5 56.5zM157.5 780
q-32.5 29 -36.5 77v2q0 10 11 10h50q12 0 12 -12q3 -20 15.5 -32t30.5 -12q17 0 30 12.5t16 31.5q1 12 13 12h50q12 0 11 -12q-4 -47 -37 -76.5t-83 -29.5t-82.5 29z" />
    <glyph glyph-name="ubreve" unicode="&#x16d;" 
d="M271.5 510.5q3.5 3.5 8.5 3.5h117q5 0 8.5 -3.5t3.5 -8.5v-490q0 -5 -3.5 -8.5t-8.5 -3.5h-117q-5 0 -8.5 3.5t-3.5 8.5v17q0 3 -2 4t-4 -2q-15 -21 -37.5 -29.5t-52.5 -8.5q-60 0 -99 36.5t-39 112.5v360q0 5 3.5 8.5t8.5 3.5h117q5 0 8.5 -3.5t3.5 -8.5v-329
q0 -29 11.5 -44.5t33.5 -15.5t35 17t13 46v326q0 5 3.5 8.5zM138.5 594q-32.5 29 -36.5 77v2q0 10 11 10h50q12 0 12 -12q3 -20 15.5 -32t30.5 -12q17 0 30 12.5t16 31.5q1 12 13 12h50q12 0 11 -12q-4 -47 -37 -76.5t-83 -29.5t-82.5 29z" />
    <glyph glyph-name="Uring" unicode="&#x16e;" horiz-adv-x="479" 
d="M95.5 48.5q-54.5 56.5 -54.5 150.5v489q0 5 3.5 8.5t8.5 3.5h117q5 0 8.5 -3.5t3.5 -8.5v-503q0 -32 16 -52t42 -20t41.5 20t15.5 52v503q0 5 3.5 8.5t8.5 3.5h117q5 0 8.5 -3.5t3.5 -8.5v-489q0 -94 -54.5 -150.5t-143.5 -56.5q-90 0 -144.5 56.5zM152.5 784.5
q-35.5 35.5 -35.5 88.5t35.5 88.5t87.5 35.5t88 -35.5t36 -88.5q0 -52 -36 -88t-88 -36t-87.5 35.5zM275 837.5q15 14.5 15 35.5q0 22 -15 36.5t-35 14.5t-34.5 -14.5t-14.5 -36.5q0 -21 14.5 -35.5t34.5 -14.5t35 14.5z" />
    <glyph glyph-name="uring" unicode="&#x16f;" 
d="M271.5 510.5q3.5 3.5 8.5 3.5h117q5 0 8.5 -3.5t3.5 -8.5v-490q0 -5 -3.5 -8.5t-8.5 -3.5h-117q-5 0 -8.5 3.5t-3.5 8.5v17q0 3 -2 4t-4 -2q-15 -21 -37.5 -29.5t-52.5 -8.5q-60 0 -99 36.5t-39 112.5v360q0 5 3.5 8.5t8.5 3.5h117q5 0 8.5 -3.5t3.5 -8.5v-329
q0 -29 11.5 -44.5t33.5 -15.5t35 17t13 46v326q0 5 3.5 8.5zM133.5 598.5q-35.5 35.5 -35.5 88.5t35.5 88.5t87.5 35.5t88 -35.5t36 -88.5q0 -52 -36 -88t-88 -36t-87.5 35.5zM256 651.5q15 14.5 15 35.5q0 22 -15 36.5t-35 14.5t-34.5 -14.5t-14.5 -36.5q0 -21 14.5 -35.5
t34.5 -14.5t35 14.5z" />
    <glyph glyph-name="Uhungarumlaut" unicode="&#x170;" horiz-adv-x="479" 
d="M95.5 48.5q-54.5 56.5 -54.5 150.5v489q0 5 3.5 8.5t8.5 3.5h117q5 0 8.5 -3.5t3.5 -8.5v-503q0 -32 16 -52t42 -20t41.5 20t15.5 52v503q0 5 3.5 8.5t8.5 3.5h117q5 0 8.5 -3.5t3.5 -8.5v-489q0 -94 -54.5 -150.5t-143.5 -56.5q-90 0 -144.5 56.5zM115.5 765.5
q-2.5 3.5 0.5 10.5l47 101q4 9 14 9h96q7 0 9.5 -4t-0.5 -10l-53 -101q-5 -9 -15 -9h-89q-7 0 -9.5 3.5zM273.5 766q-2.5 4 0.5 10l53 101q4 9 15 9h89q7 0 9.5 -4t-0.5 -10l-53 -101q-5 -9 -15 -9h-89q-7 0 -9.5 4z" />
    <glyph glyph-name="uhungarumlaut" unicode="&#x171;" 
d="M271.5 510.5q3.5 3.5 8.5 3.5h117q5 0 8.5 -3.5t3.5 -8.5v-490q0 -5 -3.5 -8.5t-8.5 -3.5h-117q-5 0 -8.5 3.5t-3.5 8.5v17q0 3 -2 4t-4 -2q-15 -21 -37.5 -29.5t-52.5 -8.5q-60 0 -99 36.5t-39 112.5v360q0 5 3.5 8.5t8.5 3.5h117q5 0 8.5 -3.5t3.5 -8.5v-329
q0 -29 11.5 -44.5t33.5 -15.5t35 17t13 46v326q0 5 3.5 8.5zM96.5 579.5q-2.5 3.5 0.5 10.5l47 101q4 9 14 9h96q7 0 9.5 -4t-0.5 -10l-53 -101q-5 -9 -15 -9h-89q-7 0 -9.5 3.5zM254.5 580q-2.5 4 0.5 10l53 101q4 9 15 9h89q7 0 9.5 -4t-0.5 -10l-53 -101q-5 -9 -15 -9
h-89q-7 0 -9.5 4z" />
    <glyph glyph-name="Uogonek" unicode="&#x172;" horiz-adv-x="479" 
d="M300.5 696.5q3.5 3.5 8.5 3.5h117q5 0 8.5 -3.5t3.5 -8.5v-489q0 -80 -41 -134t-111 -68l-5 -3q-37 -37 -37 -66q0 -19 10 -27.5t24 -6.5h3q10 0 11 -9l6 -46v-4q0 -7 -8 -10q-21 -7 -48 -7q-37 0 -63 19.5t-26 67.5q0 45 35 87q2 2 1 4t-3 2q-68 17 -106.5 70t-38.5 131
v489q0 5 3.5 8.5t8.5 3.5h117q5 0 8.5 -3.5t3.5 -8.5v-503q0 -32 16 -52t42 -20t41.5 20t15.5 52v503q0 5 3.5 8.5z" />
    <glyph glyph-name="uogonek" unicode="&#x173;" 
d="M392 -114q10 0 11 -10l6 -46v-3q0 -8 -9 -11q-28 -7 -47 -7q-38 0 -63.5 20t-25.5 68q0 51 45 97q2 2 1 4t-4 2h-26q-5 0 -8.5 3.5t-3.5 8.5v17q0 3 -2 4t-4 -2q-15 -21 -37.5 -29.5t-52.5 -8.5q-60 0 -99 36.5t-39 112.5v360q0 5 3.5 8.5t8.5 3.5h117q5 0 8.5 -3.5
t3.5 -8.5v-329q0 -29 11.5 -44.5t33.5 -15.5t35 17t13 46v326q0 5 3.5 8.5t8.5 3.5h117q5 0 8.5 -3.5t3.5 -8.5v-493q0 -9 -7 -15q-47 -41 -47 -75q0 -6 1 -9q3 -14 12 -20t21 -4h3z" />
    <glyph glyph-name="Wcircumflex" unicode="&#x174;" horiz-adv-x="680" 
d="M156 11l-135 676l-1 4q0 9 11 9h122q12 0 13 -11l57 -360q1 -4 3 -4t3 4l54 360q1 11 13 11h101q12 0 13 -11l59 -360q1 -4 3 -4t3 4l51 360q1 11 13 11h118q13 0 11 -13l-127 -676q-1 -11 -13 -11h-108q-12 0 -13 11l-59 370q-1 4 -3 4t-3 -4l-53 -370q-1 -11 -13 -11
h-107q-11 0 -13 11zM191.5 763.5q-2.5 3.5 1.5 10.5l63 104q4 8 14 8h129q9 0 14 -8l66 -104q2 -6 2 -7q0 -7 -10 -7h-88q-10 0 -14 9l-30 56q-3 5 -6 0l-30 -56q-5 -9 -15 -9h-87q-7 0 -9.5 3.5z" />
    <glyph glyph-name="wcircumflex" unicode="&#x175;" horiz-adv-x="613" 
d="M124 11l-108 491v4q0 9 11 9h111q12 0 13 -11l43 -274q1 -3 3 -3t3 3l44 274q1 11 13 11h99q12 0 13 -11l47 -275q1 -3 3 -2.5t3 3.5l42 274q1 11 13 11l110 -2q13 0 10 -13l-107 -489q-2 -11 -13 -11h-114q-12 0 -13 11l-43 254q-1 3 -3 3t-3 -3l-41 -254
q-1 -11 -13 -11h-110q-11 0 -13 11zM160.5 577.5q-2.5 3.5 1.5 10.5l63 104q4 8 14 8h129q9 0 14 -8l66 -104q2 -6 2 -7q0 -7 -10 -7h-88q-10 0 -14 9l-30 56q-3 5 -6 0l-30 -56q-5 -9 -15 -9h-87q-7 0 -9.5 3.5z" />
    <glyph glyph-name="Ycircumflex" unicode="&#x176;" horiz-adv-x="474" 
d="M169.5 4.5q-3.5 3.5 -3.5 8.5v260l-1 6l-140 407q-1 2 -1 5q0 9 11 9h123q11 0 14 -10l62 -239q1 -3 3 -3t3 3l62 239q3 10 14 10h123q6 0 9 -3.5t1 -10.5l-141 -407l-1 -6v-260q0 -5 -3.5 -8.5t-8.5 -3.5h-117q-5 0 -8.5 3.5zM91.5 763.5q-2.5 3.5 1.5 10.5l63 104
q4 8 14 8h129q9 0 14 -8l66 -104q2 -6 2 -7q0 -7 -10 -7h-88q-10 0 -14 9l-30 56q-3 5 -6 0l-30 -56q-5 -9 -15 -9h-87q-7 0 -9.5 3.5z" />
    <glyph glyph-name="ycircumflex" unicode="&#x177;" horiz-adv-x="422" 
d="M34 -195.5q-2 3.5 -2 8.5v92q0 12 9 12q52 1 74 16.5t25 63.5l-1 6l-126 499v4q0 9 11 9h126q12 0 13 -11l46 -297q1 -4 3 -4t3 4l44 297q1 11 13 11l126 -2q14 0 11 -13l-132 -519q-20 -73 -42.5 -109.5t-66 -53.5t-125.5 -17h-5q-2 0 -4 3.5zM65.5 577.5
q-2.5 3.5 1.5 10.5l63 104q4 8 14 8h129q9 0 14 -8l66 -104q2 -6 2 -7q0 -7 -10 -7h-88q-10 0 -14 9l-30 56q-3 5 -6 0l-30 -56q-5 -9 -15 -9h-87q-7 0 -9.5 3.5z" />
    <glyph glyph-name="Ydieresis" unicode="&#x178;" horiz-adv-x="474" 
d="M169.5 4.5q-3.5 3.5 -3.5 8.5v260l-1 6l-140 407q-1 2 -1 5q0 9 11 9h123q11 0 14 -10l62 -239q1 -3 3 -3t3 3l62 239q3 10 14 10h123q6 0 9 -3.5t1 -10.5l-141 -407l-1 -6v-260q0 -5 -3.5 -8.5t-8.5 -3.5h-117q-5 0 -8.5 3.5zM272.5 780.5q-22.5 22.5 -22.5 56.5
q0 35 22 57t57 22t57 -22t22 -57q0 -34 -22.5 -56.5t-56.5 -22.5t-56.5 22.5zM88.5 780.5q-22.5 22.5 -22.5 56.5q0 35 22 57t57 22t57 -22t22 -57q0 -34 -22.5 -56.5t-56.5 -22.5t-56.5 22.5z" />
    <glyph glyph-name="Zacute" unicode="&#x179;" horiz-adv-x="412" 
d="M23.5 3.5q-3.5 3.5 -3.5 8.5v101q0 8 3 15l214 445q1 3 0 4.5t-4 1.5h-201q-5 0 -8.5 3.5t-3.5 8.5v97q0 5 3.5 8.5t8.5 3.5h344q5 0 8.5 -3.5t3.5 -8.5v-101q0 -7 -3 -15l-214 -445q-1 -3 0 -4.5t4 -1.5h201q5 0 8.5 -3.5t3.5 -8.5v-97q0 -5 -3.5 -8.5t-8.5 -3.5h-344
q-5 0 -8.5 3.5zM140 766q-3 4 1 10l59 102q4 8 15 8h93q10 0 10 -7q0 -3 -3 -8l-77 -102q-6 -7 -14 -7h-74q-7 0 -10 4z" />
    <glyph glyph-name="zacute" unicode="&#x17a;" horiz-adv-x="373" 
d="M21.5 3.5q-3.5 3.5 -3.5 8.5v108q0 8 4 15l156 246q3 6 -3 6h-139q-5 0 -8.5 3.5t-3.5 8.5v103q0 5 3.5 8.5t8.5 3.5h301q5 0 8.5 -3.5t3.5 -8.5v-107q0 -8 -4 -15l-162 -246q-3 -6 3 -6h157q5 0 8.5 -3.5t3.5 -8.5v-104q0 -5 -3.5 -8.5t-8.5 -3.5h-313q-5 0 -8.5 3.5z
M122 580q-3 4 1 10l59 102q4 8 15 8h93q10 0 10 -7q0 -3 -3 -8l-77 -102q-6 -7 -14 -7h-74q-7 0 -10 4z" />
    <glyph glyph-name="Zdotaccent" unicode="&#x17b;" horiz-adv-x="412" 
d="M23.5 3.5q-3.5 3.5 -3.5 8.5v101q0 8 3 15l214 445q1 3 0 4.5t-4 1.5h-201q-5 0 -8.5 3.5t-3.5 8.5v97q0 5 3.5 8.5t8.5 3.5h344q5 0 8.5 -3.5t3.5 -8.5v-101q0 -7 -3 -15l-214 -445q-1 -3 0 -4.5t4 -1.5h201q5 0 8.5 -3.5t3.5 -8.5v-97q0 -5 -3.5 -8.5t-8.5 -3.5h-344
q-5 0 -8.5 3.5zM148.5 780.5q-22.5 22.5 -22.5 56.5q0 35 22 57t57 22t57 -22t22 -57q0 -34 -22.5 -56.5t-56.5 -22.5t-56.5 22.5z" />
    <glyph glyph-name="zdotaccent" unicode="&#x17c;" horiz-adv-x="373" 
d="M21.5 3.5q-3.5 3.5 -3.5 8.5v108q0 8 4 15l156 246q3 6 -3 6h-139q-5 0 -8.5 3.5t-3.5 8.5v103q0 5 3.5 8.5t8.5 3.5h301q5 0 8.5 -3.5t3.5 -8.5v-107q0 -8 -4 -15l-162 -246q-3 -6 3 -6h157q5 0 8.5 -3.5t3.5 -8.5v-104q0 -5 -3.5 -8.5t-8.5 -3.5h-313q-5 0 -8.5 3.5z
M130.5 594.5q-22.5 22.5 -22.5 56.5q0 35 22 57t57 22t57 -22t22 -57q0 -34 -22.5 -56.5t-56.5 -22.5t-56.5 22.5z" />
    <glyph glyph-name="Zcaron" unicode="&#x17d;" horiz-adv-x="412" 
d="M23.5 3.5q-3.5 3.5 -3.5 8.5v101q0 8 3 15l214 445q1 3 0 4.5t-4 1.5h-201q-5 0 -8.5 3.5t-3.5 8.5v97q0 5 3.5 8.5t8.5 3.5h344q5 0 8.5 -3.5t3.5 -8.5v-101q0 -7 -3 -15l-214 -445q-1 -3 0 -4.5t4 -1.5h201q5 0 8.5 -3.5t3.5 -8.5v-97q0 -5 -3.5 -8.5t-8.5 -3.5h-344
q-5 0 -8.5 3.5zM64 879q0 7 10 7h87q11 0 15 -9l30 -56q3 -4 6 0l30 56q5 9 14 9h88q7 0 9.5 -3.5t-1.5 -10.5l-66 -104q-5 -8 -14 -8h-129q-10 0 -14 8l-63 104q-2 6 -2 7z" />
    <glyph glyph-name="zcaron" unicode="&#x17e;" horiz-adv-x="373" 
d="M21.5 3.5q-3.5 3.5 -3.5 8.5v108q0 8 4 15l156 246q3 6 -3 6h-139q-5 0 -8.5 3.5t-3.5 8.5v103q0 5 3.5 8.5t8.5 3.5h301q5 0 8.5 -3.5t3.5 -8.5v-107q0 -8 -4 -15l-162 -246q-3 -6 3 -6h157q5 0 8.5 -3.5t3.5 -8.5v-104q0 -5 -3.5 -8.5t-8.5 -3.5h-313q-5 0 -8.5 3.5z
M46 693q0 7 10 7h87q11 0 15 -9l30 -56q3 -4 6 0l30 56q5 9 14 9h88q7 0 9.5 -3.5t-1.5 -10.5l-66 -104q-5 -8 -14 -8h-129q-10 0 -14 8l-63 104q-2 6 -2 7z" />
    <glyph glyph-name="uni018F" unicode="&#x18f;" horiz-adv-x="543" 
d="M444 647.5q64 -60.5 64 -162.5v-273q0 -65 -29 -116t-83 -79t-127 -28t-126.5 28t-82.5 79t-29 116v171q0 5 3.5 8.5t8.5 3.5h319q5 0 5 5v76q0 49 -27.5 79.5t-70.5 30.5q-36 0 -60.5 -23.5t-32.5 -61.5q-3 -10 -13 -10l-117 6q-5 0 -8.5 3.5t-2.5 8.5q9 95 69 147
t165 52q111 0 175 -60.5zM339.5 142q27.5 31 27.5 80v55q0 5 -5 5h-186q-5 0 -5 -5v-55q0 -49 27.5 -80t70.5 -31t70.5 31z" />
    <glyph glyph-name="florin" unicode="&#x192;" horiz-adv-x="478" 
d="M246.5 642q21.5 33 61 48t105.5 15q21 0 32 -1q12 -1 12 -13l-1 -82q0 -5 -3.5 -8.5t-8.5 -3.5h-29q-27 -1 -41 -18t-20 -47l-18 -114q0 -5 4 -5h60q5 0 8.5 -3.5t3.5 -8.5v-84q0 -5 -3.5 -8.5t-8.5 -3.5h-77q-6 0 -6 -5l-57 -354q-9 -55 -30.5 -88t-61.5 -48t-106 -15
q-21 0 -32 1q-12 1 -12 13l1 82q0 5 3.5 8.5t8.5 3.5h30q50 1 60 65l54 332q0 5 -4 5h-44q-5 0 -8.5 3.5t-3.5 8.5v84q0 5 3.5 8.5t8.5 3.5h61q6 0 6 5l22 136q9 55 30.5 88z" />
    <glyph glyph-name="Ohorn" unicode="&#x1a0;" horiz-adv-x="473" 
d="M380 656q59 -53 59 -146v-320q0 -90 -55.5 -144t-147.5 -54t-147 54t-55 144v320q0 90 55 144t147 54q28 0 61 -7q2 -1 6 -1q21 3 36 19.5t18 53.5q0 12 12 12h50q6 0 9 -4.5t2 -13.5q-4 -70 -50 -104q-3 -3 0 -7zM298 516q0 32 -17 51.5t-45 19.5t-44.5 -19.5
t-16.5 -51.5v-332q0 -32 16.5 -51.5t44.5 -19.5t45 19.5t17 51.5v332z" />
    <glyph glyph-name="ohorn" unicode="&#x1a1;" horiz-adv-x="442" 
d="M367 470q45 -45 45 -116v-194q0 -78 -50.5 -123t-140.5 -45q-89 0 -139.5 45t-50.5 123v194q0 76 51 122t139 46q30 0 63 -7q2 -1 6 -1q21 3 36 20t18 53q0 12 12 12h50q6 0 9 -4.5t2 -13.5q-6 -71 -50 -104q-3 -3 0 -7zM257 385q-14 16 -36 16t-35.5 -16t-13.5 -41v-173
q0 -25 13.5 -41t35.5 -16t36 16t14 41v173q0 25 -14 41z" />
    <glyph glyph-name="Uhorn" unicode="&#x1af;" horiz-adv-x="479" 
d="M517 773q-3 -49 -23 -79.5t-52 -43.5q-4 -3 -4 -6v-445q0 -94 -54.5 -150.5t-143.5 -56.5q-90 0 -144.5 56.5t-54.5 150.5v489q0 5 3.5 8.5t8.5 3.5h117q5 0 8.5 -3.5t3.5 -8.5v-503q0 -32 16 -52t42 -20t41.5 20t15.5 52v503q0 5 3.5 8.5t8.5 3.5h73q23 0 40.5 16.5
t20.5 56.5q0 12 12 12h50q12 0 12 -12z" />
    <glyph glyph-name="uhorn" unicode="&#x1b0;" 
d="M486 587q-6 -93 -73 -122q-4 -3 -4 -6v-447q0 -5 -3.5 -8.5t-8.5 -3.5h-117q-5 0 -8.5 3.5t-3.5 8.5v17q0 3 -2 4t-4 -2q-15 -21 -37.5 -29.5t-52.5 -8.5q-60 0 -99 36.5t-39 112.5v360q0 5 3.5 8.5t8.5 3.5h117q5 0 8.5 -3.5t3.5 -8.5v-329q0 -29 11.5 -44.5t33.5 -15.5
t35 17t13 46v326q0 5 3.5 8.5t8.5 3.5h71q23 0 40.5 16.5t20.5 56.5q0 12 12 12h50q12 0 12 -12z" />
    <glyph glyph-name="uni01CD" unicode="&#x1cd;" horiz-adv-x="482" 
d="M325 11l-16 96q0 5 -6 5h-127q-6 0 -6 -5l-16 -96q-1 -11 -13 -11h-117q-13 0 -10 13l147 676q2 11 13 11h135q11 0 13 -11l146 -676l1 -4q0 -9 -11 -9h-120q-12 0 -13 11zM194 221h90q5 0 4 5l-47 273q-1 3 -3 3t-3 -3l-45 -273q0 -5 4 -5zM99 878q0 7 10 7h87
q11 0 15 -9l30 -56q3 -4 6 0l30 56q5 9 14 9h88q7 0 9.5 -3.5t-1.5 -10.5l-66 -104q-5 -8 -14 -8h-129q-10 0 -14 8l-63 104q-2 6 -2 7z" />
    <glyph glyph-name="uni01CE" unicode="&#x1ce;" horiz-adv-x="445" 
d="M362 476q53 -46 53 -121v-343q0 -5 -3.5 -8.5t-8.5 -3.5h-117q-5 0 -8.5 3.5t-3.5 8.5v22q0 3 -2 4t-4 -2q-33 -42 -102 -44q-58 0 -100.5 32t-42.5 122q0 93 51.5 128t148.5 35h46q5 0 5 5v25q0 27 -14.5 44.5t-36.5 17.5q-17 0 -28.5 -10.5t-14.5 -29.5q-1 -12 -13 -12
l-120 1q-12 0 -12 12q5 73 57 116.5t132 43.5q85 0 138 -46zM255.5 116.5q18.5 15.5 18.5 41.5v47q0 5 -5 5h-41q-27 0 -43.5 -15.5t-16.5 -42.5q0 -25 12.5 -38t33.5 -13q23 0 41.5 15.5zM80 692q0 7 10 7h87q11 0 15 -9l30 -56q3 -4 6 0l30 56q5 9 14 9h88q7 0 9.5 -3.5
t-1.5 -10.5l-66 -104q-5 -8 -14 -8h-129q-10 0 -14 8l-63 104q-2 6 -2 7z" />
    <glyph glyph-name="uni01D4" unicode="&#x1d4;" 
d="M271.5 510.5q3.5 3.5 8.5 3.5h117q5 0 8.5 -3.5t3.5 -8.5v-490q0 -5 -3.5 -8.5t-8.5 -3.5h-117q-5 0 -8.5 3.5t-3.5 8.5v17q0 3 -2 4t-4 -2q-15 -21 -37.5 -29.5t-52.5 -8.5q-60 0 -99 36.5t-39 112.5v360q0 5 3.5 8.5t8.5 3.5h117q5 0 8.5 -3.5t3.5 -8.5v-329
q0 -29 11.5 -44.5t33.5 -15.5t35 17t13 46v326q0 5 3.5 8.5zM78 692q0 7 10 7h87q11 0 15 -9l30 -56q3 -4 6 0l30 56q5 9 14 9h88q7 0 9.5 -3.5t-1.5 -10.5l-66 -104q-5 -8 -14 -8h-129q-10 0 -14 8l-63 104q-2 6 -2 7z" />
    <glyph glyph-name="uni01E5" unicode="&#x1e5;" horiz-adv-x="453" 
d="M442.5 296.5q3.5 -3.5 3.5 -8.5v-61q0 -5 -3.5 -8.5t-8.5 -3.5h-21q-5 0 -5 -5v-186q0 -111 -52.5 -171t-188.5 -60q-27 0 -42 1q-12 1 -12 13v98q0 13 13 11q59 -2 89.5 11.5t41 40.5t10.5 71q0 3 -2 3t-4 -3q-18 -24 -43.5 -33.5t-49.5 -9.5q-69 0 -103 44.5t-34 123.5
v190q0 81 34.5 124.5t102.5 43.5q61 0 93 -45q2 -3 4 -2t2 4v23q0 5 3.5 8.5t8.5 3.5h117q5 0 8.5 -3.5t3.5 -8.5v-197q0 -5 5 -5h21q5 0 8.5 -3.5zM253.5 134q13.5 16 13.5 41v35q0 5 -5 5h-36q-5 0 -8.5 3.5t-3.5 8.5v61q0 5 3.5 8.5t8.5 3.5h36q5 0 5 5v39q0 25 -13.5 41
t-34.5 16t-34 -16t-13 -41v-169q0 -25 13 -41t34 -16t34.5 16z" />
    <glyph glyph-name="gcaron" unicode="&#x1e7;" horiz-adv-x="441" 
d="M270.5 510.5q3.5 3.5 8.5 3.5h117q5 0 8.5 -3.5t3.5 -8.5v-478q0 -111 -52.5 -171t-188.5 -60q-27 0 -42 1q-12 1 -12 13v98q0 13 13 11q59 -2 89.5 11.5t41 40.5t10.5 71q0 3 -2 3t-4 -3q-18 -24 -43.5 -33.5t-49.5 -9.5q-69 0 -103 44.5t-34 123.5v190q0 81 34.5 124.5
t102.5 43.5q61 0 93 -45q2 -3 4 -2t2 4v23q0 5 3.5 8.5zM253.5 134q13.5 16 13.5 41v169q0 25 -13.5 41t-34.5 16t-34 -16t-13 -41v-169q0 -25 13 -41t34 -16t34.5 16zM79 692q0 7 10 7h87q11 0 15 -9l30 -56q3 -4 6 0l30 56q5 9 14 9h88q7 0 9.5 -3.5t-1.5 -10.5l-66 -104
q-5 -8 -14 -8h-129q-10 0 -14 8l-63 104q-2 6 -2 7z" />
    <glyph glyph-name="uni01E9" unicode="&#x1e9;" horiz-adv-x="449" 
d="M41.5 3.5q-3.5 3.5 -3.5 8.5v676q0 5 3.5 8.5t8.5 3.5h117q5 0 8.5 -3.5t3.5 -8.5v-331q0 -4 2 -4.5t4 2.5l87 151q4 8 15 8h120q7 0 9.5 -4t-1.5 -10l-108 -168q-2 -4 -1 -7l122 -311q1 -2 1 -5q0 -9 -11 -9h-121q-10 0 -13 10l-64 198q-1 3 -3 3.5t-3 -2.5l-33 -52
q-2 -4 -2 -6v-139q0 -5 -3.5 -8.5t-8.5 -3.5h-117q-5 0 -8.5 3.5zM82 878q0 7 10 7h87q11 0 15 -9l30 -56q3 -4 6 0l30 56q5 9 14 9h88q7 0 9.5 -3.5t-1.5 -10.5l-66 -104q-5 -8 -14 -8h-129q-10 0 -14 8l-63 104q-2 6 -2 7z" />
    <glyph glyph-name="uni01EF" unicode="&#x1ef;" horiz-adv-x="415" 
d="M226.5 255q0.5 -2 3.5 -3q76 -21 118.5 -79.5t42.5 -135.5q0 -68 -33 -122t-90 -84t-126 -30q-45 0 -95 15q-10 3 -10 13l3 100q0 14 14 9q34 -12 68 -12q54 0 91 29t37 93q0 48 -26 82t-74 34q-26 0 -55 -11l-5 -1q-8 0 -11 8l-33 73q-1 2 -1 6q0 5 5 10l139 131
q2 2 1.5 4t-3.5 2h-144q-5 0 -8.5 3.5t-3.5 8.5v104q0 5 3.5 8.5t8.5 3.5h306q5 0 8.5 -3.5t3.5 -8.5v-107q0 -9 -6 -15l-127 -121q-2 -2 -1.5 -4zM55 692q0 7 10 7h87q11 0 15 -9l30 -56q3 -4 6 0l30 56q5 9 14 9h88q7 0 9.5 -3.5t-1.5 -10.5l-66 -104q-5 -8 -14 -8h-129
q-10 0 -14 8l-63 104q-2 6 -2 7z" />
    <glyph glyph-name="oslashacute" unicode="&#x1ff;" horiz-adv-x="442" 
d="M420 499l-29 -56q-1 -4 0 -6q19 -37 19 -83v-194q0 -78 -50.5 -123t-140.5 -45q-34 0 -68 8q-4 2 -6 -3l-21 -42q-2 -5 -7 -6.5t-10 1.5l-75 46q-10 6 -5 16l26 49q1 4 0 7q-24 39 -24 92v194q0 76 51 122t139 46q40 0 76 -11q5 -2 6 3l22 43q2 5 7 6t10 -2l75 -46
q10 -6 5 -16zM255 385q-14 16 -36 16t-35.5 -16t-13.5 -41v-173q0 -25 13.5 -41t35.5 -16t36 16t14 41v173q0 25 -14 41zM157 580q-3 4 1 10l59 102q4 8 15 8h93q10 0 10 -7q0 -3 -3 -8l-77 -102q-6 -7 -14 -7h-74q-7 0 -10 4z" />
    <glyph glyph-name="uni0218" unicode="&#x218;" horiz-adv-x="444" 
d="M122 15q-44 23 -68 64.5t-24 95.5v29q0 5 3.5 8.5t8.5 3.5h115q5 0 8.5 -3.5t3.5 -8.5v-22q0 -31 16 -50t40 -19t40 18t16 47q0 30 -20 51.5t-78 63.5q-50 36 -81 64t-53 69t-22 95q0 85 53 136t140 51q88 0 141.5 -53t53.5 -139v-24q0 -5 -3.5 -8.5t-8.5 -3.5h-115
q-5 0 -8.5 3.5t-3.5 8.5v27q0 31 -15.5 49.5t-40.5 18.5q-24 0 -39 -17.5t-15 -48.5q0 -30 19 -53t75 -64q62 -46 93.5 -74.5t49 -63t17.5 -82.5q0 -88 -54 -140t-142 -52q-58 0 -102 23zM134 -178q-3 4 1 10l59 102q4 8 15 8h93q10 0 10 -7q0 -3 -3 -8l-77 -102
q-6 -7 -14 -7h-74q-7 0 -10 4z" />
    <glyph glyph-name="uni0219" unicode="&#x219;" horiz-adv-x="413" 
d="M74.5 33.5q-50.5 40.5 -50.5 108.5v7q0 5 3.5 8.5t8.5 3.5h110q5 0 8.5 -3.5t3.5 -8.5v-3q0 -21 15 -34.5t37 -13.5q20 0 31.5 11.5t11.5 29.5q0 22 -19 34.5t-42.5 21t-32.5 11.5q-55 20 -92.5 55.5t-37.5 102.5q0 73 48 115t128 42q83 0 131.5 -44t48.5 -119
q0 -5 -3.5 -8.5t-8.5 -3.5h-107q-5 0 -8.5 3.5t-3.5 8.5v8q0 20 -12.5 32.5t-32.5 12.5q-21 0 -33 -13.5t-12 -31.5q0 -24 20.5 -37.5t62.5 -29.5q43 -16 73.5 -32.5t52.5 -47t22 -76.5q0 -69 -50.5 -109.5t-134.5 -40.5q-85 0 -135.5 40.5zM122 -177q-3 4 1 10l59 102
q4 8 15 8h93q10 0 10 -7q0 -3 -3 -8l-77 -102q-6 -7 -14 -7h-74q-7 0 -10 4z" />
    <glyph glyph-name="uni021A" unicode="&#x21a;" horiz-adv-x="468" 
d="M440.5 696.5q3.5 -3.5 3.5 -8.5v-97q0 -5 -3.5 -8.5t-8.5 -3.5h-125q-5 0 -5 -5v-562q0 -5 -3.5 -8.5t-8.5 -3.5h-117q-5 0 -8.5 3.5t-3.5 8.5v562q0 5 -5 5h-120q-5 0 -8.5 3.5t-3.5 8.5v97q0 5 3.5 8.5t8.5 3.5h396q5 0 8.5 -3.5zM89 -171q-3 4 1 10l59 102q4 8 15 8
h93q10 0 10 -7q0 -3 -3 -8l-77 -102q-6 -7 -14 -7h-74q-7 0 -10 4z" />
    <glyph glyph-name="uni021B" unicode="&#x21b;" horiz-adv-x="291" 
d="M268.5 418.5q-3.5 -3.5 -8.5 -3.5h-56q-5 0 -5 -5v-238q0 -29 11 -40t33 -10h7q5 0 8.5 -3.5t3.5 -8.5v-98q0 -5 -3.5 -8.5t-8.5 -3.5h-40q-73 0 -110 24.5t-37 93.5v292q0 5 -5 5h-33q-5 0 -8.5 3.5t-3.5 8.5v75q0 5 3.5 8.5t8.5 3.5h33q5 0 5 5v111q0 5 3.5 8.5
t8.5 3.5h112q5 0 8.5 -3.5t3.5 -8.5v-111q0 -5 5 -5h56q5 0 8.5 -3.5t3.5 -8.5v-75q0 -5 -3.5 -8.5zM83 -164q-3 4 1 10l59 102q4 8 15 8h93q10 0 10 -7q0 -3 -3 -8l-77 -102q-6 -7 -14 -7h-74q-7 0 -10 4z" />
    <glyph glyph-name="uni021F" unicode="&#x21f;" 
d="M379 477q34 -45 34 -126v-339q0 -5 -3.5 -8.5t-8.5 -3.5h-117q-5 0 -8.5 3.5t-3.5 8.5v328q0 29 -11.5 45t-33.5 16q-23 0 -35.5 -16.5t-12.5 -46.5v-326q0 -5 -3.5 -8.5t-8.5 -3.5h-117q-5 0 -8.5 3.5t-3.5 8.5v676q0 5 3.5 8.5t8.5 3.5h117q5 0 8.5 -3.5t3.5 -8.5v-205
q0 -3 2.5 -3t6.5 4q32 38 89 38q68 0 102 -45zM85 878q0 7 10 7h87q11 0 15 -9l30 -56q3 -4 6 0l30 56q5 9 14 9h88q7 0 9.5 -3.5t-1.5 -10.5l-66 -104q-5 -8 -14 -8h-129q-10 0 -14 8l-63 104q-2 6 -2 7z" />
    <glyph glyph-name="uni0228" unicode="&#x228;" horiz-adv-x="438" 
d="M407.5 582.5q-3.5 -3.5 -8.5 -3.5h-209q-5 0 -5 -5v-158q0 -5 5 -5h120q5 0 8.5 -3.5t3.5 -8.5v-97q0 -5 -3.5 -8.5t-8.5 -3.5h-120q-5 0 -5 -5v-159q0 -5 5 -5h209q5 0 8.5 -3.5t3.5 -8.5v-97q0 -5 -3.5 -8.5t-8.5 -3.5h-121q-3 0 -4 -2t1 -4q32 -39 32 -83
q0 -13 -3 -26q-8 -34 -31.5 -48t-54.5 -14q-26 0 -47 7q-9 3 -8 14l6 46q1 11 14 9q14 -2 24 6.5t10 26.5q0 31 -36 65q-3 3 -7 3h-118q-5 0 -8.5 3.5t-3.5 8.5v676q0 5 3.5 8.5t8.5 3.5h343q5 0 8.5 -3.5t3.5 -8.5v-97q0 -5 -3.5 -8.5z" />
    <glyph glyph-name="uni0229" unicode="&#x229;" horiz-adv-x="436" 
d="M405.5 216.5q-3.5 -3.5 -8.5 -3.5h-220q-5 0 -5 -5v-37q0 -25 13.5 -41.5t34.5 -16.5q19 0 31 12.5t16 31.5q3 10 13 10l115 -6q5 0 8.5 -3.5t2.5 -9.5q-11 -127 -129 -151q-6 -2 -3 -6q31 -38 31 -79q0 -9 -4 -27q-8 -34 -31.5 -48t-54.5 -14q-26 0 -47 7q-9 3 -8 14
l6 46q1 11 14 9q14 -2 24 6.5t10 26.5q0 28 -32 60q-1 3 -5 3q-69 10 -107.5 53t-38.5 112v194q0 76 50.5 122t138.5 46t138.5 -46t50.5 -122v-129q0 -5 -3.5 -8.5zM185.5 385q-13.5 -16 -13.5 -41v-39q0 -5 5 -5h86q5 0 5 5v39q0 25 -13.5 41t-34.5 16t-34.5 -16z" />
    <glyph glyph-name="uni0237" unicode="&#x237;" horiz-adv-x="219" 
d="M-56 -192v97q0 12 13 11q45 -1 63 20.5t18 63.5v502q0 5 3.5 8.5t8.5 3.5h117q5 0 8.5 -3.5t3.5 -8.5v-502q0 -75 -13.5 -117t-61.5 -65t-148 -22q-12 0 -12 12z" />
    <glyph glyph-name="uni0259" unicode="&#x259;" horiz-adv-x="436" 
d="M355 477.5q50 -44.5 50 -123.5v-194q0 -76 -50.5 -122t-138.5 -46t-138.5 46t-50.5 122v129q0 5 3.5 8.5t8.5 3.5h220q5 0 5 5v38q0 26 -13 41.5t-35 15.5q-19 0 -31 -12.5t-16 -31.5q-3 -11 -13 -10l-115 7q-12 2 -11 12q6 77 52.5 116.5t133.5 39.5q89 0 139 -44.5z
M251 129q13 16 13 42v38q0 5 -5 5h-86q-5 0 -5 -5v-38q0 -25 13.5 -41.5t34.5 -16.5q22 0 35 16z" />
    <glyph glyph-name="uni0292" unicode="&#x292;" horiz-adv-x="415" 
d="M226.5 255q0.5 -2 3.5 -3q76 -21 118.5 -79.5t42.5 -135.5q0 -68 -33 -122t-90 -84t-126 -30q-45 0 -95 15q-10 3 -10 13l3 100q0 14 14 9q34 -12 68 -12q54 0 91 29t37 93q0 48 -26 82t-74 34q-26 0 -55 -11l-5 -1q-8 0 -11 8l-33 73q-1 2 -1 6q0 5 5 10l139 131
q2 2 1.5 4t-3.5 2h-144q-5 0 -8.5 3.5t-3.5 8.5v104q0 5 3.5 8.5t8.5 3.5h306q5 0 8.5 -3.5t3.5 -8.5v-107q0 -9 -6 -15l-127 -121q-2 -2 -1.5 -4z" />
    <glyph glyph-name="uni02BB" unicode="&#x2bb;" horiz-adv-x="188" 
d="M4 691q0 9 10 9h117q11 0 13 -11l41 -202l1 -4q0 -9 -11 -9h-89q-10 0 -13 10l-68 202q-1 2 -1 5z" />
    <glyph glyph-name="uni02BC" unicode="&#x2bc;" horiz-adv-x="188" 
d="M182.5 696.5q2.5 -3.5 0.5 -10.5l-69 -202q-3 -10 -13 -10h-88q-13 0 -10 13l41 202q2 11 13 11h117q6 0 8.5 -3.5z" />
    <glyph glyph-name="circumflex" unicode="&#x2c6;" horiz-adv-x="302" 
d="M20.5 577.5q-2.5 3.5 1.5 10.5l63 104q4 8 14 8h129q9 0 14 -8l66 -104q2 -6 2 -7q0 -7 -10 -7h-88q-10 0 -14 9l-30 56q-3 5 -6 0l-30 -56q-5 -9 -15 -9h-87q-7 0 -9.5 3.5z" />
    <glyph glyph-name="caron" unicode="&#x2c7;" horiz-adv-x="331" 
d="M21 693q0 7 10 7h87q11 0 15 -9l30 -56q3 -4 6 0l30 56q5 9 14 9h88q7 0 9.5 -3.5t-1.5 -10.5l-66 -104q-5 -8 -14 -8h-129q-10 0 -14 8l-63 104q-2 6 -2 7z" />
    <glyph glyph-name="uni02C9" unicode="&#x2c9;" horiz-adv-x="220" 
d="M3.5 607.5q-3.5 3.5 -3.5 8.5v72q0 5 3.5 8.5t8.5 3.5h196q5 0 8.5 -3.5t3.5 -8.5v-72q0 -5 -3.5 -8.5t-8.5 -3.5h-196q-5 0 -8.5 3.5z" />
    <glyph glyph-name="breve" unicode="&#x2d8;" horiz-adv-x="268" 
d="M51.5 578q-32.5 29 -36.5 77v2q0 10 11 10h50q12 0 13 -12q3 -20 15 -32t30 -12t30.5 12t15.5 32q2 12 13 12h50q12 0 12 -12q-5 -48 -37.5 -77t-83.5 -29q-50 0 -82.5 29z" />
    <glyph glyph-name="dotaccent" unicode="&#x2d9;" horiz-adv-x="185" 
d="M36.5 594.5q-22.5 22.5 -22.5 56.5q0 35 22 57t57 22t57 -22t22 -57q0 -34 -22.5 -56.5t-56.5 -22.5t-56.5 22.5z" />
    <glyph glyph-name="ring" unicode="&#x2da;" horiz-adv-x="274" 
d="M49.5 598.5q-35.5 35.5 -35.5 88.5t35.5 88.5t87.5 35.5t88 -35.5t36 -88.5q0 -52 -36 -88t-88 -36t-87.5 35.5zM172 651.5q15 14.5 15 35.5q0 22 -15 36.5t-35 14.5t-34.5 -14.5t-14.5 -36.5q0 -21 14.5 -35.5t34.5 -14.5t35 14.5z" />
    <glyph glyph-name="ogonek" unicode="&#x2db;" horiz-adv-x="151" 
d="M144 -174q0 -7 -8 -10q-28 -7 -48 -7q-38 0 -63.5 20t-25.5 68q0 52 46 97q6 6 15 6h63q10 0 10 -6q0 -4 -5 -9q-38 -36 -38 -67q0 -18 10 -26t24 -6h3q10 0 11 -10l6 -46v-4z" />
    <glyph glyph-name="tilde" unicode="&#x2dc;" horiz-adv-x="326" 
d="M159 604q-9 4 -20.5 11t-21.5 7q-22 0 -36 -22q-7 -10 -17 -4l-42 30q-8 6 -5 16q13 35 36.5 52t51.5 17q30 0 64 -23q2 -2 10 -7t15.5 -8t15.5 -3q23 0 36 20q7 12 17 5l40 -28q5 -3 5 -9t-5 -14q-17 -30 -41.5 -44t-48.5 -14q-21 0 -54 18z" />
    <glyph glyph-name="hungarumlaut" unicode="&#x2dd;" horiz-adv-x="375" 
d="M21 588q-3 4 1 10l58 102q5 8 15 8h90q10 0 10 -7q0 -3 -3 -8l-75 -102q-6 -7 -14 -7h-72q-7 0 -10 4zM179 588q-3 4 1 10l58 102q5 8 15 8h91q10 0 10 -7q0 -3 -3 -8l-75 -102q-6 -7 -14 -7h-73q-7 0 -10 4z" />
    <glyph glyph-name="gravecomb" unicode="&#x300;" horiz-adv-x="0" 
d="M-13 584q0 -8 -11 -8h-75q-8 0 -14 7l-76 102q-3 5 -3 8q0 7 10 7h93q10 0 14 -8l60 -102z" />
    <glyph glyph-name="acutecomb" unicode="&#x301;" horiz-adv-x="0" 
d="M-193 580q-3 4 1 10l59 102q4 8 15 8h93q10 0 10 -7q0 -3 -3 -8l-77 -102q-6 -7 -14 -7h-74q-7 0 -10 4z" />
    <glyph glyph-name="uni0302" unicode="&#x302;" horiz-adv-x="0" 
d="M-309.5 577.5q-2.5 3.5 1.5 10.5l63 104q4 8 14 8h129q9 0 14 -8l66 -104q2 -6 2 -7q0 -7 -10 -7h-88q-10 0 -14 9l-30 56q-3 5 -6 0l-30 -56q-5 -9 -15 -9h-87q-7 0 -9.5 3.5z" />
    <glyph glyph-name="tildecomb" unicode="&#x303;" horiz-adv-x="0" 
d="M-153 604q-9 4 -20.5 11t-21.5 7q-22 0 -36 -22q-7 -10 -17 -4l-42 30q-8 6 -5 16q13 35 36.5 52t51.5 17q30 0 64 -23q2 -2 10 -7t15.5 -8t15.5 -3q23 0 36 20q7 12 17 5l40 -28q5 -3 5 -9t-5 -14q-17 -30 -41.5 -44t-48.5 -14q-21 0 -54 18z" />
    <glyph glyph-name="uni0304" unicode="&#x304;" horiz-adv-x="0" 
d="M-216.5 596.5q-3.5 3.5 -3.5 8.5v72q0 5 3.5 8.5t8.5 3.5h196q5 0 8.5 -3.5t3.5 -8.5v-72q0 -5 -3.5 -8.5t-8.5 -3.5h-196q-5 0 -8.5 3.5z" />
    <glyph glyph-name="uni0306" unicode="&#x306;" horiz-adv-x="0" 
d="M-216.5 594q-32.5 29 -36.5 77v2q0 10 11 10h50q12 0 12 -12q3 -20 15.5 -32t30.5 -12q17 0 30 12.5t16 31.5q1 12 13 12h50q12 0 11 -12q-4 -47 -37 -76.5t-83 -29.5t-82.5 29z" />
    <glyph glyph-name="uni0307" unicode="&#x307;" horiz-adv-x="0" 
d="M-143.5 594.5q-22.5 22.5 -22.5 56.5q0 35 22 57t57 22t57 -22t22 -57q0 -34 -22.5 -56.5t-56.5 -22.5t-56.5 22.5z" />
    <glyph glyph-name="uni0308" unicode="&#x308;" horiz-adv-x="0" 
d="M-135.5 594.5q-22.5 22.5 -22.5 56.5q0 35 22 57t57 22t57 -22t22 -57q0 -34 -22.5 -56.5t-56.5 -22.5t-56.5 22.5zM-319.5 594.5q-22.5 22.5 -22.5 56.5q0 35 22 57t57 22t57 -22t22 -57q0 -34 -22.5 -56.5t-56.5 -22.5t-56.5 22.5z" />
    <glyph glyph-name="hookabovecomb" unicode="&#x309;" horiz-adv-x="0" 
d="M-333 571q12 27 33 51q10 11 14.5 19t4.5 21q0 10 -8.5 17t-19.5 7q-13 0 -22.5 -6.5t-23.5 -23.5q-4 -6 -10 -6q-5 0 -8 3l-34 25q-5 3 -5 9q0 4 3 8q22 32 45.5 45.5t57.5 13.5q46 0 72.5 -25t26.5 -67q0 -23 -9.5 -39t-28.5 -35q-18 -18 -26 -32q-6 -8 -15 -7l-38 7
q-14 3 -9 15z" />
    <glyph glyph-name="uni030A" unicode="&#x30a;" horiz-adv-x="0" 
d="M-193.5 598.5q-35.5 35.5 -35.5 88.5t35.5 88.5t87.5 35.5t88 -35.5t36 -88.5q0 -52 -36 -88t-88 -36t-87.5 35.5zM-71 651.5q15 14.5 15 35.5q0 22 -15 36.5t-35 14.5t-34.5 -14.5t-14.5 -36.5q0 -21 14.5 -35.5t34.5 -14.5t35 14.5z" />
    <glyph glyph-name="uni030B" unicode="&#x30b;" horiz-adv-x="0" 
d="M-344.5 579.5q-2.5 3.5 0.5 10.5l47 101q4 9 14 9h96q7 0 9.5 -4t-0.5 -10l-53 -101q-5 -9 -15 -9h-89q-7 0 -9.5 3.5zM-186.5 580q-2.5 4 0.5 10l53 101q4 9 15 9h89q7 0 9.5 -4t-0.5 -10l-53 -101q-5 -9 -15 -9h-89q-7 0 -9.5 4z" />
    <glyph glyph-name="uni030C" unicode="&#x30c;" horiz-adv-x="0" 
d="M-310 693q0 7 10 7h87q11 0 15 -9l30 -56q3 -4 6 0l30 56q5 9 14 9h88q7 0 9.5 -3.5t-1.5 -10.5l-66 -104q-5 -8 -14 -8h-129q-10 0 -14 8l-63 104q-2 6 -2 7z" />
    <glyph glyph-name="uni0312" unicode="&#x312;" horiz-adv-x="0" 
d="M-21 696q3 -4 -1 -10l-59 -102q-4 -8 -15 -8h-92q-10 0 -10 7q0 4 3 8l76 102q6 7 14 7h74q7 0 10 -4z" />
    <glyph glyph-name="uni0313" unicode="&#x313;" horiz-adv-x="0" 
d="M-193 580q-3 4 1 10l59 102q4 8 15 8h93q10 0 10 -7q0 -3 -3 -8l-77 -102q-6 -7 -14 -7h-74q-7 0 -10 4z" />
    <glyph glyph-name="uni031B" unicode="&#x31b;" horiz-adv-x="0" 
d="M-134 464v39q0 10 11 12q45 8 50 72q0 12 12 12h50q5 0 8.5 -4.5t2.5 -13.5q-4 -62 -37.5 -93.5t-84.5 -35.5q-12 0 -12 12z" />
    <glyph glyph-name="dotbelowcomb" unicode="&#x323;" horiz-adv-x="0" 
d="M-141 -218.5q-21 21.5 -21 53.5q0 34 21 54.5t54 20.5t54 -20.5t21 -54.5q0 -32 -21.5 -53.5t-53.5 -21.5q-33 0 -54 21.5z" />
    <glyph glyph-name="uni0326" unicode="&#x326;" horiz-adv-x="0" 
d="M-214 -170q-3 4 1 10l59 102q4 8 15 8h93q10 0 10 -7q0 -3 -3 -8l-77 -102q-6 -7 -14 -7h-74q-7 0 -10 4z" />
    <glyph glyph-name="uni0327" unicode="&#x327;" horiz-adv-x="0" 
d="M-144 -170l6 46q1 12 14 10q27 -4 34 24q6 33 -38 75q-5 5 -5 8q0 7 11 7h62q9 0 15 -6q45 -44 45 -98q0 -17 -2 -25q-8 -34 -31.5 -48t-54.5 -14q-19 0 -47 7q-10 3 -9 14z" />
    <glyph glyph-name="uni0328" unicode="&#x328;" horiz-adv-x="0" 
d="M-7 -173q0 -8 -9 -11q-28 -7 -47 -7q-37 0 -63 20t-26 68q0 52 46 97q6 6 15 6h63q9 0 9 -6q0 -5 -5 -9q-37 -37 -37 -66q0 -19 9.5 -27t24.5 -6h3q10 0 11 -10l6 -46v-3z" />
    <glyph glyph-name="uni0335" unicode="&#x335;" horiz-adv-x="0" 
d="M-290.5 636.5q3.5 3.5 8.5 3.5h261q5 0 8.5 -3.5t3.5 -8.5v-61q0 -5 -3.5 -8.5t-8.5 -3.5h-261q-5 0 -8.5 3.5t-3.5 8.5v61q0 5 3.5 8.5z" />
    <glyph glyph-name="uni0336" unicode="&#x336;" horiz-adv-x="0" 
d="M-483.5 512.5q-3.5 3.5 -3.5 8.5v72q0 5 3.5 8.5t8.5 3.5h463q5 0 8.5 -3.5t3.5 -8.5v-72q0 -5 -3.5 -8.5t-8.5 -3.5h-463q-5 0 -8.5 3.5z" />
    <glyph glyph-name="uni0337" unicode="&#x337;" horiz-adv-x="0" 
d="M-337 124q-4 0 -9 5l-54 63q-4 6 -4 8q0 4 5 9l381 313q6 4 8 4q4 0 9 -5l53 -63q4 -6 4 -8q0 -4 -5 -9l-380 -313q-6 -4 -8 -4z" />
    <glyph glyph-name="uni0338" unicode="&#x338;" horiz-adv-x="0" 
d="M-409.5 -33.5q-2.5 3.5 0.5 10.5l331 754q4 9 14 9h49q7 0 9.5 -3.5t-0.5 -10.5l-333 -754q-4 -9 -14 -9h-47q-7 0 -9.5 3.5z" />
    <glyph glyph-name="uni0394" unicode="&#x394;" horiz-adv-x="540" 
d="M14.5 3.5q-3.5 3.5 -3.5 8.5v101q0 6 3 15l203 562q3 10 13 10h80q10 0 13 -10l203 -563q3 -9 3 -15v-100q0 -5 -3.5 -8.5t-8.5 -3.5h-494q-5 0 -8.5 3.5zM155 122h230q6 0 4 6l-116 382q-1 4 -3 4t-3 -4l-116 -382q-1 -6 4 -6z" />
    <glyph glyph-name="uni03A9" unicode="&#x3a9;" horiz-adv-x="496" 
d="M37.5 3.5q-3.5 3.5 -3.5 8.5v97q0 5 3.5 8.5t8.5 3.5h35q3 0 4 2t-1 4q-37 47 -37 116v267q0 90 55 144t147 54q91 0 146.5 -54t55.5 -144v-267q0 -71 -37 -116q-2 -2 -1 -4t4 -2h33q5 0 8.5 -3.5t3.5 -8.5v-97q0 -5 -3.5 -8.5t-8.5 -3.5h-174q-5 0 -8.5 3.5t-3.5 8.5v99
q0 9 10 13q16 7 26 25t10 42v325q0 32 -16.5 51.5t-44.5 19.5t-44.5 -19.5t-16.5 -51.5v-325q0 -23 10 -41t25 -25q10 -5 10 -13v-100q0 -5 -3.5 -8.5t-8.5 -3.5h-175q-5 0 -8.5 3.5z" />
    <glyph glyph-name="uni03BC" unicode="&#x3bc;" horiz-adv-x="450" 
d="M274.5 510.5q3.5 3.5 8.5 3.5h117q5 0 8.5 -3.5t3.5 -8.5v-490q0 -5 -3.5 -8.5t-8.5 -3.5h-117q-5 0 -8.5 3.5t-3.5 8.5v17q0 3 -2 3.5t-4 -2.5q-15 -20 -35 -28t-46 -9q-5 0 -5 -5v-176q0 -5 -3.5 -8.5t-8.5 -3.5h-117q-5 0 -8.5 3.5t-3.5 8.5v690q0 5 3.5 8.5t8.5 3.5
h117q5 0 8.5 -3.5t3.5 -8.5v-329q0 -60 45 -60q22 0 34.5 17t12.5 46v326q0 5 3.5 8.5z" />
    <glyph glyph-name="pi" unicode="&#x3c0;" horiz-adv-x="538" 
d="M510.5 397.5q-3.5 -3.5 -8.5 -3.5h-40q-5 0 -5 -5v-213q0 -37 10 -47.5t28 -8.5q12 0 12 -12v-96q0 -12 -12 -12q-32 -2 -52 -2q-58 0 -93 21t-34 81v289q0 5 -5 5h-84q-5 0 -5 -5v-377q0 -5 -3.5 -8.5t-8.5 -3.5h-117q-5 0 -8.5 3.5t-3.5 8.5v377q0 5 -5 5h-40
q-5 0 -8.5 3.5t-3.5 8.5v96q0 5 3.5 8.5t8.5 3.5h466q5 0 8.5 -3.5t3.5 -8.5v-96q0 -5 -3.5 -8.5z" />
    <glyph glyph-name="Wgrave" unicode="&#x1e80;" horiz-adv-x="680" 
d="M156 11l-135 676l-1 4q0 9 11 9h122q12 0 13 -11l57 -360q1 -4 3 -4t3 4l54 360q1 11 13 11h101q12 0 13 -11l59 -360q1 -4 3 -4t3 4l51 360q1 11 13 11h118q13 0 11 -13l-127 -676q-1 -11 -13 -11h-108q-12 0 -13 11l-59 370q-1 4 -3 4t-3 -4l-53 -370q-1 -11 -13 -11
h-107q-11 0 -13 11zM383 770q0 -8 -11 -8h-75q-8 0 -14 7l-76 102q-3 5 -3 8q0 7 10 7h93q10 0 14 -8l60 -102z" />
    <glyph glyph-name="wgrave" unicode="&#x1e81;" horiz-adv-x="613" 
d="M124 11l-108 491v4q0 9 11 9h111q12 0 13 -11l43 -274q1 -3 3 -3t3 3l44 274q1 11 13 11h99q12 0 13 -11l47 -275q1 -3 3 -2.5t3 3.5l42 274q1 11 13 11l110 -2q13 0 10 -13l-107 -489q-2 -11 -13 -11h-114q-12 0 -13 11l-43 254q-1 3 -3 3t-3 -3l-41 -254
q-1 -11 -13 -11h-110q-11 0 -13 11zM351 584q0 -8 -11 -8h-75q-8 0 -14 7l-76 102q-3 5 -3 8q0 7 10 7h93q10 0 14 -8l60 -102z" />
    <glyph glyph-name="Wacute" unicode="&#x1e82;" horiz-adv-x="680" 
d="M156 11l-135 676l-1 4q0 9 11 9h122q12 0 13 -11l57 -360q1 -4 3 -4t3 4l54 360q1 11 13 11h101q12 0 13 -11l59 -360q1 -4 3 -4t3 4l51 360q1 11 13 11h118q13 0 11 -13l-127 -676q-1 -11 -13 -11h-108q-12 0 -13 11l-59 370q-1 4 -3 4t-3 -4l-53 -370q-1 -11 -13 -11
h-107q-11 0 -13 11zM273 766q-3 4 1 10l59 102q4 8 15 8h93q10 0 10 -7q0 -3 -3 -8l-77 -102q-6 -7 -14 -7h-74q-7 0 -10 4z" />
    <glyph glyph-name="wacute" unicode="&#x1e83;" horiz-adv-x="613" 
d="M124 11l-108 491v4q0 9 11 9h111q12 0 13 -11l43 -274q1 -3 3 -3t3 3l44 274q1 11 13 11h99q12 0 13 -11l47 -275q1 -3 3 -2.5t3 3.5l42 274q1 11 13 11l110 -2q13 0 10 -13l-107 -489q-2 -11 -13 -11h-114q-12 0 -13 11l-43 254q-1 3 -3 3t-3 -3l-41 -254
q-1 -11 -13 -11h-110q-11 0 -13 11zM241 580q-3 4 1 10l59 102q4 8 15 8h93q10 0 10 -7q0 -3 -3 -8l-77 -102q-6 -7 -14 -7h-74q-7 0 -10 4z" />
    <glyph glyph-name="Wdieresis" unicode="&#x1e84;" horiz-adv-x="680" 
d="M156 11l-135 676l-1 4q0 9 11 9h122q12 0 13 -11l57 -360q1 -4 3 -4t3 4l54 360q1 11 13 11h101q12 0 13 -11l59 -360q1 -4 3 -4t3 4l51 360q1 11 13 11h118q13 0 11 -13l-127 -676q-1 -11 -13 -11h-108q-12 0 -13 11l-59 370q-1 4 -3 4t-3 -4l-53 -370q-1 -11 -13 -11
h-107q-11 0 -13 11zM372.5 780.5q-22.5 22.5 -22.5 56.5q0 35 22 57t57 22t57 -22t22 -57q0 -34 -22.5 -56.5t-56.5 -22.5t-56.5 22.5zM188.5 780.5q-22.5 22.5 -22.5 56.5q0 35 22 57t57 22t57 -22t22 -57q0 -34 -22.5 -56.5t-56.5 -22.5t-56.5 22.5z" />
    <glyph glyph-name="wdieresis" unicode="&#x1e85;" horiz-adv-x="613" 
d="M124 11l-108 491v4q0 9 11 9h111q12 0 13 -11l43 -274q1 -3 3 -3t3 3l44 274q1 11 13 11h99q12 0 13 -11l47 -275q1 -3 3 -2.5t3 3.5l42 274q1 11 13 11l110 -2q13 0 10 -13l-107 -489q-2 -11 -13 -11h-114q-12 0 -13 11l-43 254q-1 3 -3 3t-3 -3l-41 -254
q-1 -11 -13 -11h-110q-11 0 -13 11zM340.5 594.5q-22.5 22.5 -22.5 56.5q0 35 22 57t57 22t57 -22t22 -57q0 -34 -22.5 -56.5t-56.5 -22.5t-56.5 22.5zM156.5 594.5q-22.5 22.5 -22.5 56.5q0 35 22 57t57 22t57 -22t22 -57q0 -34 -22.5 -56.5t-56.5 -22.5t-56.5 22.5z" />
    <glyph glyph-name="uni1EA0" unicode="&#x1ea0;" horiz-adv-x="482" 
d="M325 11l-16 96q0 5 -6 5h-127q-6 0 -6 -5l-16 -96q-1 -11 -13 -11h-117q-13 0 -10 13l147 676q2 11 13 11h135q11 0 13 -11l146 -676l1 -4q0 -9 -11 -9h-120q-12 0 -13 11zM194 221h90q5 0 4 5l-47 273q-1 3 -3 3t-3 -3l-45 -273q0 -5 4 -5zM188 -218.5
q-21 21.5 -21 53.5q0 34 21 54.5t54 20.5t54 -20.5t21 -54.5q0 -32 -21.5 -53.5t-53.5 -21.5q-33 0 -54 21.5z" />
    <glyph glyph-name="uni1EA1" unicode="&#x1ea1;" horiz-adv-x="445" 
d="M362 476q53 -46 53 -121v-343q0 -5 -3.5 -8.5t-8.5 -3.5h-117q-5 0 -8.5 3.5t-3.5 8.5v22q0 3 -2 4t-4 -2q-33 -42 -102 -44q-58 0 -100.5 32t-42.5 122q0 93 51.5 128t148.5 35h46q5 0 5 5v25q0 27 -14.5 44.5t-36.5 17.5q-17 0 -28.5 -10.5t-14.5 -29.5q-1 -12 -13 -12
l-120 1q-12 0 -12 12q5 73 57 116.5t132 43.5q85 0 138 -46zM255.5 116.5q18.5 15.5 18.5 41.5v47q0 5 -5 5h-41q-27 0 -43.5 -15.5t-16.5 -42.5q0 -25 12.5 -38t33.5 -13q23 0 41.5 15.5zM169 -218.5q-21 21.5 -21 53.5q0 34 21 54.5t54 20.5t54 -20.5t21 -54.5
q0 -32 -21.5 -53.5t-53.5 -21.5q-33 0 -54 21.5z" />
    <glyph glyph-name="uni1EA2" unicode="&#x1ea2;" horiz-adv-x="482" 
d="M325 11l-16 96q0 5 -6 5h-127q-6 0 -6 -5l-16 -96q-1 -11 -13 -11h-117q-13 0 -10 13l147 676q2 11 13 11h135q11 0 13 -11l146 -676l1 -4q0 -9 -11 -9h-120q-12 0 -13 11zM194 221h90q5 0 4 5l-47 273q-1 3 -3 3t-3 -3l-45 -273q0 -5 4 -5zM219 757q12 27 33 51
q10 11 14.5 19t4.5 21q0 10 -8.5 17t-19.5 7q-13 0 -22.5 -6.5t-23.5 -23.5q-4 -6 -10 -6q-5 0 -8 3l-34 25q-5 3 -5 9q0 4 3 8q22 32 45.5 45.5t57.5 13.5q46 0 72.5 -25t26.5 -67q0 -23 -9.5 -39t-28.5 -35q-18 -18 -26 -32q-6 -8 -15 -7l-38 7q-14 3 -9 15z" />
    <glyph glyph-name="uni1EA3" unicode="&#x1ea3;" horiz-adv-x="445" 
d="M362 476q53 -46 53 -121v-343q0 -5 -3.5 -8.5t-8.5 -3.5h-117q-5 0 -8.5 3.5t-3.5 8.5v22q0 3 -2 4t-4 -2q-33 -42 -102 -44q-58 0 -100.5 32t-42.5 122q0 93 51.5 128t148.5 35h46q5 0 5 5v25q0 27 -14.5 44.5t-36.5 17.5q-17 0 -28.5 -10.5t-14.5 -29.5q-1 -12 -13 -12
l-120 1q-12 0 -12 12q5 73 57 116.5t132 43.5q85 0 138 -46zM255.5 116.5q18.5 15.5 18.5 41.5v47q0 5 -5 5h-41q-27 0 -43.5 -15.5t-16.5 -42.5q0 -25 12.5 -38t33.5 -13q23 0 41.5 15.5zM201 571q12 27 33 51q10 11 14.5 19t4.5 21q0 10 -8.5 17t-19.5 7q-13 0 -22.5 -6.5
t-23.5 -23.5q-4 -6 -10 -6q-5 0 -8 3l-34 25q-5 3 -5 9q0 4 3 8q22 32 45.5 45.5t57.5 13.5q46 0 72.5 -25t26.5 -67q0 -23 -9.5 -39t-28.5 -35q-18 -18 -26 -32q-6 -8 -15 -7l-38 7q-14 3 -9 15z" />
    <glyph glyph-name="uni1EA4" unicode="&#x1ea4;" horiz-adv-x="482" 
d="M325 11l-16 96q0 5 -6 5h-127q-6 0 -6 -5l-16 -96q-1 -11 -13 -11h-117q-13 0 -10 13l147 676q2 11 13 11h135q11 0 13 -11l146 -676l1 -4q0 -9 -11 -9h-120q-12 0 -13 11zM194 221h90q5 0 4 5l-47 273q-1 3 -3 3t-3 -3l-45 -273q0 -5 4 -5zM95.5 763.5
q-2.5 3.5 1.5 10.5l63 104q4 8 14 8h129q9 0 14 -8l66 -104q2 -6 2 -7q0 -7 -10 -7h-88q-10 0 -14 9l-30 56q-3 5 -6 0l-30 -56q-5 -9 -15 -9h-87q-7 0 -9.5 3.5zM376 847q-3 4 1 10l59 102q4 8 15 8h93q10 0 10 -7q0 -3 -3 -8l-77 -102q-6 -7 -14 -7h-74q-7 0 -10 4z" />
    <glyph glyph-name="uni1EA5" unicode="&#x1ea5;" horiz-adv-x="445" 
d="M362 476q53 -46 53 -121v-343q0 -5 -3.5 -8.5t-8.5 -3.5h-117q-5 0 -8.5 3.5t-3.5 8.5v22q0 3 -2 4t-4 -2q-33 -42 -102 -44q-58 0 -100.5 32t-42.5 122q0 93 51.5 128t148.5 35h46q5 0 5 5v25q0 27 -14.5 44.5t-36.5 17.5q-17 0 -28.5 -10.5t-14.5 -29.5q-1 -12 -13 -12
l-120 1q-12 0 -12 12q5 73 57 116.5t132 43.5q85 0 138 -46zM255.5 116.5q18.5 15.5 18.5 41.5v47q0 5 -5 5h-41q-27 0 -43.5 -15.5t-16.5 -42.5q0 -25 12.5 -38t33.5 -13q23 0 41.5 15.5zM76.5 577.5q-2.5 3.5 1.5 10.5l63 104q4 8 14 8h129q9 0 14 -8l66 -104q2 -6 2 -7
q0 -7 -10 -7h-88q-10 0 -14 9l-30 56q-3 5 -6 0l-30 -56q-5 -9 -15 -9h-87q-7 0 -9.5 3.5zM357 661q-3 4 1 10l59 102q4 8 15 8h93q10 0 10 -7q0 -3 -3 -8l-77 -102q-6 -7 -14 -7h-74q-7 0 -10 4z" />
    <glyph glyph-name="uni1EA6" unicode="&#x1ea6;" horiz-adv-x="482" 
d="M325 11l-16 96q0 5 -6 5h-127q-6 0 -6 -5l-16 -96q-1 -11 -13 -11h-117q-13 0 -10 13l147 676q2 11 13 11h135q11 0 13 -11l146 -676l1 -4q0 -9 -11 -9h-120q-12 0 -13 11zM194 221h90q5 0 4 5l-47 273q-1 3 -3 3t-3 -3l-45 -273q0 -5 4 -5zM95.5 763.5
q-2.5 3.5 1.5 10.5l63 104q4 8 14 8h129q9 0 14 -8l66 -104q2 -6 2 -7q0 -7 -10 -7h-88q-10 0 -14 9l-30 56q-3 5 -6 0l-30 -56q-5 -9 -15 -9h-87q-7 0 -9.5 3.5zM452 890q0 -8 -11 -8h-75q-8 0 -14 7l-76 102q-3 5 -3 8q0 7 10 7h93q10 0 14 -8l60 -102z" />
    <glyph glyph-name="uni1EA7" unicode="&#x1ea7;" horiz-adv-x="445" 
d="M362 476q53 -46 53 -121v-343q0 -5 -3.5 -8.5t-8.5 -3.5h-117q-5 0 -8.5 3.5t-3.5 8.5v22q0 3 -2 4t-4 -2q-33 -42 -102 -44q-58 0 -100.5 32t-42.5 122q0 93 51.5 128t148.5 35h46q5 0 5 5v25q0 27 -14.5 44.5t-36.5 17.5q-17 0 -28.5 -10.5t-14.5 -29.5q-1 -12 -13 -12
l-120 1q-12 0 -12 12q5 73 57 116.5t132 43.5q85 0 138 -46zM255.5 116.5q18.5 15.5 18.5 41.5v47q0 5 -5 5h-41q-27 0 -43.5 -15.5t-16.5 -42.5q0 -25 12.5 -38t33.5 -13q23 0 41.5 15.5zM77.5 577.5q-2.5 3.5 1.5 10.5l63 104q4 8 14 8h129q9 0 14 -8l66 -104q2 -6 2 -7
q0 -7 -10 -7h-88q-10 0 -14 9l-30 56q-3 5 -6 0l-30 -56q-5 -9 -15 -9h-87q-7 0 -9.5 3.5zM434 704q0 -8 -11 -8h-75q-8 0 -14 7l-76 102q-3 5 -3 8q0 7 10 7h93q10 0 14 -8l60 -102z" />
    <glyph glyph-name="uni1EA8" unicode="&#x1ea8;" horiz-adv-x="482" 
d="M325 11l-16 96q0 5 -6 5h-127q-6 0 -6 -5l-16 -96q-1 -11 -13 -11h-117q-13 0 -10 13l147 676q2 11 13 11h135q11 0 13 -11l146 -676l1 -4q0 -9 -11 -9h-120q-12 0 -13 11zM194 221h90q5 0 4 5l-47 273q-1 3 -3 3t-3 -3l-45 -273q0 -5 4 -5zM371.5 868q-2.5 4 0.5 10
q10 24 30 46q10 12 14 19t4 19q0 10 -8 16.5t-19 6.5q-12 0 -20.5 -6t-21.5 -22q-4 -6 -9 -6q-3 0 -8 3l-31 23q-5 3 -5 9q0 4 3 8q20 29 41.5 41.5t54.5 12.5q42 0 67 -23t25 -63q0 -22 -8.5 -36t-26.5 -33q-18 -18 -24 -29q-6 -8 -15 -7l-35 6q-6 1 -8.5 5zM95.5 763.5
q-2.5 3.5 1.5 10.5l63 104q4 8 14 8h129q9 0 14 -8l66 -104q2 -6 2 -7q0 -7 -10 -7h-88q-10 0 -14 9l-30 56q-3 5 -6 0l-30 -56q-5 -9 -15 -9h-87q-7 0 -9.5 3.5z" />
    <glyph glyph-name="uni1EA9" unicode="&#x1ea9;" horiz-adv-x="445" 
d="M362 476q53 -46 53 -121v-343q0 -5 -3.5 -8.5t-8.5 -3.5h-117q-5 0 -8.5 3.5t-3.5 8.5v22q0 3 -2 4t-4 -2q-33 -42 -102 -44q-58 0 -100.5 32t-42.5 122q0 93 51.5 128t148.5 35h46q5 0 5 5v25q0 27 -14.5 44.5t-36.5 17.5q-17 0 -28.5 -10.5t-14.5 -29.5q-1 -12 -13 -12
l-120 1q-12 0 -12 12q5 73 57 116.5t132 43.5q85 0 138 -46zM255.5 116.5q18.5 15.5 18.5 41.5v47q0 5 -5 5h-41q-27 0 -43.5 -15.5t-16.5 -42.5q0 -25 12.5 -38t33.5 -13q23 0 41.5 15.5zM353.5 682q-2.5 4 0.5 10q10 24 30 46q10 12 14 19t4 19q0 10 -8 16.5t-19 6.5
q-12 0 -20.5 -6t-21.5 -22q-4 -6 -9 -6q-3 0 -8 3l-31 23q-5 3 -5 9q0 4 3 8q20 29 41.5 41.5t54.5 12.5q42 0 67 -23t25 -63q0 -22 -8.5 -36t-26.5 -33q-18 -18 -24 -29q-6 -8 -15 -7l-35 6q-6 1 -8.5 5zM77.5 577.5q-2.5 3.5 1.5 10.5l63 104q4 8 14 8h129q9 0 14 -8
l66 -104q2 -6 2 -7q0 -7 -10 -7h-88q-10 0 -14 9l-30 56q-3 5 -6 0l-30 -56q-5 -9 -15 -9h-87q-7 0 -9.5 3.5z" />
    <glyph glyph-name="uni1EAA" unicode="&#x1eaa;" horiz-adv-x="482" 
d="M325 11l-16 96q0 5 -6 5h-127q-6 0 -6 -5l-16 -96q-1 -11 -13 -11h-117q-13 0 -10 13l147 676q2 11 13 11h135q11 0 13 -11l146 -676l1 -4q0 -9 -11 -9h-120q-12 0 -13 11zM194 221h90q5 0 4 5l-47 273q-1 3 -3 3t-3 -3l-45 -273q0 -5 4 -5zM95.5 763.5
q-2.5 3.5 1.5 10.5l63 104q4 8 14 8h129q9 0 14 -8l66 -104q2 -6 2 -7q0 -7 -10 -7h-88q-10 0 -14 9l-30 56q-3 5 -6 0l-30 -56q-5 -9 -15 -9h-87q-7 0 -9.5 3.5zM236 940q-9 4 -20.5 11t-21.5 7q-22 0 -36 -22q-7 -10 -17 -4l-42 30q-8 6 -5 16q13 35 36.5 52t51.5 17
q30 0 64 -23q2 -2 10 -7t15.5 -8t15.5 -3q23 0 36 20q7 12 17 5l40 -28q5 -3 5 -9t-5 -14q-17 -30 -41.5 -44t-48.5 -14q-21 0 -54 18z" />
    <glyph glyph-name="uni1EAB" unicode="&#x1eab;" horiz-adv-x="445" 
d="M362 476q53 -46 53 -121v-343q0 -5 -3.5 -8.5t-8.5 -3.5h-117q-5 0 -8.5 3.5t-3.5 8.5v22q0 3 -2 4t-4 -2q-33 -42 -102 -44q-58 0 -100.5 32t-42.5 122q0 93 51.5 128t148.5 35h46q5 0 5 5v25q0 27 -14.5 44.5t-36.5 17.5q-17 0 -28.5 -10.5t-14.5 -29.5q-1 -12 -13 -12
l-120 1q-12 0 -12 12q5 73 57 116.5t132 43.5q85 0 138 -46zM255.5 116.5q18.5 15.5 18.5 41.5v47q0 5 -5 5h-41q-27 0 -43.5 -15.5t-16.5 -42.5q0 -25 12.5 -38t33.5 -13q23 0 41.5 15.5zM77.5 577.5q-2.5 3.5 1.5 10.5l63 104q4 8 14 8h129q9 0 14 -8l66 -104q2 -6 2 -7
q0 -7 -10 -7h-88q-10 0 -14 9l-30 56q-3 5 -6 0l-30 -56q-5 -9 -15 -9h-87q-7 0 -9.5 3.5zM218 754q-9 4 -20.5 11t-21.5 7q-22 0 -36 -22q-7 -10 -17 -4l-42 30q-8 6 -5 16q13 35 36.5 52t51.5 17q30 0 64 -23q2 -2 10 -7t15.5 -8t15.5 -3q23 0 36 20q7 12 17 5l40 -28
q5 -3 5 -9t-5 -14q-17 -30 -41.5 -44t-48.5 -14q-21 0 -54 18z" />
    <glyph glyph-name="uni1EAC" unicode="&#x1eac;" horiz-adv-x="482" 
d="M325 11l-16 96q0 5 -6 5h-127q-6 0 -6 -5l-16 -96q-1 -11 -13 -11h-117q-13 0 -10 13l147 676q2 11 13 11h135q11 0 13 -11l146 -676l1 -4q0 -9 -11 -9h-120q-12 0 -13 11zM194 221h90q5 0 4 5l-47 273q-1 3 -3 3t-3 -3l-45 -273q0 -5 4 -5zM188 -218.5
q-21 21.5 -21 53.5q0 34 21 54.5t54 20.5t54 -20.5t21 -54.5q0 -32 -21.5 -53.5t-53.5 -21.5q-33 0 -54 21.5zM96.5 763.5q-2.5 3.5 1.5 10.5l63 104q4 8 14 8h129q9 0 14 -8l66 -104q2 -6 2 -7q0 -7 -10 -7h-88q-10 0 -14 9l-30 56q-3 5 -6 0l-30 -56q-5 -9 -15 -9h-87
q-7 0 -9.5 3.5z" />
    <glyph glyph-name="uni1EAD" unicode="&#x1ead;" horiz-adv-x="445" 
d="M362 476q53 -46 53 -121v-343q0 -5 -3.5 -8.5t-8.5 -3.5h-117q-5 0 -8.5 3.5t-3.5 8.5v22q0 3 -2 4t-4 -2q-33 -42 -102 -44q-58 0 -100.5 32t-42.5 122q0 93 51.5 128t148.5 35h46q5 0 5 5v25q0 27 -14.5 44.5t-36.5 17.5q-17 0 -28.5 -10.5t-14.5 -29.5q-1 -12 -13 -12
l-120 1q-12 0 -12 12q5 73 57 116.5t132 43.5q85 0 138 -46zM255.5 116.5q18.5 15.5 18.5 41.5v47q0 5 -5 5h-41q-27 0 -43.5 -15.5t-16.5 -42.5q0 -25 12.5 -38t33.5 -13q23 0 41.5 15.5zM169 -218.5q-21 21.5 -21 53.5q0 34 21 54.5t54 20.5t54 -20.5t21 -54.5
q0 -32 -21.5 -53.5t-53.5 -21.5q-33 0 -54 21.5zM77.5 577.5q-2.5 3.5 1.5 10.5l63 104q4 8 14 8h129q9 0 14 -8l66 -104q2 -6 2 -7q0 -7 -10 -7h-88q-10 0 -14 9l-30 56q-3 5 -6 0l-30 -56q-5 -9 -15 -9h-87q-7 0 -9.5 3.5z" />
    <glyph glyph-name="uni1EAE" unicode="&#x1eae;" horiz-adv-x="482" 
d="M325 11l-16 96q0 5 -6 5h-127q-6 0 -6 -5l-16 -96q-1 -11 -13 -11h-117q-13 0 -10 13l147 676q2 11 13 11h135q11 0 13 -11l146 -676l1 -4q0 -9 -11 -9h-120q-12 0 -13 11zM194 221h90q5 0 4 5l-47 273q-1 3 -3 3t-3 -3l-45 -273q0 -5 4 -5zM158.5 780q-32.5 29 -36.5 77
v2q0 10 11 10h50q12 0 12 -12q3 -20 15.5 -32t30.5 -12q17 0 30 12.5t16 31.5q1 12 13 12h50q12 0 11 -12q-4 -47 -37 -76.5t-83 -29.5t-82.5 29zM177 926q-3 4 1 10l59 102q4 8 15 8h93q10 0 10 -7q0 -3 -3 -8l-77 -102q-6 -7 -14 -7h-74q-7 0 -10 4z" />
    <glyph glyph-name="uni1EAF" unicode="&#x1eaf;" horiz-adv-x="445" 
d="M362 476q53 -46 53 -121v-343q0 -5 -3.5 -8.5t-8.5 -3.5h-117q-5 0 -8.5 3.5t-3.5 8.5v22q0 3 -2 4t-4 -2q-33 -42 -102 -44q-58 0 -100.5 32t-42.5 122q0 93 51.5 128t148.5 35h46q5 0 5 5v25q0 27 -14.5 44.5t-36.5 17.5q-17 0 -28.5 -10.5t-14.5 -29.5q-1 -12 -13 -12
l-120 1q-12 0 -12 12q5 73 57 116.5t132 43.5q85 0 138 -46zM255.5 116.5q18.5 15.5 18.5 41.5v47q0 5 -5 5h-41q-27 0 -43.5 -15.5t-16.5 -42.5q0 -25 12.5 -38t33.5 -13q23 0 41.5 15.5zM139.5 594q-32.5 29 -36.5 77v2q0 10 11 10h50q12 0 12 -12q3 -20 15.5 -32
t30.5 -12q17 0 30 12.5t16 31.5q1 12 13 12h50q12 0 11 -12q-4 -47 -37 -76.5t-83 -29.5t-82.5 29zM158 740q-3 4 1 10l59 102q4 8 15 8h93q10 0 10 -7q0 -3 -3 -8l-77 -102q-6 -7 -14 -7h-74q-7 0 -10 4z" />
    <glyph glyph-name="uni1EB0" unicode="&#x1eb0;" horiz-adv-x="482" 
d="M325 11l-16 96q0 5 -6 5h-127q-6 0 -6 -5l-16 -96q-1 -11 -13 -11h-117q-13 0 -10 13l147 676q2 11 13 11h135q11 0 13 -11l146 -676l1 -4q0 -9 -11 -9h-120q-12 0 -13 11zM194 221h90q5 0 4 5l-47 273q-1 3 -3 3t-3 -3l-45 -273q0 -5 4 -5zM158.5 780q-32.5 29 -36.5 77
v2q0 10 11 10h50q12 0 12 -12q3 -20 15.5 -32t30.5 -12q17 0 30 12.5t16 31.5q1 12 13 12h50q12 0 11 -12q-4 -47 -37 -76.5t-83 -29.5t-82.5 29zM287 930q0 -8 -11 -8h-75q-8 0 -14 7l-76 102q-3 5 -3 8q0 7 10 7h93q10 0 14 -8l60 -102z" />
    <glyph glyph-name="uni1EB1" unicode="&#x1eb1;" horiz-adv-x="445" 
d="M362 476q53 -46 53 -121v-343q0 -5 -3.5 -8.5t-8.5 -3.5h-117q-5 0 -8.5 3.5t-3.5 8.5v22q0 3 -2 4t-4 -2q-33 -42 -102 -44q-58 0 -100.5 32t-42.5 122q0 93 51.5 128t148.5 35h46q5 0 5 5v25q0 27 -14.5 44.5t-36.5 17.5q-17 0 -28.5 -10.5t-14.5 -29.5q-1 -12 -13 -12
l-120 1q-12 0 -12 12q5 73 57 116.5t132 43.5q85 0 138 -46zM255.5 116.5q18.5 15.5 18.5 41.5v47q0 5 -5 5h-41q-27 0 -43.5 -15.5t-16.5 -42.5q0 -25 12.5 -38t33.5 -13q23 0 41.5 15.5zM139.5 594q-32.5 29 -36.5 77v2q0 10 11 10h50q12 0 12 -12q3 -20 15.5 -32
t30.5 -12q17 0 30 12.5t16 31.5q1 12 13 12h50q12 0 11 -12q-4 -47 -37 -76.5t-83 -29.5t-82.5 29zM268 744q0 -8 -11 -8h-75q-8 0 -14 7l-76 102q-3 5 -3 8q0 7 10 7h93q10 0 14 -8l60 -102z" />
    <glyph glyph-name="uni1EB2" unicode="&#x1eb2;" horiz-adv-x="482" 
d="M325 11l-16 96q0 5 -6 5h-127q-6 0 -6 -5l-16 -96q-1 -11 -13 -11h-117q-13 0 -10 13l147 676q2 11 13 11h135q11 0 13 -11l146 -676l1 -4q0 -9 -11 -9h-120q-12 0 -13 11zM194 221h90q5 0 4 5l-47 273q-1 3 -3 3t-3 -3l-45 -273q0 -5 4 -5zM223.5 903q-2.5 4 0.5 10
q9 21 27 41q9 10 13 17t4 19q0 9 -7 15t-18 6t-18.5 -5t-19.5 -20q-4 -6 -10 -6q-5 0 -8 3l-28 21q-5 3 -5 9q0 4 3 8q19 27 39 38t51 11q39 0 62.5 -21.5t23.5 -58.5q0 -20 -8 -33.5t-24 -30.5q-17 -17 -23 -28q-6 -8 -15 -7l-31 6q-6 2 -8.5 6zM158.5 780
q-32.5 29 -36.5 77v2q0 10 11 10h50q11 0 13 -12q3 -20 15 -32t30 -12t30.5 12t15.5 32q1 12 13 12h50q12 0 12 -12q-5 -48 -37.5 -77t-83.5 -29q-50 0 -82.5 29z" />
    <glyph glyph-name="uni1EB3" unicode="&#x1eb3;" horiz-adv-x="445" 
d="M362 476q53 -46 53 -121v-343q0 -5 -3.5 -8.5t-8.5 -3.5h-117q-5 0 -8.5 3.5t-3.5 8.5v22q0 3 -2 4t-4 -2q-33 -42 -102 -44q-58 0 -100.5 32t-42.5 122q0 93 51.5 128t148.5 35h46q5 0 5 5v25q0 27 -14.5 44.5t-36.5 17.5q-17 0 -28.5 -10.5t-14.5 -29.5q-1 -12 -13 -12
l-120 1q-12 0 -12 12q5 73 57 116.5t132 43.5q85 0 138 -46zM255.5 116.5q18.5 15.5 18.5 41.5v47q0 5 -5 5h-41q-27 0 -43.5 -15.5t-16.5 -42.5q0 -25 12.5 -38t33.5 -13q23 0 41.5 15.5zM204.5 717q-2.5 4 0.5 10q9 21 27 41q9 10 13 17t4 19q0 9 -7 15t-18 6t-18.5 -5
t-19.5 -20q-4 -6 -10 -6q-5 0 -8 3l-28 21q-5 3 -5 9q0 4 3 8q19 27 39 38t51 11q39 0 62.5 -21.5t23.5 -58.5q0 -20 -8 -33.5t-24 -30.5q-17 -17 -23 -28q-6 -8 -15 -7l-31 6q-6 2 -8.5 6zM139.5 594q-32.5 29 -36.5 77v2q0 10 11 10h50q11 0 13 -12q3 -20 15 -32t30 -12
t30.5 12t15.5 32q1 12 13 12h50q12 0 12 -12q-5 -48 -37.5 -77t-83.5 -29q-50 0 -82.5 29z" />
    <glyph glyph-name="uni1EB4" unicode="&#x1eb4;" horiz-adv-x="482" 
d="M325 11l-16 96q0 5 -6 5h-127q-6 0 -6 -5l-16 -96q-1 -11 -13 -11h-117q-13 0 -10 13l147 676q2 11 13 11h135q11 0 13 -11l146 -676l1 -4q0 -9 -11 -9h-120q-12 0 -13 11zM194 221h90q5 0 4 5l-47 273q-1 3 -3 3t-3 -3l-45 -273q0 -5 4 -5zM158.5 780q-32.5 29 -36.5 77
v2q0 10 11 10h50q12 0 12 -12q3 -20 15.5 -32t30.5 -12q17 0 30 12.5t16 31.5q1 12 13 12h50q12 0 11 -12q-4 -47 -37 -76.5t-83 -29.5t-82.5 29zM250 935q-9 4 -20.5 11t-21.5 7q-22 0 -36 -22q-7 -10 -17 -4l-42 30q-8 6 -5 16q13 35 36.5 52t51.5 17q30 0 64 -23
q2 -2 10 -7t15.5 -8t15.5 -3q23 0 36 20q7 12 17 5l40 -28q5 -3 5 -9t-5 -14q-17 -30 -41.5 -44t-48.5 -14q-21 0 -54 18z" />
    <glyph glyph-name="uni1EB5" unicode="&#x1eb5;" horiz-adv-x="445" 
d="M362 476q53 -46 53 -121v-343q0 -5 -3.5 -8.5t-8.5 -3.5h-117q-5 0 -8.5 3.5t-3.5 8.5v22q0 3 -2 4t-4 -2q-33 -42 -102 -44q-58 0 -100.5 32t-42.5 122q0 93 51.5 128t148.5 35h46q5 0 5 5v25q0 27 -14.5 44.5t-36.5 17.5q-17 0 -28.5 -10.5t-14.5 -29.5q-1 -12 -13 -12
l-120 1q-12 0 -12 12q5 73 57 116.5t132 43.5q85 0 138 -46zM255.5 116.5q18.5 15.5 18.5 41.5v47q0 5 -5 5h-41q-27 0 -43.5 -15.5t-16.5 -42.5q0 -25 12.5 -38t33.5 -13q23 0 41.5 15.5zM139.5 594q-32.5 29 -36.5 77v2q0 10 11 10h50q12 0 12 -12q3 -20 15.5 -32
t30.5 -12q17 0 30 12.5t16 31.5q1 12 13 12h50q12 0 11 -12q-4 -47 -37 -76.5t-83 -29.5t-82.5 29zM231 749q-9 4 -20.5 11t-21.5 7q-22 0 -36 -22q-7 -10 -17 -4l-42 30q-8 6 -5 16q13 35 36.5 52t51.5 17q30 0 64 -23q2 -2 10 -7t15.5 -8t15.5 -3q23 0 36 20q7 12 17 5
l40 -28q5 -3 5 -9t-5 -14q-17 -30 -41.5 -44t-48.5 -14q-21 0 -54 18z" />
    <glyph glyph-name="uni1EB6" unicode="&#x1eb6;" horiz-adv-x="482" 
d="M325 11l-16 96q0 5 -6 5h-127q-6 0 -6 -5l-16 -96q-1 -11 -13 -11h-117q-13 0 -10 13l147 676q2 11 13 11h135q11 0 13 -11l146 -676l1 -4q0 -9 -11 -9h-120q-12 0 -13 11zM194 221h90q5 0 4 5l-47 273q-1 3 -3 3t-3 -3l-45 -273q0 -5 4 -5zM188 -218.5
q-21 21.5 -21 53.5q0 34 21 54.5t54 20.5t54 -20.5t21 -54.5q0 -32 -21.5 -53.5t-53.5 -21.5q-33 0 -54 21.5zM159.5 780q-32.5 29 -36.5 77v2q0 10 11 10h50q12 0 12 -12q3 -20 15.5 -32t30.5 -12q17 0 30 12.5t16 31.5q1 12 13 12h50q12 0 11 -12q-4 -47 -37 -76.5
t-83 -29.5t-82.5 29z" />
    <glyph glyph-name="uni1EB7" unicode="&#x1eb7;" horiz-adv-x="445" 
d="M362 476q53 -46 53 -121v-343q0 -5 -3.5 -8.5t-8.5 -3.5h-117q-5 0 -8.5 3.5t-3.5 8.5v22q0 3 -2 4t-4 -2q-33 -42 -102 -44q-58 0 -100.5 32t-42.5 122q0 93 51.5 128t148.5 35h46q5 0 5 5v25q0 27 -14.5 44.5t-36.5 17.5q-17 0 -28.5 -10.5t-14.5 -29.5q-1 -12 -13 -12
l-120 1q-12 0 -12 12q5 73 57 116.5t132 43.5q85 0 138 -46zM255.5 116.5q18.5 15.5 18.5 41.5v47q0 5 -5 5h-41q-27 0 -43.5 -15.5t-16.5 -42.5q0 -25 12.5 -38t33.5 -13q23 0 41.5 15.5zM169 -218.5q-21 21.5 -21 53.5q0 34 21 54.5t54 20.5t54 -20.5t21 -54.5
q0 -32 -21.5 -53.5t-53.5 -21.5q-33 0 -54 21.5zM140.5 594q-32.5 29 -36.5 77v2q0 10 11 10h50q12 0 12 -12q3 -20 15.5 -32t30.5 -12q17 0 30 12.5t16 31.5q1 12 13 12h50q12 0 11 -12q-4 -47 -37 -76.5t-83 -29.5t-82.5 29z" />
    <glyph glyph-name="uni1EB8" unicode="&#x1eb8;" horiz-adv-x="438" 
d="M407.5 582.5q-3.5 -3.5 -8.5 -3.5h-209q-5 0 -5 -5v-158q0 -5 5 -5h120q5 0 8.5 -3.5t3.5 -8.5v-97q0 -5 -3.5 -8.5t-8.5 -3.5h-120q-5 0 -5 -5v-159q0 -5 5 -5h209q5 0 8.5 -3.5t3.5 -8.5v-97q0 -5 -3.5 -8.5t-8.5 -3.5h-343q-5 0 -8.5 3.5t-3.5 8.5v676q0 5 3.5 8.5
t8.5 3.5h343q5 0 8.5 -3.5t3.5 -8.5v-97q0 -5 -3.5 -8.5zM168 -218.5q-21 21.5 -21 53.5q0 34 21 54.5t54 20.5t54 -20.5t21 -54.5q0 -32 -21.5 -53.5t-53.5 -21.5q-33 0 -54 21.5z" />
    <glyph glyph-name="uni1EB9" unicode="&#x1eb9;" horiz-adv-x="436" 
d="M405.5 216.5q-3.5 -3.5 -8.5 -3.5h-220q-5 0 -5 -5v-37q0 -25 13.5 -41.5t34.5 -16.5q19 0 31 12.5t16 31.5q3 10 13 10l115 -6q5 0 8.5 -3.5t2.5 -9.5q-7 -77 -53.5 -116.5t-132.5 -39.5q-89 0 -139 44.5t-50 123.5v194q0 76 50.5 122t138.5 46t138.5 -46t50.5 -122
v-129q0 -5 -3.5 -8.5zM185.5 385q-13.5 -16 -13.5 -41v-39q0 -5 5 -5h86q5 0 5 5v39q0 25 -13.5 41t-34.5 16t-34.5 -16zM165 -218.5q-21 21.5 -21 53.5q0 34 21 54.5t54 20.5t54 -20.5t21 -54.5q0 -32 -21.5 -53.5t-53.5 -21.5q-33 0 -54 21.5z" />
    <glyph glyph-name="uni1EBA" unicode="&#x1eba;" horiz-adv-x="438" 
d="M407.5 582.5q-3.5 -3.5 -8.5 -3.5h-209q-5 0 -5 -5v-158q0 -5 5 -5h120q5 0 8.5 -3.5t3.5 -8.5v-97q0 -5 -3.5 -8.5t-8.5 -3.5h-120q-5 0 -5 -5v-159q0 -5 5 -5h209q5 0 8.5 -3.5t3.5 -8.5v-97q0 -5 -3.5 -8.5t-8.5 -3.5h-343q-5 0 -8.5 3.5t-3.5 8.5v676q0 5 3.5 8.5
t8.5 3.5h343q5 0 8.5 -3.5t3.5 -8.5v-97q0 -5 -3.5 -8.5zM207 757q12 27 33 51q10 11 14.5 19t4.5 21q0 10 -8.5 17t-19.5 7q-13 0 -22.5 -6.5t-23.5 -23.5q-4 -6 -10 -6q-5 0 -8 3l-34 25q-5 3 -5 9q0 4 3 8q22 32 45.5 45.5t57.5 13.5q46 0 72.5 -25t26.5 -67
q0 -23 -9.5 -39t-28.5 -35q-18 -18 -26 -32q-6 -8 -15 -7l-38 7q-14 3 -9 15z" />
    <glyph glyph-name="uni1EBB" unicode="&#x1ebb;" horiz-adv-x="436" 
d="M405.5 216.5q-3.5 -3.5 -8.5 -3.5h-220q-5 0 -5 -5v-37q0 -25 13.5 -41.5t34.5 -16.5q19 0 31 12.5t16 31.5q3 10 13 10l115 -6q5 0 8.5 -3.5t2.5 -9.5q-7 -77 -53.5 -116.5t-132.5 -39.5q-89 0 -139 44.5t-50 123.5v194q0 76 50.5 122t138.5 46t138.5 -46t50.5 -122
v-129q0 -5 -3.5 -8.5zM185.5 385q-13.5 -16 -13.5 -41v-39q0 -5 5 -5h86q5 0 5 5v39q0 25 -13.5 41t-34.5 16t-34.5 -16zM196 571q12 27 33 51q10 11 14.5 19t4.5 21q0 10 -8.5 17t-19.5 7q-13 0 -22.5 -6.5t-23.5 -23.5q-4 -6 -10 -6q-5 0 -8 3l-34 25q-5 3 -5 9q0 4 3 8
q22 32 45.5 45.5t57.5 13.5q46 0 72.5 -25t26.5 -67q0 -23 -9.5 -39t-28.5 -35q-18 -18 -26 -32q-6 -8 -15 -7l-38 7q-14 3 -9 15z" />
    <glyph glyph-name="uni1EBC" unicode="&#x1ebc;" horiz-adv-x="438" 
d="M407.5 582.5q-3.5 -3.5 -8.5 -3.5h-209q-5 0 -5 -5v-158q0 -5 5 -5h120q5 0 8.5 -3.5t3.5 -8.5v-97q0 -5 -3.5 -8.5t-8.5 -3.5h-120q-5 0 -5 -5v-159q0 -5 5 -5h209q5 0 8.5 -3.5t3.5 -8.5v-97q0 -5 -3.5 -8.5t-8.5 -3.5h-343q-5 0 -8.5 3.5t-3.5 8.5v676q0 5 3.5 8.5
t8.5 3.5h343q5 0 8.5 -3.5t3.5 -8.5v-97q0 -5 -3.5 -8.5zM242 790q-9 4 -20.5 11t-21.5 7q-22 0 -36 -22q-7 -10 -17 -4l-42 30q-8 6 -5 16q13 35 36.5 52t51.5 17q30 0 64 -23q2 -2 10 -7t15.5 -8t15.5 -3q23 0 36 20q7 12 17 5l40 -28q5 -3 5 -9t-5 -14q-17 -30 -41.5 -44
t-48.5 -14q-21 0 -54 18z" />
    <glyph glyph-name="uni1EBD" unicode="&#x1ebd;" horiz-adv-x="436" 
d="M405.5 216.5q-3.5 -3.5 -8.5 -3.5h-220q-5 0 -5 -5v-37q0 -25 13.5 -41.5t34.5 -16.5q19 0 31 12.5t16 31.5q3 10 13 10l115 -6q5 0 8.5 -3.5t2.5 -9.5q-7 -77 -53.5 -116.5t-132.5 -39.5q-89 0 -139 44.5t-50 123.5v194q0 76 50.5 122t138.5 46t138.5 -46t50.5 -122
v-129q0 -5 -3.5 -8.5zM185.5 385q-13.5 -16 -13.5 -41v-39q0 -5 5 -5h86q5 0 5 5v39q0 25 -13.5 41t-34.5 16t-34.5 -16zM232 604q-9 4 -20.5 11t-21.5 7q-22 0 -36 -22q-7 -10 -17 -4l-42 30q-8 6 -5 16q13 35 36.5 52t51.5 17q30 0 64 -23q2 -2 10 -7t15.5 -8t15.5 -3
q23 0 36 20q7 12 17 5l40 -28q5 -3 5 -9t-5 -14q-17 -30 -41.5 -44t-48.5 -14q-21 0 -54 18z" />
    <glyph glyph-name="uni1EBE" unicode="&#x1ebe;" horiz-adv-x="438" 
d="M407.5 582.5q-3.5 -3.5 -8.5 -3.5h-209q-5 0 -5 -5v-158q0 -5 5 -5h120q5 0 8.5 -3.5t3.5 -8.5v-97q0 -5 -3.5 -8.5t-8.5 -3.5h-120q-5 0 -5 -5v-159q0 -5 5 -5h209q5 0 8.5 -3.5t3.5 -8.5v-97q0 -5 -3.5 -8.5t-8.5 -3.5h-343q-5 0 -8.5 3.5t-3.5 8.5v676q0 5 3.5 8.5
t8.5 3.5h343q5 0 8.5 -3.5t3.5 -8.5v-97q0 -5 -3.5 -8.5zM82.5 763.5q-2.5 3.5 1.5 10.5l63 104q4 8 14 8h129q9 0 14 -8l66 -104q2 -6 2 -7q0 -7 -10 -7h-88q-10 0 -14 9l-30 56q-3 5 -6 0l-30 -56q-5 -9 -15 -9h-87q-7 0 -9.5 3.5zM363 847q-3 4 1 10l59 102q4 8 15 8h93
q10 0 10 -7q0 -3 -3 -8l-77 -102q-6 -7 -14 -7h-74q-7 0 -10 4z" />
    <glyph glyph-name="uni1EBF" unicode="&#x1ebf;" horiz-adv-x="436" 
d="M405.5 216.5q-3.5 -3.5 -8.5 -3.5h-220q-5 0 -5 -5v-37q0 -25 13.5 -41.5t34.5 -16.5q19 0 31 12.5t16 31.5q3 10 13 10l115 -6q5 0 8.5 -3.5t2.5 -9.5q-7 -77 -53.5 -116.5t-132.5 -39.5q-89 0 -139 44.5t-50 123.5v194q0 76 50.5 122t138.5 46t138.5 -46t50.5 -122
v-129q0 -5 -3.5 -8.5zM185.5 385q-13.5 -16 -13.5 -41v-39q0 -5 5 -5h86q5 0 5 5v39q0 25 -13.5 41t-34.5 16t-34.5 -16zM72.5 577.5q-2.5 3.5 1.5 10.5l63 104q4 8 14 8h129q9 0 14 -8l66 -104q2 -6 2 -7q0 -7 -10 -7h-88q-10 0 -14 9l-30 56q-3 5 -6 0l-30 -56
q-5 -9 -15 -9h-87q-7 0 -9.5 3.5zM353 661q-3 4 1 10l59 102q4 8 15 8h93q10 0 10 -7q0 -3 -3 -8l-77 -102q-6 -7 -14 -7h-74q-7 0 -10 4z" />
    <glyph glyph-name="uni1EC0" unicode="&#x1ec0;" horiz-adv-x="438" 
d="M407.5 582.5q-3.5 -3.5 -8.5 -3.5h-209q-5 0 -5 -5v-158q0 -5 5 -5h120q5 0 8.5 -3.5t3.5 -8.5v-97q0 -5 -3.5 -8.5t-8.5 -3.5h-120q-5 0 -5 -5v-159q0 -5 5 -5h209q5 0 8.5 -3.5t3.5 -8.5v-97q0 -5 -3.5 -8.5t-8.5 -3.5h-343q-5 0 -8.5 3.5t-3.5 8.5v676q0 5 3.5 8.5
t8.5 3.5h343q5 0 8.5 -3.5t3.5 -8.5v-97q0 -5 -3.5 -8.5zM82.5 763.5q-2.5 3.5 1.5 10.5l63 104q4 8 14 8h129q9 0 14 -8l66 -104q2 -6 2 -7q0 -7 -10 -7h-88q-10 0 -14 9l-30 56q-3 5 -6 0l-30 -56q-5 -9 -15 -9h-87q-7 0 -9.5 3.5zM439 890q0 -8 -11 -8h-75q-8 0 -14 7
l-76 102q-3 5 -3 8q0 7 10 7h93q10 0 14 -8l60 -102z" />
    <glyph glyph-name="uni1EC1" unicode="&#x1ec1;" horiz-adv-x="436" 
d="M405.5 216.5q-3.5 -3.5 -8.5 -3.5h-220q-5 0 -5 -5v-37q0 -25 13.5 -41.5t34.5 -16.5q19 0 31 12.5t16 31.5q3 10 13 10l115 -6q5 0 8.5 -3.5t2.5 -9.5q-7 -77 -53.5 -116.5t-132.5 -39.5q-89 0 -139 44.5t-50 123.5v194q0 76 50.5 122t138.5 46t138.5 -46t50.5 -122
v-129q0 -5 -3.5 -8.5zM185.5 385q-13.5 -16 -13.5 -41v-39q0 -5 5 -5h86q5 0 5 5v39q0 25 -13.5 41t-34.5 16t-34.5 -16zM72.5 577.5q-2.5 3.5 1.5 10.5l63 104q4 8 14 8h129q9 0 14 -8l66 -104q2 -6 2 -7q0 -7 -10 -7h-88q-10 0 -14 9l-30 56q-3 5 -6 0l-30 -56
q-5 -9 -15 -9h-87q-7 0 -9.5 3.5zM429 704q0 -8 -11 -8h-75q-8 0 -14 7l-76 102q-3 5 -3 8q0 7 10 7h93q10 0 14 -8l60 -102z" />
    <glyph glyph-name="uni1EC2" unicode="&#x1ec2;" horiz-adv-x="438" 
d="M407.5 582.5q-3.5 -3.5 -8.5 -3.5h-209q-5 0 -5 -5v-158q0 -5 5 -5h120q5 0 8.5 -3.5t3.5 -8.5v-97q0 -5 -3.5 -8.5t-8.5 -3.5h-120q-5 0 -5 -5v-159q0 -5 5 -5h209q5 0 8.5 -3.5t3.5 -8.5v-97q0 -5 -3.5 -8.5t-8.5 -3.5h-343q-5 0 -8.5 3.5t-3.5 8.5v676q0 5 3.5 8.5
t8.5 3.5h343q5 0 8.5 -3.5t3.5 -8.5v-97q0 -5 -3.5 -8.5zM358.5 868q-2.5 4 0.5 10q10 24 30 46q10 12 14 19t4 19q0 10 -8 16.5t-19 6.5q-12 0 -20.5 -6t-21.5 -22q-4 -6 -9 -6q-3 0 -8 3l-31 23q-5 3 -5 9q0 4 3 8q20 29 41.5 41.5t54.5 12.5q42 0 67 -23t25 -63
q0 -22 -8.5 -36t-26.5 -33q-18 -18 -24 -29q-6 -8 -15 -7l-35 6q-6 1 -8.5 5zM82.5 763.5q-2.5 3.5 1.5 10.5l63 104q4 8 14 8h129q9 0 14 -8l66 -104q2 -6 2 -7q0 -7 -10 -7h-88q-10 0 -14 9l-30 56q-3 5 -6 0l-30 -56q-5 -9 -15 -9h-87q-7 0 -9.5 3.5z" />
    <glyph glyph-name="uni1EC3" unicode="&#x1ec3;" horiz-adv-x="436" 
d="M405.5 216.5q-3.5 -3.5 -8.5 -3.5h-220q-5 0 -5 -5v-37q0 -25 13.5 -41.5t34.5 -16.5q19 0 31 12.5t16 31.5q3 10 13 10l115 -6q5 0 8.5 -3.5t2.5 -9.5q-7 -77 -53.5 -116.5t-132.5 -39.5q-89 0 -139 44.5t-50 123.5v194q0 76 50.5 122t138.5 46t138.5 -46t50.5 -122
v-129q0 -5 -3.5 -8.5zM185.5 385q-13.5 -16 -13.5 -41v-39q0 -5 5 -5h86q5 0 5 5v39q0 25 -13.5 41t-34.5 16t-34.5 -16zM348.5 682q-2.5 4 0.5 10q10 24 30 46q10 12 14 19t4 19q0 10 -8 16.5t-19 6.5q-12 0 -20.5 -6t-21.5 -22q-4 -6 -9 -6q-3 0 -8 3l-31 23q-5 3 -5 9
q0 4 3 8q20 29 41.5 41.5t54.5 12.5q42 0 67 -23t25 -63q0 -22 -8.5 -36t-26.5 -33q-18 -18 -24 -29q-6 -8 -15 -7l-35 6q-6 1 -8.5 5zM72.5 577.5q-2.5 3.5 1.5 10.5l63 104q4 8 14 8h129q9 0 14 -8l66 -104q2 -6 2 -7q0 -7 -10 -7h-88q-10 0 -14 9l-30 56q-3 5 -6 0
l-30 -56q-5 -9 -15 -9h-87q-7 0 -9.5 3.5z" />
    <glyph glyph-name="uni1EC4" unicode="&#x1ec4;" horiz-adv-x="438" 
d="M407.5 582.5q-3.5 -3.5 -8.5 -3.5h-209q-5 0 -5 -5v-158q0 -5 5 -5h120q5 0 8.5 -3.5t3.5 -8.5v-97q0 -5 -3.5 -8.5t-8.5 -3.5h-120q-5 0 -5 -5v-159q0 -5 5 -5h209q5 0 8.5 -3.5t3.5 -8.5v-97q0 -5 -3.5 -8.5t-8.5 -3.5h-343q-5 0 -8.5 3.5t-3.5 8.5v676q0 5 3.5 8.5
t8.5 3.5h343q5 0 8.5 -3.5t3.5 -8.5v-97q0 -5 -3.5 -8.5zM82.5 763.5q-2.5 3.5 1.5 10.5l63 104q4 8 14 8h129q9 0 14 -8l66 -104q2 -6 2 -7q0 -7 -10 -7h-88q-10 0 -14 9l-30 56q-3 5 -6 0l-30 -56q-5 -9 -15 -9h-87q-7 0 -9.5 3.5zM223 940q-9 4 -20.5 11t-21.5 7
q-22 0 -36 -22q-7 -10 -17 -4l-42 30q-8 6 -5 16q13 35 36.5 52t51.5 17q30 0 64 -23q2 -2 10 -7t15.5 -8t15.5 -3q23 0 36 20q7 12 17 5l40 -28q5 -3 5 -9t-5 -14q-17 -30 -41.5 -44t-48.5 -14q-21 0 -54 18z" />
    <glyph glyph-name="uni1EC5" unicode="&#x1ec5;" horiz-adv-x="436" 
d="M405.5 216.5q-3.5 -3.5 -8.5 -3.5h-220q-5 0 -5 -5v-37q0 -25 13.5 -41.5t34.5 -16.5q19 0 31 12.5t16 31.5q3 10 13 10l115 -6q5 0 8.5 -3.5t2.5 -9.5q-7 -77 -53.5 -116.5t-132.5 -39.5q-89 0 -139 44.5t-50 123.5v194q0 76 50.5 122t138.5 46t138.5 -46t50.5 -122
v-129q0 -5 -3.5 -8.5zM185.5 385q-13.5 -16 -13.5 -41v-39q0 -5 5 -5h86q5 0 5 5v39q0 25 -13.5 41t-34.5 16t-34.5 -16zM72.5 577.5q-2.5 3.5 1.5 10.5l63 104q4 8 14 8h129q9 0 14 -8l66 -104q2 -6 2 -7q0 -7 -10 -7h-88q-10 0 -14 9l-30 56q-3 5 -6 0l-30 -56
q-5 -9 -15 -9h-87q-7 0 -9.5 3.5zM213 754q-9 4 -20.5 11t-21.5 7q-22 0 -36 -22q-7 -10 -17 -4l-42 30q-8 6 -5 16q13 35 36.5 52t51.5 17q30 0 64 -23q2 -2 10 -7t15.5 -8t15.5 -3q23 0 36 20q7 12 17 5l40 -28q5 -3 5 -9t-5 -14q-17 -30 -41.5 -44t-48.5 -14
q-21 0 -54 18z" />
    <glyph glyph-name="uni1EC6" unicode="&#x1ec6;" horiz-adv-x="438" 
d="M407.5 582.5q-3.5 -3.5 -8.5 -3.5h-209q-5 0 -5 -5v-158q0 -5 5 -5h120q5 0 8.5 -3.5t3.5 -8.5v-97q0 -5 -3.5 -8.5t-8.5 -3.5h-120q-5 0 -5 -5v-159q0 -5 5 -5h209q5 0 8.5 -3.5t3.5 -8.5v-97q0 -5 -3.5 -8.5t-8.5 -3.5h-343q-5 0 -8.5 3.5t-3.5 8.5v676q0 5 3.5 8.5
t8.5 3.5h343q5 0 8.5 -3.5t3.5 -8.5v-97q0 -5 -3.5 -8.5zM168 -218.5q-21 21.5 -21 53.5q0 34 21 54.5t54 20.5t54 -20.5t21 -54.5q0 -32 -21.5 -53.5t-53.5 -21.5q-33 0 -54 21.5zM83.5 763.5q-2.5 3.5 1.5 10.5l63 104q4 8 14 8h129q9 0 14 -8l66 -104q2 -6 2 -7
q0 -7 -10 -7h-88q-10 0 -14 9l-30 56q-3 5 -6 0l-30 -56q-5 -9 -15 -9h-87q-7 0 -9.5 3.5z" />
    <glyph glyph-name="uni1EC7" unicode="&#x1ec7;" horiz-adv-x="436" 
d="M405.5 216.5q-3.5 -3.5 -8.5 -3.5h-220q-5 0 -5 -5v-37q0 -25 13.5 -41.5t34.5 -16.5q19 0 31 12.5t16 31.5q3 10 13 10l115 -6q5 0 8.5 -3.5t2.5 -9.5q-7 -77 -53.5 -116.5t-132.5 -39.5q-89 0 -139 44.5t-50 123.5v194q0 76 50.5 122t138.5 46t138.5 -46t50.5 -122
v-129q0 -5 -3.5 -8.5zM185.5 385q-13.5 -16 -13.5 -41v-39q0 -5 5 -5h86q5 0 5 5v39q0 25 -13.5 41t-34.5 16t-34.5 -16zM165 -218.5q-21 21.5 -21 53.5q0 34 21 54.5t54 20.5t54 -20.5t21 -54.5q0 -32 -21.5 -53.5t-53.5 -21.5q-33 0 -54 21.5zM73.5 577.5
q-2.5 3.5 1.5 10.5l63 104q4 8 14 8h129q9 0 14 -8l66 -104q2 -6 2 -7q0 -7 -10 -7h-88q-10 0 -14 9l-30 56q-3 5 -6 0l-30 -56q-5 -9 -15 -9h-87q-7 0 -9.5 3.5z" />
    <glyph glyph-name="uni1EC8" unicode="&#x1ec8;" horiz-adv-x="230" 
d="M47.5 3.5q-3.5 3.5 -3.5 8.5v676q0 5 3.5 8.5t8.5 3.5h117q5 0 8.5 -3.5t3.5 -8.5v-676q0 -5 -3.5 -8.5t-8.5 -3.5h-117q-5 0 -8.5 3.5zM93 757q12 27 33 51q10 11 14.5 19t4.5 21q0 10 -8.5 17t-19.5 7q-13 0 -22.5 -6.5t-23.5 -23.5q-4 -6 -10 -6q-5 0 -8 3l-34 25
q-5 3 -5 9q0 4 3 8q22 32 45.5 45.5t57.5 13.5q46 0 72.5 -25t26.5 -67q0 -23 -9.5 -39t-28.5 -35q-18 -18 -26 -32q-6 -8 -15 -7l-38 7q-14 3 -9 15z" />
    <glyph glyph-name="uni1EC9" unicode="&#x1ec9;" horiz-adv-x="190" 
d="M27.5 3.5q-3.5 3.5 -3.5 8.5v490q0 5 3.5 8.5t8.5 3.5h117q5 0 8.5 -3.5t3.5 -8.5v-490q0 -5 -3.5 -8.5t-8.5 -3.5h-117q-5 0 -8.5 3.5zM73 571q12 27 33 51q10 11 14.5 19t4.5 21q0 10 -8.5 17t-19.5 7q-13 0 -22.5 -6.5t-23.5 -23.5q-4 -6 -10 -6q-5 0 -8 3l-34 25
q-5 3 -5 9q0 4 3 8q22 32 45.5 45.5t57.5 13.5q46 0 72.5 -25t26.5 -67q0 -23 -9.5 -39t-28.5 -35q-18 -18 -26 -32q-6 -8 -15 -7l-38 7q-14 3 -9 15z" />
    <glyph glyph-name="uni1ECA" unicode="&#x1eca;" horiz-adv-x="230" 
d="M47.5 3.5q-3.5 3.5 -3.5 8.5v676q0 5 3.5 8.5t8.5 3.5h117q5 0 8.5 -3.5t3.5 -8.5v-676q0 -5 -3.5 -8.5t-8.5 -3.5h-117q-5 0 -8.5 3.5zM61 -218.5q-21 21.5 -21 53.5q0 34 21 54.5t54 20.5t54 -20.5t21 -54.5q0 -32 -21.5 -53.5t-53.5 -21.5q-33 0 -54 21.5z" />
    <glyph glyph-name="uni1ECB" unicode="&#x1ecb;" horiz-adv-x="219" 
d="M52.5 594.5q-22.5 22.5 -22.5 56.5q0 35 22 57t57 22t56.5 -22t21.5 -57q0 -34 -22 -56.5t-56 -22.5t-56.5 22.5zM43.5 3.5q-3.5 3.5 -3.5 8.5v490q0 5 3.5 8.5t8.5 3.5h117q5 0 8.5 -3.5t3.5 -8.5v-490q0 -5 -3.5 -8.5t-8.5 -3.5h-117q-5 0 -8.5 3.5zM55 -218.5
q-21 21.5 -21 53.5q0 34 21 54.5t54 20.5t54 -20.5t21 -54.5q0 -32 -21.5 -53.5t-53.5 -21.5q-33 0 -54 21.5z" />
    <glyph glyph-name="uni1ECC" unicode="&#x1ecc;" horiz-adv-x="473" 
d="M89 46q-55 54 -55 144v320q0 90 55 144t147 54t147.5 -54t55.5 -144v-320q0 -90 -55.5 -144t-147.5 -54t-147 54zM281 132.5q17 19.5 17 51.5v332q0 32 -17 51.5t-45 19.5t-44.5 -19.5t-16.5 -51.5v-332q0 -32 16.5 -51.5t44.5 -19.5t45 19.5zM183 -218.5
q-21 21.5 -21 53.5q0 34 21 54.5t54 20.5t54 -20.5t21 -54.5q0 -32 -21.5 -53.5t-53.5 -21.5q-33 0 -54 21.5z" />
    <glyph glyph-name="uni1ECD" unicode="&#x1ecd;" horiz-adv-x="442" 
d="M81.5 37q-50.5 45 -50.5 123v194q0 76 51 122t139 46q89 0 140 -46t51 -122v-194q0 -78 -50.5 -123t-140.5 -45q-89 0 -139.5 45zM257 130q14 16 14 41v173q0 25 -14 41t-36 16t-35.5 -16t-13.5 -41v-173q0 -25 13.5 -41t35.5 -16t36 16zM168 -218.5q-21 21.5 -21 53.5
q0 34 21 54.5t54 20.5t54 -20.5t21 -54.5q0 -32 -21.5 -53.5t-53.5 -21.5q-33 0 -54 21.5z" />
    <glyph glyph-name="uni1ECE" unicode="&#x1ece;" horiz-adv-x="473" 
d="M89 46q-55 54 -55 144v320q0 90 55 144t147 54t147.5 -54t55.5 -144v-320q0 -90 -55.5 -144t-147.5 -54t-147 54zM281 132.5q17 19.5 17 51.5v332q0 32 -17 51.5t-45 19.5t-44.5 -19.5t-16.5 -51.5v-332q0 -32 16.5 -51.5t44.5 -19.5t45 19.5zM214 756q12 27 33 51
q10 11 14.5 19t4.5 21q0 10 -8.5 17t-19.5 7q-13 0 -22.5 -6.5t-23.5 -23.5q-4 -6 -10 -6q-5 0 -8 3l-34 25q-5 3 -5 9q0 4 3 8q22 32 45.5 45.5t57.5 13.5q46 0 72.5 -25t26.5 -67q0 -23 -9.5 -39t-28.5 -35q-18 -18 -26 -32q-6 -8 -15 -7l-38 7q-14 3 -9 15z" />
    </font>
</defs>
</svg>
