<?xml version="1.0" standalone="no"?>
<!DOCTYPE svg PUBLIC "-//W3C//DTD SVG 1.1//EN" "http://www.w3.org/Graphics/SVG/1.1/DTD/svg11.dtd" >
<svg xmlns="http://www.w3.org/2000/svg" xmlns:xlink="http://www.w3.org/1999/xlink" version="1.1">
<metadata>
Created by FontForge 20201107 at Wed Nov  7 06:08:28 2018
 By 
Copyright 2017 The Barlow Project Authors (https://github.com/jpt/barlow)
</metadata>
<defs>
<font id="BarlowCondensed-Black" horiz-adv-x="0" >
  <font-face 
    font-family="Barlow Condensed Black"
    font-weight="900"
    font-stretch="condensed"
    units-per-em="1000"
    panose-1="0 0 10 6 0 0 0 0 0 0"
    ascent="800"
    descent="-200"
    x-height="520"
    cap-height="700"
    bbox="-613 -274 1018 1066"
    underline-thickness="50"
    underline-position="-100"
    unicode-range="U+000D-FB02"
  />
<missing-glyph horiz-adv-x="446" 
d="M6 0h434q6 0 6 6v688q0 6 -6 6h-434q-6 0 -6 -6v-688q0 -6 6 -6zM156 263q-4 4 -4 11v5q0 40 17.5 63.5t48.5 47.5q21 16 30.5 27t9.5 26t-7.5 23.5t-20.5 8.5q-15 0 -24 -10t-9 -26q0 -13 -15 -13l-104 4q-7 0 -11 2.5t-4 6.5q0 71 47.5 114.5t123.5 43.5
q73 0 116.5 -40.5t43.5 -107.5q0 -45 -17.5 -70t-49.5 -51q-21 -16 -31.5 -28t-10.5 -30q0 -11 -15 -11h-103q-7 0 -11 4zM171 105.5q-19 19.5 -19 48.5q0 30 19 48.5t48 18.5t48 -18.5t19 -48.5q0 -29 -19 -48.5t-48 -19.5t-48 19.5z" />
    <glyph glyph-name="fi" unicode="fi" horiz-adv-x="537" 
d="M295 516q4 -4 4 -11v-100q0 -7 -4 -11t-11 -4h-37q-6 0 -6 -6v-369q0 -7 -4 -11t-11 -4h-158q-7 0 -11 4t-4 11v369q0 6 -6 6h-20q-7 0 -11 4t-4 11v100q0 7 4 11t11 4h20q6 0 6 6v30q0 82 45.5 113.5t138.5 31.5q27 0 41 -1q3 0 5 -4t2 -11v-95q0 -15 -7 -15
q-18 -2 -27.5 -12t-9.5 -24v-13q0 -6 6 -6h37q7 0 11 -4zM355.5 581.5q-26.5 26.5 -26.5 67.5q0 42 26.5 68t67.5 26t67.5 -26t26.5 -68q0 -40 -26.5 -67t-67.5 -27t-67.5 26.5zM335 4q-4 4 -4 11v490q0 7 4 11t11 4h158q7 0 11 -4t4 -11v-490q0 -7 -4 -11t-11 -4h-158
q-7 0 -11 4z" />
    <glyph glyph-name="fl" unicode="fl" horiz-adv-x="539" 
d="M295 516q4 -4 4 -11v-100q0 -7 -4 -11t-11 -4h-37q-6 0 -6 -6v-369q0 -7 -4 -11t-11 -4h-158q-7 0 -11 4t-4 11v369q0 6 -6 6h-20q-7 0 -11 4t-4 11v100q0 7 4 11t11 4h20q6 0 6 6v30q0 82 45.5 113.5t138.5 31.5q27 0 41 -1q3 0 5 -4t2 -11v-95q0 -15 -7 -15
q-18 -2 -27.5 -12t-9.5 -24v-13q0 -6 6 -6h37q7 0 11 -4zM335 4q-4 4 -4 11v670q0 7 4 11t11 4h158q7 0 11 -4t4 -11v-670q0 -7 -4 -11t-11 -4h-158q-7 0 -11 4z" />
    <glyph glyph-name="I_J.liga" unicode="IJ" horiz-adv-x="710" 
d="M30 4q-4 4 -4 11v670q0 7 4 11t11 4h158q7 0 11 -4t4 -11v-670q0 -7 -4 -11t-11 -4h-158q-7 0 -11 4zM351.5 17q-49.5 25 -76.5 70.5t-27 104.5v58q0 7 4 11t11 4h158q7 0 11 -4t4 -11v-60q0 -16 8 -26.5t21 -10.5q14 0 22.5 10.5t8.5 26.5v495q0 7 4 11t11 4h158
q7 0 11 -4t4 -11v-493q0 -59 -27.5 -104.5t-77 -70.5t-114.5 -25q-64 0 -113.5 25z" />
    <glyph glyph-name="f_f_i.liga" unicode="ffi" horiz-adv-x="811" 
d="M629.5 581.5q-26.5 26.5 -26.5 67.5q0 42 26.5 68t67.5 26t67.5 -26t26.5 -68q0 -40 -26.5 -67t-67.5 -27t-67.5 26.5zM507 526q0 -6 6 -6h37q7 0 11 -4t4 -11v-100q0 -7 -4 -11t-11 -4h-37q-6 0 -6 -6v-369q0 -7 -4 -11t-11 -4h-158q-7 0 -11 4t-4 11v369q0 6 -6 6h-66
q-6 0 -6 -6v-369q0 -7 -4 -11t-11 -4h-158q-7 0 -11 4t-4 11v369q0 6 -6 6h-20q-7 0 -11 4t-4 11v100q0 7 4 11t11 4h20q6 0 6 6v30q0 82 45.5 113.5t138.5 31.5q27 0 41 -1q3 0 5 -4t2 -11v-95q0 -15 -7 -15q-18 -2 -27.5 -12t-9.5 -24v-13q0 -6 6 -6h66q6 0 6 6v30
q0 82 45.5 113.5t138.5 31.5q27 0 41 -1q3 0 5 -4t2 -11v-95q0 -15 -7 -15q-18 -2 -27.5 -12t-9.5 -24v-13zM609 516q4 4 11 4h158q7 0 11 -4t4 -11v-490q0 -7 -4 -11t-11 -4h-158q-7 0 -11 4t-4 11v490q0 7 4 11z" />
    <glyph glyph-name="f_f_l.liga" unicode="ffl" horiz-adv-x="812" 
d="M514 526q0 -6 6 -6h37q7 0 11 -4t4 -11v-100q0 -7 -4 -11t-11 -4h-37q-6 0 -6 -6v-369q0 -7 -4 -11t-11 -4h-158q-7 0 -11 4t-4 11v369q0 6 -6 6h-73q-6 0 -6 -6v-369q0 -7 -4 -11t-11 -4h-158q-7 0 -11 4t-4 11v369q0 6 -6 6h-20q-7 0 -11 4t-4 11v100q0 7 4 11t11 4h20
q6 0 6 6v30q0 82 45.5 113.5t138.5 31.5q27 0 41 -1q3 0 5 -4t2 -11v-95q0 -15 -7 -15q-18 -2 -27.5 -12t-9.5 -24v-13q0 -6 6 -6h73q6 0 6 6v30q0 82 45.5 113.5t138.5 31.5q27 0 41 -1q3 0 5 -4t2 -11v-95q0 -15 -7 -15q-18 -2 -27.5 -12t-9.5 -24v-13zM608 696q4 4 11 4
h158q7 0 11 -4t4 -11v-670q0 -7 -4 -11t-11 -4h-158q-7 0 -11 4t-4 11v670q0 7 4 11z" />
    <glyph glyph-name="g_j.liga" unicode="gj" horiz-adv-x="688" 
d="M508.5 581.5q-26.5 26.5 -26.5 67.5q0 42 26.5 68t67.5 26t67.5 -26t26.5 -68q0 -40 -26.5 -67t-67.5 -27t-67.5 26.5zM434 516q4 -4 4 -11v-471q0 -75 -21.5 -128t-79.5 -84.5t-163 -31.5q-39 0 -61 2q-15 0 -15 15v133q0 16 16 14l25 -1q56 0 79.5 15.5t29.5 45.5
q0 3 -6.5 5t-9.5 0q-28 -27 -77 -27q-72 0 -104.5 46t-32.5 132v180q0 89 33 133.5t104 44.5q58 0 88 -44q2 -4 4.5 -3.5t2.5 4.5v20q0 7 4 11t11 4h158q7 0 11 -4zM482 505q0 7 4 11t11 4h158q7 0 11 -4t4 -11v-476q0 -85 -13.5 -132.5t-63 -73.5t-151.5 -24q-16 0 -14 16
l16 130q1 13 14 13q17 0 20.5 12.5t3.5 32v26.5v476zM243.5 162q6.5 9 6.5 23v150q0 14 -6.5 23t-16.5 9t-15.5 -9t-5.5 -23v-150q0 -14 5.5 -23t15.5 -9t16.5 9z" />
    <glyph glyph-name="i_j.liga" unicode="ij" horiz-adv-x="447" 
d="M44.5 581.5q-26.5 26.5 -26.5 67.5q0 42 26.5 68t67.5 26t67.5 -26t26.5 -68q0 -40 -26.5 -67t-67.5 -27t-67.5 26.5zM267.5 581.5q-26.5 26.5 -26.5 67.5q0 42 26.5 68t67.5 26t67.5 -26t26.5 -68q0 -40 -26.5 -67t-67.5 -27t-67.5 26.5zM23 4q-4 4 -4 11v490q0 7 4 11
t11 4h158q7 0 11 -4t4 -11v-490q0 -7 -4 -11t-11 -4h-158q-7 0 -11 4zM145 -186v129q0 15 16 15q47 -2 63.5 15.5t16.5 55.5v476q0 7 4 11t11 4h158q7 0 11 -4t4 -11v-476q0 -89 -14 -135t-71.5 -72t-182.5 -23q-16 0 -16 15z" />
    <glyph glyph-name="hyphen_hyphen.liga" unicode="&#x2d;&#x2d;" horiz-adv-x="593" 
d="M22 210q-4 4 -4 11v130q0 7 4 11t11 4h527q7 0 11 -4t4 -11v-130q0 -7 -4 -11t-11 -4h-527q-7 0 -11 4z" />
    <glyph glyph-name=".notdef" horiz-adv-x="446" 
d="M6 0h434q6 0 6 6v688q0 6 -6 6h-434q-6 0 -6 -6v-688q0 -6 6 -6zM156 263q-4 4 -4 11v5q0 40 17.5 63.5t48.5 47.5q21 16 30.5 27t9.5 26t-7.5 23.5t-20.5 8.5q-15 0 -24 -10t-9 -26q0 -13 -15 -13l-104 4q-7 0 -11 2.5t-4 6.5q0 71 47.5 114.5t123.5 43.5
q73 0 116.5 -40.5t43.5 -107.5q0 -45 -17.5 -70t-49.5 -51q-21 -16 -31.5 -28t-10.5 -30q0 -11 -15 -11h-103q-7 0 -11 4zM171 105.5q-19 19.5 -19 48.5q0 30 19 48.5t48 18.5t48 -18.5t19 -48.5q0 -29 -19 -48.5t-48 -19.5t-48 19.5z" />
    <glyph glyph-name=".null" 
 />
    <glyph glyph-name="nonmarkingreturn" unicode="&#xd;" horiz-adv-x="200" 
 />
    <glyph glyph-name="NULL" 
 />
    <glyph glyph-name="NULL" 
 />
    <glyph glyph-name="space" unicode=" " horiz-adv-x="200" 
 />
    <glyph glyph-name="exclam" unicode="!" horiz-adv-x="298" 
d="M76.5 252q-4.5 4 -4.5 11l-18 422q0 15 14 15h158q14 0 14 -15l-18 -422q0 -7 -4.5 -11t-11.5 -4h-118q-7 0 -11.5 4zM81.5 26.5q-26.5 26.5 -26.5 67.5q0 42 26.5 68t67.5 26t67.5 -26t26.5 -68q0 -40 -26.5 -67t-67.5 -27t-67.5 26.5z" />
    <glyph glyph-name="quotedbl" unicode="&#x22;" horiz-adv-x="420" 
d="M27 474l-18 210v2q0 14 15 14h146q8 0 12 -4.5t3 -11.5l-18 -210q-1 -14 -15 -14h-110q-14 0 -15 14zM253 474l-18 210v2q0 14 15 14h146q8 0 12 -4.5t3 -11.5l-18 -210q-1 -14 -15 -14h-110q-14 0 -15 14z" />
    <glyph glyph-name="numbersign" unicode="#" horiz-adv-x="634" 
d="M610 391q-4 -4 -11 -4h-57q-3 0 -5 -2t-2 -4l-8 -57q-1 -6 5 -6h31q7 0 11 -4t4 -11v-130q0 -7 -4 -11t-11 -4h-55q-3 0 -5 -2t-2 -4l-15 -104q-1 -14 -16 -14h-158q-16 0 -14 16l15 102q2 6 -5 6h-40q-3 0 -5 -2t-2 -4l-15 -104q-1 -14 -16 -14h-158q-16 0 -14 16
l15 102q2 6 -5 6h-33q-7 0 -11 4t-4 11v130q0 7 4 11t11 4h57q3 0 5 2t2 4l8 57q2 6 -5 6h-31q-7 0 -11 4t-4 11v131q0 7 4 11t11 4h55q3 0 5 2t2 4l15 104q1 14 16 14h158q16 0 14 -16l-15 -102q-1 -6 5 -6h40q3 0 5 2t2 4l15 104q1 14 16 14h158q16 0 14 -16l-15 -102
q-1 -6 5 -6h33q7 0 11 -4t4 -11v-131q0 -7 -4 -11zM337 320q2 2 2 4l8 57q2 6 -5 6h-40q-3 0 -5 -2t-2 -4l-8 -57q-1 -6 5 -6h40q3 0 5 2z" />
    <glyph glyph-name="dollar" unicode="$" horiz-adv-x="463" 
d="M408.5 66q-40.5 -50 -110.5 -67q-5 -2 -5 -7l2 -45q0 -7 -4 -11t-11 -4h-109q-7 0 -11 4t-4 11l2 51q0 4 -5 7q-61 19 -96 65.5t-35 109.5v31q0 7 4 11t11 4h156q7 0 11 -4t4 -11v-22q0 -16 8 -26t20 -10t20 9t8 23q0 17 -16 33.5t-67 52.5q-50 35 -82.5 64t-56.5 73
t-24 101q0 69 36.5 119t100.5 70q5 2 5 6l-2 59q0 7 4 11t11 4h107q7 0 11 -4t4 -11l-2 -57q0 -4 5 -6q69 -17 108 -68t39 -123v-22q0 -7 -4 -11t-11 -4h-155q-7 0 -11 4t-4 11v26q0 15 -8 24.5t-21 9.5t-20.5 -10t-7.5 -27q0 -20 16 -38.5t64 -53.5q64 -47 96.5 -76
t51 -65.5t18.5 -85.5q0 -75 -40.5 -125z" />
    <glyph glyph-name="percent" unicode="%" horiz-adv-x="756" 
d="M109 393.5q-38 22.5 -60.5 61.5t-22.5 85t22.5 84.5t60.5 61t83 22.5t83 -22.5t60 -61t22 -84.5t-22 -85t-60 -61.5t-83 -22.5t-83 22.5zM129 10l2 8l361 671q6 11 18 11h100q12 0 12 -10l-2 -8l-361 -671q-5 -11 -18 -11h-100q-12 0 -12 10zM241 486.5q20 21.5 20 53.5
q0 31 -20 52.5t-49 21.5t-49.5 -21.5t-20.5 -52.5t20.5 -53t49.5 -22t49 21.5zM482 14.5q-38 22.5 -60.5 61.5t-22.5 85t22.5 84.5t60.5 61t83 22.5t83 -22.5t60 -61t22 -84.5t-22 -85t-60 -61.5t-83 -22.5t-83 22.5zM614 107.5q20 21.5 20 53.5q0 31 -20 52.5t-49 21.5
t-49.5 -21.5t-20.5 -52.5t20.5 -53t49.5 -22t49 21.5z" />
    <glyph glyph-name="ampersand" unicode="&#x26;" horiz-adv-x="643" 
d="M618 9q0 -4 -3.5 -6.5t-9.5 -2.5h-171q-10 0 -18 9l-14 16q-3 3 -9 2q-73 -37 -162 -37q-99 0 -156 47t-57 139q0 112 94 181q5 5 1 9q-39 52 -51.5 80.5t-12.5 64.5q0 58 26 103t74 69.5t110 24.5q64 0 115 -25.5t79.5 -71.5t28.5 -106q0 -61 -29 -105t-79 -79
q-4 -4 -3 -7l3 -3l36 -44q2 -2 4.5 -2t3.5 2q31 40 44 69q4 10 11 10q4 0 9 -3l116 -66q12 -8 7 -20q-37 -72 -79 -123q-3 -4 0 -8l88 -108q4 -4 4 -9zM244.5 528.5q-7.5 -9.5 -7.5 -24.5q0 -13 3.5 -22t17.5 -28q5 -5 9 -1q27 24 27 50q0 16 -8.5 25.5t-20.5 9.5
q-13 0 -20.5 -9.5zM281 155q7 2 2 8l-6 7q-32 38 -47 54q-5 5 -8 1q-15 -15 -15 -32t13.5 -31.5t40.5 -11.5q5 1 20 5z" />
    <glyph glyph-name="quotesingle" unicode="'" horiz-adv-x="204" 
d="M26 474l-17 210v2q0 14 15 14h156q8 0 12 -4.5t3 -11.5l-19 -210q-1 -14 -15 -14h-120q-14 0 -15 14z" />
    <glyph glyph-name="parenleft" unicode="(" horiz-adv-x="371" 
d="M128 -74q-57 78 -91 177.5t-34 233.5q0 242 125 410q8 9 18 9h155q8 0 11.5 -5t-0.5 -12q-45 -93 -72 -185.5t-27 -216.5q0 -125 27 -216.5t72 -186.5q2 -6 2 -7q0 -10 -13 -10h-155q-10 0 -18 9z" />
    <glyph glyph-name="parenright" unicode=")" horiz-adv-x="371" 
d="M243 747q57 -78 91 -177.5t34 -233.5q0 -242 -125 -410q-8 -9 -18 -9h-155q-8 0 -11.5 5t0.5 12q45 93 72 185.5t27 216.5q0 125 -27 216.5t-72 186.5q-2 6 -2 7q0 10 13 10h155q10 0 18 -9z" />
    <glyph glyph-name="asterisk" unicode="*" horiz-adv-x="362" 
d="M134 401q-4 4 -4 11l1 56q0 8 -7 4l-51 -29q-4 -3 -8 -3q-7 0 -12 9l-38 66q-2 3 -2 8q0 7 8 12l58 32q7 4 0 8l-58 30q-8 5 -8 12q0 2 2 8l38 69q5 8 12 8q5 0 8 -2l51 -31q3 -2 5 0t2 5l-1 56q0 7 4 11t11 4h73q7 0 11 -4t4 -11l-1 -56q0 -3 2 -4.5t5 -0.5l50 31
q3 2 8 2q7 0 12 -8l38 -69q2 -3 2 -8q0 -7 -8 -12l-56 -30q-7 -4 0 -8l56 -32q12 -8 6 -20l-38 -69q-5 -9 -12 -9q-4 0 -8 3l-50 31q-7 4 -7 -4l1 -55q0 -7 -4 -11t-11 -4h-73q-7 0 -11 4z" />
    <glyph glyph-name="plus" unicode="+" horiz-adv-x="436" 
d="M414 372q4 -4 4 -11v-110q0 -7 -4 -11t-11 -4h-109q-6 0 -6 -6v-109q0 -7 -4 -11t-11 -4h-110q-7 0 -11 4t-4 11v109q0 6 -6 6h-109q-7 0 -11 4t-4 11v110q0 7 4 11t11 4h109q6 0 6 6v109q0 7 4 11t11 4h110q7 0 11 -4t4 -11v-109q0 -6 6 -6h109q7 0 11 -4z" />
    <glyph glyph-name="comma" unicode="," horiz-adv-x="233" 
d="M25 -96l15 241q1 7 5 11t11 4h136q16 0 13 -17l-56 -241q-3 -13 -16 -13h-94q-15 0 -14 15z" />
    <glyph glyph-name="hyphen" unicode="-" horiz-adv-x="343" 
d="M22 209q-4 4 -4 11v130q0 7 4 11t11 4h277q7 0 11 -4t4 -11v-130q0 -7 -4 -11t-11 -4h-277q-7 0 -11 4z" />
    <glyph glyph-name="period" unicode="." horiz-adv-x="246" 
d="M55.5 18.5q-26.5 26.5 -26.5 67.5q0 42 26.5 68t67.5 26t67.5 -26t26.5 -68q0 -40 -27 -67t-67 -27q-41 0 -67.5 26.5z" />
    <glyph glyph-name="slash" unicode="/" horiz-adv-x="470" 
d="M14.5 4.5q-3.5 4.5 -0.5 12.5l244 671q4 12 17 12h157q8 0 11.5 -4.5t0.5 -12.5l-244 -671q-4 -12 -17 -12h-157q-8 0 -11.5 4.5z" />
    <glyph glyph-name="zero" unicode="0" horiz-adv-x="459" 
d="M117.5 15q-48.5 27 -75 76.5t-26.5 114.5v288q0 65 26.5 114.5t75 76.5t111.5 27q64 0 112.5 -27t75 -76.5t26.5 -114.5v-288q0 -65 -26.5 -114.5t-75 -76.5t-112.5 -27q-63 0 -111.5 27zM248 161.5q7 12.5 7 33.5v310q0 21 -7 33.5t-19 12.5q-11 0 -18 -12.5t-7 -33.5
v-310q0 -21 7 -33.5t18 -12.5q12 0 19 12.5z" />
    <glyph glyph-name="one" unicode="1" horiz-adv-x="303" 
d="M104 700h164q7 0 11 -4t4 -11v-670q0 -7 -4 -11t-11 -4h-158q-7 0 -11 4t-4 11v508q0 6 -6 6h-66q-7 0 -11 4t-4 11v116q0 13 12 17l66 20q9 3 18 3z" />
    <glyph glyph-name="two" unicode="2" horiz-adv-x="463" 
d="M247 163.5q1 -2.5 5 -2.5h186q7 0 11 -4t4 -11v-131q0 -7 -4 -11t-11 -4h-405q-7 0 -11 4t-4 11v135q0 11 7 19l61 68q50 55 76.5 86t47.5 62q47 68 47 120q0 42 -26 42q-12 0 -19.5 -9.5t-7.5 -25.5v-42q0 -7 -4 -11t-11 -4h-160q-7 0 -11 4t-4 11v50q4 56 33.5 98.5
t79.5 66t113 23.5q61 0 108 -25.5t73 -72t26 -106.5q0 -56 -16 -99.5t-53 -92.5q-33 -44 -77.5 -90.5t-51.5 -53.5q-3 -2 -2 -4.5z" />
    <glyph glyph-name="three" unicode="3" horiz-adv-x="454" 
d="M433 696q4 -4 4 -11v-134q0 -11 -7 -19l-103 -108q-2 -2 -1.5 -4.5t4.5 -2.5q46 -4 76.5 -44.5t30.5 -96.5v-104q0 -52 -26.5 -93t-73.5 -64t-107 -23q-63 0 -112 23t-76.5 64t-27.5 93v45q0 7 4 11t11 4h158q7 0 11 -4t4 -11v-27q0 -17 7.5 -27t20.5 -10t21 10.5t8 26.5
v113q0 16 -8 26.5t-21 10.5q-16 0 -35 -17q-7 -5 -11 -5q-5 0 -10 5l-80 83q-4 4 -4 10q0 7 5 11l110 106q3 2 2 4.5t-5 2.5h-157q-7 0 -11 4t-4 11v130q0 7 4 11t11 4h377q7 0 11 -4z" />
    <glyph glyph-name="four" unicode="4" horiz-adv-x="530" 
d="M518 333q4 -4 4 -11v-140q0 -7 -4 -11t-11 -4h-30q-6 0 -6 -6v-146q0 -7 -4 -11t-11 -4h-158q-7 0 -11 4t-4 11v146q0 6 -6 6h-254q-7 0 -11 4t-4 11v111q0 9 3 18l121 377q4 12 17 12h169q8 0 11.5 -4.5t1.5 -12.5l-103 -339q-1 -7 5 -7h44q6 0 6 6v68q0 7 4 11t11 4
h158q7 0 11 -4t4 -11v-68q0 -6 6 -6h30q7 0 11 -4z" />
    <glyph glyph-name="five" unicode="5" horiz-adv-x="459" 
d="M403.5 394.5q41.5 -49.5 41.5 -134.5v-89q0 -84 -58 -131.5t-156 -47.5q-90 0 -145.5 43t-65.5 129l-2 25q0 15 15 15h158q15 0 16 -12q0 -9 1 -12q4 -28 23 -28q12 0 19 9t7 23v66q0 14 -7 23t-19 9q-16 0 -23 -12q-4 -7 -7 -10t-9 -3h-160q-7 0 -11 4t-4 11v413
q0 7 4 11t11 4h396q7 0 11 -4t4 -11v-131q0 -7 -4 -11t-11 -4h-217q-6 0 -6 -6v-114q0 -4 2 -5t5 1q16 14 36.5 21.5t42.5 7.5q71 0 112.5 -49.5z" />
    <glyph glyph-name="six" unicode="6" horiz-adv-x="460" 
d="M404.5 394.5q41.5 -49.5 41.5 -134.5v-89q0 -84 -58 -131.5t-156 -47.5q-91 0 -147.5 43t-63.5 129q-2 24 -2 40l-2 320q-1 85 57.5 134.5t154.5 49.5q93 0 150.5 -50t57.5 -134v-39q0 -7 -4 -11t-11 -4h-158q-7 0 -11 4t-4 11v26q0 14 -6.5 23t-13.5 9q-10 0 -16.5 -9
t-6.5 -23v-92q0 -4 2 -5t5 1q16 14 36.5 21.5t42.5 7.5q71 0 112.5 -49.5zM248.5 303q-6.5 9 -17.5 9t-18 -9t-7 -23v-96q0 -14 7 -23t18 -9t17.5 9t6.5 23v96q0 14 -6.5 23z" />
    <glyph glyph-name="seven" unicode="7" horiz-adv-x="435" 
d="M72.5 4.5q-3.5 4.5 -1.5 12.5l158 515q1 7 -5 7h-61q-6 0 -6 -6v-28q0 -7 -4 -11t-11 -4h-121q-7 0 -11 4t-4 11l1 180q0 7 4 11t11 4h392q7 0 11 -4t4 -11v-137q0 -9 -3 -18l-160 -518q-3 -12 -17 -12h-165q-8 0 -11.5 4.5z" />
    <glyph glyph-name="eight" unicode="8" horiz-adv-x="452" 
d="M370 357q32 -20 49 -59q17 -42 17 -91q0 -47 -17 -90q-23 -57 -74.5 -91t-118.5 -34q-68 0 -119.5 33.5t-74.5 91.5q-16 41 -16 90q0 52 16 91q15 36 48 58q6 5 1 8q-33 25 -49 63q-16 39 -16 86q0 49 16 87q23 53 75 84t119 31q66 0 118 -29.5t75 -85.5q17 -40 17 -87
q0 -45 -17 -86q-15 -36 -49 -62q-5 -3 0 -8zM208 440q7 -11 18 -11t18 11t7 29v46q0 17 -7 28t-18 11t-18 -11t-7 -28v-46q0 -18 7 -29zM244 277q-7 11 -18 11t-18 -11t-7 -29v-56q0 -17 7 -28t18 -11t18 11t7 28v56q0 18 -7 29z" />
    <glyph glyph-name="nine" unicode="9" horiz-adv-x="456" 
d="M381.5 41.5q-58.5 -49.5 -154.5 -49.5q-93 0 -150.5 50t-57.5 134v39q0 7 4 11t11 4h158q7 0 11 -4t4 -11v-26q0 -14 6.5 -23t13.5 -9q10 0 16.5 9t6.5 23v92q0 4 -2 5t-5 -1q-35 -29 -79 -29q-71 0 -112.5 49.5t-41.5 134.5v89q0 84 58 131.5t156 47.5q91 0 147.5 -43
t63.5 -129q2 -24 2 -40l2 -320q1 -85 -57.5 -134.5zM243 397q7 9 7 23v96q0 14 -7 23t-18 9t-17.5 -9t-6.5 -23v-96q0 -14 6.5 -23t17.5 -9t18 9z" />
    <glyph glyph-name="colon" unicode=":" horiz-adv-x="318" 
d="M93.5 348.5q-26.5 26.5 -26.5 67.5q0 42 26.5 68t67.5 26t67.5 -26t26.5 -68q0 -40 -27 -67t-67 -27q-41 0 -67.5 26.5zM93.5 26.5q-26.5 26.5 -26.5 67.5q0 42 26.5 68t67.5 26t67.5 -26t26.5 -68q0 -40 -27 -67t-67 -27q-41 0 -67.5 26.5z" />
    <glyph glyph-name="semicolon" unicode=";" horiz-adv-x="258" 
d="M53.5 321.5q-29.5 30.5 -29.5 74.5q0 28 15 52t39.5 38t50.5 14t50.5 -14t39.5 -38t15 -52q0 -44 -29.5 -74.5t-75.5 -30.5t-75.5 30.5zM33 -96l15 241q1 7 5 11t11 4h136q16 0 13 -17l-56 -241q-3 -13 -16 -13h-94q-15 0 -14 15z" />
    <glyph glyph-name="less" unicode="&#x3c;" horiz-adv-x="436" 
d="M412.5 49.5q-5.5 -3.5 -12.5 0.5l-371 162q-11 6 -11 17v136q0 12 11 17l371 162q6 2 7 2q11 0 11 -13v-146q0 -12 -12 -17l-198 -69q-4 -1 -4 -3.5t4 -4.5l198 -69q12 -4 12 -17v-146q0 -8 -5.5 -11.5z" />
    <glyph glyph-name="equal" unicode="=" horiz-adv-x="436" 
d="M22 324q-4 4 -4 11v110q0 7 4 11t11 4h370q7 0 11 -4t4 -11v-110q0 -7 -4 -11t-11 -4h-370q-7 0 -11 4zM22 154q-4 4 -4 11v110q0 7 4 11t11 4h370q7 0 11 -4t4 -11v-110q0 -7 -4 -11t-11 -4h-370q-7 0 -11 4z" />
    <glyph glyph-name="greater" unicode="&#x3e;" horiz-adv-x="436" 
d="M29 48q-11 0 -11 13v146q0 13 12 17l198 69q4 2 4 4.5t-4 3.5l-198 69q-12 5 -12 17v146q0 8 5.5 11.5t12.5 -0.5l371 -162q11 -5 11 -17v-136q0 -11 -11 -17l-371 -162q-6 -2 -7 -2z" />
    <glyph glyph-name="question" unicode="?" horiz-adv-x="483" 
d="M139 240q-4 4 -4 11v13q0 39 13 68t31.5 47t47.5 40t42.5 38t13.5 37t-10.5 33t-28.5 12q-22 0 -34 -14t-12 -37v-4q0 -14 -15 -14l-158 7q-15 0 -15 11q0 65 30 115.5t84.5 78.5t124.5 28q68 0 118.5 -26t78 -72.5t27.5 -108.5q0 -44 -13.5 -75.5t-32 -50.5t-48.5 -43
q-30 -23 -44 -40t-14 -42v-1q0 -7 -4 -11t-11 -4h-156q-7 0 -11 4zM160.5 21.5q-26.5 26.5 -26.5 67.5q0 42 26.5 68t67.5 26t67.5 -26t26.5 -68q0 -40 -26.5 -67t-67.5 -27t-67.5 26.5z" />
    <glyph glyph-name="at" unicode="@" horiz-adv-x="760" 
d="M589.5 643q71.5 -38 112 -106t40.5 -156q0 -24 -3 -48q-13 -103 -69.5 -160t-140.5 -57q-71 0 -109 40q-5 5 -9 -1q-26 -37 -83 -37q-61 0 -86.5 37t-25.5 80q0 14 1 26t2 21l3 28q3 34 7 52q12 69 40.5 96.5t81.5 27.5q32 0 49 -22q2 -4 4.5 -3.5t2.5 4.5v0q1 14 16 14
h94q16 0 14 -16l-22 -152q-2 -16 -2 -21q0 -29 11.5 -42t28.5 -13q25 0 40.5 29.5t20.5 72.5q2 24 2 34q0 58 -24.5 102t-68.5 68t-99 24q-67 0 -124.5 -34.5t-95 -95.5t-47.5 -138q-3 -22 -3 -42q0 -69 28.5 -114.5t71.5 -67t87 -21.5q30 0 53 9.5t48 26.5q4 3 9 3
q7 0 12 -8l42 -74q2 -6 2 -9q0 -8 -7 -12q-87 -54 -181 -54q-81 0 -148.5 38t-107 108.5t-39.5 164.5q0 18 4 56q13 110 71 196.5t146.5 135t189.5 48.5q89 0 160.5 -38zM369.5 224q5.5 7 7.5 18l7 60l7 53v5q0 8 -4.5 13.5t-11.5 5.5q-9 0 -15 -6.5t-8 -17.5l-8 -60l-7 -53
v-3q0 -10 4.5 -16t13.5 -6t14.5 7z" />
    <glyph glyph-name="A" unicode="A" horiz-adv-x="531" 
d="M325 14l-11 75q0 2 -2 4t-5 2h-88q-3 0 -5 -2t-2 -4l-10 -75q-1 -14 -16 -14h-157q-16 0 -13 16l142 671q3 13 17 13h182q14 0 17 -13l142 -671v-4q0 -12 -14 -12h-161q-15 0 -16 14zM239 239h47q7 0 5 6l-27 180q-1 4 -3 4t-3 -4l-24 -180q0 -6 5 -6z" />
    <glyph glyph-name="B" unicode="B" horiz-adv-x="484" 
d="M407 51q-61 -51 -155 -51h-211q-7 0 -11 4t-4 11v670q0 7 4 11t11 4h181q109 0 170.5 -49t61.5 -148q0 -92 -57 -137q-5 -4 -2 -7q73 -56 73 -162q0 -95 -61 -146zM214 533v-100q0 -6 6 -6h5q45 0 45 56t-45 56h-5q-6 0 -6 -6zM268 177.5q12 16.5 12 47.5t-11.5 49.5
t-30.5 18.5h-18q-6 0 -6 -6v-120q0 -6 6 -6h17q19 0 31 16.5z" />
    <glyph glyph-name="C" unicode="C" horiz-adv-x="476" 
d="M80 50q-60 58 -60 155v292q0 97 59.5 154t159.5 57q99 0 159 -57t60 -154v-5q0 -7 -4 -11.5t-11 -4.5l-158 -5q-15 0 -15 14v25q0 17 -8.5 27t-22.5 10t-22.5 -10t-8.5 -27v-321q0 -17 8.5 -26.5t22.5 -9.5t22.5 9.5t8.5 26.5v27q0 14 15 14l158 -5q7 0 11 -4.5t4 -11.5
v-4q0 -64 -27.5 -112.5t-77 -74.5t-114.5 -26q-99 0 -159 58z" />
    <glyph glyph-name="D" unicode="D" horiz-adv-x="483" 
d="M30 4q-4 4 -4 11v670q0 7 4 11t11 4h197q66 0 116.5 -25t78.5 -70.5t28 -104.5v-300q0 -59 -28 -104.5t-78.5 -70.5t-116.5 -25h-197q-7 0 -11 4zM220 161l14 1q16 1 27 15t12 36v275q0 23 -11 37t-29 14h-13q-6 0 -6 -6v-366q0 -6 6 -6z" />
    <glyph glyph-name="E" unicode="E" horiz-adv-x="444" 
d="M422 543q-4 -4 -11 -4h-191q-6 0 -6 -6v-96q0 -6 6 -6h99q7 0 11 -4t4 -11v-131q0 -7 -4 -11t-11 -4h-99q-6 0 -6 -6v-97q0 -6 6 -6h191q7 0 11 -4t4 -11v-131q0 -7 -4 -11t-11 -4h-370q-7 0 -11 4t-4 11v670q0 7 4 11t11 4h370q7 0 11 -4t4 -11v-131q0 -7 -4 -11z" />
    <glyph glyph-name="F" unicode="F" horiz-adv-x="432" 
d="M422 543q-4 -4 -11 -4h-191q-6 0 -6 -6v-96q0 -6 6 -6h99q7 0 11 -4t4 -11v-131q0 -7 -4 -11t-11 -4h-99q-6 0 -6 -6v-249q0 -7 -4 -11t-11 -4h-158q-7 0 -11 4t-4 11v670q0 7 4 11t11 4h370q7 0 11 -4t4 -11v-131q0 -7 -4 -11z" />
    <glyph glyph-name="G" unicode="G" horiz-adv-x="478" 
d="M80 47.5q-60 55.5 -60 148.5v309q0 93 60 148t159 55q65 0 114.5 -25t77 -71.5t27.5 -108.5v-33q0 -7 -4 -11t-11 -4h-158q-7 0 -11 4t-4 11v35q0 19 -8.5 30.5t-22.5 11.5t-22.5 -11.5t-8.5 -30.5v-310q0 -19 8.5 -30.5t22.5 -11.5t22.5 11.5t8.5 30.5v49q0 6 -6 6h-8
q-7 0 -11 4t-4 11v115q0 7 4 11t11 4h187q7 0 11 -4t4 -11v-184q0 -61 -27.5 -107.5t-77 -71.5t-114.5 -25q-99 0 -159 55.5z" />
    <glyph glyph-name="H" unicode="H" horiz-adv-x="486" 
d="M276 696q4 4 11 4h158q7 0 11 -4t4 -11v-670q0 -7 -4 -11t-11 -4h-158q-7 0 -11 4t-4 11v249q0 6 -6 6h-46q-6 0 -6 -6v-249q0 -7 -4 -11t-11 -4h-158q-7 0 -11 4t-4 11v670q0 7 4 11t11 4h158q7 0 11 -4t4 -11v-248q0 -6 6 -6h46q6 0 6 6v248q0 7 4 11z" />
    <glyph glyph-name="I" unicode="I" horiz-adv-x="240" 
d="M30 4q-4 4 -4 11v670q0 7 4 11t11 4h158q7 0 11 -4t4 -11v-670q0 -7 -4 -11t-11 -4h-158q-7 0 -11 4z" />
    <glyph glyph-name="J" unicode="J" horiz-adv-x="470" 
d="M111.5 17q-49.5 25 -76.5 70.5t-27 104.5v58q0 7 4 11t11 4h158q7 0 11 -4t4 -11v-60q0 -16 8 -26.5t21 -10.5q14 0 22.5 10.5t8.5 26.5v495q0 7 4 11t11 4h158q7 0 11 -4t4 -11v-493q0 -59 -27.5 -104.5t-77 -70.5t-114.5 -25q-64 0 -113.5 25z" />
    <glyph glyph-name="K" unicode="K" horiz-adv-x="517" 
d="M30 4q-4 4 -4 11v670q0 7 4 11t11 4h158q7 0 11 -4t4 -11v-198q0 -4 2.5 -4.5t4.5 3.5l84 202q5 12 18 12h165q8 0 12 -5t0 -13l-141 -295q-1 -4 0 -8l145 -362q1 -3 1 -7q0 -10 -13 -10h-166q-13 0 -18 12l-77 205q-1 5 -3.5 5t-4.5 -5l-8 -20q-1 -2 -1 -8v-174
q0 -7 -4 -11t-11 -4h-158q-7 0 -11 4z" />
    <glyph glyph-name="L" unicode="L" horiz-adv-x="446" 
d="M30 4q-4 4 -4 11v670q0 7 4 11t11 4h158q7 0 11 -4t4 -11v-518q0 -6 6 -6h195q7 0 11 -4t4 -11v-131q0 -7 -4 -11t-11 -4h-374q-7 0 -11 4z" />
    <glyph glyph-name="M" unicode="M" horiz-adv-x="566" 
d="M374 700h156q7 0 11 -4t4 -11v-670q0 -7 -4 -11t-11 -4h-158q-7 0 -11 4t-4 11v407q0 4 -2.5 5t-4.5 -3l-57 -96l-10 -18h-1l-66 114q-2 4 -4.5 3.5t-2.5 -5.5v-407q0 -7 -4 -11t-11 -4h-158q-7 0 -11 4t-4 11v670q0 7 4 11t11 4h156q13 0 18 -11l70 -128q2 -3 4.5 -3.5
t3.5 3.5l68 128q6 11 18 11z" />
    <glyph glyph-name="N" unicode="N" horiz-adv-x="528" 
d="M320 696q4 4 11 4h156q7 0 11 -4t4 -11v-670q0 -7 -4 -11t-11 -4h-178q-13 0 -16 13l-76 303q-1 3 -4 3t-3 -4l2 -300q0 -7 -4 -11t-11 -4h-156q-7 0 -11 4t-4 11v670q0 7 4 11t11 4h176q13 0 16 -13l77 -304q1 -4 4 -4t3 4l-1 302q0 7 4 11z" />
    <glyph glyph-name="O" unicode="O" horiz-adv-x="484" 
d="M80.5 50q-60.5 58 -60.5 156v288q0 98 60.5 156t161.5 58t161.5 -58t60.5 -156v-288q0 -98 -60.5 -156t-161.5 -58t-161.5 58zM267 165q9 12 9 33v304q0 21 -9 33t-25 12t-25 -12t-9 -33v-304q0 -21 9 -33t25 -12t25 12z" />
    <glyph glyph-name="P" unicode="P" horiz-adv-x="481" 
d="M370.5 671.5q46.5 -28.5 72.5 -79.5t26 -117q0 -64 -24.5 -113t-68.5 -75.5t-102 -26.5h-56q-6 0 -6 -6v-239q0 -7 -4 -11t-11 -4h-158q-7 0 -11 4t-4 11v670q0 7 4 11t11 4h225q60 0 106.5 -28.5zM267.5 421.5q13.5 16.5 13.5 49.5t-13.5 50.5t-36.5 17.5h-13
q-6 0 -6 -6v-122q0 -6 6 -6h13q23 0 36.5 16.5z" />
    <glyph glyph-name="Q" unicode="Q" horiz-adv-x="473" 
d="M350 680q49 -28 76 -78.5t27 -116.5v-270q0 -72 -31 -125t-87 -78q-5 -1 -5 -7v-77q0 -7 -4 -11t-11 -4h-158q-7 0 -11 4t-4 11v77q0 6 -5 7q-55 26 -86 79t-31 124v270q0 66 27 116.5t76 78.5t113 28q65 0 114 -28zM208 195q0 -19 7.5 -30.5t20.5 -11.5t21 11.5t8 30.5
v310q0 19 -8 30.5t-21 11.5t-20.5 -11.5t-7.5 -30.5v-310z" />
    <glyph glyph-name="R" unicode="R" horiz-adv-x="490" 
d="M283 13l-61 251q-2 5 -4 5q-4 0 -4 -6v-248q0 -7 -4 -11t-11 -4h-158q-7 0 -11 4t-4 11v670q0 7 4 11t11 4h225q60 0 106.5 -28.5t72.5 -79t26 -115.5q0 -55 -19 -98.5t-55 -70.5q-4 -3 -3 -8l81 -283q1 -2 1 -5q0 -12 -14 -12h-163q-13 0 -16 13zM220 539q-6 0 -6 -6
v-115q0 -6 6 -6h13q22 0 36 16.5t14 46.5q0 31 -13.5 47.5t-36.5 16.5h-13z" />
    <glyph glyph-name="S" unicode="S" horiz-adv-x="463" 
d="M123 16q-48 24 -74.5 66.5t-26.5 97.5v31q0 7 4 11t11 4h156q7 0 11 -4t4 -11v-22q0 -16 8 -26t20 -10t20 9t8 23q0 17 -16 33.5t-67 52.5q-50 35 -82.5 64t-56.5 73t-24 101q0 59 26.5 104t75 70t111.5 25q64 0 112.5 -25t75 -70t26.5 -104v-22q0 -7 -4 -11t-11 -4h-155
q-7 0 -11 4t-4 11v26q0 15 -8 24.5t-21 9.5t-20.5 -10t-7.5 -27q0 -20 16 -38.5t64 -53.5q64 -47 96.5 -76t51 -65.5t18.5 -85.5q0 -91 -59 -145t-155 -54q-64 0 -112 24z" />
    <glyph glyph-name="T" unicode="T" horiz-adv-x="499" 
d="M477 696q4 -4 4 -11v-131q0 -7 -4 -11t-11 -4h-118q-6 0 -6 -6v-518q0 -7 -4 -11t-11 -4h-158q-7 0 -11 4t-4 11v518q0 6 -6 6h-115q-7 0 -11 4t-4 11v131q0 7 4 11t11 4h433q7 0 11 -4z" />
    <glyph glyph-name="U" unicode="U" horiz-adv-x="481" 
d="M127 19q-49 27 -76 76t-27 113v477q0 7 4 11t11 4h158q7 0 11 -4t4 -11v-495q0 -17 8 -27t21 -10t20.5 10t7.5 27v495q0 7 4 11t11 4h158q7 0 11 -4t4 -11v-477q0 -64 -27 -113t-76 -76t-113 -27q-65 0 -114 27z" />
    <glyph glyph-name="V" unicode="V" horiz-adv-x="521" 
d="M155 13l-140 671v4q0 12 14 12h172q15 0 16 -14l45 -354q0 -3 3 -3t3 3l41 354q1 14 16 14h167q17 0 14 -16l-142 -671q-3 -13 -17 -13h-175q-14 0 -17 13z" />
    <glyph glyph-name="W" unicode="W" horiz-adv-x="720" 
d="M151 13l-136 671v4q0 12 14 12h163q15 0 16 -14l34 -305q0 -2 3 -2.5t3 2.5l37 305q1 14 16 14h122q15 0 16 -14l42 -306q0 -2 3.5 -2.5t3.5 2.5l29 306q1 14 15 14h159q17 0 14 -16l-128 -671q-3 -13 -17 -13h-138q-15 0 -16 14l-42 321q0 3 -3.5 3t-3.5 -3l-34 -321
q-1 -14 -16 -14h-139q-14 0 -17 13z" />
    <glyph glyph-name="X" unicode="X" horiz-adv-x="503" 
d="M19.5 4.5q-3.5 4.5 -0.5 12.5l131 329q2 4 0 8l-131 329q-1 3 -1 7q0 10 13 10h160q6 0 11 -3.5t6 -9.5l40 -137q2 -4 4.5 -4t3.5 4l40 137q1 6 6 9.5t11 3.5h159q8 0 11.5 -4.5t0.5 -12.5l-131 -329q-2 -4 0 -8l131 -329q1 -3 1 -7q0 -10 -13 -10h-158q-6 0 -11 3.5
t-6 9.5l-41 136q-1 4 -3.5 4t-4.5 -4l-41 -136q-1 -6 -6 -9.5t-11 -3.5h-159q-8 0 -11.5 4.5z" />
    <glyph glyph-name="Y" unicode="Y" horiz-adv-x="508" 
d="M163 6q-4 4 -4 11v230q0 6 -1 8l-140 428q-1 2 -1 6q0 11 13 11h166q14 0 17 -13l37 -197q1 -4 4 -4t4 4l37 197q3 13 17 13h166q8 0 11 -4.5t1 -12.5l-142 -428q-1 -2 -1 -8v-230q0 -7 -4 -11t-11 -4h-158q-7 0 -11 4z" />
    <glyph glyph-name="Z" unicode="Z" horiz-adv-x="424" 
d="M16 4q-4 4 -4 11v136q0 9 5 19l191 362q3 7 -4 7h-177q-7 0 -11 4t-4 11v131q0 7 4 11t11 4h368q7 0 11 -4t4 -11v-136q0 -9 -5 -19l-193 -362q-3 -7 4 -7h179q7 0 11 -4t4 -11v-131q0 -7 -4 -11t-11 -4h-368q-7 0 -11 4z" />
    <glyph glyph-name="bracketleft" unicode="[" horiz-adv-x="373" 
d="M34 -160q-4 4 -4 11v952q0 7 4 11t11 4h233q7 0 11 -4t4 -11v-131q0 -7 -4 -11t-11 -4h-54q-6 0 -6 -6v-648q0 -6 6 -6h54q7 0 11 -4t4 -11v-131q0 -7 -4 -11t-11 -4h-233q-7 0 -11 4z" />
    <glyph glyph-name="backslash" unicode="\" horiz-adv-x="470" 
d="M457 10q0 -10 -13 -10h-157q-13 0 -17 12l-244 671q-1 3 -1 7q0 10 13 10h157q13 0 17 -12l244 -671q1 -3 1 -7z" />
    <glyph glyph-name="bracketright" unicode="]" horiz-adv-x="373" 
d="M339 -160q-4 -4 -11 -4h-233q-7 0 -11 4t-4 11v131q0 7 4 11t11 4h54q6 0 6 6v648q0 6 -6 6h-54q-7 0 -11 4t-4 11v131q0 7 4 11t11 4h233q7 0 11 -4t4 -11v-952q0 -7 -4 -11z" />
    <glyph glyph-name="asciicircum" unicode="^" horiz-adv-x="440" 
d="M24.5 295.5q-3.5 4.5 -1.5 12.5l114 379q1 6 6 9.5t11 3.5h129q14 0 17 -12l117 -380q1 -2 1 -5q0 -12 -14 -12h-125q-14 0 -17 13l-38 177q-1 5 -4 5t-4 -5l-38 -177q-3 -13 -17 -13h-125q-8 0 -11.5 4.5z" />
    <glyph glyph-name="underscore" unicode="_" horiz-adv-x="451" 
d="M12 4q-4 4 -4 11v110q0 7 4 11t11 4h405q7 0 11 -4t4 -11v-110q0 -7 -4 -11t-11 -4h-405q-7 0 -11 4z" />
    <glyph glyph-name="grave" unicode="`" horiz-adv-x="246" 
d="M230 588q0 -9 -13 -9h-99q-11 0 -18 9l-77 94q-4 4 -4 9q0 4 3.5 6.5t9.5 2.5h122q12 0 18 -10l55 -93q3 -4 3 -9z" />
    <glyph glyph-name="a" unicode="a" horiz-adv-x="467" 
d="M345.5 507q49.5 -21 76.5 -59t27 -88v-345q0 -7 -4 -11t-11 -4h-158q-7 0 -11 4t-4 11v21q0 4 -2 4.5t-5 -2.5q-34 -46 -106 -46q-136 0 -136 159q0 70 25 104t68 44t116 10h34q6 0 6 6v22q0 13 -8 21.5t-21 8.5q-17 0 -24 -18q-5 -14 -16 -14l-160 2q-15 0 -15 14
q5 83 63.5 130t151.5 47q64 0 113.5 -21zM251 134.5q10 7.5 10 19.5v27q0 6 -6 6h-20q-14 0 -22.5 -9.5t-8.5 -22.5t7.5 -20.5t17.5 -7.5q12 0 22 7.5z" />
    <glyph glyph-name="b" unicode="b" horiz-adv-x="460" 
d="M409 483.5q33 -44.5 33 -133.5v-180q0 -86 -32.5 -132t-104.5 -46q-58 0 -88 44q-2 4 -4.5 3.5t-2.5 -4.5v-20q0 -7 -4 -11t-11 -4h-158q-7 0 -11 4t-4 11v670q0 7 4 11t11 4h158q7 0 11 -4t4 -11v-200q0 -2 2 -2q4 0 12 10q29 35 81 35q71 0 104 -44.5zM248.5 358
q-5.5 9 -15.5 9t-16.5 -9t-6.5 -23v-150q0 -14 6.5 -23t16.5 -9t15.5 9t5.5 23v150q0 14 -5.5 23z" />
    <glyph glyph-name="c" unicode="c" horiz-adv-x="455" 
d="M73.5 38.5q-55.5 46.5 -55.5 131.5v180q0 81 56 129.5t155 48.5t154.5 -48.5t55.5 -129.5v-22q0 -7 -4 -11.5t-11 -4.5l-158 -5q-15 0 -15 14v14q0 14 -6 23t-16 9t-16.5 -9t-6.5 -23v-150q0 -14 6.5 -23t16.5 -9t16 9t6 23v15q0 7 4 11t11 4l158 -2q7 0 11 -4t4 -11v-28
q0 -85 -55 -131.5t-155 -46.5t-155.5 46.5z" />
    <glyph glyph-name="d" unicode="d" horiz-adv-x="460" 
d="M254 696q4 4 11 4h158q7 0 11 -4t4 -11v-670q0 -7 -4 -11t-11 -4h-158q-7 0 -11 4t-4 11v20q0 4 -2.5 4.5t-4.5 -3.5q-30 -44 -88 -44q-72 0 -104.5 46t-32.5 132v180q0 89 33 133.5t104 44.5q59 0 88 -45q2 -4 4.5 -3t2.5 5v200q0 7 4 11zM243.5 162q6.5 9 6.5 23v150
q0 14 -6.5 23t-16.5 9t-15.5 -9t-5.5 -23v-150q0 -14 5.5 -23t15.5 -9t16.5 9z" />
    <glyph glyph-name="e" unicode="e" horiz-adv-x="455" 
d="M435 217q-4 -4 -11 -4h-212q-6 0 -6 -6v-22q0 -14 6.5 -23t16.5 -9t15.5 7t7.5 18q5 14 17 13l153 -10q15 -2 14 -16q-5 -88 -55.5 -130.5t-151.5 -42.5q-100 0 -155.5 46.5t-55.5 131.5v180q0 81 56 129.5t155 48.5t154.5 -48.5t55.5 -129.5v-122q0 -7 -4 -11z
M212.5 358q-6.5 -9 -6.5 -23v-24q0 -6 6 -6h33q6 0 6 6v24q0 14 -6 23t-16 9t-16.5 -9z" />
    <glyph glyph-name="f" unicode="f" horiz-adv-x="311" 
d="M295 516q4 -4 4 -11v-100q0 -7 -4 -11t-11 -4h-37q-6 0 -6 -6v-369q0 -7 -4 -11t-11 -4h-158q-7 0 -11 4t-4 11v369q0 6 -6 6h-20q-7 0 -11 4t-4 11v100q0 7 4 11t11 4h20q6 0 6 6v30q0 82 45.5 113.5t138.5 31.5q27 0 41 -1q3 0 5 -4t2 -11v-95q0 -15 -7 -15
q-18 -2 -27.5 -12t-9.5 -24v-13q0 -6 6 -6h37q7 0 11 -4z" />
    <glyph glyph-name="g" unicode="g" horiz-adv-x="460" 
d="M254 516q4 4 11 4h158q7 0 11 -4t4 -11v-471q0 -75 -21.5 -128t-79.5 -84.5t-163 -31.5q-39 0 -61 2q-15 0 -15 15v133q0 16 16 14l25 -1q56 0 79.5 15.5t29.5 45.5q0 3 -6.5 5t-9.5 0q-28 -27 -77 -27q-72 0 -104.5 46t-32.5 132v180q0 89 33 133.5t104 44.5
q58 0 88 -44q2 -4 4.5 -3.5t2.5 4.5v20q0 7 4 11zM243.5 162q6.5 9 6.5 23v150q0 14 -6.5 23t-16.5 9t-15.5 -9t-5.5 -23v-150q0 -14 5.5 -23t15.5 -9t16.5 9z" />
    <glyph glyph-name="h" unicode="h" horiz-adv-x="462" 
d="M442 348v-333q0 -7 -4 -11t-11 -4h-158q-7 0 -11 4t-4 11v320q0 32 -21 32q-23 0 -23 -32v-320q0 -7 -4 -11t-11 -4h-158q-7 0 -11 4t-4 11v670q0 7 4 11t11 4h158q7 0 11 -4t4 -11v-195q0 -2 2 -2q5 0 12 9q29 31 76 31q142 0 142 -180z" />
    <glyph glyph-name="i" unicode="i" horiz-adv-x="226" 
d="M44.5 581.5q-26.5 26.5 -26.5 67.5q0 42 26.5 68t67.5 26t67.5 -26t26.5 -68q0 -40 -26.5 -67t-67.5 -27t-67.5 26.5zM24 4q-4 4 -4 11v490q0 7 4 11t11 4h158q7 0 11 -4t4 -11v-490q0 -7 -4 -11t-11 -4h-158q-7 0 -11 4z" />
    <glyph glyph-name="j" unicode="j" horiz-adv-x="228" 
d="M48.5 581.5q-26.5 26.5 -26.5 67.5q0 42 26.5 68t67.5 26t67.5 -26t26.5 -68q0 -40 -26.5 -67t-67.5 -27t-67.5 26.5zM-74 -186v129q0 15 16 15q47 -2 63.5 15.5t16.5 55.5v476q0 7 4 11t11 4h158q7 0 11 -4t4 -11v-476q0 -89 -14 -135t-71.5 -72t-182.5 -23
q-16 0 -16 15z" />
    <glyph glyph-name="k" unicode="k" horiz-adv-x="479" 
d="M26 4q-4 4 -4 11v670q0 7 4 11t11 4h158q7 0 11 -4t4 -11v-278q0 -5 3 -5t4 4l46 103q4 11 17 11h162q6 0 9.5 -2.5t3.5 -6.5t-3 -9l-112 -183q-2 -3 0 -8l122 -294q1 -2 1 -6q0 -11 -13 -11h-162q-13 0 -17 12l-46 142q-1 5 -3 5t-4 -5l-6 -14l-2 -8v-117q0 -7 -4 -11
t-11 -4h-158q-7 0 -11 4z" />
    <glyph glyph-name="l" unicode="l" horiz-adv-x="228" 
d="M24 4q-4 4 -4 11v670q0 7 4 11t11 4h158q7 0 11 -4t4 -11v-670q0 -7 -4 -11t-11 -4h-158q-7 0 -11 4z" />
    <glyph glyph-name="m" unicode="m" horiz-adv-x="694" 
d="M674 348v-333q0 -7 -4 -11t-11 -4h-158q-7 0 -11 4t-4 11v320q0 32 -21 32q-23 0 -23 -32v-320q0 -7 -4 -11t-11 -4h-158q-7 0 -11 4t-4 11v320q0 32 -21 32q-23 0 -23 -32v-320q0 -7 -4 -11t-11 -4h-158q-7 0 -11 4t-4 11v490q0 7 4 11t11 4h158q15 0 15 -14v-4
q0 -4 2 -5t5 2q33 29 83 29q80 0 114 -57q2 -2 3 -2q4 0 10 9q37 50 105 50q142 0 142 -180z" />
    <glyph glyph-name="n" unicode="n" horiz-adv-x="462" 
d="M442 348v-333q0 -7 -4 -11t-11 -4h-158q-7 0 -11 4t-4 11v320q0 32 -21 32q-23 0 -23 -32v-320q0 -7 -4 -11t-11 -4h-158q-7 0 -11 4t-4 11v490q0 7 4 11t11 4h158q7 0 11 -4t4 -11v-15q0 -2 2 -2q5 0 12 9q29 31 76 31q142 0 142 -180z" />
    <glyph glyph-name="o" unicode="o" horiz-adv-x="461" 
d="M73.5 38.5q-55.5 46.5 -55.5 131.5v180q0 81 56.5 129.5t156.5 48.5t156 -48.5t56 -129.5v-180q0 -85 -55 -131.5t-157 -46.5t-157.5 46.5zM248.5 162q6.5 9 6.5 23v150q0 14 -6.5 23t-17.5 9t-18 -9t-7 -23v-150q0 -14 7 -23t18 -9t17.5 9z" />
    <glyph glyph-name="p" unicode="p" horiz-adv-x="462" 
d="M411.5 482q32.5 -46 32.5 -132v-180q0 -89 -33 -133.5t-104 -44.5q-59 0 -88 45q-2 4 -4.5 3t-2.5 -5v-200q0 -7 -4 -11t-11 -4h-158q-7 0 -11 4t-4 11v670q0 7 4 11t11 4h158q7 0 11 -4t4 -11v-20q0 -2 2 -2q4 0 12 10q29 35 81 35q72 0 104.5 -46zM250.5 358
q-5.5 9 -15.5 9t-16.5 -9t-6.5 -23v-150q0 -14 6.5 -23t16.5 -9t15.5 9t5.5 23v150q0 14 -5.5 23z" />
    <glyph glyph-name="q" unicode="q" horiz-adv-x="462" 
d="M254 516q4 4 11 4h158q7 0 11 -4t4 -11v-670q0 -7 -4 -11t-11 -4h-158q-7 0 -11 4t-4 11v200q0 4 -2.5 5t-4.5 -3q-29 -45 -88 -45q-71 0 -104 44.5t-33 133.5v180q0 86 32.5 132t104.5 46q58 0 88 -44q2 -4 4.5 -3.5t2.5 4.5v20q0 7 4 11zM243.5 162q6.5 9 6.5 23v150
q0 14 -6.5 23t-16.5 9t-15.5 -9t-5.5 -23v-150q0 -14 5.5 -23t15.5 -9t16.5 9z" />
    <glyph glyph-name="r" unicode="r" horiz-adv-x="346" 
d="M334 517q9 -5 7 -19l-25 -157q-1 -8 -5 -10t-12 0q-10 3 -23 3q-21 0 -35 -7t-22.5 -22.5t-8.5 -31.5v-257q0 -7 -4 -11t-11 -4h-158q-7 0 -11 4t-4 11v489q0 7 4 11t11 4h158q7 0 11 -4t4 -11v-21q0 -4 2 -5t4 3q25 45 77 45q24 0 41 -10z" />
    <glyph glyph-name="s" unicode="s" horiz-adv-x="438" 
d="M69.5 37q-57.5 45 -57.5 119v3q0 7 4 11t11 4h150q7 0 11 -3.5t4 -9.5q0 -15 9 -23t20 -8q9 0 14 5.5t5 13.5q0 15 -15 22.5t-50 17.5q-12 3 -28 8q-53 17 -90.5 55.5t-37.5 105.5q0 78 54 124t142 46q92 0 147 -50t55 -132q0 -4 -4 -7t-11 -3h-145q-7 0 -11 4t-4 11v6
q0 12 -6.5 19t-15.5 7q-10 0 -15.5 -8t-5.5 -18q0 -20 19.5 -31t50.5 -20q72 -21 116 -54t44 -101q0 -74 -56.5 -116.5t-149.5 -42.5q-96 0 -153.5 45z" />
    <glyph glyph-name="t" unicode="t" horiz-adv-x="307" 
d="M291 394q-4 -4 -11 -4h-42q-6 0 -6 -6v-192q0 -18 8 -24.5t23 -5.5h2q7 0 11 -4t4 -11v-132q0 -7 -4 -11t-11 -4h-48q-83 0 -124 23.5t-41 92.5v268q0 6 -6 6h-27q-7 0 -11 4t-4 11v100q0 7 4 11t11 4h27q6 0 6 6v107q0 7 4 11t11 4h150q7 0 11 -4t4 -11v-107q0 -6 6 -6
h42q7 0 11 -4t4 -11v-100q0 -7 -4 -11z" />
    <glyph glyph-name="u" unicode="u" horiz-adv-x="462" 
d="M256 516q4 4 11 4h158q7 0 11 -4t4 -11v-490q0 -7 -4 -11t-11 -4h-158q-7 0 -11 4t-4 11v4q0 4 -2 5t-5 -2q-15 -18 -35.5 -24t-47.5 -6q-60 0 -101 37t-41 115v361q0 7 4 11t11 4h158q7 0 11 -4t4 -11v-320q0 -32 21 -32q23 0 23 32v320q0 7 4 11z" />
    <glyph glyph-name="v" unicode="v" horiz-adv-x="474" 
d="M130 13l-118 490v4q0 13 13 13h173q14 0 15 -14l21 -218q1 -1 3 -1t3 1l21 218q1 14 15 14l173 -2q7 0 11 -4.5t2 -12.5l-118 -488q-3 -13 -16 -13h-182q-13 0 -16 13z" />
    <glyph glyph-name="w" unicode="w" horiz-adv-x="653" 
d="M119 13l-107 491v4q0 12 13 12h150q15 0 16 -14l23 -221q0 -3 3 -3t3 3l25 221q1 14 16 14h133q15 0 16 -14l27 -222q0 -2 3 -2t3 2l23 222q1 14 15 14l147 -2q16 0 13 -16l-105 -489q-3 -13 -17 -13h-153q-15 0 -16 14l-24 172q-1 3 -3 3t-3 -3l-22 -172q-1 -14 -16 -14
h-146q-14 0 -17 13z" />
    <glyph glyph-name="x" unicode="x" horiz-adv-x="482" 
d="M12 10l2 8l109 238q2 4 0 8l-109 238l-2 8q0 10 13 10h172q13 0 17 -12l23 -67q2 -4 4.5 -4t3.5 4l23 67q4 12 17 12h172q13 0 13 -10l-2 -8l-109 -238q-2 -4 0 -8l109 -238l2 -8q0 -10 -13 -10h-172q-13 0 -17 12l-23 71q-1 5 -3.5 5t-4.5 -5l-23 -71q-4 -12 -17 -12
h-172q-13 0 -13 10z" />
    <glyph glyph-name="y" unicode="y" horiz-adv-x="459" 
d="M28 -184v124q0 15 9 15q52 0 75.5 6.5t23.5 28.5q0 6 -1 10l-125 503v4q0 13 13 13h170q14 0 15 -14l19 -218q1 1 3 1t3 -1l17 218q1 14 15 14l171 -2q7 0 11 -4.5t2 -12.5l-126 -503q-22 -77 -48 -117t-80 -60t-155 -20h-6q-6 0 -6 15z" />
    <glyph glyph-name="z" unicode="z" horiz-adv-x="381" 
d="M12 4q-4 4 -4 11v145q0 9 6 18l121 165q2 3 1 5t-5 2h-101q-7 0 -11 4t-4 11v140q0 7 4 11t11 4h319q7 0 11 -4t4 -11v-145q0 -9 -6 -18l-130 -165q-2 -3 -1.5 -5t4.5 -2h127q7 0 11 -4t4 -11v-140q0 -7 -4 -11t-11 -4h-335q-7 0 -11 4z" />
    <glyph glyph-name="braceleft" unicode="{" horiz-adv-x="392" 
d="M142 -128.5q-38 35.5 -38 94.5v200q0 80 -60 89q-14 2 -14 15v118q0 14 15 15q59 9 59 88v197q0 59 38 94.5t102 35.5h103q7 0 11 -4t4 -11v-131q0 -7 -4 -11t-11 -4h-11q-17 0 -30.5 -17t-13.5 -39v-139q0 -99 -60 -129q-5 -4 0 -8q60 -30 60 -130v-142q0 -22 13.5 -39
t30.5 -17h11q7 0 11 -4t4 -11v-131q0 -7 -4 -11t-11 -4h-103q-64 0 -102 35.5z" />
    <glyph glyph-name="bar" unicode="|" horiz-adv-x="214" 
d="M17 -76q-4 4 -4 11v810q0 7 4 11t11 4h158q7 0 11 -4t4 -11v-810q0 -7 -4 -11t-11 -4h-158q-7 0 -11 4z" />
    <glyph glyph-name="braceright" unicode="}" horiz-adv-x="392" 
d="M45 -164q-7 0 -11 4t-4 11v131q0 7 4 11t11 4h11q17 0 30.5 17t13.5 39v142q0 100 60 130q5 4 0 8q-60 30 -60 129v139q0 22 -13.5 39t-30.5 17h-11q-7 0 -11 4t-4 11v131q0 7 4 11t11 4h103q64 0 102 -35.5t38 -94.5v-197q0 -79 59 -88q15 -1 15 -15v-118q0 -13 -14 -15
q-60 -9 -60 -89v-200q0 -59 -38 -94.5t-102 -35.5h-103z" />
    <glyph glyph-name="asciitilde" unicode="~" horiz-adv-x="509" 
d="M296.5 188q-16.5 6 -34.5 17q-3 2 -7.5 4.5t-9.5 6.5q-18 11 -29.5 16.5t-23.5 5.5q-15 0 -30.5 -9t-26.5 -23q-6 -7 -11 -7t-9 3l-86 51q-11 7 -7 20q17 54 59 90t93 36q21 0 39 -6.5t38 -18.5q8 -5 22.5 -13.5t25 -13t20.5 -4.5q28 0 48 31q6 8 13 8q3 0 8 -3l91 -55
q12 -8 6 -20q-26 -52 -66 -87t-86 -35q-20 0 -36.5 6z" />
    <glyph glyph-name="uni00A0" unicode="&#xa0;" horiz-adv-x="200" 
 />
    <glyph glyph-name="exclamdown" unicode="&#xa1;" horiz-adv-x="298" 
d="M216.5 681.5q26.5 -26.5 26.5 -67.5q0 -42 -26.5 -68t-67.5 -26t-67.5 26t-26.5 68q0 41 26.5 67.5t67.5 26.5t67.5 -26.5zM76.5 456q4.5 4 11.5 4h118q7 0 11.5 -4t4.5 -11l18 -422q0 -15 -14 -15h-158q-14 0 -14 15l18 422q0 7 4.5 11z" />
    <glyph glyph-name="cent" unicode="&#xa2;" horiz-adv-x="455" 
d="M435 406.5q-4 -4.5 -11 -4.5l-158 -5q-15 0 -15 14v14q0 14 -6 23t-16 9t-16.5 -9t-6.5 -23v-150q0 -14 6.5 -23t16.5 -9t16 9t6 23v15q0 7 4 11t11 4l158 -2q7 0 11 -4t4 -11v-28q0 -67 -34 -110t-98 -59q-5 -2 -5 -6l4 -68v-2q0 -13 -14 -13h-127q-15 0 -14 15l4 68
q0 4 -5 6q-64 16 -98 59.5t-34 109.5v180q0 63 34.5 107t97.5 62q5 2 5 6l-4 68v2q0 13 14 13h127q16 0 14 -15l-4 -68q0 -4 5 -6q63 -18 97.5 -62t34.5 -107v-22q0 -7 -4 -11.5z" />
    <glyph glyph-name="sterling" unicode="&#xa3;" horiz-adv-x="526" 
d="M261 163q1 -2 5 -2h233q7 0 11 -4t4 -11v-131q0 -7 -4 -11t-11 -4h-421q-7 0 -11 4t-4 11v135q0 11 7 19q13 16 17 32t4 44v22q0 6 -6 6h-44q-7 0 -11 4t-4 11v121q0 7 4 11t11 4h44q6 0 6 6v45q0 110 56.5 171.5t152.5 61.5q83 0 136.5 -48t70.5 -135l1 -5
q-2 -12 -13 -13l-153 -16h-2q-12 0 -15 14q-6 42 -25 42q-13 0 -17 -14t-4 -48v-55q0 -6 6 -6h120q7 0 11 -4t4 -11v-121q0 -7 -4 -11t-11 -4h-120q-6 0 -6 -6v-22q0 -49 -17 -77q-2 -3 -1 -5z" />
    <glyph glyph-name="currency" unicode="&#xa4;" horiz-adv-x="604" 
d="M514 209q-1 -6 2 -9l65 -65q5 -5 5 -10q0 -6 -6 -11l-97 -85q-5 -5 -10 -5q-6 0 -11 5l-60 59q-3 3 -9 2q-43 -20 -94 -20q-49 0 -91 18q-6 1 -9 -2l-57 -57q-5 -5 -11 -5q-5 0 -10 5l-97 85q-6 5 -6 11q0 5 5 10l61 60q3 3 2 9q-23 46 -23 100q0 53 21 95q1 6 -2 9
l-65 64q-5 5 -5 10q0 7 6 11l97 85q5 5 10 5q6 0 11 -5l58 -58q3 -3 9 -2q45 20 96 20q52 0 99 -22q6 -1 9 2l61 60q5 5 11 5q5 0 10 -5l97 -85q6 -4 6 -11q0 -5 -5 -10l-69 -69q-3 -3 -2 -8q18 -42 18 -91q0 -52 -20 -95zM351.5 357.5q-22.5 22.5 -52.5 22.5
q-31 0 -53.5 -22.5t-22.5 -53.5t22.5 -53.5t53.5 -22.5t53 22.5t23 53.5q-1 31 -23.5 53.5z" />
    <glyph glyph-name="yen" unicode="&#xa5;" horiz-adv-x="536" 
d="M503 695.5q3 -4.5 1 -12.5l-114 -344q-2 -7 5 -7h73q7 0 11 -4t4 -11v-71q0 -7 -4 -11t-11 -4h-101q-6 0 -6 -6v-18q0 -6 6 -6h101q7 0 11 -4t4 -11v-71q0 -7 -4 -11t-11 -4h-101q-6 0 -6 -6v-77q0 -7 -4 -11t-11 -4h-158q-7 0 -11 4t-4 11v77q0 6 -6 6h-105q-7 0 -11 4
t-4 11v71q0 7 4 11t11 4h105q6 0 6 6v18q0 6 -6 6h-105q-7 0 -11 4t-4 11v71q0 7 4 11t11 4h77q6 0 5 7l-112 344q-1 2 -1 6q0 11 13 11h166q14 0 17 -13l37 -197q1 -4 4 -4t4 4l37 197q3 13 17 13h166q8 0 11 -4.5z" />
    <glyph glyph-name="brokenbar" unicode="&#xa6;" horiz-adv-x="214" 
d="M17 389q-4 4 -4 11v345q0 7 4 11t11 4h158q7 0 11 -4t4 -11v-345q0 -7 -4 -11t-11 -4h-158q-7 0 -11 4zM17 -76q-4 4 -4 11v345q0 7 4 11t11 4h158q7 0 11 -4t4 -11v-345q0 -7 -4 -11t-11 -4h-158q-7 0 -11 4z" />
    <glyph glyph-name="section" unicode="&#xa7;" horiz-adv-x="470" 
d="M124.5 -179.5q-48.5 21.5 -75.5 59.5t-27 88v17q0 7 4 11t11 4h158q7 0 11 -4t4 -11v-3q0 -9 8 -16t20 -7t20 6.5t8 15.5q0 15 -25.5 33t-83.5 52q-48 28 -77.5 56t-43.5 61q-12 29 -12 65q0 28 7 49t23 41q17 21 44 40q5 5 0 9q-41 41 -60.5 72.5t-19.5 73.5
q0 50 27.5 90t77 62.5t113.5 22.5t113 -22.5t76 -63t27 -94.5v-9q0 -7 -4 -11t-11 -4h-158q-7 0 -11 4t-4 11q0 12 -8 20t-21 8t-20.5 -8t-7.5 -17q0 -20 17 -34t63 -39q56 -30 89 -52t52 -45q28 -36 28 -82q0 -47 -20 -82q-20 -38 -57 -64q-6 -4 -1 -9q41 -34 58.5 -64
t17.5 -76q0 -81 -60 -128.5t-157 -47.5q-64 0 -112.5 21.5zM263 231q5 8 5 22q0 16 -8 26q-8 8 -20 8q-15 0 -21 -9q-7 -8 -7 -24t7 -24q6 -9 22 -9q15 0 22 10z" />
    <glyph glyph-name="dieresis" unicode="&#xa8;" horiz-adv-x="411" 
d="M241.5 581.5q-26.5 26.5 -26.5 67.5q0 42 26.5 68t67.5 26t67.5 -26t26.5 -68q0 -40 -27 -67t-67 -27q-41 0 -67.5 26.5zM34.5 581.5q-26.5 26.5 -26.5 67.5q0 42 26.5 68t67.5 26t67.5 -26t26.5 -68q0 -40 -27 -67t-67 -27q-41 0 -67.5 26.5z" />
    <glyph glyph-name="copyright" unicode="&#xa9;" horiz-adv-x="762" 
d="M195.5 39q-82.5 47 -129 130t-46.5 187q0 99 47 179.5t129 126.5t184 46q103 0 185.5 -46t129.5 -126.5t47 -179.5q0 -105 -47 -187.5t-129.5 -129.5t-185.5 -47q-102 0 -184.5 47zM513.5 125.5q59.5 33.5 93 94t33.5 136.5q0 71 -33.5 128.5t-93 90.5t-133.5 33
q-73 0 -132 -33t-92.5 -90.5t-33.5 -128.5q0 -76 33.5 -136.5t92 -94t132.5 -33.5t133.5 33.5zM303.5 207.5q-29.5 28.5 -29.5 77.5v131q0 48 29.5 76t79.5 28q49 0 79.5 -28t30.5 -76q0 -5 -4 -8t-11 -3l-64 -3q-15 0 -15 14v6q0 8 -4.5 13.5t-11.5 5.5t-11 -5.5t-4 -13.5
v-145q0 -8 4 -13t11 -5t11.5 5t4.5 13v6q0 14 15 14l64 -2q7 0 11 -2.5t4 -7.5q0 -48 -30.5 -77t-79.5 -29q-50 0 -79.5 28.5z" />
    <glyph glyph-name="ordfeminine" unicode="&#xaa;" horiz-adv-x="303" 
d="M164 568q6 0 6 6v10q0 24 -19 24q-9 0 -14 -8q-8 -11 -17 -11l-91 4q-7 0 -11 4.5t-3 11.5q5 44 41.5 71.5t91.5 27.5q62 0 101 -30t39 -80v-222q0 -7 -4 -11t-11 -4h-88q-15 0 -15 5q0 2 -2 2t-5 -2q-16 -10 -42 -10q-45 0 -80 23t-35 87q0 61 36.5 81.5t107.5 20.5h14z
M163 455q7 5 7 14v2q0 6 -6 6h-14q-11 0 -17.5 -3.5t-6.5 -10.5q0 -13 19 -13q11 0 18 5zM10 307q4 4 11 4h258q7 0 11 -4t4 -11v-40q0 -7 -4 -11t-11 -4h-258q-7 0 -11 4t-4 11v40q0 7 4 11z" />
    <glyph glyph-name="guillemotleft" unicode="&#xab;" horiz-adv-x="450" 
d="M248 117q0 -10 -13 -10h-123q-12 0 -17 12l-65 152q-2 8 -2 10q0 4 2 10l65 153q4 11 17 11h123q13 0 13 -10l-2 -8l-69 -152q-2 -4 0 -8l69 -152zM418 117q0 -10 -13 -10h-123q-12 0 -17 12l-65 152q-2 8 -2 10q0 4 2 10l65 153q4 11 17 11h123q13 0 13 -10l-2 -8
l-69 -152q-2 -4 0 -8l69 -152z" />
    <glyph glyph-name="logicalnot" unicode="&#xac;" horiz-adv-x="436" 
d="M22 370q4 4 11 4h370q7 0 11 -4t4 -11v-189q0 -7 -4 -11t-11 -4h-110q-7 0 -11 4t-4 11v58q0 6 -6 6h-239q-7 0 -11 4t-4 11v110q0 7 4 11z" />
    <glyph glyph-name="uni00AD" unicode="&#xad;" horiz-adv-x="343" 
d="M22 209q-4 4 -4 11v130q0 7 4 11t11 4h277q7 0 11 -4t4 -11v-130q0 -7 -4 -11t-11 -4h-277q-7 0 -11 4z" />
    <glyph glyph-name="registered" unicode="&#xae;" horiz-adv-x="432" 
d="M322.5 682q47.5 -26 74.5 -72t27 -103q0 -61 -27 -109t-74.5 -75t-106.5 -27t-106.5 27t-74.5 75t-27 109q0 57 27 103t74.5 72t106.5 26t106.5 -26zM312 407.5q38 38.5 38 99.5q0 55 -38 91.5t-96 36.5t-95.5 -36.5t-37.5 -91.5q0 -61 37.5 -99.5t95.5 -38.5t96 38.5z
M270 490q-4 -3 -3 -8l17 -54q1 -2 1 -6q0 -11 -13 -11h-29q-14 0 -17 13l-14 49q-1 5 -2 5q-2 0 -2 -6v-46q0 -7 -4 -11t-11 -4h-27q-7 0 -11 4t-4 11v158q0 7 4 11t11 4h63q28 0 45.5 -17.5t17.5 -44.5q0 -33 -22 -47zM214 551q-6 0 -6 -6v-19q0 -6 6 -6h6q7 0 11 5t4 11
q0 7 -4 11t-11 4h-6z" />
    <glyph glyph-name="macron" unicode="&#xaf;" horiz-adv-x="231" 
d="M4 576q-4 4 -4 11v95q0 7 4 11t11 4h201q7 0 11 -4t4 -11v-95q0 -7 -4 -11t-11 -4h-201q-7 0 -11 4z" />
    <glyph glyph-name="degree" unicode="&#xb0;" horiz-adv-x="359" 
d="M92.5 483.5q-39.5 23.5 -62 63.5t-22.5 88t22.5 87.5t62 62.5t86.5 23t86.5 -23t62.5 -62.5t23 -87.5t-23 -88t-62.5 -63.5t-86.5 -23.5t-86.5 23.5zM216.5 595.5q15.5 16.5 15.5 39.5q0 24 -15.5 40.5t-37.5 16.5t-37.5 -16.5t-15.5 -40.5q0 -23 15.5 -39.5t37.5 -16.5
t37.5 16.5z" />
    <glyph glyph-name="plusminus" unicode="&#xb1;" horiz-adv-x="436" 
d="M414 479q4 -4 4 -11v-110q0 -7 -4 -11t-11 -4h-109q-6 0 -6 -6v-109q0 -7 -4 -11t-11 -4h-110q-7 0 -11 4t-4 11v109q0 6 -6 6h-109q-7 0 -11 4t-4 11v110q0 7 4 11t11 4h109q6 0 6 6v109q0 7 4 11t11 4h110q7 0 11 -4t4 -11v-109q0 -6 6 -6h109q7 0 11 -4zM22 4
q-4 4 -4 11v110q0 7 4 11t11 4h370q7 0 11 -4t4 -11v-110q0 -7 -4 -11t-11 -4h-370q-7 0 -11 4z" />
    <glyph glyph-name="uni00B2" unicode="&#xb2;" horiz-adv-x="280" 
d="M14 403q-4 4 -4 11v75q0 11 7 19q39 42 38 41q49 53 71 83q27 38 27 68q0 23 -13 23q-6 0 -10 -5t-4 -13v-19q0 -7 -4 -11t-11 -4h-89q-7 0 -11 4t-4 11v24q4 55 39.5 84.5t96.5 29.5q59 0 94 -31t35 -100q0 -31 -6 -53t-19 -44q-11 -16 -45 -58l-25 -30q-5 -8 3 -8h80
q7 0 11 -4t4 -11v-71q0 -7 -4 -11t-11 -4h-235q-7 0 -11 4z" />
    <glyph glyph-name="uni00B3" unicode="&#xb3;" horiz-adv-x="295" 
d="M253.5 423.5q-34.5 -30.5 -90.5 -30.5q-58 0 -95 30.5t-37 79.5v20q0 7 4 11t11 4h86q7 0 11 -4t4 -11v-3q0 -26 16 -26q9 0 12 6.5t3 19.5v57q0 11 -3.5 17t-11.5 6q-10 0 -17 -7q-7 -5 -12 -5q-4 0 -9 5l-42 44q-4 4 -4 10t5 11l59 53q3 2 2 4.5t-5 2.5h-84q-7 0 -11 4
t-4 11v70q0 7 4 11t11 4h213q7 0 11 -4t4 -11v-74q0 -11 -7 -19l-37 -39q-5 -5 1 -8q21 -15 33.5 -43t12.5 -57v-60q1 -49 -33.5 -79.5z" />
    <glyph glyph-name="acute" unicode="&#xb4;" horiz-adv-x="246" 
d="M16 588q0 5 3 9l55 93q6 10 18 10h122q6 0 9.5 -2.5t3.5 -6.5q0 -5 -4 -9l-77 -94q-7 -9 -18 -9h-99q-13 0 -13 9z" />
    <glyph glyph-name="uni00B5" unicode="&#xb5;" horiz-adv-x="464" 
d="M258 516q4 4 11 4h158q7 0 11 -4t4 -11v-490q0 -7 -4 -11t-11 -4h-158q-7 0 -11 4t-4 11v4q0 4 -2 5t-5 -2q-12 -15 -32 -23q-5 -3 -5 -7v-177q0 -7 -4 -11t-11 -4h-158q-7 0 -11 4t-4 11v690q0 7 4 11t11 4h158q7 0 11 -4t4 -11v-320q0 -32 21 -32q23 0 23 32v320
q0 7 4 11z" />
    <glyph glyph-name="paragraph" unicode="&#xb6;" horiz-adv-x="544" 
d="M503 700q7 0 11 -4t4 -11v-870q0 -7 -4 -11t-11 -4h-126q-7 0 -11 4t-4 11v728q0 6 -6 6h-24q-6 0 -6 -6v-728q0 -7 -4 -11t-11 -4h-126q-7 0 -11 4t-4 11v435q0 4 -5 6q-71 17 -112 75t-41 144q0 66 25.5 117t73 79.5t111.5 28.5h281z" />
    <glyph glyph-name="periodcentered" unicode="&#xb7;" horiz-adv-x="244" 
d="M54.5 230.5q-26.5 26.5 -26.5 67.5q0 42 26.5 68t67.5 26t67.5 -26t26.5 -68q0 -40 -27 -67t-67 -27q-41 0 -67.5 26.5z" />
    <glyph glyph-name="cedilla" unicode="&#xb8;" horiz-adv-x="172" 
d="M10 -169l7 62q1 11 16 11q10 0 16 6t6 18q0 22 -33 54q-7 6 -7 11q0 7 12 7h84q11 0 19 -8q42 -43 42 -95q0 -15 -3 -28q-9 -35 -34 -49.5t-57 -14.5q-25 0 -57 9q-13 3 -11 17z" />
    <glyph glyph-name="uni00B9" unicode="&#xb9;" horiz-adv-x="165" 
d="M47 819h93q7 0 11 -4t4 -11v-390q0 -7 -4 -11t-11 -4h-88q-7 0 -11 4t-4 11v298q0 6 -6 6h-7q-7 0 -11 4.5t-4 11.5v57q0 12 10 18l9 5q8 5 19 5z" />
    <glyph glyph-name="ordmasculine" unicode="&#xba;" horiz-adv-x="306" 
d="M50 385.5q-36 30.5 -36 85.5v121q0 53 36.5 84.5t101.5 31.5q64 0 100.5 -31.5t36.5 -84.5v-121q0 -55 -36 -85.5t-101 -30.5q-66 0 -102 30.5zM165.5 463q5.5 7 5.5 17v102q0 11 -5.5 18t-13.5 7q-9 0 -14.5 -7t-5.5 -18v-102q0 -11 5.5 -17.5t14.5 -6.5q8 0 13.5 7z
M13 245q-4 4 -4 11v40q0 7 4 11t11 4h258q7 0 11 -4t4 -11v-40q0 -7 -4 -11t-11 -4h-258q-7 0 -11 4z" />
    <glyph glyph-name="guillemotright" unicode="&#xbb;" horiz-adv-x="450" 
d="M32 117l2 8l69 152q2 4 0 8l-69 152l-2 8q0 10 13 10h123q12 0 17 -12l65 -152q2 -3 2 -10q0 -6 -2 -10l-65 -153q-4 -11 -17 -11h-123q-13 0 -13 10zM202 117l2 8l69 152q2 4 0 8l-69 152l-2 8q0 10 13 10h123q12 0 17 -12l65 -152q2 -3 2 -10q0 -6 -2 -10l-65 -153
q-4 -11 -17 -11h-123q-13 0 -13 10z" />
    <glyph glyph-name="onequarter" unicode="&#xbc;" horiz-adv-x="752" 
d="M47 700h93q7 0 11 -4t4 -11v-390q0 -7 -4 -11t-11 -4h-88q-7 0 -11 4t-4 11v298q0 6 -6 6h-7q-7 0 -11 4.5t-4 11.5v57q0 12 10 18l9 5q8 5 19 5zM57 10q0 4 3 8l391 672q6 10 18 10h99q14 0 14 -10q0 -3 -3 -8l-391 -672q-6 -10 -18 -10h-99q-14 0 -14 10zM744 202
q4 -4 4 -11v-77q0 -7 -4 -11t-11 -4h-9q-6 0 -6 -6v-78q0 -7 -4 -11t-11 -4h-88q-7 0 -11 4t-4 11v78q0 6 -6 6h-146q-7 0 -11 4t-4 11v61q0 9 3 18l69 215q4 12 17 12h92q8 0 11.5 -4.5t1.5 -12.5l-55 -190q-1 -7 5 -7h17q6 0 6 6v29q0 7 4 11t11 4h88q7 0 11 -4t4 -11v-29
q0 -6 6 -6h9q7 0 11 -4z" />
    <glyph glyph-name="onehalf" unicode="&#xbd;" horiz-adv-x="709" 
d="M47 700h93q7 0 11 -4t4 -11v-390q0 -7 -4 -11t-11 -4h-88q-7 0 -11 4t-4 11v298q0 6 -6 6h-7q-7 0 -11 4.5t-4 11.5v57q0 12 10 18l9 5q8 5 19 5zM57 10q0 4 3 8l391 672q6 10 18 10h99q14 0 14 -10q0 -3 -3 -8l-391 -672q-6 -10 -18 -10h-99q-14 0 -14 10zM443 4
q-4 4 -4 11v75q0 11 7 19q39 42 38 41q49 53 71 83q27 38 27 68q0 23 -13 23q-6 0 -10 -5t-4 -13v-19q0 -7 -4 -11t-11 -4h-89q-7 0 -11 4t-4 11v24q4 55 39.5 84.5t96.5 29.5q59 0 94 -31t35 -100q0 -31 -6 -53t-19 -44q-11 -16 -45 -58l-25 -30q-5 -8 3 -8h80q7 0 11 -4
t4 -11v-71q0 -7 -4 -11t-11 -4h-235q-7 0 -11 4z" />
    <glyph glyph-name="threequarters" unicode="&#xbe;" horiz-adv-x="834" 
d="M253.5 305.5q-34.5 -30.5 -90.5 -30.5q-58 0 -95 30.5t-37 79.5v20q0 7 4 11t11 4h86q7 0 11 -4t4 -11v-3q0 -26 16 -26q9 0 12 6.5t3 19.5v57q0 11 -3.5 17t-11.5 6q-10 0 -17 -7q-7 -5 -12 -5q-4 0 -9 5l-42 44q-4 4 -4 10t5 11l59 53q3 2 2 4.5t-5 2.5h-84q-7 0 -11 4
t-4 11v70q0 7 4 11t11 4h213q7 0 11 -4t4 -11v-74q0 -11 -7 -19l-37 -39q-5 -5 1 -8q21 -15 33.5 -43t12.5 -57v-60q1 -49 -33.5 -79.5zM139 10q0 4 3 8l391 672q6 10 18 10h99q14 0 14 -10q0 -3 -3 -8l-391 -672q-6 -10 -18 -10h-99q-14 0 -14 10zM826 202q4 -4 4 -11v-77
q0 -7 -4 -11t-11 -4h-9q-6 0 -6 -6v-78q0 -7 -4 -11t-11 -4h-88q-7 0 -11 4t-4 11v78q0 6 -6 6h-146q-7 0 -11 4t-4 11v61q0 9 3 18l69 215q4 12 17 12h92q8 0 11.5 -4.5t1.5 -12.5l-55 -190q-1 -7 5 -7h17q6 0 6 6v29q0 7 4 11t11 4h88q7 0 11 -4t4 -11v-29q0 -6 6 -6h9
q7 0 11 -4z" />
    <glyph glyph-name="questiondown" unicode="&#xbf;" horiz-adv-x="483" 
d="M322.5 478.5q26.5 -26.5 26.5 -67.5q0 -42 -26.5 -68t-67.5 -26t-67.5 26t-26.5 68q0 41 27 67.5t67 26.5q41 0 67.5 -26.5zM344 260q4 -4 4 -11v-13q0 -39 -13 -68t-31.5 -47t-47.5 -40t-42.5 -38t-13.5 -37t10.5 -33t28.5 -12q22 0 34 14t12 37v4q0 14 15 14l158 -7
q15 0 15 -11q0 -65 -30 -115.5t-84.5 -78.5t-124.5 -28q-68 0 -118.5 26t-78 72.5t-27.5 108.5q0 44 13.5 75.5t32 50.5t48.5 43q30 23 44 40t14 42v1q0 7 4 11t11 4h156q7 0 11 -4z" />
    <glyph glyph-name="Agrave" unicode="&#xc0;" horiz-adv-x="531" 
d="M325 14l-11 75q0 2 -2 4t-5 2h-88q-3 0 -5 -2t-2 -4l-10 -75q-1 -14 -16 -14h-157q-16 0 -13 16l142 671q3 13 17 13h182q14 0 17 -13l142 -671v-4q0 -12 -14 -12h-161q-15 0 -16 14zM239 239h47q7 0 5 6l-27 180q-1 4 -3 4t-3 -4l-24 -180q0 -6 5 -6zM325 768
q0 -9 -13 -9h-99q-11 0 -18 9l-77 94q-4 4 -4 9q0 4 3.5 6.5t9.5 2.5h122q12 0 18 -10l55 -93q3 -4 3 -9z" />
    <glyph glyph-name="Aacute" unicode="&#xc1;" horiz-adv-x="531" 
d="M325 14l-11 75q0 2 -2 4t-5 2h-88q-3 0 -5 -2t-2 -4l-10 -75q-1 -14 -16 -14h-157q-16 0 -13 16l142 671q3 13 17 13h182q14 0 17 -13l142 -671v-4q0 -12 -14 -12h-161q-15 0 -16 14zM239 239h47q7 0 5 6l-27 180q-1 4 -3 4t-3 -4l-24 -180q0 -6 5 -6zM188 768q0 5 3 9
l55 93q6 10 18 10h122q6 0 9.5 -2.5t3.5 -6.5q0 -5 -4 -9l-77 -94q-7 -9 -18 -9h-99q-13 0 -13 9z" />
    <glyph glyph-name="Acircumflex" unicode="&#xc2;" horiz-adv-x="531" 
d="M325 14l-11 75q0 2 -2 4t-5 2h-88q-3 0 -5 -2t-2 -4l-10 -75q-1 -14 -16 -14h-157q-16 0 -13 16l142 671q3 13 17 13h182q14 0 17 -13l142 -671v-4q0 -12 -14 -12h-161q-15 0 -16 14zM239 239h47q7 0 5 6l-27 180q-1 4 -3 4t-3 -4l-24 -180q0 -6 5 -6zM96 760q0 5 3 9
l60 101q6 10 18 10h171q12 0 18 -10l63 -101q3 -4 3 -9q0 -4 -3.5 -6.5t-9.5 -2.5h-114q-12 0 -17 11l-20 43q-2 3 -4.5 3t-3.5 -3l-20 -43q-5 -11 -17 -11h-114q-13 0 -13 9z" />
    <glyph glyph-name="Atilde" unicode="&#xc3;" horiz-adv-x="531" 
d="M325 14l-11 75q0 2 -2 4t-5 2h-88q-3 0 -5 -2t-2 -4l-10 -75q-1 -14 -16 -14h-157q-16 0 -13 16l142 671q3 13 17 13h182q14 0 17 -13l142 -671v-4q0 -12 -14 -12h-161q-15 0 -16 14zM239 239h47q7 0 5 6l-27 180q-1 4 -3 4t-3 -4l-24 -180q0 -6 5 -6zM281 766
q-9 4 -20 10.5t-20 6.5q-17 0 -29 -18q-6 -8 -13 -8q-4 0 -8 3l-55 40q-10 7 -7 19q13 40 38.5 59.5t57.5 19.5q33 0 67 -22q3 -2 10 -7t14 -7.5t15 -2.5q19 0 31 15q6 8 12 8q4 0 8 -3l53 -37q6 -4 6 -13q0 -8 -5 -16q-18 -33 -44.5 -47.5t-55.5 -14.5q-24 0 -55 15z" />
    <glyph glyph-name="Adieresis" unicode="&#xc4;" horiz-adv-x="531" 
d="M325 14l-11 75q0 2 -2 4t-5 2h-88q-3 0 -5 -2t-2 -4l-10 -75q-1 -14 -16 -14h-157q-16 0 -13 16l142 671q3 13 17 13h182q14 0 17 -13l142 -671v-4q0 -12 -14 -12h-161q-15 0 -16 14zM239 239h47q7 0 5 6l-27 180q-1 4 -3 4t-3 -4l-24 -180q0 -6 5 -6zM301.5 761.5
q-26.5 26.5 -26.5 67.5q0 42 26.5 68t67.5 26t67.5 -26t26.5 -68q0 -40 -27 -67t-67 -27q-41 0 -67.5 26.5zM94.5 761.5q-26.5 26.5 -26.5 67.5q0 42 26.5 68t67.5 26t67.5 -26t26.5 -68q0 -40 -27 -67t-67 -27q-41 0 -67.5 26.5z" />
    <glyph glyph-name="Aring" unicode="&#xc5;" horiz-adv-x="531" 
d="M325 14l-11 75q0 2 -2 4t-5 2h-88q-3 0 -5 -2t-2 -4l-10 -75q-1 -14 -16 -14h-157q-16 0 -13 16l142 671q3 13 17 13h182q14 0 17 -13l142 -671v-4q0 -12 -14 -12h-161q-15 0 -16 14zM239 239h47q7 0 5 6l-27 180q-1 4 -3 4t-3 -4l-24 -180q0 -6 5 -6zM169.5 770.5
q-38.5 38.5 -38.5 96.5q0 57 38.5 95.5t96.5 38.5t96.5 -38.5t38.5 -95.5q0 -58 -38.5 -96.5t-96.5 -38.5t-96.5 38.5zM294 839q12 12 12 28q0 17 -11.5 29t-28.5 12t-28.5 -12t-11.5 -29q0 -16 11.5 -28t28.5 -12q16 0 28 12z" />
    <glyph glyph-name="AE" unicode="&#xc6;" horiz-adv-x="793" 
d="M771 543q-4 -4 -11 -4h-191q-6 0 -6 -6v-96q0 -6 6 -6h99q7 0 11 -4t4 -11v-131q0 -7 -4 -11t-11 -4h-99q-6 0 -6 -6v-97q0 -6 6 -6h191q7 0 11 -4t4 -11v-131q0 -7 -4 -11t-11 -4h-370q-7 0 -11 4t-4 11v74q0 6 -6 6h-121q-6 0 -7 -5l-27 -78q-4 -12 -17 -12h-166
q-8 0 -11.5 4.5t-0.5 12.5l269 671q5 12 18 12h454q7 0 11 -4t4 -11v-131q0 -7 -4 -11zM301 239h68q6 0 6 6v203q0 4 -3 4.5t-4 -3.5l-72 -203q-2 -7 5 -7z" />
    <glyph glyph-name="Ccedilla" unicode="&#xc7;" horiz-adv-x="476" 
d="M454 479q-4 -3 -11 -3l-158 -5q-15 0 -15 14v25q0 17 -8.5 27t-22.5 10t-22.5 -10t-8.5 -27v-321q0 -17 8.5 -26.5t22.5 -9.5t22.5 9.5t8.5 26.5v27q0 14 15 14l158 -5q7 0 11 -4.5t4 -11.5v-4q0 -79 -41.5 -133.5t-112.5 -71.5q-8 -2 -3 -8q34 -40 34 -86q0 -15 -3 -28
q-9 -35 -34 -49.5t-57 -14.5q-25 0 -57 9q-13 3 -11 17l7 62q1 11 16 11q10 0 16 6t6 17q0 25 -40 60q-3 3 -7 4q-71 18 -111 72t-40 133v292q0 97 59.5 154t159.5 57q99 0 159 -57t60 -154v-10q0 -5 -4 -8z" />
    <glyph glyph-name="Egrave" unicode="&#xc8;" horiz-adv-x="444" 
d="M422 543q-4 -4 -11 -4h-191q-6 0 -6 -6v-96q0 -6 6 -6h99q7 0 11 -4t4 -11v-131q0 -7 -4 -11t-11 -4h-99q-6 0 -6 -6v-97q0 -6 6 -6h191q7 0 11 -4t4 -11v-131q0 -7 -4 -11t-11 -4h-370q-7 0 -11 4t-4 11v670q0 7 4 11t11 4h370q7 0 11 -4t4 -11v-131q0 -7 -4 -11z
M286 768q0 -9 -13 -9h-99q-11 0 -18 9l-77 94q-4 4 -4 9q0 4 3.5 6.5t9.5 2.5h122q12 0 18 -10l55 -93q3 -4 3 -9z" />
    <glyph glyph-name="Eacute" unicode="&#xc9;" horiz-adv-x="444" 
d="M422 543q-4 -4 -11 -4h-191q-6 0 -6 -6v-96q0 -6 6 -6h99q7 0 11 -4t4 -11v-131q0 -7 -4 -11t-11 -4h-99q-6 0 -6 -6v-97q0 -6 6 -6h191q7 0 11 -4t4 -11v-131q0 -7 -4 -11t-11 -4h-370q-7 0 -11 4t-4 11v670q0 7 4 11t11 4h370q7 0 11 -4t4 -11v-131q0 -7 -4 -11z
M149 768q0 5 3 9l55 93q6 10 18 10h122q6 0 9.5 -2.5t3.5 -6.5q0 -5 -4 -9l-77 -94q-7 -9 -18 -9h-99q-13 0 -13 9z" />
    <glyph glyph-name="Ecircumflex" unicode="&#xca;" horiz-adv-x="444" 
d="M422 543q-4 -4 -11 -4h-191q-6 0 -6 -6v-96q0 -6 6 -6h99q7 0 11 -4t4 -11v-131q0 -7 -4 -11t-11 -4h-99q-6 0 -6 -6v-97q0 -6 6 -6h191q7 0 11 -4t4 -11v-131q0 -7 -4 -11t-11 -4h-370q-7 0 -11 4t-4 11v670q0 7 4 11t11 4h370q7 0 11 -4t4 -11v-131q0 -7 -4 -11z
M57 760q0 5 3 9l60 101q6 10 18 10h171q12 0 18 -10l63 -101q3 -4 3 -9q0 -4 -3.5 -6.5t-9.5 -2.5h-114q-12 0 -17 11l-20 43q-2 3 -4.5 3t-3.5 -3l-20 -43q-5 -11 -17 -11h-114q-13 0 -13 9z" />
    <glyph glyph-name="Edieresis" unicode="&#xcb;" horiz-adv-x="444" 
d="M422 543q-4 -4 -11 -4h-191q-6 0 -6 -6v-96q0 -6 6 -6h99q7 0 11 -4t4 -11v-131q0 -7 -4 -11t-11 -4h-99q-6 0 -6 -6v-97q0 -6 6 -6h191q7 0 11 -4t4 -11v-131q0 -7 -4 -11t-11 -4h-370q-7 0 -11 4t-4 11v670q0 7 4 11t11 4h370q7 0 11 -4t4 -11v-131q0 -7 -4 -11z
M262.5 761.5q-26.5 26.5 -26.5 67.5q0 42 26.5 68t67.5 26t67.5 -26t26.5 -68q0 -40 -27 -67t-67 -27q-41 0 -67.5 26.5zM55.5 761.5q-26.5 26.5 -26.5 67.5q0 42 26.5 68t67.5 26t67.5 -26t26.5 -68q0 -40 -27 -67t-67 -27q-41 0 -67.5 26.5z" />
    <glyph glyph-name="Igrave" unicode="&#xcc;" horiz-adv-x="240" 
d="M30 4q-4 4 -4 11v670q0 7 4 11t11 4h158q7 0 11 -4t4 -11v-670q0 -7 -4 -11t-11 -4h-158q-7 0 -11 4zM179 768q0 -9 -13 -9h-99q-11 0 -18 9l-77 94q-4 4 -4 9q0 4 3.5 6.5t9.5 2.5h122q12 0 18 -10l55 -93q3 -4 3 -9z" />
    <glyph glyph-name="Iacute" unicode="&#xcd;" horiz-adv-x="240" 
d="M30 4q-4 4 -4 11v670q0 7 4 11t11 4h158q7 0 11 -4t4 -11v-670q0 -7 -4 -11t-11 -4h-158q-7 0 -11 4zM42 768q0 5 3 9l55 93q6 10 18 10h122q6 0 9.5 -2.5t3.5 -6.5q0 -5 -4 -9l-77 -94q-7 -9 -18 -9h-99q-13 0 -13 9z" />
    <glyph glyph-name="Icircumflex" unicode="&#xce;" horiz-adv-x="240" 
d="M30 4q-4 4 -4 11v670q0 7 4 11t11 4h158q7 0 11 -4t4 -11v-670q0 -7 -4 -11t-11 -4h-158q-7 0 -11 4zM-50 760q0 5 3 9l60 101q6 10 18 10h171q12 0 18 -10l63 -101q3 -4 3 -9q0 -4 -3.5 -6.5t-9.5 -2.5h-114q-12 0 -17 11l-20 43q-2 3 -4.5 3t-3.5 -3l-20 -43
q-5 -11 -17 -11h-114q-13 0 -13 9z" />
    <glyph glyph-name="Idieresis" unicode="&#xcf;" horiz-adv-x="240" 
d="M30 4q-4 4 -4 11v670q0 7 4 11t11 4h158q7 0 11 -4t4 -11v-670q0 -7 -4 -11t-11 -4h-158q-7 0 -11 4zM155.5 761.5q-26.5 26.5 -26.5 67.5q0 42 26.5 68t67.5 26t67.5 -26t26.5 -68q0 -40 -27 -67t-67 -27q-41 0 -67.5 26.5zM-51.5 761.5q-26.5 26.5 -26.5 67.5
q0 42 26.5 68t67.5 26t67.5 -26t26.5 -68q0 -40 -27 -67t-67 -27q-41 0 -67.5 26.5z" />
    <glyph glyph-name="Eth" unicode="&#xd0;" horiz-adv-x="505" 
d="M376.5 675q50.5 -25 78.5 -70.5t28 -104.5v-300q0 -59 -28 -104.5t-78.5 -70.5t-116.5 -25h-197q-7 0 -11 4t-4 11v293q0 6 -6 6h-1q-7 0 -11 4t-4 11v75q0 15 11 15h5q6 0 6 6v260q0 7 4 11t11 4h197q66 0 116.5 -25zM295 488q0 23 -11 37t-29 14h-13q-6 0 -6 -6v-108
q0 -6 6 -6h10q7 0 11 -4t4 -11v-75q0 -7 -4 -11t-11 -4h-10q-6 0 -6 -6v-141q0 -6 6 -6l14 1q16 1 27 15t12 36v275z" />
    <glyph glyph-name="Ntilde" unicode="&#xd1;" horiz-adv-x="528" 
d="M320 696q4 4 11 4h156q7 0 11 -4t4 -11v-670q0 -7 -4 -11t-11 -4h-178q-13 0 -16 13l-76 303q-1 3 -4 3t-3 -4l2 -300q0 -7 -4 -11t-11 -4h-156q-7 0 -11 4t-4 11v670q0 7 4 11t11 4h176q13 0 16 -13l77 -304q1 -4 4 -4t3 4l-1 302q0 7 4 11zM277 766q-9 4 -20 10.5
t-20 6.5q-17 0 -29 -18q-6 -8 -13 -8q-4 0 -8 3l-55 40q-10 7 -7 19q13 40 38.5 59.5t57.5 19.5q33 0 67 -22q3 -2 10 -7t14 -7.5t15 -2.5q19 0 31 15q6 8 12 8q4 0 8 -3l53 -37q6 -4 6 -13q0 -8 -5 -16q-18 -33 -44.5 -47.5t-55.5 -14.5q-24 0 -55 15z" />
    <glyph glyph-name="Ograve" unicode="&#xd2;" horiz-adv-x="484" 
d="M80.5 50q-60.5 58 -60.5 156v288q0 98 60.5 156t161.5 58t161.5 -58t60.5 -156v-288q0 -98 -60.5 -156t-161.5 -58t-161.5 58zM267 165q9 12 9 33v304q0 21 -9 33t-25 12t-25 -12t-9 -33v-304q0 -21 9 -33t25 -12t25 12zM301 768q0 -9 -13 -9h-99q-11 0 -18 9l-77 94
q-4 4 -4 9q0 4 3.5 6.5t9.5 2.5h122q12 0 18 -10l55 -93q3 -4 3 -9z" />
    <glyph glyph-name="Oacute" unicode="&#xd3;" horiz-adv-x="484" 
d="M80.5 50q-60.5 58 -60.5 156v288q0 98 60.5 156t161.5 58t161.5 -58t60.5 -156v-288q0 -98 -60.5 -156t-161.5 -58t-161.5 58zM267 165q9 12 9 33v304q0 21 -9 33t-25 12t-25 -12t-9 -33v-304q0 -21 9 -33t25 -12t25 12zM164 768q0 5 3 9l55 93q6 10 18 10h122
q6 0 9.5 -2.5t3.5 -6.5q0 -5 -4 -9l-77 -94q-7 -9 -18 -9h-99q-13 0 -13 9z" />
    <glyph glyph-name="Ocircumflex" unicode="&#xd4;" horiz-adv-x="484" 
d="M80.5 50q-60.5 58 -60.5 156v288q0 98 60.5 156t161.5 58t161.5 -58t60.5 -156v-288q0 -98 -60.5 -156t-161.5 -58t-161.5 58zM267 165q9 12 9 33v304q0 21 -9 33t-25 12t-25 -12t-9 -33v-304q0 -21 9 -33t25 -12t25 12zM72 760q0 5 3 9l60 101q6 10 18 10h171
q12 0 18 -10l63 -101q3 -4 3 -9q0 -4 -3.5 -6.5t-9.5 -2.5h-114q-12 0 -17 11l-20 43q-2 3 -4.5 3t-3.5 -3l-20 -43q-5 -11 -17 -11h-114q-13 0 -13 9z" />
    <glyph glyph-name="Otilde" unicode="&#xd5;" horiz-adv-x="484" 
d="M80.5 50q-60.5 58 -60.5 156v288q0 98 60.5 156t161.5 58t161.5 -58t60.5 -156v-288q0 -98 -60.5 -156t-161.5 -58t-161.5 58zM267 165q9 12 9 33v304q0 21 -9 33t-25 12t-25 -12t-9 -33v-304q0 -21 9 -33t25 -12t25 12zM257 766q-9 4 -20 10.5t-20 6.5q-17 0 -29 -18
q-6 -8 -13 -8q-4 0 -8 3l-55 40q-10 7 -7 19q13 40 38.5 59.5t57.5 19.5q33 0 67 -22q3 -2 10 -7t14 -7.5t15 -2.5q19 0 31 15q6 8 12 8q4 0 8 -3l53 -37q6 -4 6 -13q0 -8 -5 -16q-18 -33 -44.5 -47.5t-55.5 -14.5q-24 0 -55 15z" />
    <glyph glyph-name="Odieresis" unicode="&#xd6;" horiz-adv-x="484" 
d="M80.5 50q-60.5 58 -60.5 156v288q0 98 60.5 156t161.5 58t161.5 -58t60.5 -156v-288q0 -98 -60.5 -156t-161.5 -58t-161.5 58zM267 165q9 12 9 33v304q0 21 -9 33t-25 12t-25 -12t-9 -33v-304q0 -21 9 -33t25 -12t25 12zM277.5 761.5q-26.5 26.5 -26.5 67.5q0 42 26.5 68
t67.5 26t67.5 -26t26.5 -68q0 -40 -27 -67t-67 -27q-41 0 -67.5 26.5zM70.5 761.5q-26.5 26.5 -26.5 67.5q0 42 26.5 68t67.5 26t67.5 -26t26.5 -68q0 -40 -27 -67t-67 -27q-41 0 -67.5 26.5z" />
    <glyph glyph-name="multiply" unicode="&#xd7;" horiz-adv-x="418" 
d="M394 401q0 -6 -5 -11l-77 -76q-2 -2 -2 -4t2 -4l77 -77q5 -4 5 -11q0 -6 -5 -11l-77 -77q-5 -5 -11 -5q-4 0 -11 5l-77 77q-2 2 -4 2t-4 -2l-77 -77q-5 -5 -11 -5q-4 0 -11 5l-77 77q-5 7 -5 11q0 6 5 11l77 77q2 2 2 4t-2 4l-77 76q-5 7 -5 11q0 6 5 11l77 77q5 5 11 5
q7 0 11 -5l77 -77q2 -2 4 -2t4 2l77 77q5 5 11 5q7 0 11 -5l77 -77q5 -4 5 -11z" />
    <glyph glyph-name="Oslash" unicode="&#xd8;" horiz-adv-x="484" 
d="M479 692q0 -4 -3 -9l-40 -67q-1 -4 0 -8q28 -50 28 -114v-288q0 -98 -60.5 -156t-161.5 -58q-52 0 -88 14q-6 2 -8 -3l-31 -55q-5 -8 -12 -8q-5 0 -9 3l-82 53q-8 5 -8 12q0 5 3 9l40 69q1 4 0 8q-27 47 -27 112v288q0 98 60.5 156t161.5 58q47 0 85 -13q6 -2 8 3l30 54
q5 8 12 8q4 0 9 -3l85 -53q8 -5 8 -12zM276 502q0 21 -9 33t-25 12t-25 -12t-9 -33v-304q0 -21 9 -33t25 -12t25 12t9 33v304z" />
    <glyph glyph-name="Ugrave" unicode="&#xd9;" horiz-adv-x="481" 
d="M127 19q-49 27 -76 76t-27 113v477q0 7 4 11t11 4h158q7 0 11 -4t4 -11v-495q0 -17 8 -27t21 -10t20.5 10t7.5 27v495q0 7 4 11t11 4h158q7 0 11 -4t4 -11v-477q0 -64 -27 -113t-76 -76t-113 -27q-65 0 -114 27zM300 768q0 -9 -13 -9h-99q-11 0 -18 9l-77 94q-4 4 -4 9
q0 4 3.5 6.5t9.5 2.5h122q12 0 18 -10l55 -93q3 -4 3 -9z" />
    <glyph glyph-name="Uacute" unicode="&#xda;" horiz-adv-x="481" 
d="M127 19q-49 27 -76 76t-27 113v477q0 7 4 11t11 4h158q7 0 11 -4t4 -11v-495q0 -17 8 -27t21 -10t20.5 10t7.5 27v495q0 7 4 11t11 4h158q7 0 11 -4t4 -11v-477q0 -64 -27 -113t-76 -76t-113 -27q-65 0 -114 27zM163 768q0 5 3 9l55 93q6 10 18 10h122q6 0 9.5 -2.5
t3.5 -6.5q0 -5 -4 -9l-77 -94q-7 -9 -18 -9h-99q-13 0 -13 9z" />
    <glyph glyph-name="Ucircumflex" unicode="&#xdb;" horiz-adv-x="481" 
d="M127 19q-49 27 -76 76t-27 113v477q0 7 4 11t11 4h158q7 0 11 -4t4 -11v-495q0 -17 8 -27t21 -10t20.5 10t7.5 27v495q0 7 4 11t11 4h158q7 0 11 -4t4 -11v-477q0 -64 -27 -113t-76 -76t-113 -27q-65 0 -114 27zM71 760q0 5 3 9l60 101q6 10 18 10h171q12 0 18 -10
l63 -101q3 -4 3 -9q0 -4 -3.5 -6.5t-9.5 -2.5h-114q-12 0 -17 11l-20 43q-2 3 -4.5 3t-3.5 -3l-20 -43q-5 -11 -17 -11h-114q-13 0 -13 9z" />
    <glyph glyph-name="Udieresis" unicode="&#xdc;" horiz-adv-x="481" 
d="M127 19q-49 27 -76 76t-27 113v477q0 7 4 11t11 4h158q7 0 11 -4t4 -11v-495q0 -17 8 -27t21 -10t20.5 10t7.5 27v495q0 7 4 11t11 4h158q7 0 11 -4t4 -11v-477q0 -64 -27 -113t-76 -76t-113 -27q-65 0 -114 27zM276.5 761.5q-26.5 26.5 -26.5 67.5q0 42 26.5 68t67.5 26
t67.5 -26t26.5 -68q0 -40 -27 -67t-67 -27q-41 0 -67.5 26.5zM69.5 761.5q-26.5 26.5 -26.5 67.5q0 42 26.5 68t67.5 26t67.5 -26t26.5 -68q0 -40 -27 -67t-67 -27q-41 0 -67.5 26.5z" />
    <glyph glyph-name="Yacute" unicode="&#xdd;" horiz-adv-x="508" 
d="M163 6q-4 4 -4 11v230q0 6 -1 8l-140 428q-1 2 -1 6q0 11 13 11h166q14 0 17 -13l37 -197q1 -4 4 -4t4 4l37 197q3 13 17 13h166q8 0 11 -4.5t1 -12.5l-142 -428q-1 -2 -1 -8v-230q0 -7 -4 -11t-11 -4h-158q-7 0 -11 4zM176 768q0 5 3 9l55 93q6 10 18 10h122
q6 0 9.5 -2.5t3.5 -6.5q0 -5 -4 -9l-77 -94q-7 -9 -18 -9h-99q-13 0 -13 9z" />
    <glyph glyph-name="Thorn" unicode="&#xde;" horiz-adv-x="480" 
d="M369.5 542.5q46.5 -28.5 72.5 -79.5t26 -117q0 -65 -24.5 -114t-68.5 -76t-102 -27h-55q-6 0 -6 -6v-108q0 -7 -4 -11t-11 -4h-158q-7 0 -11 4t-4 11v670q0 7 4 11t11 4h158q7 0 11 -4t4 -11v-108q0 -6 6 -6h45q60 0 106.5 -28.5zM266.5 292.5q13.5 16.5 13.5 49.5
t-13.5 50.5t-36.5 17.5h-12q-6 0 -6 -6v-122q0 -6 6 -6h12q23 0 36.5 16.5z" />
    <glyph glyph-name="germandbls" unicode="&#xdf;" horiz-adv-x="481" 
d="M26 5q-4 4 -4 11v451q0 115 55 178t156 63t158.5 -52.5t57.5 -140.5q0 -45 -15.5 -75t-45.5 -52q-5 -3 0 -8q36 -25 55.5 -68t19.5 -100q0 -101 -59.5 -156.5t-168.5 -55.5l-1 15v131l1 14q20 0 32 19t12 54t-12 54t-32 19l-1 14v127q0 4 5 6q6 2 13 7q13 13 13 41
q0 22 -8.5 34.5t-21.5 12.5q-12 0 -18.5 -13t-6.5 -37v-483q0 -7 -4 -11t-11 -4l-158 1q-7 0 -11 4z" />
    <glyph glyph-name="agrave" unicode="&#xe0;" horiz-adv-x="467" 
d="M345.5 507q49.5 -21 76.5 -59t27 -88v-345q0 -7 -4 -11t-11 -4h-158q-7 0 -11 4t-4 11v21q0 4 -2 4.5t-5 -2.5q-34 -46 -106 -46q-136 0 -136 159q0 70 25 104t68 44t116 10h34q6 0 6 6v22q0 13 -8 21.5t-21 8.5q-17 0 -24 -18q-5 -14 -16 -14l-160 2q-15 0 -15 14
q5 83 63.5 130t151.5 47q64 0 113.5 -21zM251 134.5q10 7.5 10 19.5v27q0 6 -6 6h-20q-14 0 -22.5 -9.5t-8.5 -22.5t7.5 -20.5t17.5 -7.5q12 0 22 7.5zM293 588q0 -9 -13 -9h-99q-11 0 -18 9l-77 94q-4 4 -4 9q0 4 3.5 6.5t9.5 2.5h122q12 0 18 -10l55 -93q3 -4 3 -9z" />
    <glyph glyph-name="aacute" unicode="&#xe1;" horiz-adv-x="467" 
d="M345.5 507q49.5 -21 76.5 -59t27 -88v-345q0 -7 -4 -11t-11 -4h-158q-7 0 -11 4t-4 11v21q0 4 -2 4.5t-5 -2.5q-34 -46 -106 -46q-136 0 -136 159q0 70 25 104t68 44t116 10h34q6 0 6 6v22q0 13 -8 21.5t-21 8.5q-17 0 -24 -18q-5 -14 -16 -14l-160 2q-15 0 -15 14
q5 83 63.5 130t151.5 47q64 0 113.5 -21zM251 134.5q10 7.5 10 19.5v27q0 6 -6 6h-20q-14 0 -22.5 -9.5t-8.5 -22.5t7.5 -20.5t17.5 -7.5q12 0 22 7.5zM156 588q0 5 3 9l55 93q6 10 18 10h122q6 0 9.5 -2.5t3.5 -6.5q0 -5 -4 -9l-77 -94q-7 -9 -18 -9h-99q-13 0 -13 9z" />
    <glyph glyph-name="acircumflex" unicode="&#xe2;" horiz-adv-x="467" 
d="M345.5 507q49.5 -21 76.5 -59t27 -88v-345q0 -7 -4 -11t-11 -4h-158q-7 0 -11 4t-4 11v21q0 4 -2 4.5t-5 -2.5q-34 -46 -106 -46q-136 0 -136 159q0 70 25 104t68 44t116 10h34q6 0 6 6v22q0 13 -8 21.5t-21 8.5q-17 0 -24 -18q-5 -14 -16 -14l-160 2q-15 0 -15 14
q5 83 63.5 130t151.5 47q64 0 113.5 -21zM251 134.5q10 7.5 10 19.5v27q0 6 -6 6h-20q-14 0 -22.5 -9.5t-8.5 -22.5t7.5 -20.5t17.5 -7.5q12 0 22 7.5zM64 580q0 5 3 9l60 101q6 10 18 10h171q12 0 18 -10l63 -101q3 -4 3 -9q0 -4 -3.5 -6.5t-9.5 -2.5h-114q-12 0 -17 11
l-20 43q-2 3 -4.5 3t-3.5 -3l-20 -43q-5 -11 -17 -11h-114q-13 0 -13 9z" />
    <glyph glyph-name="atilde" unicode="&#xe3;" horiz-adv-x="467" 
d="M345.5 507q49.5 -21 76.5 -59t27 -88v-345q0 -7 -4 -11t-11 -4h-158q-7 0 -11 4t-4 11v21q0 4 -2 4.5t-5 -2.5q-34 -46 -106 -46q-136 0 -136 159q0 70 25 104t68 44t116 10h34q6 0 6 6v22q0 13 -8 21.5t-21 8.5q-17 0 -24 -18q-5 -14 -16 -14l-160 2q-15 0 -15 14
q5 83 63.5 130t151.5 47q64 0 113.5 -21zM251 134.5q10 7.5 10 19.5v27q0 6 -6 6h-20q-14 0 -22.5 -9.5t-8.5 -22.5t7.5 -20.5t17.5 -7.5q12 0 22 7.5zM249 586q-9 4 -20 10.5t-20 6.5q-17 0 -29 -18q-6 -8 -13 -8q-4 0 -8 3l-55 40q-10 7 -7 19q13 40 38.5 59.5t57.5 19.5
q33 0 67 -22q3 -2 10 -7t14 -7.5t15 -2.5q19 0 31 15q6 8 12 8q4 0 8 -3l53 -37q6 -4 6 -13q0 -8 -5 -16q-18 -33 -44.5 -47.5t-55.5 -14.5q-24 0 -55 15z" />
    <glyph glyph-name="adieresis" unicode="&#xe4;" horiz-adv-x="467" 
d="M345.5 507q49.5 -21 76.5 -59t27 -88v-345q0 -7 -4 -11t-11 -4h-158q-7 0 -11 4t-4 11v21q0 4 -2 4.5t-5 -2.5q-34 -46 -106 -46q-136 0 -136 159q0 70 25 104t68 44t116 10h34q6 0 6 6v22q0 13 -8 21.5t-21 8.5q-17 0 -24 -18q-5 -14 -16 -14l-160 2q-15 0 -15 14
q5 83 63.5 130t151.5 47q64 0 113.5 -21zM251 134.5q10 7.5 10 19.5v27q0 6 -6 6h-20q-14 0 -22.5 -9.5t-8.5 -22.5t7.5 -20.5t17.5 -7.5q12 0 22 7.5zM269.5 581.5q-26.5 26.5 -26.5 67.5q0 42 26.5 68t67.5 26t67.5 -26t26.5 -68q0 -40 -27 -67t-67 -27q-41 0 -67.5 26.5z
M62.5 581.5q-26.5 26.5 -26.5 67.5q0 42 26.5 68t67.5 26t67.5 -26t26.5 -68q0 -40 -27 -67t-67 -27q-41 0 -67.5 26.5z" />
    <glyph glyph-name="aring" unicode="&#xe5;" horiz-adv-x="467" 
d="M345.5 507q49.5 -21 76.5 -59t27 -88v-345q0 -7 -4 -11t-11 -4h-158q-7 0 -11 4t-4 11v21q0 4 -2 4.5t-5 -2.5q-34 -46 -106 -46q-136 0 -136 159q0 70 25 104t68 44t116 10h34q6 0 6 6v22q0 13 -8 21.5t-21 8.5q-17 0 -24 -18q-5 -14 -16 -14l-160 2q-15 0 -15 14
q5 83 63.5 130t151.5 47q64 0 113.5 -21zM251 134.5q10 7.5 10 19.5v27q0 6 -6 6h-20q-14 0 -22.5 -9.5t-8.5 -22.5t7.5 -20.5t17.5 -7.5q12 0 22 7.5zM137.5 590.5q-38.5 38.5 -38.5 96.5q0 57 38.5 95.5t96.5 38.5t96.5 -38.5t38.5 -95.5q0 -58 -38.5 -96.5t-96.5 -38.5
t-96.5 38.5zM262 659q12 12 12 28q0 17 -11.5 29t-28.5 12t-28.5 -12t-11.5 -29q0 -16 11.5 -28t28.5 -12q16 0 28 12z" />
    <glyph glyph-name="ae" unicode="&#xe6;" horiz-adv-x="709" 
d="M61 23q-49 31 -49 130q0 65 25 98t69 43.5t115 10.5h34q6 0 6 6v26q0 13 -8 21.5t-20 8.5q-17 0 -25 -16q-5 -14 -16 -14l-160 4q-15 0 -14 15q5 80 63 126t146 46q37 0 65.5 -9t57.5 -27q4 -3 8 0q57 36 132 36q92 0 147.5 -49t55.5 -129v-137q0 -7 -4 -11t-11 -4h-212
q-6 0 -6 -6v-7q0 -14 6.5 -23t16.5 -9q14 0 22 16q5 13 16 12l155 -9q15 -2 14 -16q-6 -80 -54.5 -122t-136.5 -42q-56 0 -96 15.5t-48 34.5l-1 4q-7 -20 -57 -37t-118 -17q-69 0 -118 31zM466 305h33q6 0 6 6v24q0 14 -6 23t-16 9t-16.5 -9t-6.5 -23v-24q0 -6 6 -6z
M251 132.5q10 7.5 10 19.5v40q0 6 -6 6h-20q-14 0 -22.5 -10.5t-8.5 -29.5q0 -17 7 -25t18 -8q12 0 22 7.5z" />
    <glyph glyph-name="ccedilla" unicode="&#xe7;" horiz-adv-x="455" 
d="M435 316.5q-4 -4.5 -11 -4.5l-158 -5q-15 0 -15 14v14q0 14 -6 23t-16 9t-16.5 -9t-6.5 -23v-150q0 -14 6.5 -23t16.5 -9t16 9t6 23v15q0 7 4 11t11 4l158 -2q7 0 11 -4t4 -11v-28q0 -70 -37 -114.5t-107 -57.5q-4 0 -4.5 -2.5t1.5 -4.5q33 -39 33 -85q0 -15 -3 -28
q-9 -35 -34 -49.5t-57 -14.5q-25 0 -57 9q-13 3 -11 17l7 62q1 11 16 11q10 0 16 6t6 17q0 25 -38 58q-2 2 -7 4q-70 14 -107.5 58.5t-37.5 113.5v180q0 81 56 129.5t155 48.5t154.5 -48.5t55.5 -129.5v-22q0 -7 -4 -11.5z" />
    <glyph glyph-name="egrave" unicode="&#xe8;" horiz-adv-x="455" 
d="M435 217q-4 -4 -11 -4h-212q-6 0 -6 -6v-22q0 -14 6.5 -23t16.5 -9t15.5 7t7.5 18q5 14 17 13l153 -10q15 -2 14 -16q-5 -88 -55.5 -130.5t-151.5 -42.5q-100 0 -155.5 46.5t-55.5 131.5v180q0 81 56 129.5t155 48.5t154.5 -48.5t55.5 -129.5v-122q0 -7 -4 -11z
M212.5 358q-6.5 -9 -6.5 -23v-24q0 -6 6 -6h33q6 0 6 6v24q0 14 -6 23t-16 9t-16.5 -9zM287 588q0 -9 -13 -9h-99q-11 0 -18 9l-77 94q-4 4 -4 9q0 4 3.5 6.5t9.5 2.5h122q12 0 18 -10l55 -93q3 -4 3 -9z" />
    <glyph glyph-name="eacute" unicode="&#xe9;" horiz-adv-x="455" 
d="M435 217q-4 -4 -11 -4h-212q-6 0 -6 -6v-22q0 -14 6.5 -23t16.5 -9t15.5 7t7.5 18q5 14 17 13l153 -10q15 -2 14 -16q-5 -88 -55.5 -130.5t-151.5 -42.5q-100 0 -155.5 46.5t-55.5 131.5v180q0 81 56 129.5t155 48.5t154.5 -48.5t55.5 -129.5v-122q0 -7 -4 -11z
M212.5 358q-6.5 -9 -6.5 -23v-24q0 -6 6 -6h33q6 0 6 6v24q0 14 -6 23t-16 9t-16.5 -9zM150 588q0 5 3 9l55 93q6 10 18 10h122q6 0 9.5 -2.5t3.5 -6.5q0 -5 -4 -9l-77 -94q-7 -9 -18 -9h-99q-13 0 -13 9z" />
    <glyph glyph-name="ecircumflex" unicode="&#xea;" horiz-adv-x="455" 
d="M435 217q-4 -4 -11 -4h-212q-6 0 -6 -6v-22q0 -14 6.5 -23t16.5 -9t15.5 7t7.5 18q5 14 17 13l153 -10q15 -2 14 -16q-5 -88 -55.5 -130.5t-151.5 -42.5q-100 0 -155.5 46.5t-55.5 131.5v180q0 81 56 129.5t155 48.5t154.5 -48.5t55.5 -129.5v-122q0 -7 -4 -11z
M212.5 358q-6.5 -9 -6.5 -23v-24q0 -6 6 -6h33q6 0 6 6v24q0 14 -6 23t-16 9t-16.5 -9zM58 580q0 5 3 9l60 101q6 10 18 10h171q12 0 18 -10l63 -101q3 -4 3 -9q0 -4 -3.5 -6.5t-9.5 -2.5h-114q-12 0 -17 11l-20 43q-2 3 -4.5 3t-3.5 -3l-20 -43q-5 -11 -17 -11h-114
q-13 0 -13 9z" />
    <glyph glyph-name="edieresis" unicode="&#xeb;" horiz-adv-x="455" 
d="M435 217q-4 -4 -11 -4h-212q-6 0 -6 -6v-22q0 -14 6.5 -23t16.5 -9t15.5 7t7.5 18q5 14 17 13l153 -10q15 -2 14 -16q-5 -88 -55.5 -130.5t-151.5 -42.5q-100 0 -155.5 46.5t-55.5 131.5v180q0 81 56 129.5t155 48.5t154.5 -48.5t55.5 -129.5v-122q0 -7 -4 -11z
M212.5 358q-6.5 -9 -6.5 -23v-24q0 -6 6 -6h33q6 0 6 6v24q0 14 -6 23t-16 9t-16.5 -9zM263.5 581.5q-26.5 26.5 -26.5 67.5q0 42 26.5 68t67.5 26t67.5 -26t26.5 -68q0 -40 -27 -67t-67 -27q-41 0 -67.5 26.5zM56.5 581.5q-26.5 26.5 -26.5 67.5q0 42 26.5 68t67.5 26
t67.5 -26t26.5 -68q0 -40 -27 -67t-67 -27q-41 0 -67.5 26.5z" />
    <glyph glyph-name="igrave" unicode="&#xec;" horiz-adv-x="204" 
d="M12 4q-4 4 -4 11v490q0 7 4 11t11 4h158q7 0 11 -4t4 -11v-490q0 -7 -4 -11t-11 -4h-158q-7 0 -11 4zM161 588q0 -9 -13 -9h-99q-11 0 -18 9l-77 94q-4 4 -4 9q0 4 3.5 6.5t9.5 2.5h122q12 0 18 -10l55 -93q3 -4 3 -9z" />
    <glyph glyph-name="iacute" unicode="&#xed;" horiz-adv-x="204" 
d="M12 4q-4 4 -4 11v490q0 7 4 11t11 4h158q7 0 11 -4t4 -11v-490q0 -7 -4 -11t-11 -4h-158q-7 0 -11 4zM24 588q0 5 3 9l55 93q6 10 18 10h122q6 0 9.5 -2.5t3.5 -6.5q0 -5 -4 -9l-77 -94q-7 -9 -18 -9h-99q-13 0 -13 9z" />
    <glyph glyph-name="icircumflex" unicode="&#xee;" horiz-adv-x="204" 
d="M12 4q-4 4 -4 11v490q0 7 4 11t11 4h158q7 0 11 -4t4 -11v-490q0 -7 -4 -11t-11 -4h-158q-7 0 -11 4zM-68 580q0 5 3 9l60 101q6 10 18 10h171q12 0 18 -10l63 -101q3 -4 3 -9q0 -4 -3.5 -6.5t-9.5 -2.5h-114q-12 0 -17 11l-20 43q-2 3 -4.5 3t-3.5 -3l-20 -43
q-5 -11 -17 -11h-114q-13 0 -13 9z" />
    <glyph glyph-name="idieresis" unicode="&#xef;" horiz-adv-x="204" 
d="M12 4q-4 4 -4 11v490q0 7 4 11t11 4h158q7 0 11 -4t4 -11v-490q0 -7 -4 -11t-11 -4h-158q-7 0 -11 4zM137.5 581.5q-26.5 26.5 -26.5 67.5q0 42 26.5 68t67.5 26t67.5 -26t26.5 -68q0 -40 -27 -67t-67 -27q-41 0 -67.5 26.5zM-69.5 581.5q-26.5 26.5 -26.5 67.5
q0 42 26.5 68t67.5 26t67.5 -26t26.5 -68q0 -40 -27 -67t-67 -27q-41 0 -67.5 26.5z" />
    <glyph glyph-name="eth" unicode="&#xf0;" horiz-adv-x="461" 
d="M382 562q32 -66 46.5 -127t14.5 -125v-140q0 -85 -55 -131.5t-157 -46.5t-157.5 46.5t-55.5 131.5v140q0 52 24 92.5t65 63t90 22.5q22 0 35 -5q8 -2 5 5q-3 9 -9 18l-9 20q-2 6 -7 4l-75 -17l-5 -1q-10 0 -13 12l-11 46l-1 5q0 11 12 14l52 12q7 2 4 8q-26 43 -45 73
q-3 5 -3 9t3.5 6.5t9.5 2.5h147q12 0 19 -10q20 -30 29 -45q3 -5 8 -3l66 16h4q11 0 14 -12l11 -49v-4q0 -11 -12 -14l-40 -9q-7 -2 -4 -8zM248.5 318q-6.5 9 -17.5 9t-18 -9t-7 -23v-110q0 -14 7 -23t18 -9t17.5 9t6.5 23v110q0 14 -6.5 23z" />
    <glyph glyph-name="ntilde" unicode="&#xf1;" horiz-adv-x="462" 
d="M442 348v-333q0 -7 -4 -11t-11 -4h-158q-7 0 -11 4t-4 11v320q0 32 -21 32q-23 0 -23 -32v-320q0 -7 -4 -11t-11 -4h-158q-7 0 -11 4t-4 11v490q0 7 4 11t11 4h158q7 0 11 -4t4 -11v-15q0 -2 2 -2q5 0 12 9q29 31 76 31q142 0 142 -180zM248 586q-9 4 -20 10.5t-20 6.5
q-17 0 -29 -18q-6 -8 -13 -8q-4 0 -8 3l-55 40q-10 7 -7 19q13 40 38.5 59.5t57.5 19.5q33 0 67 -22q3 -2 10 -7t14 -7.5t15 -2.5q19 0 31 15q6 8 12 8q4 0 8 -3l53 -37q6 -4 6 -13q0 -8 -5 -16q-18 -33 -44.5 -47.5t-55.5 -14.5q-24 0 -55 15z" />
    <glyph glyph-name="ograve" unicode="&#xf2;" horiz-adv-x="461" 
d="M73.5 38.5q-55.5 46.5 -55.5 131.5v180q0 81 56.5 129.5t156.5 48.5t156 -48.5t56 -129.5v-180q0 -85 -55 -131.5t-157 -46.5t-157.5 46.5zM248.5 162q6.5 9 6.5 23v150q0 14 -6.5 23t-17.5 9t-18 -9t-7 -23v-150q0 -14 7 -23t18 -9t17.5 9zM290 588q0 -9 -13 -9h-99
q-11 0 -18 9l-77 94q-4 4 -4 9q0 4 3.5 6.5t9.5 2.5h122q12 0 18 -10l55 -93q3 -4 3 -9z" />
    <glyph glyph-name="oacute" unicode="&#xf3;" horiz-adv-x="461" 
d="M73.5 38.5q-55.5 46.5 -55.5 131.5v180q0 81 56.5 129.5t156.5 48.5t156 -48.5t56 -129.5v-180q0 -85 -55 -131.5t-157 -46.5t-157.5 46.5zM248.5 162q6.5 9 6.5 23v150q0 14 -6.5 23t-17.5 9t-18 -9t-7 -23v-150q0 -14 7 -23t18 -9t17.5 9zM153 588q0 5 3 9l55 93
q6 10 18 10h122q6 0 9.5 -2.5t3.5 -6.5q0 -5 -4 -9l-77 -94q-7 -9 -18 -9h-99q-13 0 -13 9z" />
    <glyph glyph-name="ocircumflex" unicode="&#xf4;" horiz-adv-x="461" 
d="M73.5 38.5q-55.5 46.5 -55.5 131.5v180q0 81 56.5 129.5t156.5 48.5t156 -48.5t56 -129.5v-180q0 -85 -55 -131.5t-157 -46.5t-157.5 46.5zM248.5 162q6.5 9 6.5 23v150q0 14 -6.5 23t-17.5 9t-18 -9t-7 -23v-150q0 -14 7 -23t18 -9t17.5 9zM61 580q0 5 3 9l60 101
q6 10 18 10h171q12 0 18 -10l63 -101q3 -4 3 -9q0 -4 -3.5 -6.5t-9.5 -2.5h-114q-12 0 -17 11l-20 43q-2 3 -4.5 3t-3.5 -3l-20 -43q-5 -11 -17 -11h-114q-13 0 -13 9z" />
    <glyph glyph-name="otilde" unicode="&#xf5;" horiz-adv-x="461" 
d="M73.5 38.5q-55.5 46.5 -55.5 131.5v180q0 81 56.5 129.5t156.5 48.5t156 -48.5t56 -129.5v-180q0 -85 -55 -131.5t-157 -46.5t-157.5 46.5zM248.5 162q6.5 9 6.5 23v150q0 14 -6.5 23t-17.5 9t-18 -9t-7 -23v-150q0 -14 7 -23t18 -9t17.5 9zM246 586q-9 4 -20 10.5
t-20 6.5q-17 0 -29 -18q-6 -8 -13 -8q-4 0 -8 3l-55 40q-10 7 -7 19q13 40 38.5 59.5t57.5 19.5q33 0 67 -22q3 -2 10 -7t14 -7.5t15 -2.5q19 0 31 15q6 8 12 8q4 0 8 -3l53 -37q6 -4 6 -13q0 -8 -5 -16q-18 -33 -44.5 -47.5t-55.5 -14.5q-24 0 -55 15z" />
    <glyph glyph-name="odieresis" unicode="&#xf6;" horiz-adv-x="461" 
d="M73.5 38.5q-55.5 46.5 -55.5 131.5v180q0 81 56.5 129.5t156.5 48.5t156 -48.5t56 -129.5v-180q0 -85 -55 -131.5t-157 -46.5t-157.5 46.5zM248.5 162q6.5 9 6.5 23v150q0 14 -6.5 23t-17.5 9t-18 -9t-7 -23v-150q0 -14 7 -23t18 -9t17.5 9zM266.5 581.5
q-26.5 26.5 -26.5 67.5q0 42 26.5 68t67.5 26t67.5 -26t26.5 -68q0 -40 -27 -67t-67 -27q-41 0 -67.5 26.5zM59.5 581.5q-26.5 26.5 -26.5 67.5q0 42 26.5 68t67.5 26t67.5 -26t26.5 -68q0 -40 -27 -67t-67 -27q-41 0 -67.5 26.5z" />
    <glyph glyph-name="divide" unicode="&#xf7;" horiz-adv-x="436" 
d="M162.5 425.5q-23.5 23.5 -23.5 56.5q0 32 23.5 55.5t56.5 23.5q32 0 55.5 -23.5t23.5 -55.5q0 -33 -23.5 -56.5t-55.5 -23.5q-33 0 -56.5 23.5zM22 236q-4 4 -4 11v110q0 7 4 11t11 4h370q7 0 11 -4t4 -11v-110q0 -7 -4 -11t-11 -4h-370q-7 0 -11 4zM162.5 71.5
q-23.5 23.5 -23.5 56.5q0 32 23.5 55.5t56.5 23.5q32 0 55.5 -23.5t23.5 -55.5q0 -33 -23.5 -56.5t-55.5 -23.5q-33 0 -56.5 23.5z" />
    <glyph glyph-name="oslash" unicode="&#xf8;" horiz-adv-x="461" 
d="M459 522q0 -4 -3 -9l-37 -63q-1 -4 1 -8q23 -40 23 -92v-180q0 -85 -55 -131.5t-157 -46.5q-38 0 -75 8q-4 1 -8 -4l-36 -64q-5 -8 -12 -8q-4 0 -9 3l-82 53q-8 5 -8 12q0 4 3 9l39 66q1 4 -1 8q-24 39 -24 95v180q0 81 56.5 129.5t156.5 48.5q38 0 73 -8q4 -1 8 4l33 58
q5 8 12 8q5 0 9 -3l85 -53q8 -5 8 -12zM248.5 358q-6.5 9 -17.5 9t-18 -9t-7 -23v-150q0 -14 7 -23t18 -9t17.5 9t6.5 23v150q0 14 -6.5 23z" />
    <glyph glyph-name="ugrave" unicode="&#xf9;" horiz-adv-x="462" 
d="M256 516q4 4 11 4h158q7 0 11 -4t4 -11v-490q0 -7 -4 -11t-11 -4h-158q-7 0 -11 4t-4 11v4q0 4 -2 5t-5 -2q-15 -18 -35.5 -24t-47.5 -6q-60 0 -101 37t-41 115v361q0 7 4 11t11 4h158q7 0 11 -4t4 -11v-320q0 -32 21 -32q23 0 23 32v320q0 7 4 11zM288 588q0 -9 -13 -9
h-99q-11 0 -18 9l-77 94q-4 4 -4 9q0 4 3.5 6.5t9.5 2.5h122q12 0 18 -10l55 -93q3 -4 3 -9z" />
    <glyph glyph-name="uacute" unicode="&#xfa;" horiz-adv-x="462" 
d="M256 516q4 4 11 4h158q7 0 11 -4t4 -11v-490q0 -7 -4 -11t-11 -4h-158q-7 0 -11 4t-4 11v4q0 4 -2 5t-5 -2q-15 -18 -35.5 -24t-47.5 -6q-60 0 -101 37t-41 115v361q0 7 4 11t11 4h158q7 0 11 -4t4 -11v-320q0 -32 21 -32q23 0 23 32v320q0 7 4 11zM151 588q0 5 3 9
l55 93q6 10 18 10h122q6 0 9.5 -2.5t3.5 -6.5q0 -5 -4 -9l-77 -94q-7 -9 -18 -9h-99q-13 0 -13 9z" />
    <glyph glyph-name="ucircumflex" unicode="&#xfb;" horiz-adv-x="462" 
d="M256 516q4 4 11 4h158q7 0 11 -4t4 -11v-490q0 -7 -4 -11t-11 -4h-158q-7 0 -11 4t-4 11v4q0 4 -2 5t-5 -2q-15 -18 -35.5 -24t-47.5 -6q-60 0 -101 37t-41 115v361q0 7 4 11t11 4h158q7 0 11 -4t4 -11v-320q0 -32 21 -32q23 0 23 32v320q0 7 4 11zM59 580q0 5 3 9
l60 101q6 10 18 10h171q12 0 18 -10l63 -101q3 -4 3 -9q0 -4 -3.5 -6.5t-9.5 -2.5h-114q-12 0 -17 11l-20 43q-2 3 -4.5 3t-3.5 -3l-20 -43q-5 -11 -17 -11h-114q-13 0 -13 9z" />
    <glyph glyph-name="udieresis" unicode="&#xfc;" horiz-adv-x="462" 
d="M256 516q4 4 11 4h158q7 0 11 -4t4 -11v-490q0 -7 -4 -11t-11 -4h-158q-7 0 -11 4t-4 11v4q0 4 -2 5t-5 -2q-15 -18 -35.5 -24t-47.5 -6q-60 0 -101 37t-41 115v361q0 7 4 11t11 4h158q7 0 11 -4t4 -11v-320q0 -32 21 -32q23 0 23 32v320q0 7 4 11zM264.5 581.5
q-26.5 26.5 -26.5 67.5q0 42 26.5 68t67.5 26t67.5 -26t26.5 -68q0 -40 -27 -67t-67 -27q-41 0 -67.5 26.5zM57.5 581.5q-26.5 26.5 -26.5 67.5q0 42 26.5 68t67.5 26t67.5 -26t26.5 -68q0 -40 -27 -67t-67 -27q-41 0 -67.5 26.5z" />
    <glyph glyph-name="yacute" unicode="&#xfd;" horiz-adv-x="459" 
d="M28 -184v124q0 15 9 15q52 0 75.5 6.5t23.5 28.5q0 6 -1 10l-125 503v4q0 13 13 13h170q14 0 15 -14l19 -218q1 1 3 1t3 -1l17 218q1 14 15 14l171 -2q7 0 11 -4.5t2 -12.5l-126 -503q-22 -77 -48 -117t-80 -60t-155 -20h-6q-6 0 -6 15zM151 588q0 5 3 9l55 93
q6 10 18 10h122q6 0 9.5 -2.5t3.5 -6.5q0 -5 -4 -9l-77 -94q-7 -9 -18 -9h-99q-13 0 -13 9z" />
    <glyph glyph-name="thorn" unicode="&#xfe;" horiz-adv-x="459" 
d="M408 483.5q33 -44.5 33 -133.5v-180q0 -86 -32.5 -132t-104.5 -46q-59 0 -89 46q-2 4 -4.5 3.5t-2.5 -4.5v-222q0 -7 -4 -11t-11 -4h-158q-7 0 -11 4t-4 11v870q0 7 4 11t11 4h158q7 0 11 -4t4 -11v-202q0 -3 2 -3q3 0 12 11q29 37 82 37q71 0 104 -44.5zM247.5 358
q-5.5 9 -15.5 9t-16.5 -9t-6.5 -23v-150q0 -14 6.5 -23t16.5 -9t15.5 9t5.5 23v150q0 14 -5.5 23z" />
    <glyph glyph-name="ydieresis" unicode="&#xff;" horiz-adv-x="459" 
d="M28 -184v124q0 15 9 15q52 0 75.5 6.5t23.5 28.5q0 6 -1 10l-125 503v4q0 13 13 13h170q14 0 15 -14l19 -218q1 1 3 1t3 -1l17 218q1 14 15 14l171 -2q7 0 11 -4.5t2 -12.5l-126 -503q-22 -77 -48 -117t-80 -60t-155 -20h-6q-6 0 -6 15zM264.5 581.5
q-26.5 26.5 -26.5 67.5q0 42 26.5 68t67.5 26t67.5 -26t26.5 -68q0 -40 -27 -67t-67 -27q-41 0 -67.5 26.5zM57.5 581.5q-26.5 26.5 -26.5 67.5q0 42 26.5 68t67.5 26t67.5 -26t26.5 -68q0 -40 -27 -67t-67 -27q-41 0 -67.5 26.5z" />
    <glyph glyph-name="Amacron" unicode="&#x100;" horiz-adv-x="531" 
d="M325 14l-11 75q0 2 -2 4t-5 2h-88q-3 0 -5 -2t-2 -4l-10 -75q-1 -14 -16 -14h-157q-16 0 -13 16l142 671q3 13 17 13h182q14 0 17 -13l142 -671v-4q0 -12 -14 -12h-161q-15 0 -16 14zM239 239h47q7 0 5 6l-27 180q-1 4 -3 4t-3 -4l-24 -180q0 -6 5 -6zM149 756
q-4 4 -4 11v95q0 7 4 11t11 4h201q7 0 11 -4t4 -11v-95q0 -7 -4 -11t-11 -4h-201q-7 0 -11 4z" />
    <glyph glyph-name="amacron" unicode="&#x101;" horiz-adv-x="467" 
d="M345.5 507q49.5 -21 76.5 -59t27 -88v-345q0 -7 -4 -11t-11 -4h-158q-7 0 -11 4t-4 11v21q0 4 -2 4.5t-5 -2.5q-34 -46 -106 -46q-136 0 -136 159q0 70 25 104t68 44t116 10h34q6 0 6 6v22q0 13 -8 21.5t-21 8.5q-17 0 -24 -18q-5 -14 -16 -14l-160 2q-15 0 -15 14
q5 83 63.5 130t151.5 47q64 0 113.5 -21zM251 134.5q10 7.5 10 19.5v27q0 6 -6 6h-20q-14 0 -22.5 -9.5t-8.5 -22.5t7.5 -20.5t17.5 -7.5q12 0 22 7.5zM117 576q-4 4 -4 11v95q0 7 4 11t11 4h201q7 0 11 -4t4 -11v-95q0 -7 -4 -11t-11 -4h-201q-7 0 -11 4z" />
    <glyph glyph-name="Abreve" unicode="&#x102;" horiz-adv-x="531" 
d="M325 14l-11 75q0 2 -2 4t-5 2h-88q-3 0 -5 -2t-2 -4l-10 -75q-1 -14 -16 -14h-157q-16 0 -13 16l142 671q3 13 17 13h182q14 0 17 -13l142 -671v-4q0 -12 -14 -12h-161q-15 0 -16 14zM239 239h47q7 0 5 6l-27 180q-1 4 -3 4t-3 -4l-24 -180q0 -6 5 -6zM176 753
q-35 30 -40 81v2q0 13 14 13h66q13 0 15 -14q3 -16 12.5 -25t22.5 -9t22.5 9t12.5 25q2 14 15 14h66q16 0 14 -15q-5 -51 -40 -81t-90 -30t-90 30z" />
    <glyph glyph-name="abreve" unicode="&#x103;" horiz-adv-x="467" 
d="M345.5 507q49.5 -21 76.5 -59t27 -88v-345q0 -7 -4 -11t-11 -4h-158q-7 0 -11 4t-4 11v21q0 4 -2 4.5t-5 -2.5q-34 -46 -106 -46q-136 0 -136 159q0 70 25 104t68 44t116 10h34q6 0 6 6v22q0 13 -8 21.5t-21 8.5q-17 0 -24 -18q-5 -14 -16 -14l-160 2q-15 0 -15 14
q5 83 63.5 130t151.5 47q64 0 113.5 -21zM251 134.5q10 7.5 10 19.5v27q0 6 -6 6h-20q-14 0 -22.5 -9.5t-8.5 -22.5t7.5 -20.5t17.5 -7.5q12 0 22 7.5zM144 573q-35 30 -40 81v2q0 13 14 13h66q13 0 15 -14q3 -16 12.5 -25t22.5 -9t22.5 9t12.5 25q2 14 15 14h66
q16 0 14 -15q-5 -51 -40 -81t-90 -30t-90 30z" />
    <glyph glyph-name="Aogonek" unicode="&#x104;" horiz-adv-x="531" 
d="M325 14l-11 75q0 2 -2 4t-5 2h-88q-3 0 -5 -2t-2 -4l-10 -75q-1 -14 -16 -14h-157q-16 0 -13 16l142 671q3 13 17 13h182q14 0 17 -13l142 -671v-4q0 -12 -14 -12h-161q-15 0 -16 14zM239 239h47q7 0 5 6l-27 180q-1 4 -3 4t-3 -4l-24 -180q0 -6 5 -6zM509 -172
q0 -11 -11 -14q-32 -9 -57 -9q-32 0 -57 14.5t-34 49.5q-3 13 -3 28q0 52 42 95q8 8 19 8h84q12 0 12 -7q0 -5 -7 -11q-33 -32 -33 -54q0 -12 6 -18t16 -6q15 0 16 -11l7 -62v-3z" />
    <glyph glyph-name="aogonek" unicode="&#x105;" horiz-adv-x="467" 
d="M440 -7q-46 -38 -46 -65q0 -12 6 -18t16 -6q15 0 16 -11l7 -62v-3q0 -11 -11 -14q-31 -9 -57 -9q-32 0 -57 14.5t-34 49.5q-3 13 -3 28q0 53 43 96q2 3 1.5 5t-4.5 2h-41q-7 0 -11 4t-4 11v21q0 4 -2 4.5t-5 -2.5q-34 -46 -106 -46q-136 0 -136 159q0 70 25 104t68 44
t116 10h34q6 0 6 6v22q0 13 -8 21.5t-21 8.5q-17 0 -24 -18q-5 -14 -16 -14l-160 2q-15 0 -15 15q6 82 64 129t151 47q64 0 113.5 -21t76.5 -59t27 -88v-349q0 -10 -9 -18zM251 134.5q10 7.5 10 19.5v27q0 6 -6 6h-20q-14 0 -22.5 -9.5t-8.5 -22.5t7.5 -20.5t17.5 -7.5
q12 0 22 7.5z" />
    <glyph glyph-name="Cacute" unicode="&#x106;" horiz-adv-x="476" 
d="M80 50q-60 58 -60 155v292q0 97 59.5 154t159.5 57q99 0 159 -57t60 -154v-5q0 -7 -4 -11.5t-11 -4.5l-158 -5q-15 0 -15 14v25q0 17 -8.5 27t-22.5 10t-22.5 -10t-8.5 -27v-321q0 -17 8.5 -26.5t22.5 -9.5t22.5 9.5t8.5 26.5v27q0 14 15 14l158 -5q7 0 11 -4.5t4 -11.5
v-4q0 -64 -27.5 -112.5t-77 -74.5t-114.5 -26q-99 0 -159 58zM161 768q0 5 3 9l55 93q6 10 18 10h122q6 0 9.5 -2.5t3.5 -6.5q0 -5 -4 -9l-77 -94q-7 -9 -18 -9h-99q-13 0 -13 9z" />
    <glyph glyph-name="cacute" unicode="&#x107;" horiz-adv-x="455" 
d="M73.5 38.5q-55.5 46.5 -55.5 131.5v180q0 81 56 129.5t155 48.5t154.5 -48.5t55.5 -129.5v-22q0 -7 -4 -11.5t-11 -4.5l-158 -5q-15 0 -15 14v14q0 14 -6 23t-16 9t-16.5 -9t-6.5 -23v-150q0 -14 6.5 -23t16.5 -9t16 9t6 23v15q0 7 4 11t11 4l158 -2q7 0 11 -4t4 -11v-28
q0 -85 -55 -131.5t-155 -46.5t-155.5 46.5zM151 588q0 5 3 9l55 93q6 10 18 10h122q6 0 9.5 -2.5t3.5 -6.5q0 -5 -4 -9l-77 -94q-7 -9 -18 -9h-99q-13 0 -13 9z" />
    <glyph glyph-name="Ccircumflex" unicode="&#x108;" horiz-adv-x="476" 
d="M80 50q-60 58 -60 155v292q0 97 59.5 154t159.5 57q99 0 159 -57t60 -154v-5q0 -7 -4 -11.5t-11 -4.5l-158 -5q-15 0 -15 14v25q0 17 -8.5 27t-22.5 10t-22.5 -10t-8.5 -27v-321q0 -17 8.5 -26.5t22.5 -9.5t22.5 9.5t8.5 26.5v27q0 14 15 14l158 -5q7 0 11 -4.5t4 -11.5
v-4q0 -64 -27.5 -112.5t-77 -74.5t-114.5 -26q-99 0 -159 58zM69 760q0 5 3 9l60 101q6 10 18 10h171q12 0 18 -10l63 -101q3 -4 3 -9q0 -4 -3.5 -6.5t-9.5 -2.5h-114q-12 0 -17 11l-20 43q-2 3 -4.5 3t-3.5 -3l-20 -43q-5 -11 -17 -11h-114q-13 0 -13 9z" />
    <glyph glyph-name="ccircumflex" unicode="&#x109;" horiz-adv-x="455" 
d="M73.5 38.5q-55.5 46.5 -55.5 131.5v180q0 81 56 129.5t155 48.5t154.5 -48.5t55.5 -129.5v-22q0 -7 -4 -11.5t-11 -4.5l-158 -5q-15 0 -15 14v14q0 14 -6 23t-16 9t-16.5 -9t-6.5 -23v-150q0 -14 6.5 -23t16.5 -9t16 9t6 23v15q0 7 4 11t11 4l158 -2q7 0 11 -4t4 -11v-28
q0 -85 -55 -131.5t-155 -46.5t-155.5 46.5zM59 580q0 5 3 9l60 101q6 10 18 10h171q12 0 18 -10l63 -101q3 -4 3 -9q0 -4 -3.5 -6.5t-9.5 -2.5h-114q-12 0 -17 11l-20 43q-2 3 -4.5 3t-3.5 -3l-20 -43q-5 -11 -17 -11h-114q-13 0 -13 9z" />
    <glyph glyph-name="Cdotaccent" unicode="&#x10a;" horiz-adv-x="476" 
d="M80 50q-60 58 -60 155v292q0 97 59.5 154t159.5 57q99 0 159 -57t60 -154v-5q0 -7 -4 -11.5t-11 -4.5l-158 -5q-15 0 -15 14v25q0 17 -8.5 27t-22.5 10t-22.5 -10t-8.5 -27v-321q0 -17 8.5 -26.5t22.5 -9.5t22.5 9.5t8.5 26.5v27q0 14 15 14l158 -5q7 0 11 -4.5t4 -11.5
v-4q0 -64 -27.5 -112.5t-77 -74.5t-114.5 -26q-99 0 -159 58zM171.5 761.5q-26.5 26.5 -26.5 67.5q0 42 26.5 68t67.5 26t67.5 -26t26.5 -68q0 -40 -27 -67t-67 -27q-41 0 -67.5 26.5z" />
    <glyph glyph-name="cdotaccent" unicode="&#x10b;" horiz-adv-x="455" 
d="M73.5 38.5q-55.5 46.5 -55.5 131.5v180q0 81 56 129.5t155 48.5t154.5 -48.5t55.5 -129.5v-22q0 -7 -4 -11.5t-11 -4.5l-158 -5q-15 0 -15 14v14q0 14 -6 23t-16 9t-16.5 -9t-6.5 -23v-150q0 -14 6.5 -23t16.5 -9t16 9t6 23v15q0 7 4 11t11 4l158 -2q7 0 11 -4t4 -11v-28
q0 -85 -55 -131.5t-155 -46.5t-155.5 46.5zM161.5 581.5q-26.5 26.5 -26.5 67.5q0 42 26.5 68t67.5 26t67.5 -26t26.5 -68q0 -40 -27 -67t-67 -27q-41 0 -67.5 26.5z" />
    <glyph glyph-name="Ccaron" unicode="&#x10c;" horiz-adv-x="476" 
d="M80 50q-60 58 -60 155v292q0 97 59.5 154t159.5 57q99 0 159 -57t60 -154v-5q0 -7 -4 -11.5t-11 -4.5l-158 -5q-15 0 -15 14v25q0 17 -8.5 27t-22.5 10t-22.5 -10t-8.5 -27v-321q0 -17 8.5 -26.5t22.5 -9.5t22.5 9.5t8.5 26.5v27q0 14 15 14l158 -5q7 0 11 -4.5t4 -11.5
v-4q0 -64 -27.5 -112.5t-77 -74.5t-114.5 -26q-99 0 -159 58zM76 871q0 9 13 9h114q12 0 17 -11l20 -43q2 -3 4.5 -3t3.5 3l20 43q5 11 17 11h114q6 0 9.5 -2.5t3.5 -6.5t-3 -9l-63 -101q-6 -10 -18 -10h-171q-12 0 -18 10l-60 101q-3 5 -3 9z" />
    <glyph glyph-name="ccaron" unicode="&#x10d;" horiz-adv-x="455" 
d="M73.5 38.5q-55.5 46.5 -55.5 131.5v180q0 81 56 129.5t155 48.5t154.5 -48.5t55.5 -129.5v-22q0 -7 -4 -11.5t-11 -4.5l-158 -5q-15 0 -15 14v14q0 14 -6 23t-16 9t-16.5 -9t-6.5 -23v-150q0 -14 6.5 -23t16.5 -9t16 9t6 23v15q0 7 4 11t11 4l158 -2q7 0 11 -4t4 -11v-28
q0 -85 -55 -131.5t-155 -46.5t-155.5 46.5zM66 691q0 9 13 9h114q12 0 17 -11l20 -43q2 -3 4.5 -3t3.5 3l20 43q5 11 17 11h114q6 0 9.5 -2.5t3.5 -6.5t-3 -9l-63 -101q-6 -10 -18 -10h-171q-12 0 -18 10l-60 101q-3 5 -3 9z" />
    <glyph glyph-name="Dcaron" unicode="&#x10e;" horiz-adv-x="483" 
d="M30 4q-4 4 -4 11v670q0 7 4 11t11 4h197q66 0 116.5 -25t78.5 -70.5t28 -104.5v-300q0 -59 -28 -104.5t-78.5 -70.5t-116.5 -25h-197q-7 0 -11 4zM220 161l14 1q16 1 27 15t12 36v275q0 23 -11 37t-29 14h-13q-6 0 -6 -6v-366q0 -6 6 -6zM68 871q0 9 13 9h114
q12 0 17 -11l20 -43q2 -3 4.5 -3t3.5 3l20 43q5 11 17 11h114q6 0 9.5 -2.5t3.5 -6.5t-3 -9l-63 -101q-6 -10 -18 -10h-171q-12 0 -18 10l-60 101q-3 5 -3 9z" />
    <glyph glyph-name="dcaron" unicode="&#x10f;" horiz-adv-x="460" 
d="M254 696q4 4 11 4h158q7 0 11 -4t4 -11v-670q0 -7 -4 -11t-11 -4h-158q-7 0 -11 4t-4 11v20q0 4 -2.5 4.5t-4.5 -3.5q-30 -44 -88 -44q-72 0 -104.5 46t-32.5 132v180q0 89 33 133.5t104 44.5q59 0 88 -45q2 -4 4.5 -3t2.5 5v200q0 7 4 11zM243.5 162q6.5 9 6.5 23v150
q0 14 -6.5 23t-16.5 9t-15.5 -9t-5.5 -23v-150q0 -14 5.5 -23t15.5 -9t16.5 9zM466 588q0 5 3 9l55 93q6 10 18 10h122q6 0 9.5 -2.5t3.5 -6.5q0 -5 -4 -9l-77 -94q-7 -9 -18 -9h-99q-13 0 -13 9z" />
    <glyph glyph-name="Dcroat" unicode="&#x110;" horiz-adv-x="505" 
d="M376.5 675q50.5 -25 78.5 -70.5t28 -104.5v-300q0 -59 -28 -104.5t-78.5 -70.5t-116.5 -25h-197q-7 0 -11 4t-4 11v293q0 6 -6 6h-1q-7 0 -11 4t-4 11v75q0 15 11 15h5q6 0 6 6v260q0 7 4 11t11 4h197q66 0 116.5 -25zM295 488q0 23 -11 37t-29 14h-13q-6 0 -6 -6v-108
q0 -6 6 -6h10q7 0 11 -4t4 -11v-75q0 -7 -4 -11t-11 -4h-10q-6 0 -6 -6v-141q0 -6 6 -6l14 1q16 1 27 15t12 36v275z" />
    <glyph glyph-name="dcroat" unicode="&#x111;" horiz-adv-x="460" 
d="M469 653q4 -4 4 -11v-80q0 -7 -4 -11t-11 -4h-14q-6 0 -6 -6v-526q0 -7 -4 -11t-11 -4h-158q-7 0 -11 4t-4 11v20q0 4 -2.5 4.5t-4.5 -3.5q-30 -44 -88 -44q-72 0 -104.5 46t-32.5 132v180q0 89 33 133.5t104 44.5q59 0 88 -45q2 -4 4.5 -3t2.5 5v56q0 6 -6 6h-54
q-7 0 -11 4t-4 11v80q0 7 4 11t11 4h54q6 0 6 6v22q0 7 4 11t11 4h158q7 0 11 -4t4 -11v-22q0 -6 6 -6h14q7 0 11 -4zM243.5 162q6.5 9 6.5 23v150q0 14 -6.5 23t-16.5 9t-15.5 -9t-5.5 -23v-150q0 -14 5.5 -23t15.5 -9t16.5 9z" />
    <glyph glyph-name="Emacron" unicode="&#x112;" horiz-adv-x="444" 
d="M422 543q-4 -4 -11 -4h-191q-6 0 -6 -6v-96q0 -6 6 -6h99q7 0 11 -4t4 -11v-131q0 -7 -4 -11t-11 -4h-99q-6 0 -6 -6v-97q0 -6 6 -6h191q7 0 11 -4t4 -11v-131q0 -7 -4 -11t-11 -4h-370q-7 0 -11 4t-4 11v670q0 7 4 11t11 4h370q7 0 11 -4t4 -11v-131q0 -7 -4 -11z
M110 756q-4 4 -4 11v95q0 7 4 11t11 4h201q7 0 11 -4t4 -11v-95q0 -7 -4 -11t-11 -4h-201q-7 0 -11 4z" />
    <glyph glyph-name="emacron" unicode="&#x113;" horiz-adv-x="455" 
d="M435 217q-4 -4 -11 -4h-212q-6 0 -6 -6v-22q0 -14 6.5 -23t16.5 -9t15.5 7t7.5 18q5 14 17 13l153 -10q15 -2 14 -16q-5 -88 -55.5 -130.5t-151.5 -42.5q-100 0 -155.5 46.5t-55.5 131.5v180q0 81 56 129.5t155 48.5t154.5 -48.5t55.5 -129.5v-122q0 -7 -4 -11z
M212.5 358q-6.5 -9 -6.5 -23v-24q0 -6 6 -6h33q6 0 6 6v24q0 14 -6 23t-16 9t-16.5 -9zM111 579q-4 4 -4 11v95q0 7 4 11t11 4h201q7 0 11 -4t4 -11v-95q0 -7 -4 -11t-11 -4h-201q-7 0 -11 4z" />
    <glyph glyph-name="Edotaccent" unicode="&#x116;" horiz-adv-x="444" 
d="M422 543q-4 -4 -11 -4h-191q-6 0 -6 -6v-96q0 -6 6 -6h99q7 0 11 -4t4 -11v-131q0 -7 -4 -11t-11 -4h-99q-6 0 -6 -6v-97q0 -6 6 -6h191q7 0 11 -4t4 -11v-131q0 -7 -4 -11t-11 -4h-370q-7 0 -11 4t-4 11v670q0 7 4 11t11 4h370q7 0 11 -4t4 -11v-131q0 -7 -4 -11z
M159.5 761.5q-26.5 26.5 -26.5 67.5q0 42 26.5 68t67.5 26t67.5 -26t26.5 -68q0 -40 -27 -67t-67 -27q-41 0 -67.5 26.5z" />
    <glyph glyph-name="edotaccent" unicode="&#x117;" horiz-adv-x="455" 
d="M435 217q-4 -4 -11 -4h-212q-6 0 -6 -6v-22q0 -14 6.5 -23t16.5 -9t15.5 7t7.5 18q5 14 17 13l153 -10q15 -2 14 -16q-5 -88 -55.5 -130.5t-151.5 -42.5q-100 0 -155.5 46.5t-55.5 131.5v180q0 81 56 129.5t155 48.5t154.5 -48.5t55.5 -129.5v-122q0 -7 -4 -11z
M212.5 358q-6.5 -9 -6.5 -23v-24q0 -6 6 -6h33q6 0 6 6v24q0 14 -6 23t-16 9t-16.5 -9zM160.5 581.5q-26.5 26.5 -26.5 67.5q0 42 26.5 68t67.5 26t67.5 -26t26.5 -68q0 -40 -27 -67t-67 -27q-41 0 -67.5 26.5z" />
    <glyph glyph-name="Eogonek" unicode="&#x118;" horiz-adv-x="444" 
d="M422 543q-4 -4 -11 -4h-191q-6 0 -6 -6v-96q0 -6 6 -6h99q7 0 11 -4t4 -11v-131q0 -7 -4 -11t-11 -4h-99q-6 0 -6 -6v-97q0 -6 6 -6h191q7 0 11 -4t4 -11v-131q0 -7 -4 -11t-11 -4h-126q-4 0 -7 -3q-40 -35 -40 -60q0 -11 6 -17t16 -6q15 0 16 -11l7 -62v-3
q0 -11 -11 -14q-31 -9 -57 -9q-32 0 -57 14.5t-34 49.5q-3 13 -3 27q0 46 34 87q2 3 1 5t-5 2h-110q-7 0 -11 4t-4 11v670q0 7 4 11t11 4h370q7 0 11 -4t4 -11v-131q0 -7 -4 -11z" />
    <glyph glyph-name="eogonek" unicode="&#x119;" horiz-adv-x="455" 
d="M435 217q-4 -4 -11 -4h-212q-6 0 -6 -6v-22q0 -14 6.5 -23t16.5 -9t15.5 7t7.5 18q5 14 17 13l153 -10q15 -2 14 -16q-5 -74 -40.5 -115.5t-105.5 -52.5q-4 -1 -7 -4q-35 -32 -35 -56q0 -11 6 -17t16 -6q15 0 16 -11l7 -62v-3q0 -11 -11 -14q-32 -9 -57 -9
q-32 0 -57 14.5t-34 49.5q-3 13 -3 28q0 45 32 84q5 6 -3 8q-68 14 -105 58t-37 113v180q0 81 56 129.5t155 48.5t154.5 -48.5t55.5 -129.5v-122q0 -7 -4 -11zM212.5 358q-6.5 -9 -6.5 -23v-24q0 -6 6 -6h33q6 0 6 6v24q0 14 -6 23t-16 9t-16.5 -9z" />
    <glyph glyph-name="Ecaron" unicode="&#x11a;" horiz-adv-x="444" 
d="M422 543q-4 -4 -11 -4h-191q-6 0 -6 -6v-96q0 -6 6 -6h99q7 0 11 -4t4 -11v-131q0 -7 -4 -11t-11 -4h-99q-6 0 -6 -6v-97q0 -6 6 -6h191q7 0 11 -4t4 -11v-131q0 -7 -4 -11t-11 -4h-370q-7 0 -11 4t-4 11v670q0 7 4 11t11 4h370q7 0 11 -4t4 -11v-131q0 -7 -4 -11z
M64 871q0 9 13 9h114q12 0 17 -11l20 -43q2 -3 4.5 -3t3.5 3l20 43q5 11 17 11h114q6 0 9.5 -2.5t3.5 -6.5t-3 -9l-63 -101q-6 -10 -18 -10h-171q-12 0 -18 10l-60 101q-3 5 -3 9z" />
    <glyph glyph-name="ecaron" unicode="&#x11b;" horiz-adv-x="455" 
d="M435 217q-4 -4 -11 -4h-212q-6 0 -6 -6v-22q0 -14 6.5 -23t16.5 -9t15.5 7t7.5 18q5 14 17 13l153 -10q15 -2 14 -16q-5 -88 -55.5 -130.5t-151.5 -42.5q-100 0 -155.5 46.5t-55.5 131.5v180q0 81 56 129.5t155 48.5t154.5 -48.5t55.5 -129.5v-122q0 -7 -4 -11z
M212.5 358q-6.5 -9 -6.5 -23v-24q0 -6 6 -6h33q6 0 6 6v24q0 14 -6 23t-16 9t-16.5 -9zM62 691q0 9 13 9h114q12 0 17 -11l20 -43q2 -3 4.5 -3t3.5 3l20 43q5 11 17 11h114q6 0 9.5 -2.5t3.5 -6.5t-3 -9l-63 -101q-6 -10 -18 -10h-171q-12 0 -18 10l-60 101q-3 5 -3 9z" />
    <glyph glyph-name="Gcircumflex" unicode="&#x11c;" horiz-adv-x="478" 
d="M80 47.5q-60 55.5 -60 148.5v309q0 93 60 148t159 55q65 0 114.5 -25t77 -71.5t27.5 -108.5v-33q0 -7 -4 -11t-11 -4h-158q-7 0 -11 4t-4 11v35q0 19 -8.5 30.5t-22.5 11.5t-22.5 -11.5t-8.5 -30.5v-310q0 -19 8.5 -30.5t22.5 -11.5t22.5 11.5t8.5 30.5v49q0 6 -6 6h-8
q-7 0 -11 4t-4 11v115q0 7 4 11t11 4h187q7 0 11 -4t4 -11v-184q0 -61 -27.5 -107.5t-77 -71.5t-114.5 -25q-99 0 -159 55.5zM69 760q0 5 3 9l60 101q6 10 18 10h171q12 0 18 -10l63 -101q3 -4 3 -9q0 -4 -3.5 -6.5t-9.5 -2.5h-114q-12 0 -17 11l-20 43q-2 3 -4.5 3t-3.5 -3
l-20 -43q-5 -11 -17 -11h-114q-13 0 -13 9z" />
    <glyph glyph-name="gcircumflex" unicode="&#x11d;" horiz-adv-x="460" 
d="M254 516q4 4 11 4h158q7 0 11 -4t4 -11v-471q0 -75 -21.5 -128t-79.5 -84.5t-163 -31.5q-39 0 -61 2q-15 0 -15 15v133q0 16 16 14l25 -1q56 0 79.5 15.5t29.5 45.5q0 3 -6.5 5t-9.5 0q-28 -27 -77 -27q-72 0 -104.5 46t-32.5 132v180q0 89 33 133.5t104 44.5
q58 0 88 -44q2 -4 4.5 -3.5t2.5 4.5v20q0 7 4 11zM243.5 162q6.5 9 6.5 23v150q0 14 -6.5 23t-16.5 9t-15.5 -9t-5.5 -23v-150q0 -14 5.5 -23t15.5 -9t16.5 9zM62 580q0 5 3 9l60 101q6 10 18 10h171q12 0 18 -10l63 -101q3 -4 3 -9q0 -4 -3.5 -6.5t-9.5 -2.5h-114
q-12 0 -17 11l-20 43q-2 3 -4.5 3t-3.5 -3l-20 -43q-5 -11 -17 -11h-114q-13 0 -13 9z" />
    <glyph glyph-name="Gbreve" unicode="&#x11e;" horiz-adv-x="478" 
d="M80 47.5q-60 55.5 -60 148.5v309q0 93 60 148t159 55q65 0 114.5 -25t77 -71.5t27.5 -108.5v-33q0 -7 -4 -11t-11 -4h-158q-7 0 -11 4t-4 11v35q0 19 -8.5 30.5t-22.5 11.5t-22.5 -11.5t-8.5 -30.5v-310q0 -19 8.5 -30.5t22.5 -11.5t22.5 11.5t8.5 30.5v49q0 6 -6 6h-8
q-7 0 -11 4t-4 11v115q0 7 4 11t11 4h187q7 0 11 -4t4 -11v-184q0 -61 -27.5 -107.5t-77 -71.5t-114.5 -25q-99 0 -159 55.5zM149 753q-35 30 -40 81v2q0 13 14 13h66q13 0 15 -14q3 -16 12.5 -25t22.5 -9t22.5 9t12.5 25q2 14 15 14h66q16 0 14 -15q-5 -51 -40 -81t-90 -30
t-90 30z" />
    <glyph glyph-name="gbreve" unicode="&#x11f;" horiz-adv-x="460" 
d="M254 516q4 4 11 4h158q7 0 11 -4t4 -11v-471q0 -75 -21.5 -128t-79.5 -84.5t-163 -31.5q-39 0 -61 2q-15 0 -15 15v133q0 16 16 14l25 -1q56 0 79.5 15.5t29.5 45.5q0 3 -6.5 5t-9.5 0q-28 -27 -77 -27q-72 0 -104.5 46t-32.5 132v180q0 89 33 133.5t104 44.5
q58 0 88 -44q2 -4 4.5 -3.5t2.5 4.5v20q0 7 4 11zM243.5 162q6.5 9 6.5 23v150q0 14 -6.5 23t-16.5 9t-15.5 -9t-5.5 -23v-150q0 -14 5.5 -23t15.5 -9t16.5 9zM142 573q-35 30 -40 81v2q0 13 14 13h66q13 0 15 -14q3 -16 12.5 -25t22.5 -9t22.5 9t12.5 25q2 14 15 14h66
q16 0 14 -15q-5 -51 -40 -81t-90 -30t-90 30z" />
    <glyph glyph-name="Gdotaccent" unicode="&#x120;" horiz-adv-x="478" 
d="M80 47.5q-60 55.5 -60 148.5v309q0 93 60 148t159 55q65 0 114.5 -25t77 -71.5t27.5 -108.5v-33q0 -7 -4 -11t-11 -4h-158q-7 0 -11 4t-4 11v35q0 19 -8.5 30.5t-22.5 11.5t-22.5 -11.5t-8.5 -30.5v-310q0 -19 8.5 -30.5t22.5 -11.5t22.5 11.5t8.5 30.5v49q0 6 -6 6h-8
q-7 0 -11 4t-4 11v115q0 7 4 11t11 4h187q7 0 11 -4t4 -11v-184q0 -61 -27.5 -107.5t-77 -71.5t-114.5 -25q-99 0 -159 55.5zM171.5 761.5q-26.5 26.5 -26.5 67.5q0 42 26.5 68t67.5 26t67.5 -26t26.5 -68q0 -40 -27 -67t-67 -27q-41 0 -67.5 26.5z" />
    <glyph glyph-name="gdotaccent" unicode="&#x121;" horiz-adv-x="460" 
d="M254 516q4 4 11 4h158q7 0 11 -4t4 -11v-471q0 -75 -21.5 -128t-79.5 -84.5t-163 -31.5q-39 0 -61 2q-15 0 -15 15v133q0 16 16 14l25 -1q56 0 79.5 15.5t29.5 45.5q0 3 -6.5 5t-9.5 0q-28 -27 -77 -27q-72 0 -104.5 46t-32.5 132v180q0 89 33 133.5t104 44.5
q58 0 88 -44q2 -4 4.5 -3.5t2.5 4.5v20q0 7 4 11zM243.5 162q6.5 9 6.5 23v150q0 14 -6.5 23t-16.5 9t-15.5 -9t-5.5 -23v-150q0 -14 5.5 -23t15.5 -9t16.5 9zM164.5 581.5q-26.5 26.5 -26.5 67.5q0 42 26.5 68t67.5 26t67.5 -26t26.5 -68q0 -40 -27 -67t-67 -27
q-41 0 -67.5 26.5z" />
    <glyph glyph-name="uni0122" unicode="&#x122;" horiz-adv-x="478" 
d="M80 47.5q-60 55.5 -60 148.5v309q0 93 60 148t159 55q65 0 114.5 -25t77 -71.5t27.5 -108.5v-33q0 -7 -4 -11t-11 -4h-158q-7 0 -11 4t-4 11v35q0 19 -8.5 30.5t-22.5 11.5t-22.5 -11.5t-8.5 -30.5v-310q0 -19 8.5 -30.5t22.5 -11.5t22.5 11.5t8.5 30.5v49q0 6 -6 6h-8
q-7 0 -11 4t-4 11v115q0 7 4 11t11 4h187q7 0 11 -4t4 -11v-184q0 -61 -27.5 -107.5t-77 -71.5t-114.5 -25q-99 0 -159 55.5zM119 -162q0 5 3 9l55 93q6 10 18 10h122q6 0 9.5 -2.5t3.5 -6.5q0 -5 -4 -9l-77 -94q-7 -9 -18 -9h-99q-13 0 -13 9z" />
    <glyph glyph-name="uni0123" unicode="&#x123;" horiz-adv-x="460" 
d="M349 674q0 -4 -3 -9l-55 -93q-6 -10 -18 -10h-122q-6 0 -9.5 2.5t-3.5 6.5q0 5 4 9l77 94q8 9 18 9h99q13 0 13 -9zM254 516q4 4 11 4h158q7 0 11 -4t4 -11v-471q0 -75 -21.5 -128t-79.5 -84.5t-163 -31.5q-39 0 -61 2q-15 0 -15 15v133q0 16 16 14l25 -1q56 0 79.5 15.5
t29.5 45.5q0 3 -6.5 5t-9.5 0q-28 -27 -77 -27q-72 0 -104.5 46t-32.5 132v180q0 89 33 133.5t104 44.5q58 0 88 -44q2 -4 4.5 -3.5t2.5 4.5v20q0 7 4 11zM243.5 162q6.5 9 6.5 23v150q0 14 -6.5 23t-16.5 9t-15.5 -9t-5.5 -23v-150q0 -14 5.5 -23t15.5 -9t16.5 9z" />
    <glyph glyph-name="Hcircumflex" unicode="&#x124;" horiz-adv-x="486" 
d="M276 696q4 4 11 4h158q7 0 11 -4t4 -11v-670q0 -7 -4 -11t-11 -4h-158q-7 0 -11 4t-4 11v249q0 6 -6 6h-46q-6 0 -6 -6v-249q0 -7 -4 -11t-11 -4h-158q-7 0 -11 4t-4 11v670q0 7 4 11t11 4h158q7 0 11 -4t4 -11v-248q0 -6 6 -6h46q6 0 6 6v248q0 7 4 11zM73 761q0 5 3 9
l60 101q6 10 18 10h171q12 0 18 -10l63 -101q3 -4 3 -9q0 -4 -3.5 -6.5t-9.5 -2.5h-114q-12 0 -17 11l-20 43q-2 3 -4.5 3t-3.5 -3l-20 -43q-5 -11 -17 -11h-114q-13 0 -13 9z" />
    <glyph glyph-name="hcircumflex" unicode="&#x125;" horiz-adv-x="462" 
d="M442 348v-333q0 -7 -4 -11t-11 -4h-158q-7 0 -11 4t-4 11v320q0 32 -21 32q-23 0 -23 -32v-320q0 -7 -4 -11t-11 -4h-158q-7 0 -11 4t-4 11v670q0 7 4 11t11 4h158q7 0 11 -4t4 -11v-195q0 -2 2 -2q5 0 12 9q29 31 76 31q142 0 142 -180zM80 759q0 5 3 9l60 101
q6 10 18 10h171q12 0 18 -10l63 -101q3 -4 3 -9q0 -4 -3.5 -6.5t-9.5 -2.5h-114q-12 0 -17 11l-20 43q-2 3 -4.5 3t-3.5 -3l-20 -43q-5 -11 -17 -11h-114q-13 0 -13 9z" />
    <glyph glyph-name="Hbar" unicode="&#x126;" horiz-adv-x="486" 
d="M504 628q4 -4 4 -11v-95q0 -7 -4 -11t-11 -4h-27q-6 0 -6 -6v-486q0 -7 -4 -11t-11 -4h-158q-7 0 -11 4t-4 11v249q0 6 -6 6h-46q-6 0 -6 -6v-249q0 -7 -4 -11t-11 -4h-158q-7 0 -11 4t-4 11v486q0 6 -6 6h-26q-7 0 -11 4t-4 11v95q0 7 4 11t11 4h26q6 0 6 6v47q0 7 4 11
t11 4h158q7 0 11 -4t4 -11v-47q0 -6 6 -6h46q6 0 6 6v47q0 7 4 11t11 4h158q7 0 11 -4t4 -11v-47q0 -6 6 -6h27q7 0 11 -4zM272 437v64q0 6 -6 6h-46q-6 0 -6 -6v-64q0 -6 6 -6h46q6 0 6 6z" />
    <glyph glyph-name="hbar" unicode="&#x127;" horiz-adv-x="462" 
d="M442 348v-333q0 -7 -4 -11t-11 -4h-158q-7 0 -11 4t-4 11v320q0 32 -21 32q-23 0 -23 -32v-320q0 -7 -4 -11t-11 -4h-158q-7 0 -11 4t-4 11v525q0 6 -6 6h-21q-7 0 -11 4t-4 11v80q0 7 4 11t11 4h21q6 0 6 6v23q0 7 4 11t11 4h158q7 0 11 -4t4 -11v-23q0 -6 6 -6h47
q7 0 11 -4t4 -11v-80q0 -7 -4 -11t-11 -4h-47q-6 0 -6 -6v-50q0 -2 2 -2q5 0 12 9q29 31 76 31q142 0 142 -180z" />
    <glyph glyph-name="Itilde" unicode="&#x128;" horiz-adv-x="240" 
d="M30 4q-4 4 -4 11v670q0 7 4 11t11 4h158q7 0 11 -4t4 -11v-670q0 -7 -4 -11t-11 -4h-158q-7 0 -11 4zM135 766q-9 4 -20 10.5t-20 6.5q-17 0 -29 -18q-6 -8 -13 -8q-4 0 -8 3l-55 40q-10 7 -7 19q13 40 38.5 59.5t57.5 19.5q33 0 67 -22q3 -2 10 -7t14 -7.5t15 -2.5
q19 0 31 15q6 8 12 8q4 0 8 -3l53 -37q6 -4 6 -13q0 -8 -5 -16q-18 -33 -44.5 -47.5t-55.5 -14.5q-24 0 -55 15z" />
    <glyph glyph-name="itilde" unicode="&#x129;" horiz-adv-x="204" 
d="M12 4q-4 4 -4 11v490q0 7 4 11t11 4h158q7 0 11 -4t4 -11v-490q0 -7 -4 -11t-11 -4h-158q-7 0 -11 4zM117 586q-9 4 -20 10.5t-20 6.5q-17 0 -29 -18q-6 -8 -13 -8q-4 0 -8 3l-55 40q-10 7 -7 19q13 40 38.5 59.5t57.5 19.5q33 0 67 -22q3 -2 10 -7t14 -7.5t15 -2.5
q19 0 31 15q6 8 12 8q4 0 8 -3l53 -37q6 -4 6 -13q0 -8 -5 -16q-18 -33 -44.5 -47.5t-55.5 -14.5q-24 0 -55 15z" />
    <glyph glyph-name="Imacron" unicode="&#x12a;" horiz-adv-x="240" 
d="M30 4q-4 4 -4 11v670q0 7 4 11t11 4h158q7 0 11 -4t4 -11v-670q0 -7 -4 -11t-11 -4h-158q-7 0 -11 4zM3 756q-4 4 -4 11v95q0 7 4 11t11 4h201q7 0 11 -4t4 -11v-95q0 -7 -4 -11t-11 -4h-201q-7 0 -11 4z" />
    <glyph glyph-name="imacron" unicode="&#x12b;" horiz-adv-x="204" 
d="M12 4q-4 4 -4 11v490q0 7 4 11t11 4h158q7 0 11 -4t4 -11v-490q0 -7 -4 -11t-11 -4h-158q-7 0 -11 4zM-15 576q-4 4 -4 11v95q0 7 4 11t11 4h201q7 0 11 -4t4 -11v-95q0 -7 -4 -11t-11 -4h-201q-7 0 -11 4z" />
    <glyph glyph-name="ibreve" unicode="&#x12d;" horiz-adv-x="204" 
d="M12 4q-4 4 -4 11v490q0 7 4 11t11 4h158q7 0 11 -4t4 -11v-490q0 -7 -4 -11t-11 -4h-158q-7 0 -11 4zM12 585q-35 30 -40 81v2q0 13 14 13h66q13 0 15 -14q3 -16 12.5 -25t22.5 -9t22.5 9t12.5 25q2 14 15 14h66q15 0 14 -15q-5 -51 -40 -81t-90 -30t-90 30z" />
    <glyph glyph-name="Iogonek" unicode="&#x12e;" horiz-adv-x="240" 
d="M30 4q-4 4 -4 11v670q0 7 4 11t11 4h158q7 0 11 -4t4 -11v-670q0 -7 -4 -11t-11 -4h-158q-7 0 -11 4zM204 -172q0 -11 -11 -14q-32 -9 -57 -9q-32 0 -57 14.5t-34 49.5q-3 13 -3 28q0 52 42 95q8 8 19 8h84q12 0 12 -7q0 -5 -7 -11q-33 -32 -33 -54q0 -12 6 -18t16 -6
q15 0 16 -11l7 -62v-3z" />
    <glyph glyph-name="iogonek" unicode="&#x12f;" horiz-adv-x="225" 
d="M22 4q-4 4 -4 11v490q0 7 4 11t11 4h158q7 0 11 -4t4 -11v-490q0 -7 -4 -11t-11 -4h-158q-7 0 -11 4zM44.5 581.5q-26.5 26.5 -26.5 67.5q0 42 26.5 68t67.5 26t67.5 -26t26.5 -68q0 -40 -27 -67t-67 -27q-41 0 -67.5 26.5zM197 -172q0 -11 -11 -14q-32 -9 -57 -9
q-32 0 -57 14.5t-34 49.5q-3 13 -3 28q0 52 42 95q8 8 19 8h84q12 0 12 -7q0 -5 -7 -11q-33 -32 -33 -54q0 -12 6 -18t16 -6q15 0 16 -11l7 -62v-3z" />
    <glyph glyph-name="Idotaccent" unicode="&#x130;" horiz-adv-x="240" 
d="M30 4q-4 4 -4 11v670q0 7 4 11t11 4h158q7 0 11 -4t4 -11v-670q0 -7 -4 -11t-11 -4h-158q-7 0 -11 4zM52.5 761.5q-26.5 26.5 -26.5 67.5q0 42 26.5 68t67.5 26t67.5 -26t26.5 -68q0 -40 -27 -67t-67 -27q-41 0 -67.5 26.5z" />
    <glyph glyph-name="dotlessi" unicode="&#x131;" horiz-adv-x="204" 
d="M12 4q-4 4 -4 11v490q0 7 4 11t11 4h158q7 0 11 -4t4 -11v-490q0 -7 -4 -11t-11 -4h-158q-7 0 -11 4z" />
    <glyph glyph-name="ij" unicode="&#x133;" horiz-adv-x="446" 
d="M44.5 581.5q-26.5 26.5 -26.5 67.5q0 42 26.5 68t67.5 26t67.5 -26t26.5 -68q0 -40 -26.5 -67t-67.5 -27t-67.5 26.5zM24 4q-4 4 -4 11v490q0 7 4 11t11 4h158q7 0 11 -4t4 -11v-490q0 -7 -4 -11t-11 -4h-158q-7 0 -11 4zM266.5 581.5q-26.5 26.5 -26.5 67.5
q0 42 26.5 68t67.5 26t67.5 -26t26.5 -68q0 -40 -26.5 -67t-67.5 -27t-67.5 26.5zM144 -186v129q0 15 16 15q47 -2 63.5 15.5t16.5 55.5v476q0 7 4 11t11 4h158q7 0 11 -4t4 -11v-476q0 -89 -14 -135t-71.5 -72t-182.5 -23q-16 0 -16 15z" />
    <glyph glyph-name="Jcircumflex" unicode="&#x134;" horiz-adv-x="470" 
d="M111.5 17q-49.5 25 -76.5 70.5t-27 104.5v58q0 7 4 11t11 4h158q7 0 11 -4t4 -11v-60q0 -16 8 -26.5t21 -10.5q14 0 22.5 10.5t8.5 26.5v495q0 7 4 11t11 4h158q7 0 11 -4t4 -11v-493q0 -59 -27.5 -104.5t-77 -70.5t-114.5 -25q-64 0 -113.5 25zM176 761q0 5 3 9l60 101
q6 10 18 10h171q12 0 18 -10l63 -101q3 -4 3 -9q0 -4 -3.5 -6.5t-9.5 -2.5h-114q-12 0 -17 11l-20 43q-2 3 -4.5 3t-3.5 -3l-20 -43q-5 -11 -17 -11h-114q-13 0 -13 9z" />
    <glyph glyph-name="jcircumflex" unicode="&#x135;" horiz-adv-x="233" 
d="M-74 -186v129q0 15 16 15q47 -2 63.5 15.5t16.5 55.5v476q0 7 4 11t11 4h158q7 0 11 -4t4 -11v-476q0 -89 -14 -135t-71.5 -72t-182.5 -23q-16 0 -16 15zM-54 580q0 5 3 9l60 101q6 10 18 10h171q12 0 18 -10l63 -101q3 -4 3 -9q0 -4 -3.5 -6.5t-9.5 -2.5h-114
q-12 0 -17 11l-20 43q-2 3 -4.5 3t-3.5 -3l-20 -43q-5 -11 -17 -11h-114q-13 0 -13 9z" />
    <glyph glyph-name="uni0136" unicode="&#x136;" horiz-adv-x="517" 
d="M30 4q-4 4 -4 11v670q0 7 4 11t11 4h158q7 0 11 -4t4 -11v-198q0 -4 2.5 -4.5t4.5 3.5l84 202q5 12 18 12h165q8 0 12 -5t0 -13l-141 -295q-1 -4 0 -8l145 -362q1 -3 1 -7q0 -10 -13 -10h-166q-13 0 -18 12l-77 205q-1 5 -3.5 5t-4.5 -5l-8 -20q-1 -2 -1 -8v-174
q0 -7 -4 -11t-11 -4h-158q-7 0 -11 4zM159 -154q0 5 3 9l55 93q6 10 18 10h122q6 0 9.5 -2.5t3.5 -6.5q0 -5 -4 -9l-77 -94q-7 -9 -18 -9h-99q-13 0 -13 9z" />
    <glyph glyph-name="uni0137" unicode="&#x137;" horiz-adv-x="479" 
d="M26 4q-4 4 -4 11v670q0 7 4 11t11 4h158q7 0 11 -4t4 -11v-278q0 -5 3 -5t4 4l46 103q4 11 17 11h162q6 0 9.5 -2.5t3.5 -6.5t-3 -9l-112 -183q-2 -3 0 -8l122 -294q1 -2 1 -6q0 -11 -13 -11h-162q-13 0 -17 12l-46 142q-1 5 -3 5t-4 -5l-6 -14l-2 -8v-117q0 -7 -4 -11
t-11 -4h-158q-7 0 -11 4zM125 -154q0 5 3 9l55 93q6 10 18 10h122q6 0 9.5 -2.5t3.5 -6.5q0 -5 -4 -9l-77 -94q-7 -9 -18 -9h-99q-13 0 -13 9z" />
    <glyph glyph-name="Lacute" unicode="&#x139;" horiz-adv-x="446" 
d="M30 4q-4 4 -4 11v670q0 7 4 11t11 4h158q7 0 11 -4t4 -11v-518q0 -6 6 -6h195q7 0 11 -4t4 -11v-131q0 -7 -4 -11t-11 -4h-374q-7 0 -11 4zM46 768q0 5 3 9l55 93q6 10 18 10h122q6 0 9.5 -2.5t3.5 -6.5q0 -5 -4 -9l-77 -94q-7 -9 -18 -9h-99q-13 0 -13 9z" />
    <glyph glyph-name="lacute" unicode="&#x13a;" horiz-adv-x="228" 
d="M24 4q-4 4 -4 11v670q0 7 4 11t11 4h158q7 0 11 -4t4 -11v-670q0 -7 -4 -11t-11 -4h-158q-7 0 -11 4zM38 768q0 5 3 9l55 93q6 10 18 10h122q6 0 9.5 -2.5t3.5 -6.5q0 -5 -4 -9l-77 -94q-7 -9 -18 -9h-99q-13 0 -13 9z" />
    <glyph glyph-name="uni013B" unicode="&#x13b;" horiz-adv-x="446" 
d="M30 4q-4 4 -4 11v670q0 7 4 11t11 4h158q7 0 11 -4t4 -11v-518q0 -6 6 -6h195q7 0 11 -4t4 -11v-131q0 -7 -4 -11t-11 -4h-374q-7 0 -11 4zM90 -154q0 5 3 9l55 93q6 10 18 10h122q6 0 9.5 -2.5t3.5 -6.5q0 -5 -4 -9l-77 -94q-7 -9 -18 -9h-99q-13 0 -13 9z" />
    <glyph glyph-name="uni013C" unicode="&#x13c;" horiz-adv-x="228" 
d="M24 4q-4 4 -4 11v670q0 7 4 11t11 4h158q7 0 11 -4t4 -11v-670q0 -7 -4 -11t-11 -4h-158q-7 0 -11 4zM-44 -154q0 5 3 9l55 93q6 10 18 10h122q6 0 9.5 -2.5t3.5 -6.5q0 -5 -4 -9l-77 -94q-7 -9 -18 -9h-99q-13 0 -13 9z" />
    <glyph glyph-name="Lcaron" unicode="&#x13d;" horiz-adv-x="450" 
d="M30 4q-4 4 -4 11v670q0 7 4 11t11 4h158q7 0 11 -4t4 -11v-518q0 -6 6 -6h195q7 0 11 -4t4 -11v-131q0 -7 -4 -11t-11 -4h-374q-7 0 -11 4zM232 588q0 5 3 9l55 93q6 10 18 10h122q6 0 9.5 -2.5t3.5 -6.5q0 -5 -4 -9l-77 -94q-7 -9 -18 -9h-99q-13 0 -13 9z" />
    <glyph glyph-name="lcaron" unicode="&#x13e;" horiz-adv-x="456" 
d="M24 4q-4 4 -4 11v670q0 7 4 11t11 4h158q7 0 11 -4t4 -11v-670q0 -7 -4 -11t-11 -4h-158q-7 0 -11 4zM222 589q0 5 3 9l55 93q6 10 18 10h122q6 0 9.5 -2.5t3.5 -6.5q0 -5 -4 -9l-77 -94q-7 -9 -18 -9h-99q-13 0 -13 9z" />
    <glyph glyph-name="ldot" unicode="&#x140;" horiz-adv-x="230" 
d="M24 4q-4 4 -4 11v670q0 7 4 11t11 4h158q7 0 11 -4t4 -11v-670q0 -7 -4 -11t-11 -4h-158q-7 0 -11 4zM48.5 761.5q-26.5 26.5 -26.5 67.5q0 42 26.5 68t67.5 26t67.5 -26t26.5 -68q0 -40 -27 -67t-67 -27q-41 0 -67.5 26.5z" />
    <glyph glyph-name="Lslash" unicode="&#x141;" horiz-adv-x="538" 
d="M312 161h195q7 0 11 -4t4 -11v-131q0 -7 -4 -11t-11 -4h-374q-7 0 -11 4t-4 11v125q0 4 -2 5.5t-5 -1.5l-26 -23q-7 -5 -11 -5q-6 0 -10 6l-72 84q-5 7 -5 11q0 6 6 10l122 106q3 3 3 7v345q0 7 4 11t11 4h158q7 0 11 -4t4 -11v-174q0 -4 2 -5.5t5 1.5l83 73q7 5 11 5
q6 0 10 -6l72 -84q5 -5 5 -10t-6 -11l-179 -156q-3 -3 -3 -7v-144q0 -6 6 -6z" />
    <glyph glyph-name="lslash" unicode="&#x142;" horiz-adv-x="451" 
d="M440 396q0 -7 -8 -12l-117 -63q-4 -1 -4 -7v-299q0 -7 -4 -11t-11 -4h-158q-7 0 -11 4t-4 11v195q0 3 -2 4t-5 0l-35 -18q-6 -2 -8 -2q-7 0 -12 8l-48 93l-2 8q0 7 8 12l100 55q4 1 4 7v308q0 7 4 11t11 4h158q7 0 11 -4t4 -11v-203q0 -3 2 -4t5 0l48 26q6 2 8 2
q7 0 12 -8l52 -94q2 -3 2 -8z" />
    <glyph glyph-name="Nacute" unicode="&#x143;" horiz-adv-x="528" 
d="M320 696q4 4 11 4h156q7 0 11 -4t4 -11v-670q0 -7 -4 -11t-11 -4h-178q-13 0 -16 13l-76 303q-1 3 -4 3t-3 -4l2 -300q0 -7 -4 -11t-11 -4h-156q-7 0 -11 4t-4 11v670q0 7 4 11t11 4h176q13 0 16 -13l77 -304q1 -4 4 -4t3 4l-1 302q0 7 4 11zM184 768q0 5 3 9l55 93
q6 10 18 10h122q6 0 9.5 -2.5t3.5 -6.5q0 -5 -4 -9l-77 -94q-7 -9 -18 -9h-99q-13 0 -13 9z" />
    <glyph glyph-name="nacute" unicode="&#x144;" horiz-adv-x="462" 
d="M442 348v-333q0 -7 -4 -11t-11 -4h-158q-7 0 -11 4t-4 11v320q0 32 -21 32q-23 0 -23 -32v-320q0 -7 -4 -11t-11 -4h-158q-7 0 -11 4t-4 11v490q0 7 4 11t11 4h158q7 0 11 -4t4 -11v-15q0 -2 2 -2q5 0 12 9q29 31 76 31q142 0 142 -180zM155 588q0 5 3 9l55 93
q6 10 18 10h122q6 0 9.5 -2.5t3.5 -6.5q0 -5 -4 -9l-77 -94q-7 -9 -18 -9h-99q-13 0 -13 9z" />
    <glyph glyph-name="uni0145" unicode="&#x145;" horiz-adv-x="528" 
d="M320 696q4 4 11 4h156q7 0 11 -4t4 -11v-670q0 -7 -4 -11t-11 -4h-178q-13 0 -16 13l-76 303q-1 3 -4 3t-3 -4l2 -300q0 -7 -4 -11t-11 -4h-156q-7 0 -11 4t-4 11v670q0 7 4 11t11 4h176q13 0 16 -13l77 -304q1 -4 4 -4t3 4l-1 302q0 7 4 11zM157 -154q0 5 3 9l55 93
q6 10 18 10h122q6 0 9.5 -2.5t3.5 -6.5q0 -5 -4 -9l-77 -94q-7 -9 -18 -9h-99q-13 0 -13 9z" />
    <glyph glyph-name="uni0146" unicode="&#x146;" horiz-adv-x="462" 
d="M442 348v-333q0 -7 -4 -11t-11 -4h-158q-7 0 -11 4t-4 11v320q0 32 -21 32q-23 0 -23 -32v-320q0 -7 -4 -11t-11 -4h-158q-7 0 -11 4t-4 11v490q0 7 4 11t11 4h158q7 0 11 -4t4 -11v-15q0 -2 2 -2q5 0 12 9q29 31 76 31q142 0 142 -180zM116 -154q0 5 3 9l55 93
q6 10 18 10h122q6 0 9.5 -2.5t3.5 -6.5q0 -5 -4 -9l-77 -94q-7 -9 -18 -9h-99q-13 0 -13 9z" />
    <glyph glyph-name="Ncaron" unicode="&#x147;" horiz-adv-x="528" 
d="M320 696q4 4 11 4h156q7 0 11 -4t4 -11v-670q0 -7 -4 -11t-11 -4h-178q-13 0 -16 13l-76 303q-1 3 -4 3t-3 -4l2 -300q0 -7 -4 -11t-11 -4h-156q-7 0 -11 4t-4 11v670q0 7 4 11t11 4h176q13 0 16 -13l77 -304q1 -4 4 -4t3 4l-1 302q0 7 4 11zM99 871q0 9 13 9h114
q12 0 17 -11l20 -43q2 -3 4.5 -3t3.5 3l20 43q5 11 17 11h114q6 0 9.5 -2.5t3.5 -6.5t-3 -9l-63 -101q-6 -10 -18 -10h-171q-12 0 -18 10l-60 101q-3 5 -3 9z" />
    <glyph glyph-name="ncaron" unicode="&#x148;" horiz-adv-x="462" 
d="M442 348v-333q0 -7 -4 -11t-11 -4h-158q-7 0 -11 4t-4 11v320q0 32 -21 32q-23 0 -23 -32v-320q0 -7 -4 -11t-11 -4h-158q-7 0 -11 4t-4 11v490q0 7 4 11t11 4h158q7 0 11 -4t4 -11v-15q0 -2 2 -2q5 0 12 9q29 31 76 31q142 0 142 -180zM70 691q0 9 13 9h114q12 0 17 -11
l20 -43q2 -3 4.5 -3t3.5 3l20 43q5 11 17 11h114q6 0 9.5 -2.5t3.5 -6.5t-3 -9l-63 -101q-6 -10 -18 -10h-171q-12 0 -18 10l-60 101q-3 5 -3 9z" />
    <glyph glyph-name="Eng" unicode="&#x14a;" horiz-adv-x="528" 
d="M320 696q4 4 11 4h156q7 0 11 -4t4 -11v-685q-1 -80 -15.5 -123.5t-69 -67t-170.5 -20.5q-16 0 -16 15l-1 129q0 15 16 15q31 -1 40.5 10.5t9.5 37.5q0 6 -1 8l-78 312q-1 3 -4 3t-3 -4l2 -300q0 -7 -4 -11t-11 -4h-156q-7 0 -11 4t-4 11v670q0 7 4 11t11 4h176
q13 0 16 -13l77 -304q1 -4 4 -4t3 4l-1 302q0 7 4 11z" />
    <glyph glyph-name="eng" unicode="&#x14b;" horiz-adv-x="462" 
d="M442 -7q0 -68 -14.5 -108t-68 -64t-165.5 -22q-16 0 -16 15v127q0 14 16 14q37 1 48 13t12 39v328q0 32 -21 32q-23 0 -23 -32v-320q0 -7 -4 -11t-11 -4h-158q-7 0 -11 4t-4 11v490q0 7 4 11t11 4h158q7 0 11 -4t4 -11v-15q0 -4 2.5 -4.5t4.5 3.5q30 39 83 39
q142 0 142 -180v-319v-36z" />
    <glyph glyph-name="Omacron" unicode="&#x14c;" horiz-adv-x="484" 
d="M80.5 50q-60.5 58 -60.5 156v288q0 98 60.5 156t161.5 58t161.5 -58t60.5 -156v-288q0 -98 -60.5 -156t-161.5 -58t-161.5 58zM267 165q9 12 9 33v304q0 21 -9 33t-25 12t-25 -12t-9 -33v-304q0 -21 9 -33t25 -12t25 12zM125 756q-4 4 -4 11v95q0 7 4 11t11 4h201
q7 0 11 -4t4 -11v-95q0 -7 -4 -11t-11 -4h-201q-7 0 -11 4z" />
    <glyph glyph-name="omacron" unicode="&#x14d;" horiz-adv-x="461" 
d="M73.5 38.5q-55.5 46.5 -55.5 131.5v180q0 81 56.5 129.5t156.5 48.5t156 -48.5t56 -129.5v-180q0 -85 -55 -131.5t-157 -46.5t-157.5 46.5zM248.5 162q6.5 9 6.5 23v150q0 14 -6.5 23t-17.5 9t-18 -9t-7 -23v-150q0 -14 7 -23t18 -9t17.5 9zM114 576q-4 4 -4 11v95
q0 7 4 11t11 4h201q7 0 11 -4t4 -11v-95q0 -7 -4 -11t-11 -4h-201q-7 0 -11 4z" />
    <glyph glyph-name="obreve" unicode="&#x14f;" horiz-adv-x="461" 
d="M73.5 38.5q-55.5 46.5 -55.5 131.5v180q0 81 56.5 129.5t156.5 48.5t156 -48.5t56 -129.5v-180q0 -85 -55 -131.5t-157 -46.5t-157.5 46.5zM248.5 162q6.5 9 6.5 23v150q0 14 -6.5 23t-17.5 9t-18 -9t-7 -23v-150q0 -14 7 -23t18 -9t17.5 9zM141 585q-35 30 -40 81v2
q0 13 14 13h66q13 0 15 -14q3 -16 12.5 -25t22.5 -9t22.5 9t12.5 25q2 14 15 14h66q15 0 14 -15q-5 -51 -40 -81t-90 -30t-90 30z" />
    <glyph glyph-name="Ohungarumlaut" unicode="&#x150;" horiz-adv-x="484" 
d="M80.5 50q-60.5 58 -60.5 156v288q0 98 60.5 156t161.5 58t161.5 -58t60.5 -156v-288q0 -98 -60.5 -156t-161.5 -58t-161.5 58zM267 165q9 12 9 33v304q0 21 -9 33t-25 12t-25 -12t-9 -33v-304q0 -21 9 -33t25 -12t25 12zM93 764q-3 5 0 13l40 92q4 11 17 11h128
q13 0 13 -10l-2 -8l-47 -92q-6 -11 -17 -11h-121q-8 0 -11 5zM273.5 764.5q-3.5 5.5 0.5 12.5l47 92q5 11 18 11h119q13 0 13 -10l-2 -8l-47 -92q-6 -11 -17 -11h-120q-8 0 -11.5 5.5z" />
    <glyph glyph-name="ohungarumlaut" unicode="&#x151;" horiz-adv-x="461" 
d="M73.5 38.5q-55.5 46.5 -55.5 131.5v180q0 81 56.5 129.5t156.5 48.5t156 -48.5t56 -129.5v-180q0 -85 -55 -131.5t-157 -46.5t-157.5 46.5zM248.5 162q6.5 9 6.5 23v150q0 14 -6.5 23t-17.5 9t-18 -9t-7 -23v-150q0 -14 7 -23t18 -9t17.5 9zM82 584q-3 5 0 13l40 92
q4 11 17 11h128q13 0 13 -10l-2 -8l-47 -92q-6 -11 -17 -11h-121q-8 0 -11 5zM262.5 584.5q-3.5 5.5 0.5 12.5l47 92q5 11 18 11h119q13 0 13 -10l-2 -8l-47 -92q-6 -11 -17 -11h-120q-8 0 -11.5 5.5z" />
    <glyph glyph-name="OE" unicode="&#x152;" horiz-adv-x="694" 
d="M672 543q-4 -4 -11 -4h-191q-6 0 -6 -6v-96q0 -6 6 -6h99q7 0 11 -4t4 -11v-131q0 -7 -4 -11t-11 -4h-99q-6 0 -6 -6v-97q0 -6 6 -6h191q7 0 11 -4t4 -11v-131q0 -7 -4 -11t-11 -4h-370q-6 0 -10.5 2.5t-4.5 5.5q0 7 -7 3q-32 -19 -77 -19q-43 0 -83 26.5t-64.5 75.5
t-24.5 112v288q0 63 24.5 112t64.5 75.5t83 26.5q46 0 78 -20q5 -3 7 3q3 9 14 9h370q7 0 11 -4t4 -11v-131q0 -7 -4 -11zM267 165q9 12 9 33v304q0 21 -9 33t-25 12t-25 -12t-9 -33v-304q0 -21 9 -33t25 -12t25 12z" />
    <glyph glyph-name="oe" unicode="&#x153;" horiz-adv-x="714" 
d="M694 217q-4 -4 -11 -4h-212q-6 0 -6 -6v-22q0 -14 6.5 -23t16.5 -9t15.5 7t7.5 18q5 14 17 13l153 -9q15 -2 14 -16q-11 -174 -207 -174q-75 0 -124 47q-4 4 -8 0q-49 -47 -125 -47q-102 0 -157.5 46.5t-55.5 131.5v180q0 81 56.5 129.5t156.5 48.5q77 0 125 -50
q4 -3 8 0q48 50 124 50q99 0 154.5 -48.5t55.5 -129.5v-122q0 -7 -4 -11zM248.5 358q-6.5 9 -17.5 9t-18 -9t-7 -23v-150q0 -14 7 -23t18 -9t17.5 9t6.5 23v150q0 14 -6.5 23zM471.5 358q-6.5 -9 -6.5 -23v-24q0 -6 6 -6h33q6 0 6 6v24q0 14 -6 23t-16 9t-16.5 -9z" />
    <glyph glyph-name="Racute" unicode="&#x154;" horiz-adv-x="490" 
d="M283 13l-61 251q-2 5 -4 5q-4 0 -4 -6v-248q0 -7 -4 -11t-11 -4h-158q-7 0 -11 4t-4 11v670q0 7 4 11t11 4h225q60 0 106.5 -28.5t72.5 -79t26 -115.5q0 -55 -19 -98.5t-55 -70.5q-4 -3 -3 -8l81 -283q1 -2 1 -5q0 -12 -14 -12h-163q-13 0 -16 13zM220 539q-6 0 -6 -6
v-115q0 -6 6 -6h13q22 0 36 16.5t14 46.5q0 31 -13.5 47.5t-36.5 16.5h-13zM155 768q0 5 3 9l55 93q6 10 18 10h122q6 0 9.5 -2.5t3.5 -6.5q0 -5 -4 -9l-77 -94q-7 -9 -18 -9h-99q-13 0 -13 9z" />
    <glyph glyph-name="racute" unicode="&#x155;" horiz-adv-x="346" 
d="M334 517q9 -5 7 -19l-25 -157q-1 -8 -5 -10t-12 0q-10 3 -23 3q-21 0 -35 -7t-22.5 -22.5t-8.5 -31.5v-257q0 -7 -4 -11t-11 -4h-158q-7 0 -11 4t-4 11v489q0 7 4 11t11 4h158q7 0 11 -4t4 -11v-21q0 -4 2 -5t4 3q25 45 77 45q24 0 41 -10zM107 588q0 5 3 9l55 93
q6 10 18 10h122q6 0 9.5 -2.5t3.5 -6.5q0 -5 -4 -9l-77 -94q-7 -9 -18 -9h-99q-13 0 -13 9z" />
    <glyph glyph-name="uni0156" unicode="&#x156;" horiz-adv-x="490" 
d="M283 13l-61 251q-2 5 -4 5q-4 0 -4 -6v-248q0 -7 -4 -11t-11 -4h-158q-7 0 -11 4t-4 11v670q0 7 4 11t11 4h225q60 0 106.5 -28.5t72.5 -79t26 -115.5q0 -55 -19 -98.5t-55 -70.5q-4 -3 -3 -8l81 -283q1 -2 1 -5q0 -12 -14 -12h-163q-13 0 -16 13zM220 539q-6 0 -6 -6
v-115q0 -6 6 -6h13q22 0 36 16.5t14 46.5q0 31 -13.5 47.5t-36.5 16.5h-13zM128 -154q0 5 3 9l55 93q6 10 18 10h122q6 0 9.5 -2.5t3.5 -6.5q0 -5 -4 -9l-77 -94q-7 -9 -18 -9h-99q-13 0 -13 9z" />
    <glyph glyph-name="uni0157" unicode="&#x157;" horiz-adv-x="346" 
d="M334 517q9 -5 7 -19l-25 -157q-1 -8 -5 -10t-12 0q-10 3 -23 3q-21 0 -35 -7t-22.5 -22.5t-8.5 -31.5v-257q0 -7 -4 -11t-11 -4h-158q-7 0 -11 4t-4 11v489q0 7 4 11t11 4h158q7 0 11 -4t4 -11v-21q0 -4 2 -5t4 3q25 45 77 45q24 0 41 -10zM-45 -154q0 5 3 9l55 93
q6 10 18 10h122q6 0 9.5 -2.5t3.5 -6.5q0 -5 -4 -9l-77 -94q-7 -9 -18 -9h-99q-13 0 -13 9z" />
    <glyph glyph-name="Rcaron" unicode="&#x158;" horiz-adv-x="490" 
d="M283 13l-61 251q-2 5 -4 5q-4 0 -4 -6v-248q0 -7 -4 -11t-11 -4h-158q-7 0 -11 4t-4 11v670q0 7 4 11t11 4h225q60 0 106.5 -28.5t72.5 -79t26 -115.5q0 -55 -19 -98.5t-55 -70.5q-4 -3 -3 -8l81 -283q1 -2 1 -5q0 -12 -14 -12h-163q-13 0 -16 13zM220 539q-6 0 -6 -6
v-115q0 -6 6 -6h13q22 0 36 16.5t14 46.5q0 31 -13.5 47.5t-36.5 16.5h-13zM70 871q0 9 13 9h114q12 0 17 -11l20 -43q2 -3 4.5 -3t3.5 3l20 43q5 11 17 11h114q6 0 9.5 -2.5t3.5 -6.5t-3 -9l-63 -101q-6 -10 -18 -10h-171q-12 0 -18 10l-60 101q-3 5 -3 9z" />
    <glyph glyph-name="rcaron" unicode="&#x159;" horiz-adv-x="346" 
d="M334 517q9 -5 7 -19l-25 -157q-1 -8 -5 -10t-12 0q-10 3 -23 3q-21 0 -35 -7t-22.5 -22.5t-8.5 -31.5v-257q0 -7 -4 -11t-11 -4h-158q-7 0 -11 4t-4 11v489q0 7 4 11t11 4h158q7 0 11 -4t4 -11v-21q0 -4 2 -5t4 3q25 45 77 45q24 0 41 -10zM22 691q0 9 13 9h114
q12 0 17 -11l20 -43q2 -3 4.5 -3t3.5 3l20 43q5 11 17 11h114q6 0 9.5 -2.5t3.5 -6.5t-3 -9l-63 -101q-6 -10 -18 -10h-171q-12 0 -18 10l-60 101q-3 5 -3 9z" />
    <glyph glyph-name="Sacute" unicode="&#x15a;" horiz-adv-x="463" 
d="M123 16q-48 24 -74.5 66.5t-26.5 97.5v31q0 7 4 11t11 4h156q7 0 11 -4t4 -11v-22q0 -16 8 -26t20 -10t20 9t8 23q0 17 -16 33.5t-67 52.5q-50 35 -82.5 64t-56.5 73t-24 101q0 59 26.5 104t75 70t111.5 25q64 0 112.5 -25t75 -70t26.5 -104v-22q0 -7 -4 -11t-11 -4h-155
q-7 0 -11 4t-4 11v26q0 15 -8 24.5t-21 9.5t-20.5 -10t-7.5 -27q0 -20 16 -38.5t64 -53.5q64 -47 96.5 -76t51 -65.5t18.5 -85.5q0 -91 -59 -145t-155 -54q-64 0 -112 24zM153 768q0 5 3 9l55 93q6 10 18 10h122q6 0 9.5 -2.5t3.5 -6.5q0 -5 -4 -9l-77 -94q-7 -9 -18 -9h-99
q-13 0 -13 9z" />
    <glyph glyph-name="sacute" unicode="&#x15b;" horiz-adv-x="438" 
d="M69.5 37q-57.5 45 -57.5 119v3q0 7 4 11t11 4h150q7 0 11 -3.5t4 -9.5q0 -15 9 -23t20 -8q9 0 14 5.5t5 13.5q0 15 -15 22.5t-50 17.5q-12 3 -28 8q-53 17 -90.5 55.5t-37.5 105.5q0 78 54 124t142 46q92 0 147 -50t55 -132q0 -4 -4 -7t-11 -3h-145q-7 0 -11 4t-4 11v6
q0 12 -6.5 19t-15.5 7q-10 0 -15.5 -8t-5.5 -18q0 -20 19.5 -31t50.5 -20q72 -21 116 -54t44 -101q0 -74 -56.5 -116.5t-149.5 -42.5q-96 0 -153.5 45zM137 588q0 5 3 9l55 93q6 10 18 10h122q6 0 9.5 -2.5t3.5 -6.5q0 -5 -4 -9l-77 -94q-7 -9 -18 -9h-99q-13 0 -13 9z" />
    <glyph glyph-name="Scircumflex" unicode="&#x15c;" horiz-adv-x="463" 
d="M123 16q-48 24 -74.5 66.5t-26.5 97.5v31q0 7 4 11t11 4h156q7 0 11 -4t4 -11v-22q0 -16 8 -26t20 -10t20 9t8 23q0 17 -16 33.5t-67 52.5q-50 35 -82.5 64t-56.5 73t-24 101q0 59 26.5 104t75 70t111.5 25q64 0 112.5 -25t75 -70t26.5 -104v-22q0 -7 -4 -11t-11 -4h-155
q-7 0 -11 4t-4 11v26q0 15 -8 24.5t-21 9.5t-20.5 -10t-7.5 -27q0 -20 16 -38.5t64 -53.5q64 -47 96.5 -76t51 -65.5t18.5 -85.5q0 -91 -59 -145t-155 -54q-64 0 -112 24zM61 760q0 5 3 9l60 101q6 10 18 10h171q12 0 18 -10l63 -101q3 -4 3 -9q0 -4 -3.5 -6.5t-9.5 -2.5
h-114q-12 0 -17 11l-20 43q-2 3 -4.5 3t-3.5 -3l-20 -43q-5 -11 -17 -11h-114q-13 0 -13 9z" />
    <glyph glyph-name="scircumflex" unicode="&#x15d;" horiz-adv-x="438" 
d="M69.5 37q-57.5 45 -57.5 119v3q0 7 4 11t11 4h150q7 0 11 -3.5t4 -9.5q0 -15 9 -23t20 -8q9 0 14 5.5t5 13.5q0 15 -15 22.5t-50 17.5q-12 3 -28 8q-53 17 -90.5 55.5t-37.5 105.5q0 78 54 124t142 46q92 0 147 -50t55 -132q0 -4 -4 -7t-11 -3h-145q-7 0 -11 4t-4 11v6
q0 12 -6.5 19t-15.5 7q-10 0 -15.5 -8t-5.5 -18q0 -20 19.5 -31t50.5 -20q72 -21 116 -54t44 -101q0 -74 -56.5 -116.5t-149.5 -42.5q-96 0 -153.5 45zM45 580q0 5 3 9l60 101q6 10 18 10h171q12 0 18 -10l63 -101q3 -4 3 -9q0 -4 -3.5 -6.5t-9.5 -2.5h-114q-12 0 -17 11
l-20 43q-2 3 -4.5 3t-3.5 -3l-20 -43q-5 -11 -17 -11h-114q-13 0 -13 9z" />
    <glyph glyph-name="Scedilla" unicode="&#x15e;" horiz-adv-x="463" 
d="M409 66q-40 -50 -109 -66q-8 -2 -3 -8q34 -40 34 -86q0 -15 -3 -28q-9 -35 -34 -49.5t-57 -14.5q-26 0 -57 9q-13 3 -11 17l7 62q1 11 16 11q10 0 16 6t6 17q0 25 -40 60q-2 3 -7 4q-68 17 -106.5 65t-38.5 115v31q0 7 4 11t11 4h156q7 0 11 -4t4 -11v-22q0 -16 8 -26
t20 -10t20 9t8 23q0 17 -16 33.5t-67 52.5q-50 35 -82.5 64t-56.5 73t-24 101q0 59 26.5 104t75 70t111.5 25q64 0 112.5 -25t75 -70t26.5 -104v-22q0 -7 -4 -11t-11 -4h-155q-7 0 -11 4t-4 11v26q0 15 -8 24.5t-21 9.5t-20.5 -10t-7.5 -27q0 -20 16 -38.5t64 -53.5
q64 -47 96.5 -76t51 -65.5t18.5 -85.5q0 -75 -40 -125z" />
    <glyph glyph-name="scedilla" unicode="&#x15f;" horiz-adv-x="438" 
d="M391.5 51.5q-37.5 -39.5 -102.5 -52.5q-4 -1 -4.5 -3.5t1.5 -4.5q33 -39 33 -85q0 -15 -3 -28q-9 -35 -34 -49.5t-57 -14.5q-25 0 -57 9q-13 3 -11 17l7 62q1 11 16 11q10 0 16 6t6 17q0 24 -38 59q-2 2 -7 4q-68 14 -106.5 55.5t-38.5 101.5v3q0 7 4 11t11 4h150
q7 0 11 -3.5t4 -9.5q0 -15 9 -23t20 -8q9 0 14 5.5t5 13.5q0 15 -15 22.5t-50 17.5q-12 3 -28 8q-53 17 -90.5 55.5t-37.5 105.5q0 78 54 124t142 46q92 0 147 -50t55 -132q0 -4 -4 -7t-11 -3h-145q-7 0 -11 4t-4 11v6q0 12 -6.5 19t-15.5 7q-10 0 -15.5 -8t-5.5 -18
q0 -20 19.5 -31t50.5 -20q72 -21 116 -54t44 -101q0 -60 -37.5 -99.5z" />
    <glyph glyph-name="Scaron" unicode="&#x160;" horiz-adv-x="463" 
d="M123 16q-48 24 -74.5 66.5t-26.5 97.5v31q0 7 4 11t11 4h156q7 0 11 -4t4 -11v-22q0 -16 8 -26t20 -10t20 9t8 23q0 17 -16 33.5t-67 52.5q-50 35 -82.5 64t-56.5 73t-24 101q0 59 26.5 104t75 70t111.5 25q64 0 112.5 -25t75 -70t26.5 -104v-22q0 -7 -4 -11t-11 -4h-155
q-7 0 -11 4t-4 11v26q0 15 -8 24.5t-21 9.5t-20.5 -10t-7.5 -27q0 -20 16 -38.5t64 -53.5q64 -47 96.5 -76t51 -65.5t18.5 -85.5q0 -91 -59 -145t-155 -54q-64 0 -112 24zM68 871q0 9 13 9h114q12 0 17 -11l20 -43q2 -3 4.5 -3t3.5 3l20 43q5 11 17 11h114q6 0 9.5 -2.5
t3.5 -6.5t-3 -9l-63 -101q-6 -10 -18 -10h-171q-12 0 -18 10l-60 101q-3 5 -3 9z" />
    <glyph glyph-name="scaron" unicode="&#x161;" horiz-adv-x="438" 
d="M69.5 37q-57.5 45 -57.5 119v3q0 7 4 11t11 4h150q7 0 11 -3.5t4 -9.5q0 -15 9 -23t20 -8q9 0 14 5.5t5 13.5q0 15 -15 22.5t-50 17.5q-12 3 -28 8q-53 17 -90.5 55.5t-37.5 105.5q0 78 54 124t142 46q92 0 147 -50t55 -132q0 -4 -4 -7t-11 -3h-145q-7 0 -11 4t-4 11v6
q0 12 -6.5 19t-15.5 7q-10 0 -15.5 -8t-5.5 -18q0 -20 19.5 -31t50.5 -20q72 -21 116 -54t44 -101q0 -74 -56.5 -116.5t-149.5 -42.5q-96 0 -153.5 45zM52 691q0 9 13 9h114q12 0 17 -11l20 -43q2 -3 4.5 -3t3.5 3l20 43q5 11 17 11h114q6 0 9.5 -2.5t3.5 -6.5t-3 -9
l-63 -101q-6 -10 -18 -10h-171q-12 0 -18 10l-60 101q-3 5 -3 9z" />
    <glyph glyph-name="uni0162" unicode="&#x162;" horiz-adv-x="499" 
d="M477 696q4 -4 4 -11v-131q0 -7 -4 -11t-11 -4h-118q-6 0 -6 -6v-518q0 -7 -4 -11t-11 -4h-158q-7 0 -11 4t-4 11v518q0 6 -6 6h-115q-7 0 -11 4t-4 11v131q0 7 4 11t11 4h433q7 0 11 -4zM230 -169l7 62q1 11 16 11q10 0 16 6t6 18q0 22 -33 54q-7 6 -7 11q0 7 12 7h84
q11 0 19 -8q42 -43 42 -95q0 -15 -3 -28q-9 -35 -34 -49.5t-57 -14.5q-25 0 -57 9q-13 3 -11 17z" />
    <glyph glyph-name="uni0163" unicode="&#x163;" horiz-adv-x="307" 
d="M291 394q-4 -4 -11 -4h-42q-6 0 -6 -6v-192q0 -18 8 -24.5t23 -5.5h2q7 0 11 -4t4 -11v-132q0 -7 -4 -11t-11 -4h-9q-4 0 -4.5 -2t1.5 -5q26 -36 26 -77q0 -14 -3 -27q-9 -35 -34 -49.5t-57 -14.5q-26 0 -57 9q-13 3 -11 17l7 62q1 11 16 11q10 0 16 6t6 18q0 24 -42 61
q-2 2 -7 4q-30 13 -45.5 37.5t-15.5 65.5v268q0 6 -6 6h-27q-7 0 -11 4t-4 11v100q0 7 4 11t11 4h27q6 0 6 6v107q0 7 4 11t11 4h150q7 0 11 -4t4 -11v-107q0 -6 6 -6h42q7 0 11 -4t4 -11v-100q0 -7 -4 -11z" />
    <glyph glyph-name="Tcaron" unicode="&#x164;" horiz-adv-x="499" 
d="M477 696q4 -4 4 -11v-131q0 -7 -4 -11t-11 -4h-118q-6 0 -6 -6v-518q0 -7 -4 -11t-11 -4h-158q-7 0 -11 4t-4 11v518q0 6 -6 6h-115q-7 0 -11 4t-4 11v131q0 7 4 11t11 4h433q7 0 11 -4zM86 871q0 9 13 9h114q12 0 17 -11l20 -43q2 -3 4.5 -3t3.5 3l20 43q5 11 17 11h114
q6 0 9.5 -2.5t3.5 -6.5t-3 -9l-63 -101q-6 -10 -18 -10h-171q-12 0 -18 10l-60 101q-3 5 -3 9z" />
    <glyph glyph-name="tcaron" unicode="&#x165;" horiz-adv-x="307" 
d="M291 394q-4 -4 -11 -4h-42q-6 0 -6 -6v-192q0 -18 8 -24.5t23 -5.5h2q7 0 11 -4t4 -11v-132q0 -7 -4 -11t-11 -4h-48q-83 0 -124 23.5t-41 92.5v268q0 6 -6 6h-27q-7 0 -11 4t-4 11v100q0 7 4 11t11 4h27q6 0 6 6v107q0 7 4 11t11 4h150q7 0 11 -4t4 -11v-107q0 -6 6 -6
h42q7 0 11 -4t4 -11v-100q0 -7 -4 -11zM253 589q0 5 3 9l55 93q6 10 18 10h122q6 0 9.5 -2.5t3.5 -6.5q0 -5 -4 -9l-77 -94q-7 -9 -18 -9h-99q-13 0 -13 9z" />
    <glyph glyph-name="Tbar" unicode="&#x166;" horiz-adv-x="499" 
d="M477 543q-4 -4 -11 -4h-118q-6 0 -6 -6v-124q0 -6 6 -6h27q7 0 11 -4t4 -11v-80q0 -7 -4 -11t-11 -4h-27q-6 0 -6 -6v-272q0 -7 -4 -11t-11 -4h-158q-7 0 -11 4t-4 11v272q0 6 -6 6h-41q-7 0 -11 4t-4 11v80q0 7 4 11t11 4h41q6 0 6 6v124q0 6 -6 6h-115q-7 0 -11 4
t-4 11v131q0 7 4 11t11 4h433q7 0 11 -4t4 -11v-131q0 -7 -4 -11z" />
    <glyph glyph-name="tbar" unicode="&#x167;" horiz-adv-x="307" 
d="M299 251q-4 -4 -11 -4h-50q-6 0 -6 -6v-49q0 -18 8 -24.5t23 -5.5h2q7 0 11 -4t4 -11v-132q0 -7 -4 -11t-11 -4h-48q-83 0 -124 23.5t-41 92.5v125q0 6 -6 6h-26q-7 0 -11 4t-4 11v80q0 7 4 11t11 4h26q6 0 6 6v21q0 6 -6 6h-27q-7 0 -11 4t-4 11v100q0 7 4 11t11 4h27
q6 0 6 6v107q0 7 4 11t11 4h150q7 0 11 -4t4 -11v-107q0 -6 6 -6h42q7 0 11 -4t4 -11v-100q0 -7 -4 -11t-11 -4h-42q-6 0 -6 -6v-21q0 -6 6 -6h50q7 0 11 -4t4 -11v-80q0 -7 -4 -11z" />
    <glyph glyph-name="Utilde" unicode="&#x168;" horiz-adv-x="481" 
d="M127 19q-49 27 -76 76t-27 113v477q0 7 4 11t11 4h158q7 0 11 -4t4 -11v-495q0 -17 8 -27t21 -10t20.5 10t7.5 27v495q0 7 4 11t11 4h158q7 0 11 -4t4 -11v-477q0 -64 -27 -113t-76 -76t-113 -27q-65 0 -114 27zM256 766q-9 4 -20 10.5t-20 6.5q-17 0 -29 -18
q-6 -8 -13 -8q-4 0 -8 3l-55 40q-10 7 -7 19q13 40 38.5 59.5t57.5 19.5q33 0 67 -22q3 -2 10 -7t14 -7.5t15 -2.5q19 0 31 15q6 8 12 8q4 0 8 -3l53 -37q6 -4 6 -13q0 -8 -5 -16q-18 -33 -44.5 -47.5t-55.5 -14.5q-24 0 -55 15z" />
    <glyph glyph-name="utilde" unicode="&#x169;" horiz-adv-x="462" 
d="M256 516q4 4 11 4h158q7 0 11 -4t4 -11v-490q0 -7 -4 -11t-11 -4h-158q-7 0 -11 4t-4 11v4q0 4 -2 5t-5 -2q-15 -18 -35.5 -24t-47.5 -6q-60 0 -101 37t-41 115v361q0 7 4 11t11 4h158q7 0 11 -4t4 -11v-320q0 -32 21 -32q23 0 23 32v320q0 7 4 11zM244 586
q-9 4 -20 10.5t-20 6.5q-17 0 -29 -18q-6 -8 -13 -8q-4 0 -8 3l-55 40q-10 7 -7 19q13 40 38.5 59.5t57.5 19.5q33 0 67 -22q3 -2 10 -7t14 -7.5t15 -2.5q19 0 31 15q6 8 12 8q4 0 8 -3l53 -37q6 -4 6 -13q0 -8 -5 -16q-18 -33 -44.5 -47.5t-55.5 -14.5q-24 0 -55 15z" />
    <glyph glyph-name="Umacron" unicode="&#x16a;" horiz-adv-x="481" 
d="M127 19q-49 27 -76 76t-27 113v477q0 7 4 11t11 4h158q7 0 11 -4t4 -11v-495q0 -17 8 -27t21 -10t20.5 10t7.5 27v495q0 7 4 11t11 4h158q7 0 11 -4t4 -11v-477q0 -64 -27 -113t-76 -76t-113 -27q-65 0 -114 27zM124 756q-4 4 -4 11v95q0 7 4 11t11 4h201q7 0 11 -4
t4 -11v-95q0 -7 -4 -11t-11 -4h-201q-7 0 -11 4z" />
    <glyph glyph-name="umacron" unicode="&#x16b;" horiz-adv-x="462" 
d="M256 516q4 4 11 4h158q7 0 11 -4t4 -11v-490q0 -7 -4 -11t-11 -4h-158q-7 0 -11 4t-4 11v4q0 4 -2 5t-5 -2q-15 -18 -35.5 -24t-47.5 -6q-60 0 -101 37t-41 115v361q0 7 4 11t11 4h158q7 0 11 -4t4 -11v-320q0 -32 21 -32q23 0 23 32v320q0 7 4 11zM112 576q-4 4 -4 11
v95q0 7 4 11t11 4h201q7 0 11 -4t4 -11v-95q0 -7 -4 -11t-11 -4h-201q-7 0 -11 4z" />
    <glyph glyph-name="Ubreve" unicode="&#x16c;" horiz-adv-x="481" 
d="M127 19q-49 27 -76 76t-27 113v477q0 7 4 11t11 4h158q7 0 11 -4t4 -11v-495q0 -17 8 -27t21 -10t20.5 10t7.5 27v495q0 7 4 11t11 4h158q7 0 11 -4t4 -11v-477q0 -64 -27 -113t-76 -76t-113 -27q-65 0 -114 27zM151 765q-35 30 -40 81v2q0 13 14 13h66q13 0 15 -14
q3 -16 12.5 -25t22.5 -9t22.5 9t12.5 25q2 14 15 14h66q15 0 14 -15q-5 -51 -40 -81t-90 -30t-90 30z" />
    <glyph glyph-name="ubreve" unicode="&#x16d;" horiz-adv-x="462" 
d="M256 516q4 4 11 4h158q7 0 11 -4t4 -11v-490q0 -7 -4 -11t-11 -4h-158q-7 0 -11 4t-4 11v4q0 4 -2 5t-5 -2q-15 -18 -35.5 -24t-47.5 -6q-60 0 -101 37t-41 115v361q0 7 4 11t11 4h158q7 0 11 -4t4 -11v-320q0 -32 21 -32q23 0 23 32v320q0 7 4 11zM139 585
q-35 30 -40 81v2q0 13 14 13h66q13 0 15 -14q3 -16 12.5 -25t22.5 -9t22.5 9t12.5 25q2 14 15 14h66q15 0 14 -15q-5 -51 -40 -81t-90 -30t-90 30z" />
    <glyph glyph-name="Uring" unicode="&#x16e;" horiz-adv-x="481" 
d="M127 19q-49 27 -76 76t-27 113v477q0 7 4 11t11 4h158q7 0 11 -4t4 -11v-495q0 -17 8 -27t21 -10t20.5 10t7.5 27v495q0 7 4 11t11 4h158q7 0 11 -4t4 -11v-477q0 -64 -27 -113t-76 -76t-113 -27q-65 0 -114 27zM144.5 770.5q-38.5 38.5 -38.5 96.5q0 57 38.5 95.5
t96.5 38.5t96.5 -38.5t38.5 -95.5q0 -58 -38.5 -96.5t-96.5 -38.5t-96.5 38.5zM269 839q12 12 12 28q0 17 -11.5 29t-28.5 12t-28.5 -12t-11.5 -29q0 -16 11.5 -28t28.5 -12q16 0 28 12z" />
    <glyph glyph-name="uring" unicode="&#x16f;" horiz-adv-x="462" 
d="M256 516q4 4 11 4h158q7 0 11 -4t4 -11v-490q0 -7 -4 -11t-11 -4h-158q-7 0 -11 4t-4 11v4q0 4 -2 5t-5 -2q-15 -18 -35.5 -24t-47.5 -6q-60 0 -101 37t-41 115v361q0 7 4 11t11 4h158q7 0 11 -4t4 -11v-320q0 -32 21 -32q23 0 23 32v320q0 7 4 11zM132.5 590.5
q-38.5 38.5 -38.5 96.5q0 57 38.5 95.5t96.5 38.5t96.5 -38.5t38.5 -95.5q0 -58 -38.5 -96.5t-96.5 -38.5t-96.5 38.5zM257 659q12 12 12 28q0 17 -11.5 29t-28.5 12t-28.5 -12t-11.5 -29q0 -16 11.5 -28t28.5 -12q16 0 28 12z" />
    <glyph glyph-name="Uhungarumlaut" unicode="&#x170;" horiz-adv-x="481" 
d="M127 19q-49 27 -76 76t-27 113v477q0 7 4 11t11 4h158q7 0 11 -4t4 -11v-495q0 -17 8 -27t21 -10t20.5 10t7.5 27v495q0 7 4 11t11 4h158q7 0 11 -4t4 -11v-477q0 -64 -27 -113t-76 -76t-113 -27q-65 0 -114 27zM92 764q-3 5 0 13l40 92q4 11 17 11h128q13 0 13 -10
l-2 -8l-47 -92q-6 -11 -17 -11h-121q-8 0 -11 5zM272.5 764.5q-3.5 5.5 0.5 12.5l47 92q5 11 18 11h119q13 0 13 -10l-2 -8l-47 -92q-6 -11 -17 -11h-120q-8 0 -11.5 5.5z" />
    <glyph glyph-name="uhungarumlaut" unicode="&#x171;" horiz-adv-x="462" 
d="M256 516q4 4 11 4h158q7 0 11 -4t4 -11v-490q0 -7 -4 -11t-11 -4h-158q-7 0 -11 4t-4 11v4q0 4 -2 5t-5 -2q-15 -18 -35.5 -24t-47.5 -6q-60 0 -101 37t-41 115v361q0 7 4 11t11 4h158q7 0 11 -4t4 -11v-320q0 -32 21 -32q23 0 23 32v320q0 7 4 11zM80 584q-3 5 0 13
l40 92q4 11 17 11h128q13 0 13 -10l-2 -8l-47 -92q-6 -11 -17 -11h-121q-8 0 -11 5zM260.5 584.5q-3.5 5.5 0.5 12.5l47 92q5 11 18 11h119q13 0 13 -10l-2 -8l-47 -92q-6 -11 -17 -11h-120q-8 0 -11.5 5.5z" />
    <glyph glyph-name="Uogonek" unicode="&#x172;" horiz-adv-x="481" 
d="M273 696q4 4 11 4h158q7 0 11 -4t4 -11v-477q0 -80 -40 -135t-110 -73q-4 -1 -7 -4q-39 -34 -39 -59q0 -11 6 -17t16 -6q15 0 16 -11l7 -62v-3q0 -11 -11 -14q-31 -9 -57 -9q-32 0 -57 14.5t-34 49.5q-3 13 -3 28q0 45 34 85q5 6 -3 8q-70 18 -110.5 73t-40.5 135v477
q0 7 4 11t11 4h158q7 0 11 -4t4 -11v-495q0 -17 8 -27t21 -10t20.5 10t7.5 27v495q0 7 4 11z" />
    <glyph glyph-name="uogonek" unicode="&#x173;" horiz-adv-x="462" 
d="M431 -7q-46 -38 -46 -65q0 -12 6 -18t16 -6q15 0 16 -11l7 -62v-3q0 -11 -11 -14q-31 -9 -57 -9q-32 0 -57 14.5t-34 49.5q-3 13 -3 28q0 53 43 96q2 3 1.5 5t-4.5 2h-41q-7 0 -11 4t-4 11v4q0 4 -2 5t-5 -2q-15 -18 -35.5 -24t-47.5 -6q-60 0 -101 37t-41 115v361
q0 7 4 11t11 4h158q7 0 11 -4t4 -11v-320q0 -32 21 -32q23 0 23 32v320q0 7 4 11t11 4h158q7 0 11 -4t4 -11v-494q0 -10 -9 -18z" />
    <glyph glyph-name="Wcircumflex" unicode="&#x174;" horiz-adv-x="720" 
d="M151 13l-136 671v4q0 12 14 12h163q15 0 16 -14l34 -305q0 -2 3 -2.5t3 2.5l37 305q1 14 16 14h122q15 0 16 -14l42 -306q0 -2 3.5 -2.5t3.5 2.5l29 306q1 14 15 14h159q17 0 14 -16l-128 -671q-3 -13 -17 -13h-138q-15 0 -16 14l-42 321q0 3 -3.5 3t-3.5 -3l-34 -321
q-1 -14 -16 -14h-139q-14 0 -17 13zM185 760q0 5 3 9l60 101q6 10 18 10h171q12 0 18 -10l63 -101q3 -4 3 -9q0 -4 -3.5 -6.5t-9.5 -2.5h-114q-12 0 -17 11l-20 43q-2 3 -4.5 3t-3.5 -3l-20 -43q-5 -11 -17 -11h-114q-13 0 -13 9z" />
    <glyph glyph-name="wcircumflex" unicode="&#x175;" horiz-adv-x="653" 
d="M119 13l-107 491v4q0 12 13 12h150q15 0 16 -14l23 -221q0 -3 3 -3t3 3l25 221q1 14 16 14h133q15 0 16 -14l27 -222q0 -2 3 -2t3 2l23 222q1 14 15 14l147 -2q16 0 13 -16l-105 -489q-3 -13 -17 -13h-153q-15 0 -16 14l-24 172q-1 3 -3 3t-3 -3l-22 -172q-1 -14 -16 -14
h-146q-14 0 -17 13zM156 580q0 5 3 9l60 101q6 10 18 10h171q12 0 18 -10l63 -101q3 -4 3 -9q0 -4 -3.5 -6.5t-9.5 -2.5h-114q-12 0 -17 11l-20 43q-2 3 -4.5 3t-3.5 -3l-20 -43q-5 -11 -17 -11h-114q-13 0 -13 9z" />
    <glyph glyph-name="Ycircumflex" unicode="&#x176;" horiz-adv-x="508" 
d="M163 6q-4 4 -4 11v230q0 6 -1 8l-140 428q-1 2 -1 6q0 11 13 11h166q14 0 17 -13l37 -197q1 -4 4 -4t4 4l37 197q3 13 17 13h166q8 0 11 -4.5t1 -12.5l-142 -428q-1 -2 -1 -8v-230q0 -7 -4 -11t-11 -4h-158q-7 0 -11 4zM84 760q0 5 3 9l60 101q6 10 18 10h171
q12 0 18 -10l63 -101q3 -4 3 -9q0 -4 -3.5 -6.5t-9.5 -2.5h-114q-12 0 -17 11l-20 43q-2 3 -4.5 3t-3.5 -3l-20 -43q-5 -11 -17 -11h-114q-13 0 -13 9z" />
    <glyph glyph-name="ycircumflex" unicode="&#x177;" horiz-adv-x="459" 
d="M28 -184v124q0 15 9 15q52 0 75.5 6.5t23.5 28.5q0 6 -1 10l-125 503v4q0 13 13 13h170q14 0 15 -14l19 -218q1 1 3 1t3 -1l17 218q1 14 15 14l171 -2q7 0 11 -4.5t2 -12.5l-126 -503q-22 -77 -48 -117t-80 -60t-155 -20h-6q-6 0 -6 15zM59 580q0 5 3 9l60 101
q6 10 18 10h171q12 0 18 -10l63 -101q3 -4 3 -9q0 -4 -3.5 -6.5t-9.5 -2.5h-114q-12 0 -17 11l-20 43q-2 3 -4.5 3t-3.5 -3l-20 -43q-5 -11 -17 -11h-114q-13 0 -13 9z" />
    <glyph glyph-name="Ydieresis" unicode="&#x178;" horiz-adv-x="508" 
d="M163 6q-4 4 -4 11v230q0 6 -1 8l-140 428q-1 2 -1 6q0 11 13 11h166q14 0 17 -13l37 -197q1 -4 4 -4t4 4l37 197q3 13 17 13h166q8 0 11 -4.5t1 -12.5l-142 -428q-1 -2 -1 -8v-230q0 -7 -4 -11t-11 -4h-158q-7 0 -11 4zM289.5 761.5q-26.5 26.5 -26.5 67.5q0 42 26.5 68
t67.5 26t67.5 -26t26.5 -68q0 -40 -27 -67t-67 -27q-41 0 -67.5 26.5zM82.5 761.5q-26.5 26.5 -26.5 67.5q0 42 26.5 68t67.5 26t67.5 -26t26.5 -68q0 -40 -27 -67t-67 -27q-41 0 -67.5 26.5z" />
    <glyph glyph-name="Zacute" unicode="&#x179;" horiz-adv-x="424" 
d="M16 4q-4 4 -4 11v136q0 9 5 19l191 362q3 7 -4 7h-177q-7 0 -11 4t-4 11v131q0 7 4 11t11 4h368q7 0 11 -4t4 -11v-136q0 -9 -5 -19l-193 -362q-3 -7 4 -7h179q7 0 11 -4t4 -11v-131q0 -7 -4 -11t-11 -4h-368q-7 0 -11 4zM132 768q0 5 3 9l55 93q6 10 18 10h122
q6 0 9.5 -2.5t3.5 -6.5q0 -5 -4 -9l-77 -94q-7 -9 -18 -9h-99q-13 0 -13 9z" />
    <glyph glyph-name="zacute" unicode="&#x17a;" horiz-adv-x="381" 
d="M12 4q-4 4 -4 11v145q0 9 6 18l121 165q2 3 1 5t-5 2h-101q-7 0 -11 4t-4 11v140q0 7 4 11t11 4h319q7 0 11 -4t4 -11v-145q0 -9 -6 -18l-130 -165q-2 -3 -1.5 -5t4.5 -2h127q7 0 11 -4t4 -11v-140q0 -7 -4 -11t-11 -4h-335q-7 0 -11 4zM111 588q0 5 3 9l55 93
q6 10 18 10h122q6 0 9.5 -2.5t3.5 -6.5q0 -5 -4 -9l-77 -94q-7 -9 -18 -9h-99q-13 0 -13 9z" />
    <glyph glyph-name="Zdotaccent" unicode="&#x17b;" horiz-adv-x="424" 
d="M16 4q-4 4 -4 11v136q0 9 5 19l191 362q3 7 -4 7h-177q-7 0 -11 4t-4 11v131q0 7 4 11t11 4h368q7 0 11 -4t4 -11v-136q0 -9 -5 -19l-193 -362q-3 -7 4 -7h179q7 0 11 -4t4 -11v-131q0 -7 -4 -11t-11 -4h-368q-7 0 -11 4zM142.5 761.5q-26.5 26.5 -26.5 67.5
q0 42 26.5 68t67.5 26t67.5 -26t26.5 -68q0 -40 -27 -67t-67 -27q-41 0 -67.5 26.5z" />
    <glyph glyph-name="zdotaccent" unicode="&#x17c;" horiz-adv-x="381" 
d="M12 4q-4 4 -4 11v145q0 9 6 18l121 165q2 3 1 5t-5 2h-101q-7 0 -11 4t-4 11v140q0 7 4 11t11 4h319q7 0 11 -4t4 -11v-145q0 -9 -6 -18l-130 -165q-2 -3 -1.5 -5t4.5 -2h127q7 0 11 -4t4 -11v-140q0 -7 -4 -11t-11 -4h-335q-7 0 -11 4zM121.5 581.5
q-26.5 26.5 -26.5 67.5q0 42 26.5 68t67.5 26t67.5 -26t26.5 -68q0 -40 -27 -67t-67 -27q-41 0 -67.5 26.5z" />
    <glyph glyph-name="Zcaron" unicode="&#x17d;" horiz-adv-x="424" 
d="M16 4q-4 4 -4 11v136q0 9 5 19l191 362q3 7 -4 7h-177q-7 0 -11 4t-4 11v131q0 7 4 11t11 4h368q7 0 11 -4t4 -11v-136q0 -9 -5 -19l-193 -362q-3 -7 4 -7h179q7 0 11 -4t4 -11v-131q0 -7 -4 -11t-11 -4h-368q-7 0 -11 4zM47 871q0 9 13 9h114q12 0 17 -11l20 -43
q2 -3 4.5 -3t3.5 3l20 43q5 11 17 11h114q6 0 9.5 -2.5t3.5 -6.5t-3 -9l-63 -101q-6 -10 -18 -10h-171q-12 0 -18 10l-60 101q-3 5 -3 9z" />
    <glyph glyph-name="zcaron" unicode="&#x17e;" horiz-adv-x="381" 
d="M12 4q-4 4 -4 11v145q0 9 6 18l121 165q2 3 1 5t-5 2h-101q-7 0 -11 4t-4 11v140q0 7 4 11t11 4h319q7 0 11 -4t4 -11v-145q0 -9 -6 -18l-130 -165q-2 -3 -1.5 -5t4.5 -2h127q7 0 11 -4t4 -11v-140q0 -7 -4 -11t-11 -4h-335q-7 0 -11 4zM26 691q0 9 13 9h114q12 0 17 -11
l20 -43q2 -3 4.5 -3t3.5 3l20 43q5 11 17 11h114q6 0 9.5 -2.5t3.5 -6.5t-3 -9l-63 -101q-6 -10 -18 -10h-171q-12 0 -18 10l-60 101q-3 5 -3 9z" />
    <glyph glyph-name="uni018F" unicode="&#x18f;" horiz-adv-x="558" 
d="M469 645.5q69 -62.5 69 -170.5v-253q0 -69 -31 -121.5t-90 -82t-139 -29.5q-81 0 -139.5 29t-89.5 82t-31 122v163q0 7 4 11t11 4h311q6 0 6 6v55q0 37 -20 61t-52 24q-28 0 -47 -18.5t-25 -47.5q-3 -14 -16 -13l-154 9q-15 2 -14 15q8 106 72.5 161.5t183.5 55.5
q122 0 191 -62.5zM330 174q20 24 20 62v37q0 6 -6 6h-133q-6 0 -6 -6v-37q0 -38 20.5 -62t52.5 -24t52 24z" />
    <glyph glyph-name="florin" unicode="&#x192;" horiz-adv-x="483" 
d="M394.5 563q-11.5 -10 -13.5 -24l-16 -103q-1 -6 6 -6h49q7 0 11 -4t4 -11v-120q0 -7 -4 -11t-11 -4h-74q-5 0 -7 -5l-52 -331q-9 -58 -35.5 -88.5t-78 -42.5t-145.5 -13q-16 0 -16 15v95q0 7 4 11t11 4h32q18 2 29.5 12t13.5 24l49 313q2 6 -6 6h-32q-7 0 -11 4t-4 11
v120q0 7 4 11t11 4h57q5 0 7 5l19 121q9 58 35.5 88.5t78 42.5t145.5 13q16 0 16 -15v-95q0 -7 -4 -11t-11 -4h-32q-18 -2 -29.5 -12z" />
    <glyph glyph-name="Ohorn" unicode="&#x1a0;" horiz-adv-x="484" 
d="M408 646q56 -58 56 -152v-288q0 -98 -60.5 -156t-161.5 -58t-161.5 58t-60.5 156v288q0 98 60.5 156t161.5 58q29 0 64 -7q3 -1 8 -1q43 5 49 72q0 16 15 16h65q7 0 11 -6t3 -18q-6 -73 -49 -110q-5 -5 0 -8zM276 502q0 21 -9 33t-25 12t-25 -12t-9 -33v-304q0 -21 9 -33
t25 -12t25 12t9 33v304z" />
    <glyph glyph-name="ohorn" unicode="&#x1a1;" horiz-adv-x="461" 
d="M450 592q-4 -79 -49 -117q-4 -4 -1 -8q43 -48 43 -117v-180q0 -85 -55 -131.5t-157 -46.5t-157.5 46.5t-55.5 131.5v180q0 81 56.5 129.5t156.5 48.5q33 0 68 -7q3 -1 8 -1q18 2 31.5 18t16.5 54q0 16 15 16h65q15 0 15 -16zM248.5 358q-6.5 9 -17.5 9t-18 -9t-7 -23
v-150q0 -14 7 -23t18 -9t17.5 9t6.5 23v150q0 14 -6.5 23z" />
    <glyph glyph-name="Uhorn" unicode="&#x1af;" horiz-adv-x="481" 
d="M536 772q-5 -98 -75 -134q-4 -1 -4 -7v-423q0 -64 -27 -113t-76 -76t-113 -27q-65 0 -114 27t-76 76t-27 113v477q0 7 4 11t11 4h158q7 0 11 -4t4 -11v-495q0 -17 8 -27t21 -10t20.5 10t7.5 27v495q0 7 4 11t11 4h101q50 0 56 72q0 16 15 16h65q15 0 15 -16z" />
    <glyph glyph-name="uhorn" unicode="&#x1b0;" horiz-adv-x="462" 
d="M517 592q-5 -98 -73 -133q-4 -1 -4 -7v-437q0 -7 -4 -11t-11 -4h-158q-7 0 -11 4t-4 11v4q0 4 -2 5t-5 -2q-15 -18 -35.5 -24t-47.5 -6q-60 0 -101 37t-41 115v361q0 7 4 11t11 4h158q7 0 11 -4t4 -11v-320q0 -32 21 -32q23 0 23 32v320q0 7 4 11t11 4h99q50 0 56 72
q0 16 15 16h65q15 0 15 -16z" />
    <glyph glyph-name="uni01CD" unicode="&#x1cd;" horiz-adv-x="531" 
d="M325 14l-11 75q0 2 -2 4t-5 2h-88q-3 0 -5 -2t-2 -4l-10 -75q-1 -14 -16 -14h-157q-16 0 -13 16l142 671q3 13 17 13h182q14 0 17 -13l142 -671v-4q0 -12 -14 -12h-161q-15 0 -16 14zM239 239h47q7 0 5 6l-27 180q-1 4 -3 4t-3 -4l-24 -180q0 -6 5 -6zM100 871q0 9 13 9
h114q12 0 17 -11l20 -43q2 -3 4.5 -3t3.5 3l20 43q5 11 17 11h114q6 0 9.5 -2.5t3.5 -6.5t-3 -9l-63 -101q-6 -10 -18 -10h-171q-12 0 -18 10l-60 101q-3 5 -3 9z" />
    <glyph glyph-name="uni01CE" unicode="&#x1ce;" horiz-adv-x="467" 
d="M345.5 507q49.5 -21 76.5 -59t27 -88v-345q0 -7 -4 -11t-11 -4h-158q-7 0 -11 4t-4 11v21q0 4 -2 4.5t-5 -2.5q-34 -46 -106 -46q-136 0 -136 159q0 70 25 104t68 44t116 10h34q6 0 6 6v22q0 13 -8 21.5t-21 8.5q-17 0 -24 -18q-5 -14 -16 -14l-160 2q-15 0 -15 14
q5 83 63.5 130t151.5 47q64 0 113.5 -21zM251 134.5q10 7.5 10 19.5v27q0 6 -6 6h-20q-14 0 -22.5 -9.5t-8.5 -22.5t7.5 -20.5t17.5 -7.5q12 0 22 7.5zM68 691q0 9 13 9h114q12 0 17 -11l20 -43q2 -3 4.5 -3t3.5 3l20 43q5 11 17 11h114q6 0 9.5 -2.5t3.5 -6.5t-3 -9
l-63 -101q-6 -10 -18 -10h-171q-12 0 -18 10l-60 101q-3 5 -3 9z" />
    <glyph glyph-name="uni01D4" unicode="&#x1d4;" horiz-adv-x="462" 
d="M256 516q4 4 11 4h158q7 0 11 -4t4 -11v-490q0 -7 -4 -11t-11 -4h-158q-7 0 -11 4t-4 11v4q0 4 -2 5t-5 -2q-15 -18 -35.5 -24t-47.5 -6q-60 0 -101 37t-41 115v361q0 7 4 11t11 4h158q7 0 11 -4t4 -11v-320q0 -32 21 -32q23 0 23 32v320q0 7 4 11zM63 691q0 9 13 9h114
q12 0 17 -11l20 -43q2 -3 4.5 -3t3.5 3l20 43q5 11 17 11h114q6 0 9.5 -2.5t3.5 -6.5t-3 -9l-63 -101q-6 -10 -18 -10h-171q-12 0 -18 10l-60 101q-3 5 -3 9z" />
    <glyph glyph-name="uni01E5" unicode="&#x1e5;" horiz-adv-x="475" 
d="M460.5 313q3.5 -4 3.5 -11v-80q0 -7 -3.5 -11t-9.5 -4h-7q-6 0 -6 -6v-167q0 -75 -21.5 -128t-79.5 -84.5t-163 -31.5q-39 0 -61 2q-15 0 -15 15v133q0 16 16 14l25 -1q56 0 79.5 15.5t29.5 45.5q0 3 -6.5 5t-9.5 0q-28 -27 -77 -27q-72 0 -104.5 46t-32.5 132v180
q0 89 33 133.5t104 44.5q58 0 88 -44q2 -4 4.5 -3.5t2.5 4.5v20q0 7 4 11t11 4h158q7 0 11 -4t4 -11v-182q0 -6 6 -6h7q6 0 9.5 -4zM243.5 162q6.5 9 6.5 23v16q0 6 -6 6h-3q-7 0 -11 4t-4 11v80q0 7 3.5 11t8.5 4h6q6 0 6 6v12q0 14 -6.5 23t-16.5 9t-15.5 -9t-5.5 -23
v-150q0 -14 5.5 -23t15.5 -9t16.5 9z" />
    <glyph glyph-name="gcaron" unicode="&#x1e7;" horiz-adv-x="460" 
d="M254 516q4 4 11 4h158q7 0 11 -4t4 -11v-471q0 -75 -21.5 -128t-79.5 -84.5t-163 -31.5q-39 0 -61 2q-15 0 -15 15v133q0 16 16 14l25 -1q56 0 79.5 15.5t29.5 45.5q0 3 -6.5 5t-9.5 0q-28 -27 -77 -27q-72 0 -104.5 46t-32.5 132v180q0 89 33 133.5t104 44.5
q58 0 88 -44q2 -4 4.5 -3.5t2.5 4.5v20q0 7 4 11zM243.5 162q6.5 9 6.5 23v150q0 14 -6.5 23t-16.5 9t-15.5 -9t-5.5 -23v-150q0 -14 5.5 -23t15.5 -9t16.5 9zM66 691q0 9 13 9h114q12 0 17 -11l20 -43q2 -3 4.5 -3t3.5 3l20 43q5 11 17 11h114q6 0 9.5 -2.5t3.5 -6.5t-3 -9
l-63 -101q-6 -10 -18 -10h-171q-12 0 -18 10l-60 101q-3 5 -3 9z" />
    <glyph glyph-name="uni01E9" unicode="&#x1e9;" horiz-adv-x="479" 
d="M26 4q-4 4 -4 11v670q0 7 4 11t11 4h158q7 0 11 -4t4 -11v-278q0 -5 3 -5t4 4l46 103q4 11 17 11h162q6 0 9.5 -2.5t3.5 -6.5t-3 -9l-112 -183q-2 -3 0 -8l122 -294q1 -2 1 -6q0 -11 -13 -11h-162q-13 0 -17 12l-46 142q-1 5 -3 5t-4 -5l-6 -14l-2 -8v-117q0 -7 -4 -11
t-11 -4h-158q-7 0 -11 4zM70 871q0 9 13 9h114q12 0 17 -11l20 -43q2 -3 4.5 -3t3.5 3l20 43q5 11 17 11h114q6 0 9.5 -2.5t3.5 -6.5t-3 -9l-63 -101q-6 -10 -18 -10h-171q-12 0 -18 10l-60 101q-3 5 -3 9z" />
    <glyph glyph-name="uni01EF" unicode="&#x1ef;" horiz-adv-x="399" 
d="M251 248q61 -25 98.5 -79t37.5 -122q0 -64 -32 -118.5t-89 -87.5t-130 -33q-48 0 -96 14q-13 4 -13 17l3 134q0 9 4.5 11.5t12.5 -0.5q31 -12 61 -12q39 0 65 21.5t26 68.5q0 37 -19 64t-48 27q-19 0 -40 -15q-4 -3 -9 -3q-8 0 -11 8l-45 95l-2 8q0 8 7 12l106 85
q3 3 2 5t-5 2h-102q-7 0 -11 4t-4 11v140q0 7 4 11t11 4h310q7 0 11 -4t4 -11v-144q0 -11 -8 -18l-101 -87q-5 -5 2 -8zM17 691q0 9 13 9h114q12 0 17 -11l20 -43q2 -3 4.5 -3t3.5 3l20 43q5 11 17 11h114q6 0 9.5 -2.5t3.5 -6.5t-3 -9l-63 -101q-6 -10 -18 -10h-171
q-12 0 -18 10l-60 101q-3 5 -3 9z" />
    <glyph glyph-name="oslashacute" unicode="&#x1ff;" horiz-adv-x="461" 
d="M459 522q0 -4 -3 -9l-37 -63q-1 -4 1 -8q23 -40 23 -92v-180q0 -85 -55 -131.5t-157 -46.5q-38 0 -75 8q-4 1 -8 -4l-36 -64q-5 -8 -12 -8q-4 0 -9 3l-82 53q-8 5 -8 12q0 4 3 9l39 66q1 4 -1 8q-24 39 -24 95v180q0 81 56.5 129.5t156.5 48.5q38 0 73 -8q4 -1 8 4l33 58
q5 8 12 8q5 0 9 -3l85 -53q8 -5 8 -12zM248.5 358q-6.5 9 -17.5 9t-18 -9t-7 -23v-150q0 -14 7 -23t18 -9t17.5 9t6.5 23v150q0 14 -6.5 23zM153 588q0 5 3 9l55 93q6 10 18 10h122q6 0 9.5 -2.5t3.5 -6.5q0 -5 -4 -9l-77 -94q-7 -9 -18 -9h-99q-13 0 -13 9z" />
    <glyph glyph-name="uni0218" unicode="&#x218;" horiz-adv-x="463" 
d="M123 16q-48 24 -74.5 66.5t-26.5 97.5v31q0 7 4 11t11 4h156q7 0 11 -4t4 -11v-22q0 -16 8 -26t20 -10t20 9t8 23q0 17 -16 33.5t-67 52.5q-50 35 -82.5 64t-56.5 73t-24 101q0 59 26.5 104t75 70t111.5 25q64 0 112.5 -25t75 -70t26.5 -104v-22q0 -7 -4 -11t-11 -4h-155
q-7 0 -11 4t-4 11v26q0 15 -8 24.5t-21 9.5t-20.5 -10t-7.5 -27q0 -20 16 -38.5t64 -53.5q64 -47 96.5 -76t51 -65.5t18.5 -85.5q0 -91 -59 -145t-155 -54q-64 0 -112 24zM118 -162q0 5 3 9l55 93q6 10 18 10h122q6 0 9.5 -2.5t3.5 -6.5q0 -5 -4 -9l-77 -94q-7 -9 -18 -9
h-99q-13 0 -13 9z" />
    <glyph glyph-name="uni0219" unicode="&#x219;" horiz-adv-x="438" 
d="M69.5 37q-57.5 45 -57.5 119v3q0 7 4 11t11 4h150q7 0 11 -3.5t4 -9.5q0 -15 9 -23t20 -8q9 0 14 5.5t5 13.5q0 15 -15 22.5t-50 17.5q-12 3 -28 8q-53 17 -90.5 55.5t-37.5 105.5q0 78 54 124t142 46q92 0 147 -50t55 -132q0 -4 -4 -7t-11 -3h-145q-7 0 -11 4t-4 11v6
q0 12 -6.5 19t-15.5 7q-10 0 -15.5 -8t-5.5 -18q0 -20 19.5 -31t50.5 -20q72 -21 116 -54t44 -101q0 -74 -56.5 -116.5t-149.5 -42.5q-96 0 -153.5 45zM106 -162q0 5 3 9l55 93q6 10 18 10h122q6 0 9.5 -2.5t3.5 -6.5q0 -5 -4 -9l-77 -94q-7 -9 -18 -9h-99q-13 0 -13 9z" />
    <glyph glyph-name="uni021A" unicode="&#x21a;" horiz-adv-x="499" 
d="M477 696q4 -4 4 -11v-131q0 -7 -4 -11t-11 -4h-118q-6 0 -6 -6v-518q0 -7 -4 -11t-11 -4h-158q-7 0 -11 4t-4 11v518q0 6 -6 6h-115q-7 0 -11 4t-4 11v131q0 7 4 11t11 4h433q7 0 11 -4zM84 -154q0 5 3 9l55 93q6 10 18 10h122q6 0 9.5 -2.5t3.5 -6.5q0 -5 -4 -9l-77 -94
q-7 -9 -18 -9h-99q-13 0 -13 9z" />
    <glyph glyph-name="uni021B" unicode="&#x21b;" horiz-adv-x="307" 
d="M291 394q-4 -4 -11 -4h-42q-6 0 -6 -6v-192q0 -18 8 -24.5t23 -5.5h2q7 0 11 -4t4 -11v-132q0 -7 -4 -11t-11 -4h-48q-83 0 -124 23.5t-41 92.5v268q0 6 -6 6h-27q-7 0 -11 4t-4 11v100q0 7 4 11t11 4h27q6 0 6 6v107q0 7 4 11t11 4h150q7 0 11 -4t4 -11v-107q0 -6 6 -6
h42q7 0 11 -4t4 -11v-100q0 -7 -4 -11zM66 -151q0 5 3 9l55 93q6 10 18 10h122q6 0 9.5 -2.5t3.5 -6.5q0 -5 -4 -9l-77 -94q-7 -9 -18 -9h-99q-13 0 -13 9z" />
    <glyph glyph-name="uni021F" unicode="&#x21f;" horiz-adv-x="462" 
d="M442 348v-333q0 -7 -4 -11t-11 -4h-158q-7 0 -11 4t-4 11v320q0 32 -21 32q-23 0 -23 -32v-320q0 -7 -4 -11t-11 -4h-158q-7 0 -11 4t-4 11v670q0 7 4 11t11 4h158q7 0 11 -4t4 -11v-195q0 -2 2 -2q5 0 12 9q29 31 76 31q142 0 142 -180zM68 871q0 9 13 9h114
q12 0 17 -11l20 -43q2 -3 4.5 -3t3.5 3l20 43q5 11 17 11h114q6 0 9.5 -2.5t3.5 -6.5t-3 -9l-63 -101q-6 -10 -18 -10h-171q-12 0 -18 10l-60 101q-3 5 -3 9z" />
    <glyph glyph-name="uni0228" unicode="&#x228;" horiz-adv-x="444" 
d="M422 543q-4 -4 -11 -4h-191q-6 0 -6 -6v-96q0 -6 6 -6h99q7 0 11 -4t4 -11v-131q0 -7 -4 -11t-11 -4h-99q-6 0 -6 -6v-97q0 -6 6 -6h191q7 0 11 -4t4 -11v-131q0 -7 -4 -11t-11 -4h-122q-4 0 -4.5 -2t1.5 -5q29 -38 29 -79q0 -10 -4 -28q-9 -35 -34 -49.5t-57 -14.5
q-25 0 -57 9q-13 3 -11 17l7 62q1 11 16 11q10 0 16 6t6 17q0 23 -32 53q-3 3 -7 3h-117q-7 0 -11 4t-4 11v670q0 7 4 11t11 4h370q7 0 11 -4t4 -11v-131q0 -7 -4 -11z" />
    <glyph glyph-name="uni0229" unicode="&#x229;" horiz-adv-x="455" 
d="M435 217q-4 -4 -11 -4h-212q-6 0 -6 -6v-22q0 -14 6.5 -23t16.5 -9t15.5 7t7.5 18q5 14 17 13l153 -10q15 -2 14 -16q-4 -71 -37 -112.5t-99 -54.5q-4 0 -4.5 -2t1.5 -5q27 -36 27 -78q0 -14 -3 -27q-9 -35 -34 -49.5t-57 -14.5q-26 0 -57 9q-13 3 -11 17l7 62
q1 11 16 11q10 0 16 6t6 18q0 19 -27 48q-2 3 -7 4q-75 12 -115 56.5t-40 116.5v180q0 81 56 129.5t155 48.5t154.5 -48.5t55.5 -129.5v-122q0 -7 -4 -11zM212.5 358q-6.5 -9 -6.5 -23v-24q0 -6 6 -6h33q6 0 6 6v24q0 14 -6 23t-16 9t-16.5 -9z" />
    <glyph glyph-name="uni0237" unicode="&#x237;" horiz-adv-x="233" 
d="M-74 -186v129q0 15 16 15q47 -2 63.5 15.5t16.5 55.5v476q0 7 4 11t11 4h158q7 0 11 -4t4 -11v-476q0 -89 -14 -135t-71.5 -72t-182.5 -23q-16 0 -16 15z" />
    <glyph glyph-name="uni0259" unicode="&#x259;" horiz-adv-x="455" 
d="M381.5 481.5q55.5 -46.5 55.5 -131.5v-180q0 -81 -56 -129.5t-155 -48.5t-154.5 48.5t-55.5 129.5v122q0 7 4 11t11 4h212q6 0 6 6v22q0 14 -6.5 23t-16.5 9t-15.5 -7t-7.5 -18q-5 -14 -17 -13l-153 10q-15 2 -15 15q5 88 56 131t152 43q100 0 155.5 -46.5zM242.5 162
q6.5 9 6.5 23v24q0 6 -6 6h-33q-6 0 -6 -6v-24q0 -14 6 -23t16 -9t16.5 9z" />
    <glyph glyph-name="uni0292" unicode="&#x292;" horiz-adv-x="399" 
d="M251 248q61 -25 98.5 -79t37.5 -122q0 -64 -32 -118.5t-89 -87.5t-130 -33q-48 0 -96 14q-13 4 -13 17l3 134q0 9 4.5 11.5t12.5 -0.5q31 -12 61 -12q39 0 65 21.5t26 68.5q0 37 -19 64t-48 27q-19 0 -40 -15q-4 -3 -9 -3q-8 0 -11 8l-45 95l-2 8q0 8 7 12l106 85
q3 3 2 5t-5 2h-102q-7 0 -11 4t-4 11v140q0 7 4 11t11 4h310q7 0 11 -4t4 -11v-144q0 -11 -8 -18l-101 -87q-5 -5 2 -8z" />
    <glyph glyph-name="uni02BB" unicode="&#x2bb;" horiz-adv-x="231" 
d="M5 689q0 11 13 11h156q13 0 16 -14l38 -210v-4q0 -12 -14 -12h-118q-13 0 -17 12l-73 211q-1 2 -1 6z" />
    <glyph glyph-name="uni02BC" unicode="&#x2bc;" horiz-adv-x="231" 
d="M224 695.5q3 -4.5 1 -12.5l-73 -211q-4 -12 -17 -12h-118q-17 0 -14 16l38 210q3 14 16 14h156q8 0 11 -4.5z" />
    <glyph glyph-name="circumflex" unicode="&#x2c6;" horiz-adv-x="350" 
d="M14 580q0 5 3 9l60 101q6 10 18 10h171q12 0 18 -10l63 -101q3 -4 3 -9q0 -4 -3.5 -6.5t-9.5 -2.5h-114q-12 0 -17 11l-20 43q-2 3 -4.5 3t-3.5 -3l-20 -43q-5 -11 -17 -11h-114q-13 0 -13 9z" />
    <glyph glyph-name="caron" unicode="&#x2c7;" horiz-adv-x="368" 
d="M16 691q0 9 13 9h114q12 0 17 -11l20 -43q2 -3 4.5 -3t3.5 3l20 43q5 11 17 11h114q6 0 9.5 -2.5t3.5 -6.5t-3 -9l-63 -101q-6 -10 -18 -10h-171q-12 0 -18 10l-60 101q-3 5 -3 9z" />
    <glyph glyph-name="uni02C9" unicode="&#x2c9;" horiz-adv-x="231" 
d="M4 579q-4 4 -4 11v95q0 7 4 11t11 4h201q7 0 11 -4t4 -11v-95q0 -7 -4 -11t-11 -4h-201q-7 0 -11 4z" />
    <glyph glyph-name="breve" unicode="&#x2d8;" horiz-adv-x="278" 
d="M49 573q-35 30 -40 81v2q0 13 14 13h66q13 0 15 -14q3 -16 12.5 -25t22.5 -9t22.5 9t12.5 25q2 14 15 14h66q16 0 14 -15q-5 -51 -40 -81t-90 -30t-90 30z" />
    <glyph glyph-name="dotaccent" unicode="&#x2d9;" horiz-adv-x="204" 
d="M34.5 581.5q-26.5 26.5 -26.5 67.5q0 42 26.5 68t67.5 26t67.5 -26t26.5 -68q0 -40 -27 -67t-67 -27q-41 0 -67.5 26.5z" />
    <glyph glyph-name="ring" unicode="&#x2da;" horiz-adv-x="286" 
d="M46.5 590.5q-38.5 38.5 -38.5 96.5q0 57 38.5 95.5t96.5 38.5t96.5 -38.5t38.5 -95.5q0 -58 -38.5 -96.5t-96.5 -38.5t-96.5 38.5zM171 659q12 12 12 28q0 17 -11.5 29t-28.5 12t-28.5 -12t-11.5 -29q0 -16 11.5 -28t28.5 -12q16 0 28 12z" />
    <glyph glyph-name="ogonek" unicode="&#x2db;" horiz-adv-x="172" 
d="M162 -172q0 -11 -11 -14q-32 -9 -57 -9q-32 0 -57 14.5t-34 49.5q-3 13 -3 28q0 52 42 95q8 8 19 8h84q12 0 12 -7q0 -5 -7 -11q-33 -32 -33 -54q0 -12 6 -18t16 -6q15 0 16 -11l7 -62v-3z" />
    <glyph glyph-name="tilde" unicode="&#x2dc;" horiz-adv-x="336" 
d="M163 586q-9 4 -20 10.5t-20 6.5q-17 0 -29 -18q-6 -8 -13 -8q-4 0 -8 3l-55 40q-10 7 -7 19q13 40 38.5 59.5t57.5 19.5q33 0 67 -22q3 -2 10 -7t14 -7.5t15 -2.5q19 0 31 15q6 8 12 8q4 0 8 -3l53 -37q6 -4 6 -13q0 -8 -5 -16q-18 -33 -44.5 -47.5t-55.5 -14.5
q-24 0 -55 15z" />
    <glyph glyph-name="hungarumlaut" unicode="&#x2dd;" horiz-adv-x="422" 
d="M15 597q0 4 3 8l54 93q6 10 18 10h119q6 0 9.5 -2.5t3.5 -6.5q0 -5 -4 -9l-75 -94q-6 -9 -18 -9h-96q-14 0 -14 10zM196 597q0 4 3 8l54 93q6 10 18 10h119q6 0 9.5 -2.5t3.5 -6.5q0 -5 -4 -9l-75 -94q-6 -9 -18 -9h-96q-14 0 -14 10z" />
    <glyph glyph-name="gravecomb" unicode="&#x300;" 
d="M-18 588q0 -9 -13 -9h-99q-11 0 -18 9l-77 94q-4 4 -4 9q0 4 3.5 6.5t9.5 2.5h122q12 0 18 -10l55 -93q3 -4 3 -9z" />
    <glyph glyph-name="acutecomb" unicode="&#x301;" 
d="M-232 588q0 5 3 9l55 93q6 10 18 10h122q6 0 9.5 -2.5t3.5 -6.5q0 -5 -4 -9l-77 -94q-7 -9 -18 -9h-99q-13 0 -13 9z" />
    <glyph glyph-name="uni0302" unicode="&#x302;" 
d="M-352 580q0 5 3 9l60 101q6 10 18 10h171q12 0 18 -10l63 -101q3 -4 3 -9q0 -4 -3.5 -6.5t-9.5 -2.5h-114q-12 0 -17 11l-20 43q-2 3 -4.5 3t-3.5 -3l-20 -43q-5 -11 -17 -11h-114q-13 0 -13 9z" />
    <glyph glyph-name="tildecomb" unicode="&#x303;" 
d="M-165 586q-9 4 -20 10.5t-20 6.5q-17 0 -29 -18q-6 -8 -13 -8q-4 0 -8 3l-55 40q-10 7 -7 19q13 40 38.5 59.5t57.5 19.5q33 0 67 -22q3 -2 10 -7t14 -7.5t15 -2.5q19 0 31 15q6 8 12 8q4 0 8 -3l53 -37q6 -4 6 -13q0 -8 -5 -16q-18 -33 -44.5 -47.5t-55.5 -14.5
q-24 0 -55 15z" />
    <glyph glyph-name="uni0304" unicode="&#x304;" 
d="M-227 579q-4 4 -4 11v95q0 7 4 11t11 4h201q7 0 11 -4t4 -11v-95q0 -7 -4 -11t-11 -4h-201q-7 0 -11 4z" />
    <glyph glyph-name="uni0306" unicode="&#x306;" 
d="M-229 585q-35 30 -40 81v2q0 13 14 13h66q13 0 15 -14q3 -16 12.5 -25t22.5 -9t22.5 9t12.5 25q2 14 15 14h66q15 0 14 -15q-5 -51 -40 -81t-90 -30t-90 30z" />
    <glyph glyph-name="uni0307" unicode="&#x307;" 
d="M-172.5 581.5q-26.5 26.5 -26.5 67.5q0 42 26.5 68t67.5 26t67.5 -26t26.5 -68q0 -40 -27 -67t-67 -27q-41 0 -67.5 26.5z" />
    <glyph glyph-name="uni0308" unicode="&#x308;" 
d="M-161.5 581.5q-26.5 26.5 -26.5 67.5q0 42 26.5 68t67.5 26t67.5 -26t26.5 -68q0 -40 -27 -67t-67 -27q-41 0 -67.5 26.5zM-368.5 581.5q-26.5 26.5 -26.5 67.5q0 42 26.5 68t67.5 26t67.5 -26t26.5 -68q0 -40 -27 -67t-67 -27q-41 0 -67.5 26.5z" />
    <glyph glyph-name="hookabovecomb" unicode="&#x309;" 
d="M-334.5 567q-2.5 5 0.5 12q11 27 30 49q9 12 12.5 19t3.5 19q0 7 -5.5 11.5t-13.5 4.5q-10 0 -18 -5t-21 -20q-6 -6 -12 -6t-10 3l-43 32q-7 7 -7 12q0 3 4 9q23 33 49 47t63 14q51 0 80 -27t29 -75q0 -25 -9.5 -41t-28.5 -36q-18 -18 -25 -29q-6 -11 -19 -9l-49 9
q-8 2 -10.5 7z" />
    <glyph glyph-name="uni030A" unicode="&#x30a;" 
d="M-207.5 590.5q-38.5 38.5 -38.5 96.5q0 57 38.5 95.5t96.5 38.5t96.5 -38.5t38.5 -95.5q0 -58 -38.5 -96.5t-96.5 -38.5t-96.5 38.5zM-83 659q12 12 12 28q0 17 -11.5 29t-28.5 12t-28.5 -12t-11.5 -29q0 -16 11.5 -28t28.5 -12q16 0 28 12z" />
    <glyph glyph-name="uni030B" unicode="&#x30b;" 
d="M-393 584q-3 5 0 13l40 92q4 11 17 11h128q13 0 13 -10l-2 -8l-47 -92q-6 -11 -17 -11h-121q-8 0 -11 5zM-212.5 584.5q-3.5 5.5 0.5 12.5l47 92q5 11 18 11h119q13 0 13 -10l-2 -8l-47 -92q-6 -11 -17 -11h-120q-8 0 -11.5 5.5z" />
    <glyph glyph-name="uni030C" unicode="&#x30c;" 
d="M-352 691q0 9 13 9h114q12 0 17 -11l20 -43q2 -3 4.5 -3t3.5 3l20 43q5 11 17 11h114q6 0 9.5 -2.5t3.5 -6.5t-3 -9l-63 -101q-6 -10 -18 -10h-171q-12 0 -18 10l-60 101q-3 5 -3 9z" />
    <glyph glyph-name="uni0312" unicode="&#x312;" 
d="M-16 691q0 -4 -3 -9l-55 -93q-6 -10 -18 -10h-122q-6 0 -9.5 2.5t-3.5 6.5q0 5 4 9l77 94q7 9 18 9h99q13 0 13 -9z" />
    <glyph glyph-name="uni0313" unicode="&#x313;" 
d="M-232 588q0 5 3 9l55 93q6 10 18 10h122q6 0 9.5 -2.5t3.5 -6.5q0 -5 -4 -9l-77 -94q-7 -9 -18 -9h-99q-13 0 -13 9z" />
    <glyph glyph-name="uni031B" unicode="&#x31b;" 
d="M-126 443q-13 0 -13 14v49q0 12 14 15q37 10 42 71q0 16 15 16h65q7 0 11 -6t3 -17q-6 -71 -42.5 -104.5t-92.5 -37.5h-2z" />
    <glyph glyph-name="dotbelowcomb" unicode="&#x323;" 
d="M-169.5 -248q-25.5 26 -25.5 65q0 40 25 65.5t65 25.5t65.5 -25.5t25.5 -65.5q0 -39 -26 -65t-65 -26t-64.5 26z" />
    <glyph glyph-name="uni0326" unicode="&#x326;" 
d="M-250 -154q0 5 3 9l55 93q6 10 18 10h122q6 0 9.5 -2.5t3.5 -6.5q0 -5 -4 -9l-77 -94q-7 -9 -18 -9h-99q-13 0 -13 9z" />
    <glyph glyph-name="uni0327" unicode="&#x327;" 
d="M-162 -169l7 62q1 11 16 11q10 0 16 6t6 18q0 22 -33 54q-7 6 -7 11q0 7 12 7h84q11 0 19 -8q42 -43 42 -95q0 -15 -3 -28q-9 -35 -34 -49.5t-57 -14.5q-25 0 -57 9q-13 3 -11 17z" />
    <glyph glyph-name="uni0328" unicode="&#x328;" 
d="M-10 -172q0 -11 -11 -14q-32 -9 -57 -9q-32 0 -57 14.5t-34 49.5q-3 13 -3 28q0 52 42 95q8 8 19 8h84q12 0 12 -7q0 -5 -7 -11q-33 -32 -33 -54q0 -12 6 -18t16 -6q15 0 16 -11l7 -62v-3z" />
    <glyph glyph-name="uni0335" unicode="&#x335;" 
d="M-307 653q4 4 11 4h268q7 0 11 -4t4 -11v-80q0 -7 -4 -11t-11 -4h-268q-7 0 -11 4t-4 11v80q0 7 4 11z" />
    <glyph glyph-name="uni0336" unicode="&#x336;" 
d="M-525 509q-4 4 -4 11v95q0 7 4 11t11 4h499q7 0 11 -4t4 -11v-95q0 -7 -4 -11t-11 -4h-499q-7 0 -11 4z" />
    <glyph glyph-name="uni0337" unicode="&#x337;" 
d="M-372 116q-6 0 -10 6l-72 84q-5 7 -5 11q0 6 6 10l403 353q7 5 11 5q6 0 10 -6l72 -84q5 -5 5 -10t-6 -11l-403 -353q-7 -5 -11 -5z" />
    <glyph glyph-name="uni0338" unicode="&#x338;" 
d="M-415 -20l2 8l331 731q5 11 17 11h46q13 0 13 -10l-2 -8l-332 -731q-5 -11 -17 -11h-45q-13 0 -13 10z" />
    <glyph glyph-name="uni0394" unicode="&#x394;" horiz-adv-x="568" 
d="M16 4q-4 4 -4 11v135q0 9 3 19l198 519q5 12 18 12h105q14 0 18 -12l199 -520q3 -10 3 -19v-134q0 -7 -4 -11t-11 -4h-514q-7 0 -11 4zM202 162h164q6 0 5 7l-83 278q-1 4 -3.5 4t-4.5 -4l-83 -278q-1 -7 5 -7z" />
    <glyph glyph-name="uni03A9" unicode="&#x3a9;" horiz-adv-x="506" 
d="M24 4q-4 4 -4 11v131q0 7 4 11t11 4h19q3 0 4 2t0 5q-26 46 -26 108v218q0 98 60.5 156t161.5 58t161.5 -58t60.5 -156v-218q0 -63 -27 -108q-1 -3 0 -5t4 -2h18q7 0 11 -4t4 -11v-131q0 -7 -4 -11t-11 -4h-192q-7 0 -11 4t-4 11v134q0 5 3 9.5t7 8.5q14 11 14 38v297
q0 21 -9 33t-25 12t-25 -12t-9 -33v-297q0 -27 13 -37q4 -4 7 -8.5t3 -9.5v-135q0 -7 -4 -11t-11 -4h-193q-7 0 -11 4z" />
    <glyph glyph-name="uni03BC" unicode="&#x3bc;" horiz-adv-x="464" 
d="M258 516q4 4 11 4h158q7 0 11 -4t4 -11v-490q0 -7 -4 -11t-11 -4h-158q-7 0 -11 4t-4 11v4q0 4 -2 5t-5 -2q-12 -15 -32 -23q-5 -3 -5 -7v-177q0 -7 -4 -11t-11 -4h-158q-7 0 -11 4t-4 11v690q0 7 4 11t11 4h158q7 0 11 -4t4 -11v-320q0 -32 21 -32q23 0 23 32v320
q0 7 4 11z" />
    <glyph glyph-name="pi" unicode="&#x3c0;" horiz-adv-x="558" 
d="M536 364q-4 -4 -11 -4h-32q-6 0 -6 -6v-131q0 -40 8 -53.5t21 -12.5q16 0 16 -14v-128q0 -14 -15 -16q-63 -3 -73 -3q-66 0 -106.5 25t-39.5 95v238q0 6 -6 6h-29q-6 0 -6 -6v-339q0 -7 -4 -11t-11 -4h-158q-7 0 -11 4t-4 11v339q0 6 -6 6h-30q-7 0 -11 4t-4 11v130
q0 7 4 11t11 4h492q7 0 11 -4t4 -11v-130q0 -7 -4 -11z" />
    <glyph glyph-name="Wgrave" unicode="&#x1e80;" horiz-adv-x="720" 
d="M151 13l-136 671v4q0 12 14 12h163q15 0 16 -14l34 -305q0 -2 3 -2.5t3 2.5l37 305q1 14 16 14h122q15 0 16 -14l42 -306q0 -2 3.5 -2.5t3.5 2.5l29 306q1 14 15 14h159q17 0 14 -16l-128 -671q-3 -13 -17 -13h-138q-15 0 -16 14l-42 321q0 3 -3.5 3t-3.5 -3l-34 -321
q-1 -14 -16 -14h-139q-14 0 -17 13zM414 768q0 -9 -13 -9h-99q-11 0 -18 9l-77 94q-4 4 -4 9q0 4 3.5 6.5t9.5 2.5h122q12 0 18 -10l55 -93q3 -4 3 -9z" />
    <glyph glyph-name="wgrave" unicode="&#x1e81;" horiz-adv-x="653" 
d="M119 13l-107 491v4q0 12 13 12h150q15 0 16 -14l23 -221q0 -3 3 -3t3 3l25 221q1 14 16 14h133q15 0 16 -14l27 -222q0 -2 3 -2t3 2l23 222q1 14 15 14l147 -2q16 0 13 -16l-105 -489q-3 -13 -17 -13h-153q-15 0 -16 14l-24 172q-1 3 -3 3t-3 -3l-22 -172q-1 -14 -16 -14
h-146q-14 0 -17 13zM385 588q0 -9 -13 -9h-99q-11 0 -18 9l-77 94q-4 4 -4 9q0 4 3.5 6.5t9.5 2.5h122q12 0 18 -10l55 -93q3 -4 3 -9z" />
    <glyph glyph-name="Wacute" unicode="&#x1e82;" horiz-adv-x="720" 
d="M151 13l-136 671v4q0 12 14 12h163q15 0 16 -14l34 -305q0 -2 3 -2.5t3 2.5l37 305q1 14 16 14h122q15 0 16 -14l42 -306q0 -2 3.5 -2.5t3.5 2.5l29 306q1 14 15 14h159q17 0 14 -16l-128 -671q-3 -13 -17 -13h-138q-15 0 -16 14l-42 321q0 3 -3.5 3t-3.5 -3l-34 -321
q-1 -14 -16 -14h-139q-14 0 -17 13zM277 768q0 5 3 9l55 93q6 10 18 10h122q6 0 9.5 -2.5t3.5 -6.5q0 -5 -4 -9l-77 -94q-7 -9 -18 -9h-99q-13 0 -13 9z" />
    <glyph glyph-name="wacute" unicode="&#x1e83;" horiz-adv-x="653" 
d="M119 13l-107 491v4q0 12 13 12h150q15 0 16 -14l23 -221q0 -3 3 -3t3 3l25 221q1 14 16 14h133q15 0 16 -14l27 -222q0 -2 3 -2t3 2l23 222q1 14 15 14l147 -2q16 0 13 -16l-105 -489q-3 -13 -17 -13h-153q-15 0 -16 14l-24 172q-1 3 -3 3t-3 -3l-22 -172q-1 -14 -16 -14
h-146q-14 0 -17 13zM248 588q0 5 3 9l55 93q6 10 18 10h122q6 0 9.5 -2.5t3.5 -6.5q0 -5 -4 -9l-77 -94q-7 -9 -18 -9h-99q-13 0 -13 9z" />
    <glyph glyph-name="Wdieresis" unicode="&#x1e84;" horiz-adv-x="720" 
d="M151 13l-136 671v4q0 12 14 12h163q15 0 16 -14l34 -305q0 -2 3 -2.5t3 2.5l37 305q1 14 16 14h122q15 0 16 -14l42 -306q0 -2 3.5 -2.5t3.5 2.5l29 306q1 14 15 14h159q17 0 14 -16l-128 -671q-3 -13 -17 -13h-138q-15 0 -16 14l-42 321q0 3 -3.5 3t-3.5 -3l-34 -321
q-1 -14 -16 -14h-139q-14 0 -17 13zM390.5 761.5q-26.5 26.5 -26.5 67.5q0 42 26.5 68t67.5 26t67.5 -26t26.5 -68q0 -40 -27 -67t-67 -27q-41 0 -67.5 26.5zM183.5 761.5q-26.5 26.5 -26.5 67.5q0 42 26.5 68t67.5 26t67.5 -26t26.5 -68q0 -40 -27 -67t-67 -27
q-41 0 -67.5 26.5z" />
    <glyph glyph-name="wdieresis" unicode="&#x1e85;" horiz-adv-x="653" 
d="M119 13l-107 491v4q0 12 13 12h150q15 0 16 -14l23 -221q0 -3 3 -3t3 3l25 221q1 14 16 14h133q15 0 16 -14l27 -222q0 -2 3 -2t3 2l23 222q1 14 15 14l147 -2q16 0 13 -16l-105 -489q-3 -13 -17 -13h-153q-15 0 -16 14l-24 172q-1 3 -3 3t-3 -3l-22 -172q-1 -14 -16 -14
h-146q-14 0 -17 13zM361.5 581.5q-26.5 26.5 -26.5 67.5q0 42 26.5 68t67.5 26t67.5 -26t26.5 -68q0 -40 -27 -67t-67 -27q-41 0 -67.5 26.5zM154.5 581.5q-26.5 26.5 -26.5 67.5q0 42 26.5 68t67.5 26t67.5 -26t26.5 -68q0 -40 -27 -67t-67 -27q-41 0 -67.5 26.5z" />
    <glyph glyph-name="uni1EA0" unicode="&#x1ea0;" horiz-adv-x="531" 
d="M325 14l-11 75q0 2 -2 4t-5 2h-88q-3 0 -5 -2t-2 -4l-10 -75q-1 -14 -16 -14h-157q-16 0 -13 16l142 671q3 13 17 13h182q14 0 17 -13l142 -671v-4q0 -12 -14 -12h-161q-15 0 -16 14zM239 239h47q7 0 5 6l-27 180q-1 4 -3 4t-3 -4l-24 -180q0 -6 5 -6zM201.5 -248
q-25.5 26 -25.5 65q0 40 25 65.5t65 25.5t65.5 -25.5t25.5 -65.5q0 -39 -26 -65t-65 -26t-64.5 26z" />
    <glyph glyph-name="uni1EA1" unicode="&#x1ea1;" horiz-adv-x="467" 
d="M345.5 507q49.5 -21 76.5 -59t27 -88v-345q0 -7 -4 -11t-11 -4h-158q-7 0 -11 4t-4 11v21q0 4 -2 4.5t-5 -2.5q-34 -46 -106 -46q-136 0 -136 159q0 70 25 104t68 44t116 10h34q6 0 6 6v22q0 13 -8 21.5t-21 8.5q-17 0 -24 -18q-5 -14 -16 -14l-160 2q-15 0 -15 14
q5 83 63.5 130t151.5 47q64 0 113.5 -21zM251 134.5q10 7.5 10 19.5v27q0 6 -6 6h-20q-14 0 -22.5 -9.5t-8.5 -22.5t7.5 -20.5t17.5 -7.5q12 0 22 7.5zM169.5 -248q-25.5 26 -25.5 65q0 40 25 65.5t65 25.5t65.5 -25.5t25.5 -65.5q0 -39 -26 -65t-65 -26t-64.5 26z" />
    <glyph glyph-name="uni1EA2" unicode="&#x1ea2;" horiz-adv-x="531" 
d="M325 14l-11 75q0 2 -2 4t-5 2h-88q-3 0 -5 -2t-2 -4l-10 -75q-1 -14 -16 -14h-157q-16 0 -13 16l142 671q3 13 17 13h182q14 0 17 -13l142 -671v-4q0 -12 -14 -12h-161q-15 0 -16 14zM239 239h47q7 0 5 6l-27 180q-1 4 -3 4t-3 -4l-24 -180q0 -6 5 -6zM239.5 747
q-2.5 5 0.5 12q11 27 30 49q9 12 12.5 19t3.5 19q0 7 -5.5 11.5t-13.5 4.5q-10 0 -18 -5t-21 -20q-6 -6 -12 -6t-10 3l-43 32q-7 7 -7 12q0 3 4 9q23 33 49 47t63 14q51 0 80 -27t29 -75q0 -25 -9.5 -41t-28.5 -36q-18 -18 -25 -29q-6 -11 -19 -9l-49 9q-8 2 -10.5 7z" />
    <glyph glyph-name="uni1EA3" unicode="&#x1ea3;" horiz-adv-x="467" 
d="M345.5 507q49.5 -21 76.5 -59t27 -88v-345q0 -7 -4 -11t-11 -4h-158q-7 0 -11 4t-4 11v21q0 4 -2 4.5t-5 -2.5q-34 -46 -106 -46q-136 0 -136 159q0 70 25 104t68 44t116 10h34q6 0 6 6v22q0 13 -8 21.5t-21 8.5q-17 0 -24 -18q-5 -14 -16 -14l-160 2q-15 0 -15 14
q5 83 63.5 130t151.5 47q64 0 113.5 -21zM251 134.5q10 7.5 10 19.5v27q0 6 -6 6h-20q-14 0 -22.5 -9.5t-8.5 -22.5t7.5 -20.5t17.5 -7.5q12 0 22 7.5zM207.5 567q-2.5 5 0.5 12q11 27 30 49q9 12 12.5 19t3.5 19q0 7 -5.5 11.5t-13.5 4.5q-10 0 -18 -5t-21 -20
q-6 -6 -12 -6t-10 3l-43 32q-7 7 -7 12q0 3 4 9q23 33 49 47t63 14q51 0 80 -27t29 -75q0 -25 -9.5 -41t-28.5 -36q-18 -18 -25 -29q-6 -11 -19 -9l-49 9q-8 2 -10.5 7z" />
    <glyph glyph-name="uni1EA4" unicode="&#x1ea4;" horiz-adv-x="531" 
d="M325 14l-11 75q0 2 -2 4t-5 2h-88q-3 0 -5 -2t-2 -4l-10 -75q-1 -14 -16 -14h-157q-16 0 -13 16l142 671q3 13 17 13h182q14 0 17 -13l142 -671v-4q0 -12 -14 -12h-161q-15 0 -16 14zM239 239h47q7 0 5 6l-27 180q-1 4 -3 4t-3 -4l-24 -180q0 -6 5 -6zM96 760q0 5 3 9
l60 101q6 10 18 10h171q12 0 18 -10l63 -101q3 -4 3 -9q0 -4 -3.5 -6.5t-9.5 -2.5h-114q-12 0 -17 11l-20 43q-2 3 -4.5 3t-3.5 -3l-20 -43q-5 -11 -17 -11h-114q-13 0 -13 9zM418 852q0 5 3 9l55 93q6 10 18 10h122q6 0 9.5 -2.5t3.5 -6.5q0 -5 -4 -9l-77 -94q-7 -9 -18 -9
h-99q-13 0 -13 9z" />
    <glyph glyph-name="uni1EA5" unicode="&#x1ea5;" horiz-adv-x="467" 
d="M345.5 507q49.5 -21 76.5 -59t27 -88v-345q0 -7 -4 -11t-11 -4h-158q-7 0 -11 4t-4 11v21q0 4 -2 4.5t-5 -2.5q-34 -46 -106 -46q-136 0 -136 159q0 70 25 104t68 44t116 10h34q6 0 6 6v22q0 13 -8 21.5t-21 8.5q-17 0 -24 -18q-5 -14 -16 -14l-160 2q-15 0 -15 14
q5 83 63.5 130t151.5 47q64 0 113.5 -21zM251 134.5q10 7.5 10 19.5v27q0 6 -6 6h-20q-14 0 -22.5 -9.5t-8.5 -22.5t7.5 -20.5t17.5 -7.5q12 0 22 7.5zM64 580q0 5 3 9l60 101q6 10 18 10h171q12 0 18 -10l63 -101q3 -4 3 -9q0 -4 -3.5 -6.5t-9.5 -2.5h-114q-12 0 -17 11
l-20 43q-2 3 -4.5 3t-3.5 -3l-20 -43q-5 -11 -17 -11h-114q-13 0 -13 9zM386 672q0 5 3 9l55 93q6 10 18 10h122q6 0 9.5 -2.5t3.5 -6.5q0 -5 -4 -9l-77 -94q-7 -9 -18 -9h-99q-13 0 -13 9z" />
    <glyph glyph-name="uni1EA6" unicode="&#x1ea6;" horiz-adv-x="531" 
d="M325 14l-11 75q0 2 -2 4t-5 2h-88q-3 0 -5 -2t-2 -4l-10 -75q-1 -14 -16 -14h-157q-16 0 -13 16l142 671q3 13 17 13h182q14 0 17 -13l142 -671v-4q0 -12 -14 -12h-161q-15 0 -16 14zM239 239h47q7 0 5 6l-27 180q-1 4 -3 4t-3 -4l-24 -180q0 -6 5 -6zM96 760q0 5 3 9
l60 101q6 10 18 10h171q12 0 18 -10l63 -101q3 -4 3 -9q0 -4 -3.5 -6.5t-9.5 -2.5h-114q-12 0 -17 11l-20 43q-2 3 -4.5 3t-3.5 -3l-20 -43q-5 -11 -17 -11h-114q-13 0 -13 9zM506 887q0 -9 -13 -9h-99q-11 0 -18 9l-77 94q-4 4 -4 9q0 4 3.5 6.5t9.5 2.5h122q12 0 18 -10
l55 -93q3 -4 3 -9z" />
    <glyph glyph-name="uni1EA7" unicode="&#x1ea7;" horiz-adv-x="467" 
d="M345.5 507q49.5 -21 76.5 -59t27 -88v-345q0 -7 -4 -11t-11 -4h-158q-7 0 -11 4t-4 11v21q0 4 -2 4.5t-5 -2.5q-34 -46 -106 -46q-136 0 -136 159q0 70 25 104t68 44t116 10h34q6 0 6 6v22q0 13 -8 21.5t-21 8.5q-17 0 -24 -18q-5 -14 -16 -14l-160 2q-15 0 -15 14
q5 83 63.5 130t151.5 47q64 0 113.5 -21zM251 134.5q10 7.5 10 19.5v27q0 6 -6 6h-20q-14 0 -22.5 -9.5t-8.5 -22.5t7.5 -20.5t17.5 -7.5q12 0 22 7.5zM64 580q0 5 3 9l60 101q6 10 18 10h171q12 0 18 -10l63 -101q3 -4 3 -9q0 -4 -3.5 -6.5t-9.5 -2.5h-114q-12 0 -17 11
l-20 43q-2 3 -4.5 3t-3.5 -3l-20 -43q-5 -11 -17 -11h-114q-13 0 -13 9zM474 707q0 -9 -13 -9h-99q-11 0 -18 9l-77 94q-4 4 -4 9q0 4 3.5 6.5t9.5 2.5h122q12 0 18 -10l55 -93q3 -4 3 -9z" />
    <glyph glyph-name="uni1EA8" unicode="&#x1ea8;" horiz-adv-x="531" 
d="M325 14l-11 75q0 2 -2 4t-5 2h-88q-3 0 -5 -2t-2 -4l-10 -75q-1 -14 -16 -14h-157q-16 0 -13 16l142 671q3 13 17 13h182q14 0 17 -13l142 -671v-4q0 -12 -14 -12h-161q-15 0 -16 14zM239 239h47q7 0 5 6l-27 180q-1 4 -3 4t-3 -4l-24 -180q0 -6 5 -6zM412.5 867
q-2.5 5 0.5 12q9 23 27 43q8 9 11.5 16t3.5 18q0 7 -5.5 11t-12.5 4q-8 0 -15 -4.5t-19 -17.5q-6 -7 -13 -7q-5 0 -9 4l-37 28q-7 7 -7 12q0 3 4 9q21 29 44 41.5t57 12.5q47 0 73 -24.5t26 -68.5q0 -22 -9 -37t-26 -32q-14 -14 -22 -26q-7 -10 -19 -9l-42 8q-8 2 -10.5 7z
M96 760q0 5 3 9l60 101q6 10 18 10h171q12 0 18 -10l63 -101q3 -4 3 -9q0 -4 -3.5 -6.5t-9.5 -2.5h-114q-12 0 -17 11l-20 43q-2 3 -4.5 3t-3.5 -3l-20 -43q-5 -11 -17 -11h-114q-13 0 -13 9z" />
    <glyph glyph-name="uni1EA9" unicode="&#x1ea9;" horiz-adv-x="467" 
d="M345.5 507q49.5 -21 76.5 -59t27 -88v-345q0 -7 -4 -11t-11 -4h-158q-7 0 -11 4t-4 11v21q0 4 -2 4.5t-5 -2.5q-34 -46 -106 -46q-136 0 -136 159q0 70 25 104t68 44t116 10h34q6 0 6 6v22q0 13 -8 21.5t-21 8.5q-17 0 -24 -18q-5 -14 -16 -14l-160 2q-15 0 -15 14
q5 83 63.5 130t151.5 47q64 0 113.5 -21zM251 134.5q10 7.5 10 19.5v27q0 6 -6 6h-20q-14 0 -22.5 -9.5t-8.5 -22.5t7.5 -20.5t17.5 -7.5q12 0 22 7.5zM380.5 687q-2.5 5 0.5 12q9 23 27 43q8 9 11.5 16t3.5 18q0 7 -5.5 11t-12.5 4q-8 0 -15 -4.5t-19 -17.5q-6 -7 -13 -7
q-5 0 -9 4l-37 28q-7 7 -7 12q0 3 4 9q21 29 44 41.5t57 12.5q47 0 73 -24.5t26 -68.5q0 -22 -9 -37t-26 -32q-14 -14 -22 -26q-7 -10 -19 -9l-42 8q-8 2 -10.5 7zM64 580q0 5 3 9l60 101q6 10 18 10h171q12 0 18 -10l63 -101q3 -4 3 -9q0 -4 -3.5 -6.5t-9.5 -2.5h-114
q-12 0 -17 11l-20 43q-2 3 -4.5 3t-3.5 -3l-20 -43q-5 -11 -17 -11h-114q-13 0 -13 9z" />
    <glyph glyph-name="uni1EAA" unicode="&#x1eaa;" horiz-adv-x="531" 
d="M325 14l-11 75q0 2 -2 4t-5 2h-88q-3 0 -5 -2t-2 -4l-10 -75q-1 -14 -16 -14h-157q-16 0 -13 16l142 671q3 13 17 13h182q14 0 17 -13l142 -671v-4q0 -12 -14 -12h-161q-15 0 -16 14zM239 239h47q7 0 5 6l-27 180q-1 4 -3 4t-3 -4l-24 -180q0 -6 5 -6zM96 760q0 5 3 9
l60 101q6 10 18 10h171q12 0 18 -10l63 -101q3 -4 3 -9q0 -4 -3.5 -6.5t-9.5 -2.5h-114q-12 0 -17 11l-20 43q-2 3 -4.5 3t-3.5 -3l-20 -43q-5 -11 -17 -11h-114q-13 0 -13 9zM256 934q-9 4 -20 10.5t-20 6.5q-17 0 -29 -18q-6 -8 -13 -8q-4 0 -8 3l-55 40q-10 7 -7 19
q13 40 38.5 59.5t57.5 19.5q33 0 67 -22q3 -2 10 -7t14 -7.5t15 -2.5q19 0 31 15q6 8 12 8q4 0 8 -3l53 -37q6 -4 6 -13q0 -8 -5 -16q-18 -33 -44.5 -47.5t-55.5 -14.5q-24 0 -55 15z" />
    <glyph glyph-name="uni1EAB" unicode="&#x1eab;" horiz-adv-x="467" 
d="M345.5 507q49.5 -21 76.5 -59t27 -88v-345q0 -7 -4 -11t-11 -4h-158q-7 0 -11 4t-4 11v21q0 4 -2 4.5t-5 -2.5q-34 -46 -106 -46q-136 0 -136 159q0 70 25 104t68 44t116 10h34q6 0 6 6v22q0 13 -8 21.5t-21 8.5q-17 0 -24 -18q-5 -14 -16 -14l-160 2q-15 0 -15 14
q5 83 63.5 130t151.5 47q64 0 113.5 -21zM251 134.5q10 7.5 10 19.5v27q0 6 -6 6h-20q-14 0 -22.5 -9.5t-8.5 -22.5t7.5 -20.5t17.5 -7.5q12 0 22 7.5zM64 580q0 5 3 9l60 101q6 10 18 10h171q12 0 18 -10l63 -101q3 -4 3 -9q0 -4 -3.5 -6.5t-9.5 -2.5h-114q-12 0 -17 11
l-20 43q-2 3 -4.5 3t-3.5 -3l-20 -43q-5 -11 -17 -11h-114q-13 0 -13 9zM224 754q-9 4 -20 10.5t-20 6.5q-17 0 -29 -18q-6 -8 -13 -8q-4 0 -8 3l-55 40q-10 7 -7 19q13 40 38.5 59.5t57.5 19.5q33 0 67 -22q3 -2 10 -7t14 -7.5t15 -2.5q19 0 31 15q6 8 12 8q4 0 8 -3
l53 -37q6 -4 6 -13q0 -8 -5 -16q-18 -33 -44.5 -47.5t-55.5 -14.5q-24 0 -55 15z" />
    <glyph glyph-name="uni1EAC" unicode="&#x1eac;" horiz-adv-x="531" 
d="M325 14l-11 75q0 2 -2 4t-5 2h-88q-3 0 -5 -2t-2 -4l-10 -75q-1 -14 -16 -14h-157q-16 0 -13 16l142 671q3 13 17 13h182q14 0 17 -13l142 -671v-4q0 -12 -14 -12h-161q-15 0 -16 14zM239 239h47q7 0 5 6l-27 180q-1 4 -3 4t-3 -4l-24 -180q0 -6 5 -6zM201.5 -248
q-25.5 26 -25.5 65q0 40 25 65.5t65 25.5t65.5 -25.5t25.5 -65.5q0 -39 -26 -65t-65 -26t-64.5 26zM96 760q0 5 3 9l60 101q6 10 18 10h171q12 0 18 -10l63 -101q3 -4 3 -9q0 -4 -3.5 -6.5t-9.5 -2.5h-114q-12 0 -17 11l-20 43q-2 3 -4.5 3t-3.5 -3l-20 -43q-5 -11 -17 -11
h-114q-13 0 -13 9z" />
    <glyph glyph-name="uni1EAD" unicode="&#x1ead;" horiz-adv-x="467" 
d="M345.5 507q49.5 -21 76.5 -59t27 -88v-345q0 -7 -4 -11t-11 -4h-158q-7 0 -11 4t-4 11v21q0 4 -2 4.5t-5 -2.5q-34 -46 -106 -46q-136 0 -136 159q0 70 25 104t68 44t116 10h34q6 0 6 6v22q0 13 -8 21.5t-21 8.5q-17 0 -24 -18q-5 -14 -16 -14l-160 2q-15 0 -15 14
q5 83 63.5 130t151.5 47q64 0 113.5 -21zM251 134.5q10 7.5 10 19.5v27q0 6 -6 6h-20q-14 0 -22.5 -9.5t-8.5 -22.5t7.5 -20.5t17.5 -7.5q12 0 22 7.5zM169.5 -248q-25.5 26 -25.5 65q0 40 25 65.5t65 25.5t65.5 -25.5t25.5 -65.5q0 -39 -26 -65t-65 -26t-64.5 26zM64 580
q0 5 3 9l60 101q6 10 18 10h171q12 0 18 -10l63 -101q3 -4 3 -9q0 -4 -3.5 -6.5t-9.5 -2.5h-114q-12 0 -17 11l-20 43q-2 3 -4.5 3t-3.5 -3l-20 -43q-5 -11 -17 -11h-114q-13 0 -13 9z" />
    <glyph glyph-name="uni1EAE" unicode="&#x1eae;" horiz-adv-x="531" 
d="M325 14l-11 75q0 2 -2 4t-5 2h-88q-3 0 -5 -2t-2 -4l-10 -75q-1 -14 -16 -14h-157q-16 0 -13 16l142 671q3 13 17 13h182q14 0 17 -13l142 -671v-4q0 -12 -14 -12h-161q-15 0 -16 14zM239 239h47q7 0 5 6l-27 180q-1 4 -3 4t-3 -4l-24 -180q0 -6 5 -6zM176 765
q-35 30 -40 81v2q0 13 14 13h66q13 0 15 -14q3 -16 12.5 -25t22.5 -9t22.5 9t12.5 25q2 14 15 14h66q15 0 14 -15q-5 -51 -40 -81t-90 -30t-90 30zM188 929q0 5 3 9l55 93q6 10 18 10h122q6 0 9.5 -2.5t3.5 -6.5q0 -5 -4 -9l-77 -94q-7 -9 -18 -9h-99q-13 0 -13 9z" />
    <glyph glyph-name="uni1EAF" unicode="&#x1eaf;" horiz-adv-x="467" 
d="M345.5 507q49.5 -21 76.5 -59t27 -88v-345q0 -7 -4 -11t-11 -4h-158q-7 0 -11 4t-4 11v21q0 4 -2 4.5t-5 -2.5q-34 -46 -106 -46q-136 0 -136 159q0 70 25 104t68 44t116 10h34q6 0 6 6v22q0 13 -8 21.5t-21 8.5q-17 0 -24 -18q-5 -14 -16 -14l-160 2q-15 0 -15 14
q5 83 63.5 130t151.5 47q64 0 113.5 -21zM251 134.5q10 7.5 10 19.5v27q0 6 -6 6h-20q-14 0 -22.5 -9.5t-8.5 -22.5t7.5 -20.5t17.5 -7.5q12 0 22 7.5zM144 585q-35 30 -40 81v2q0 13 14 13h66q13 0 15 -14q3 -16 12.5 -25t22.5 -9t22.5 9t12.5 25q2 14 15 14h66
q15 0 14 -15q-5 -51 -40 -81t-90 -30t-90 30zM156 749q0 5 3 9l55 93q6 10 18 10h122q6 0 9.5 -2.5t3.5 -6.5q0 -5 -4 -9l-77 -94q-7 -9 -18 -9h-99q-13 0 -13 9z" />
    <glyph glyph-name="uni1EB0" unicode="&#x1eb0;" horiz-adv-x="531" 
d="M325 14l-11 75q0 2 -2 4t-5 2h-88q-3 0 -5 -2t-2 -4l-10 -75q-1 -14 -16 -14h-157q-16 0 -13 16l142 671q3 13 17 13h182q14 0 17 -13l142 -671v-4q0 -12 -14 -12h-161q-15 0 -16 14zM239 239h47q7 0 5 6l-27 180q-1 4 -3 4t-3 -4l-24 -180q0 -6 5 -6zM176 765
q-35 30 -40 81v2q0 13 14 13h66q13 0 15 -14q3 -16 12.5 -25t22.5 -9t22.5 9t12.5 25q2 14 15 14h66q15 0 14 -15q-5 -51 -40 -81t-90 -30t-90 30zM325 929q0 -9 -13 -9h-99q-11 0 -18 9l-77 94q-4 4 -4 9q0 4 3.5 6.5t9.5 2.5h122q12 0 18 -10l55 -93q3 -4 3 -9z" />
    <glyph glyph-name="uni1EB1" unicode="&#x1eb1;" horiz-adv-x="467" 
d="M345.5 507q49.5 -21 76.5 -59t27 -88v-345q0 -7 -4 -11t-11 -4h-158q-7 0 -11 4t-4 11v21q0 4 -2 4.5t-5 -2.5q-34 -46 -106 -46q-136 0 -136 159q0 70 25 104t68 44t116 10h34q6 0 6 6v22q0 13 -8 21.5t-21 8.5q-17 0 -24 -18q-5 -14 -16 -14l-160 2q-15 0 -15 14
q5 83 63.5 130t151.5 47q64 0 113.5 -21zM251 134.5q10 7.5 10 19.5v27q0 6 -6 6h-20q-14 0 -22.5 -9.5t-8.5 -22.5t7.5 -20.5t17.5 -7.5q12 0 22 7.5zM144 585q-35 30 -40 81v2q0 13 14 13h66q13 0 15 -14q3 -16 12.5 -25t22.5 -9t22.5 9t12.5 25q2 14 15 14h66
q15 0 14 -15q-5 -51 -40 -81t-90 -30t-90 30zM293 749q0 -9 -13 -9h-99q-11 0 -18 9l-77 94q-4 4 -4 9q0 4 3.5 6.5t9.5 2.5h122q12 0 18 -10l55 -93q3 -4 3 -9z" />
    <glyph glyph-name="uni1EB2" unicode="&#x1eb2;" horiz-adv-x="531" 
d="M325 14l-11 75q0 2 -2 4t-5 2h-88q-3 0 -5 -2t-2 -4l-10 -75q-1 -14 -16 -14h-157q-16 0 -13 16l142 671q3 13 17 13h182q14 0 17 -13l142 -671v-4q0 -12 -14 -12h-161q-15 0 -16 14zM239 239h47q7 0 5 6l-27 180q-1 4 -3 4t-3 -4l-24 -180q0 -6 5 -6zM246 913
q8 18 24 37q7 9 10 15t3 16q0 6 -5 10t-11 4q-8 0 -14 -4t-16 -15q-6 -6 -12 -6t-10 3l-32 23q-7 4 -7 11q0 6 4 10q20 26 40.5 37.5t50.5 11.5q42 0 66 -22.5t24 -62.5q0 -20 -8 -33.5t-24 -29.5q-10 -10 -19 -22q-6 -11 -19 -9l-35 6q-16 3 -10 20zM176 765q-35 30 -40 81
v2q0 13 14 13h66q13 0 15 -14q3 -16 12.5 -25t22.5 -9t22.5 9t12.5 25q2 14 15 14h66q15 0 14 -15q-5 -51 -40 -81t-90 -30t-90 30z" />
    <glyph glyph-name="uni1EB3" unicode="&#x1eb3;" horiz-adv-x="467" 
d="M345.5 507q49.5 -21 76.5 -59t27 -88v-345q0 -7 -4 -11t-11 -4h-158q-7 0 -11 4t-4 11v21q0 4 -2 4.5t-5 -2.5q-34 -46 -106 -46q-136 0 -136 159q0 70 25 104t68 44t116 10h34q6 0 6 6v22q0 13 -8 21.5t-21 8.5q-17 0 -24 -18q-5 -14 -16 -14l-160 2q-15 0 -15 14
q5 83 63.5 130t151.5 47q64 0 113.5 -21zM251 134.5q10 7.5 10 19.5v27q0 6 -6 6h-20q-14 0 -22.5 -9.5t-8.5 -22.5t7.5 -20.5t17.5 -7.5q12 0 22 7.5zM214 733q8 18 24 37q7 9 10 15t3 16q0 6 -5 10t-11 4q-8 0 -14 -4t-16 -15q-6 -6 -12 -6t-10 3l-32 23q-7 4 -7 11
q0 6 4 10q20 26 40.5 37.5t50.5 11.5q42 0 66 -22.5t24 -62.5q0 -20 -8 -33.5t-24 -29.5q-10 -10 -19 -22q-6 -11 -19 -9l-35 6q-16 3 -10 20zM144 585q-35 30 -40 81v2q0 13 14 13h66q13 0 15 -14q3 -16 12.5 -25t22.5 -9t22.5 9t12.5 25q2 14 15 14h66q15 0 14 -15
q-5 -51 -40 -81t-90 -30t-90 30z" />
    <glyph glyph-name="uni1EB4" unicode="&#x1eb4;" horiz-adv-x="531" 
d="M325 14l-11 75q0 2 -2 4t-5 2h-88q-3 0 -5 -2t-2 -4l-10 -75q-1 -14 -16 -14h-157q-16 0 -13 16l142 671q3 13 17 13h182q14 0 17 -13l142 -671v-4q0 -12 -14 -12h-161q-15 0 -16 14zM239 239h47q7 0 5 6l-27 180q-1 4 -3 4t-3 -4l-24 -180q0 -6 5 -6zM176 765
q-35 30 -40 81v2q0 13 14 13h66q13 0 15 -14q3 -16 12.5 -25t22.5 -9t22.5 9t12.5 25q2 14 15 14h66q15 0 14 -15q-5 -51 -40 -81t-90 -30t-90 30zM281 927q-9 4 -20 10.5t-20 6.5q-17 0 -29 -18q-6 -8 -13 -8q-4 0 -8 3l-55 40q-10 7 -7 19q13 40 38.5 59.5t57.5 19.5
q33 0 67 -22q3 -2 10 -7t14 -7.5t15 -2.5q19 0 31 15q6 8 12 8q4 0 8 -3l53 -37q6 -4 6 -13q0 -8 -5 -16q-18 -33 -44.5 -47.5t-55.5 -14.5q-24 0 -55 15z" />
    <glyph glyph-name="uni1EB5" unicode="&#x1eb5;" horiz-adv-x="467" 
d="M345.5 507q49.5 -21 76.5 -59t27 -88v-345q0 -7 -4 -11t-11 -4h-158q-7 0 -11 4t-4 11v21q0 4 -2 4.5t-5 -2.5q-34 -46 -106 -46q-136 0 -136 159q0 70 25 104t68 44t116 10h34q6 0 6 6v22q0 13 -8 21.5t-21 8.5q-17 0 -24 -18q-5 -14 -16 -14l-160 2q-15 0 -15 14
q5 83 63.5 130t151.5 47q64 0 113.5 -21zM251 134.5q10 7.5 10 19.5v27q0 6 -6 6h-20q-14 0 -22.5 -9.5t-8.5 -22.5t7.5 -20.5t17.5 -7.5q12 0 22 7.5zM144 585q-35 30 -40 81v2q0 13 14 13h66q13 0 15 -14q3 -16 12.5 -25t22.5 -9t22.5 9t12.5 25q2 14 15 14h66
q15 0 14 -15q-5 -51 -40 -81t-90 -30t-90 30zM249 747q-9 4 -20 10.5t-20 6.5q-17 0 -29 -18q-6 -8 -13 -8q-4 0 -8 3l-55 40q-10 7 -7 19q13 40 38.5 59.5t57.5 19.5q33 0 67 -22q3 -2 10 -7t14 -7.5t15 -2.5q19 0 31 15q6 8 12 8q4 0 8 -3l53 -37q6 -4 6 -13q0 -8 -5 -16
q-18 -33 -44.5 -47.5t-55.5 -14.5q-24 0 -55 15z" />
    <glyph glyph-name="uni1EB6" unicode="&#x1eb6;" horiz-adv-x="531" 
d="M325 14l-11 75q0 2 -2 4t-5 2h-88q-3 0 -5 -2t-2 -4l-10 -75q-1 -14 -16 -14h-157q-16 0 -13 16l142 671q3 13 17 13h182q14 0 17 -13l142 -671v-4q0 -12 -14 -12h-161q-15 0 -16 14zM239 239h47q7 0 5 6l-27 180q-1 4 -3 4t-3 -4l-24 -180q0 -6 5 -6zM201.5 -248
q-25.5 26 -25.5 65q0 40 25 65.5t65 25.5t65.5 -25.5t25.5 -65.5q0 -39 -26 -65t-65 -26t-64.5 26zM176 765q-35 30 -40 81v2q0 13 14 13h66q13 0 15 -14q3 -16 12.5 -25t22.5 -9t22.5 9t12.5 25q2 14 15 14h66q15 0 14 -15q-5 -51 -40 -81t-90 -30t-90 30z" />
    <glyph glyph-name="uni1EB7" unicode="&#x1eb7;" horiz-adv-x="467" 
d="M345.5 507q49.5 -21 76.5 -59t27 -88v-345q0 -7 -4 -11t-11 -4h-158q-7 0 -11 4t-4 11v21q0 4 -2 4.5t-5 -2.5q-34 -46 -106 -46q-136 0 -136 159q0 70 25 104t68 44t116 10h34q6 0 6 6v22q0 13 -8 21.5t-21 8.5q-17 0 -24 -18q-5 -14 -16 -14l-160 2q-15 0 -15 14
q5 83 63.5 130t151.5 47q64 0 113.5 -21zM251 134.5q10 7.5 10 19.5v27q0 6 -6 6h-20q-14 0 -22.5 -9.5t-8.5 -22.5t7.5 -20.5t17.5 -7.5q12 0 22 7.5zM169.5 -248q-25.5 26 -25.5 65q0 40 25 65.5t65 25.5t65.5 -25.5t25.5 -65.5q0 -39 -26 -65t-65 -26t-64.5 26zM144 585
q-35 30 -40 81v2q0 13 14 13h66q13 0 15 -14q3 -16 12.5 -25t22.5 -9t22.5 9t12.5 25q2 14 15 14h66q15 0 14 -15q-5 -51 -40 -81t-90 -30t-90 30z" />
    <glyph glyph-name="uni1EB8" unicode="&#x1eb8;" horiz-adv-x="444" 
d="M422 543q-4 -4 -11 -4h-191q-6 0 -6 -6v-96q0 -6 6 -6h99q7 0 11 -4t4 -11v-131q0 -7 -4 -11t-11 -4h-99q-6 0 -6 -6v-97q0 -6 6 -6h191q7 0 11 -4t4 -11v-131q0 -7 -4 -11t-11 -4h-370q-7 0 -11 4t-4 11v670q0 7 4 11t11 4h370q7 0 11 -4t4 -11v-131q0 -7 -4 -11z
M153.5 -248q-25.5 26 -25.5 65q0 40 25 65.5t65 25.5t65.5 -25.5t25.5 -65.5q0 -39 -26 -65t-65 -26t-64.5 26z" />
    <glyph glyph-name="uni1EB9" unicode="&#x1eb9;" horiz-adv-x="455" 
d="M435 217q-4 -4 -11 -4h-212q-6 0 -6 -6v-22q0 -14 6.5 -23t16.5 -9t15.5 7t7.5 18q5 14 17 13l153 -10q15 -2 14 -16q-5 -88 -55.5 -130.5t-151.5 -42.5q-100 0 -155.5 46.5t-55.5 131.5v180q0 81 56 129.5t155 48.5t154.5 -48.5t55.5 -129.5v-122q0 -7 -4 -11z
M212.5 358q-6.5 -9 -6.5 -23v-24q0 -6 6 -6h33q6 0 6 6v24q0 14 -6 23t-16 9t-16.5 -9zM163.5 -248q-25.5 26 -25.5 65q0 40 25 65.5t65 25.5t65.5 -25.5t25.5 -65.5q0 -39 -26 -65t-65 -26t-64.5 26z" />
    <glyph glyph-name="uni1EBA" unicode="&#x1eba;" horiz-adv-x="444" 
d="M422 543q-4 -4 -11 -4h-191q-6 0 -6 -6v-96q0 -6 6 -6h99q7 0 11 -4t4 -11v-131q0 -7 -4 -11t-11 -4h-99q-6 0 -6 -6v-97q0 -6 6 -6h191q7 0 11 -4t4 -11v-131q0 -7 -4 -11t-11 -4h-370q-7 0 -11 4t-4 11v670q0 7 4 11t11 4h370q7 0 11 -4t4 -11v-131q0 -7 -4 -11z
M200.5 747q-2.5 5 0.5 12q11 27 30 49q9 12 12.5 19t3.5 19q0 7 -5.5 11.5t-13.5 4.5q-10 0 -18 -5t-21 -20q-6 -6 -12 -6t-10 3l-43 32q-7 7 -7 12q0 3 4 9q23 33 49 47t63 14q51 0 80 -27t29 -75q0 -25 -9.5 -41t-28.5 -36q-18 -18 -25 -29q-6 -11 -19 -9l-49 9
q-8 2 -10.5 7z" />
    <glyph glyph-name="uni1EBB" unicode="&#x1ebb;" horiz-adv-x="455" 
d="M435 217q-4 -4 -11 -4h-212q-6 0 -6 -6v-22q0 -14 6.5 -23t16.5 -9t15.5 7t7.5 18q5 14 17 13l153 -10q15 -2 14 -16q-5 -88 -55.5 -130.5t-151.5 -42.5q-100 0 -155.5 46.5t-55.5 131.5v180q0 81 56 129.5t155 48.5t154.5 -48.5t55.5 -129.5v-122q0 -7 -4 -11z
M212.5 358q-6.5 -9 -6.5 -23v-24q0 -6 6 -6h33q6 0 6 6v24q0 14 -6 23t-16 9t-16.5 -9zM201.5 567q-2.5 5 0.5 12q11 27 30 49q9 12 12.5 19t3.5 19q0 7 -5.5 11.5t-13.5 4.5q-10 0 -18 -5t-21 -20q-6 -6 -12 -6t-10 3l-43 32q-7 7 -7 12q0 3 4 9q23 33 49 47t63 14
q51 0 80 -27t29 -75q0 -25 -9.5 -41t-28.5 -36q-18 -18 -25 -29q-6 -11 -19 -9l-49 9q-8 2 -10.5 7z" />
    <glyph glyph-name="uni1EBC" unicode="&#x1ebc;" horiz-adv-x="444" 
d="M422 543q-4 -4 -11 -4h-191q-6 0 -6 -6v-96q0 -6 6 -6h99q7 0 11 -4t4 -11v-131q0 -7 -4 -11t-11 -4h-99q-6 0 -6 -6v-97q0 -6 6 -6h191q7 0 11 -4t4 -11v-131q0 -7 -4 -11t-11 -4h-370q-7 0 -11 4t-4 11v670q0 7 4 11t11 4h370q7 0 11 -4t4 -11v-131q0 -7 -4 -11z
M242 766q-9 4 -20 10.5t-20 6.5q-17 0 -29 -18q-6 -8 -13 -8q-4 0 -8 3l-55 40q-10 7 -7 19q13 40 38.5 59.5t57.5 19.5q33 0 67 -22q3 -2 10 -7t14 -7.5t15 -2.5q19 0 31 15q6 8 12 8q4 0 8 -3l53 -37q6 -4 6 -13q0 -8 -5 -16q-18 -33 -44.5 -47.5t-55.5 -14.5
q-24 0 -55 15z" />
    <glyph glyph-name="uni1EBD" unicode="&#x1ebd;" horiz-adv-x="455" 
d="M435 217q-4 -4 -11 -4h-212q-6 0 -6 -6v-22q0 -14 6.5 -23t16.5 -9t15.5 7t7.5 18q5 14 17 13l153 -10q15 -2 14 -16q-5 -88 -55.5 -130.5t-151.5 -42.5q-100 0 -155.5 46.5t-55.5 131.5v180q0 81 56 129.5t155 48.5t154.5 -48.5t55.5 -129.5v-122q0 -7 -4 -11z
M212.5 358q-6.5 -9 -6.5 -23v-24q0 -6 6 -6h33q6 0 6 6v24q0 14 -6 23t-16 9t-16.5 -9zM243 586q-9 4 -20 10.5t-20 6.5q-17 0 -29 -18q-6 -8 -13 -8q-4 0 -8 3l-55 40q-10 7 -7 19q13 40 38.5 59.5t57.5 19.5q33 0 67 -22q3 -2 10 -7t14 -7.5t15 -2.5q19 0 31 15q6 8 12 8
q4 0 8 -3l53 -37q6 -4 6 -13q0 -8 -5 -16q-18 -33 -44.5 -47.5t-55.5 -14.5q-24 0 -55 15z" />
    <glyph glyph-name="uni1EBE" unicode="&#x1ebe;" horiz-adv-x="444" 
d="M422 543q-4 -4 -11 -4h-191q-6 0 -6 -6v-96q0 -6 6 -6h99q7 0 11 -4t4 -11v-131q0 -7 -4 -11t-11 -4h-99q-6 0 -6 -6v-97q0 -6 6 -6h191q7 0 11 -4t4 -11v-131q0 -7 -4 -11t-11 -4h-370q-7 0 -11 4t-4 11v670q0 7 4 11t11 4h370q7 0 11 -4t4 -11v-131q0 -7 -4 -11z
M57 760q0 5 3 9l60 101q6 10 18 10h171q12 0 18 -10l63 -101q3 -4 3 -9q0 -4 -3.5 -6.5t-9.5 -2.5h-114q-12 0 -17 11l-20 43q-2 3 -4.5 3t-3.5 -3l-20 -43q-5 -11 -17 -11h-114q-13 0 -13 9zM379 852q0 5 3 9l55 93q6 10 18 10h122q6 0 9.5 -2.5t3.5 -6.5q0 -5 -4 -9
l-77 -94q-7 -9 -18 -9h-99q-13 0 -13 9z" />
    <glyph glyph-name="uni1EBF" unicode="&#x1ebf;" horiz-adv-x="455" 
d="M435 217q-4 -4 -11 -4h-212q-6 0 -6 -6v-22q0 -14 6.5 -23t16.5 -9t15.5 7t7.5 18q5 14 17 13l153 -10q15 -2 14 -16q-5 -88 -55.5 -130.5t-151.5 -42.5q-100 0 -155.5 46.5t-55.5 131.5v180q0 81 56 129.5t155 48.5t154.5 -48.5t55.5 -129.5v-122q0 -7 -4 -11z
M212.5 358q-6.5 -9 -6.5 -23v-24q0 -6 6 -6h33q6 0 6 6v24q0 14 -6 23t-16 9t-16.5 -9zM58 580q0 5 3 9l60 101q6 10 18 10h171q12 0 18 -10l63 -101q3 -4 3 -9q0 -4 -3.5 -6.5t-9.5 -2.5h-114q-12 0 -17 11l-20 43q-2 3 -4.5 3t-3.5 -3l-20 -43q-5 -11 -17 -11h-114
q-13 0 -13 9zM380 672q0 5 3 9l55 93q6 10 18 10h122q6 0 9.5 -2.5t3.5 -6.5q0 -5 -4 -9l-77 -94q-7 -9 -18 -9h-99q-13 0 -13 9z" />
    <glyph glyph-name="uni1EC0" unicode="&#x1ec0;" horiz-adv-x="444" 
d="M422 543q-4 -4 -11 -4h-191q-6 0 -6 -6v-96q0 -6 6 -6h99q7 0 11 -4t4 -11v-131q0 -7 -4 -11t-11 -4h-99q-6 0 -6 -6v-97q0 -6 6 -6h191q7 0 11 -4t4 -11v-131q0 -7 -4 -11t-11 -4h-370q-7 0 -11 4t-4 11v670q0 7 4 11t11 4h370q7 0 11 -4t4 -11v-131q0 -7 -4 -11z
M57 760q0 5 3 9l60 101q6 10 18 10h171q12 0 18 -10l63 -101q3 -4 3 -9q0 -4 -3.5 -6.5t-9.5 -2.5h-114q-12 0 -17 11l-20 43q-2 3 -4.5 3t-3.5 -3l-20 -43q-5 -11 -17 -11h-114q-13 0 -13 9zM467 887q0 -9 -13 -9h-99q-11 0 -18 9l-77 94q-4 4 -4 9q0 4 3.5 6.5t9.5 2.5
h122q12 0 18 -10l55 -93q3 -4 3 -9z" />
    <glyph glyph-name="uni1EC1" unicode="&#x1ec1;" horiz-adv-x="455" 
d="M435 217q-4 -4 -11 -4h-212q-6 0 -6 -6v-22q0 -14 6.5 -23t16.5 -9t15.5 7t7.5 18q5 14 17 13l153 -10q15 -2 14 -16q-5 -88 -55.5 -130.5t-151.5 -42.5q-100 0 -155.5 46.5t-55.5 131.5v180q0 81 56 129.5t155 48.5t154.5 -48.5t55.5 -129.5v-122q0 -7 -4 -11z
M212.5 358q-6.5 -9 -6.5 -23v-24q0 -6 6 -6h33q6 0 6 6v24q0 14 -6 23t-16 9t-16.5 -9zM58 580q0 5 3 9l60 101q6 10 18 10h171q12 0 18 -10l63 -101q3 -4 3 -9q0 -4 -3.5 -6.5t-9.5 -2.5h-114q-12 0 -17 11l-20 43q-2 3 -4.5 3t-3.5 -3l-20 -43q-5 -11 -17 -11h-114
q-13 0 -13 9zM468 707q0 -9 -13 -9h-99q-11 0 -18 9l-77 94q-4 4 -4 9q0 4 3.5 6.5t9.5 2.5h122q12 0 18 -10l55 -93q3 -4 3 -9z" />
    <glyph glyph-name="uni1EC2" unicode="&#x1ec2;" horiz-adv-x="444" 
d="M422 543q-4 -4 -11 -4h-191q-6 0 -6 -6v-96q0 -6 6 -6h99q7 0 11 -4t4 -11v-131q0 -7 -4 -11t-11 -4h-99q-6 0 -6 -6v-97q0 -6 6 -6h191q7 0 11 -4t4 -11v-131q0 -7 -4 -11t-11 -4h-370q-7 0 -11 4t-4 11v670q0 7 4 11t11 4h370q7 0 11 -4t4 -11v-131q0 -7 -4 -11z
M373.5 867q-2.5 5 0.5 12q9 23 27 43q8 9 11.5 16t3.5 18q0 7 -5.5 11t-12.5 4q-8 0 -15 -4.5t-19 -17.5q-6 -7 -13 -7q-5 0 -9 4l-37 28q-7 7 -7 12q0 3 4 9q21 29 44 41.5t57 12.5q47 0 73 -24.5t26 -68.5q0 -22 -9 -37t-26 -32q-14 -14 -22 -26q-7 -10 -19 -9l-42 8
q-8 2 -10.5 7zM57 760q0 5 3 9l60 101q6 10 18 10h171q12 0 18 -10l63 -101q3 -4 3 -9q0 -4 -3.5 -6.5t-9.5 -2.5h-114q-12 0 -17 11l-20 43q-2 3 -4.5 3t-3.5 -3l-20 -43q-5 -11 -17 -11h-114q-13 0 -13 9z" />
    <glyph glyph-name="uni1EC3" unicode="&#x1ec3;" horiz-adv-x="455" 
d="M435 217q-4 -4 -11 -4h-212q-6 0 -6 -6v-22q0 -14 6.5 -23t16.5 -9t15.5 7t7.5 18q5 14 17 13l153 -10q15 -2 14 -16q-5 -88 -55.5 -130.5t-151.5 -42.5q-100 0 -155.5 46.5t-55.5 131.5v180q0 81 56 129.5t155 48.5t154.5 -48.5t55.5 -129.5v-122q0 -7 -4 -11z
M212.5 358q-6.5 -9 -6.5 -23v-24q0 -6 6 -6h33q6 0 6 6v24q0 14 -6 23t-16 9t-16.5 -9zM374.5 687q-2.5 5 0.5 12q9 23 27 43q8 9 11.5 16t3.5 18q0 7 -5.5 11t-12.5 4q-8 0 -15 -4.5t-19 -17.5q-6 -7 -13 -7q-5 0 -9 4l-37 28q-7 7 -7 12q0 3 4 9q21 29 44 41.5t57 12.5
q47 0 73 -24.5t26 -68.5q0 -22 -9 -37t-26 -32q-14 -14 -22 -26q-7 -10 -19 -9l-42 8q-8 2 -10.5 7zM58 580q0 5 3 9l60 101q6 10 18 10h171q12 0 18 -10l63 -101q3 -4 3 -9q0 -4 -3.5 -6.5t-9.5 -2.5h-114q-12 0 -17 11l-20 43q-2 3 -4.5 3t-3.5 -3l-20 -43q-5 -11 -17 -11
h-114q-13 0 -13 9z" />
    <glyph glyph-name="uni1EC4" unicode="&#x1ec4;" horiz-adv-x="444" 
d="M422 543q-4 -4 -11 -4h-191q-6 0 -6 -6v-96q0 -6 6 -6h99q7 0 11 -4t4 -11v-131q0 -7 -4 -11t-11 -4h-99q-6 0 -6 -6v-97q0 -6 6 -6h191q7 0 11 -4t4 -11v-131q0 -7 -4 -11t-11 -4h-370q-7 0 -11 4t-4 11v670q0 7 4 11t11 4h370q7 0 11 -4t4 -11v-131q0 -7 -4 -11z
M57 760q0 5 3 9l60 101q6 10 18 10h171q12 0 18 -10l63 -101q3 -4 3 -9q0 -4 -3.5 -6.5t-9.5 -2.5h-114q-12 0 -17 11l-20 43q-2 3 -4.5 3t-3.5 -3l-20 -43q-5 -11 -17 -11h-114q-13 0 -13 9zM217 934q-9 4 -20 10.5t-20 6.5q-17 0 -29 -18q-6 -8 -13 -8q-4 0 -8 3l-55 40
q-10 7 -7 19q13 40 38.5 59.5t57.5 19.5q33 0 67 -22q3 -2 10 -7t14 -7.5t15 -2.5q19 0 31 15q6 8 12 8q4 0 8 -3l53 -37q6 -4 6 -13q0 -8 -5 -16q-18 -33 -44.5 -47.5t-55.5 -14.5q-24 0 -55 15z" />
    <glyph glyph-name="uni1EC5" unicode="&#x1ec5;" horiz-adv-x="455" 
d="M435 217q-4 -4 -11 -4h-212q-6 0 -6 -6v-22q0 -14 6.5 -23t16.5 -9t15.5 7t7.5 18q5 14 17 13l153 -10q15 -2 14 -16q-5 -88 -55.5 -130.5t-151.5 -42.5q-100 0 -155.5 46.5t-55.5 131.5v180q0 81 56 129.5t155 48.5t154.5 -48.5t55.5 -129.5v-122q0 -7 -4 -11z
M212.5 358q-6.5 -9 -6.5 -23v-24q0 -6 6 -6h33q6 0 6 6v24q0 14 -6 23t-16 9t-16.5 -9zM58 580q0 5 3 9l60 101q6 10 18 10h171q12 0 18 -10l63 -101q3 -4 3 -9q0 -4 -3.5 -6.5t-9.5 -2.5h-114q-12 0 -17 11l-20 43q-2 3 -4.5 3t-3.5 -3l-20 -43q-5 -11 -17 -11h-114
q-13 0 -13 9zM218 754q-9 4 -20 10.5t-20 6.5q-17 0 -29 -18q-6 -8 -13 -8q-4 0 -8 3l-55 40q-10 7 -7 19q13 40 38.5 59.5t57.5 19.5q33 0 67 -22q3 -2 10 -7t14 -7.5t15 -2.5q19 0 31 15q6 8 12 8q4 0 8 -3l53 -37q6 -4 6 -13q0 -8 -5 -16q-18 -33 -44.5 -47.5
t-55.5 -14.5q-24 0 -55 15z" />
    <glyph glyph-name="uni1EC6" unicode="&#x1ec6;" horiz-adv-x="444" 
d="M422 543q-4 -4 -11 -4h-191q-6 0 -6 -6v-96q0 -6 6 -6h99q7 0 11 -4t4 -11v-131q0 -7 -4 -11t-11 -4h-99q-6 0 -6 -6v-97q0 -6 6 -6h191q7 0 11 -4t4 -11v-131q0 -7 -4 -11t-11 -4h-370q-7 0 -11 4t-4 11v670q0 7 4 11t11 4h370q7 0 11 -4t4 -11v-131q0 -7 -4 -11z
M153.5 -248q-25.5 26 -25.5 65q0 40 25 65.5t65 25.5t65.5 -25.5t25.5 -65.5q0 -39 -26 -65t-65 -26t-64.5 26zM57 760q0 5 3 9l60 101q6 10 18 10h171q12 0 18 -10l63 -101q3 -4 3 -9q0 -4 -3.5 -6.5t-9.5 -2.5h-114q-12 0 -17 11l-20 43q-2 3 -4.5 3t-3.5 -3l-20 -43
q-5 -11 -17 -11h-114q-13 0 -13 9z" />
    <glyph glyph-name="uni1EC7" unicode="&#x1ec7;" horiz-adv-x="455" 
d="M435 217q-4 -4 -11 -4h-212q-6 0 -6 -6v-22q0 -14 6.5 -23t16.5 -9t15.5 7t7.5 18q5 14 17 13l153 -10q15 -2 14 -16q-5 -88 -55.5 -130.5t-151.5 -42.5q-100 0 -155.5 46.5t-55.5 131.5v180q0 81 56 129.5t155 48.5t154.5 -48.5t55.5 -129.5v-122q0 -7 -4 -11z
M212.5 358q-6.5 -9 -6.5 -23v-24q0 -6 6 -6h33q6 0 6 6v24q0 14 -6 23t-16 9t-16.5 -9zM163.5 -248q-25.5 26 -25.5 65q0 40 25 65.5t65 25.5t65.5 -25.5t25.5 -65.5q0 -39 -26 -65t-65 -26t-64.5 26zM58 580q0 5 3 9l60 101q6 10 18 10h171q12 0 18 -10l63 -101q3 -4 3 -9
q0 -4 -3.5 -6.5t-9.5 -2.5h-114q-12 0 -17 11l-20 43q-2 3 -4.5 3t-3.5 -3l-20 -43q-5 -11 -17 -11h-114q-13 0 -13 9z" />
    <glyph glyph-name="uni1EC8" unicode="&#x1ec8;" horiz-adv-x="240" 
d="M30 4q-4 4 -4 11v670q0 7 4 11t11 4h158q7 0 11 -4t4 -11v-670q0 -7 -4 -11t-11 -4h-158q-7 0 -11 4zM93.5 747q-2.5 5 0.5 12q11 27 30 49q9 12 12.5 19t3.5 19q0 7 -5.5 11.5t-13.5 4.5q-10 0 -18 -5t-21 -20q-6 -6 -12 -6t-10 3l-43 32q-7 7 -7 12q0 3 4 9
q23 33 49 47t63 14q51 0 80 -27t29 -75q0 -25 -9.5 -41t-28.5 -36q-18 -18 -25 -29q-6 -11 -19 -9l-49 9q-8 2 -10.5 7z" />
    <glyph glyph-name="uni1EC9" unicode="&#x1ec9;" horiz-adv-x="204" 
d="M12 4q-4 4 -4 11v490q0 7 4 11t11 4h158q7 0 11 -4t4 -11v-490q0 -7 -4 -11t-11 -4h-158q-7 0 -11 4zM75.5 567q-2.5 5 0.5 12q11 27 30 49q9 12 12.5 19t3.5 19q0 7 -5.5 11.5t-13.5 4.5q-10 0 -18 -5t-21 -20q-6 -6 -12 -6t-10 3l-43 32q-7 7 -7 12q0 3 4 9
q23 33 49 47t63 14q51 0 80 -27t29 -75q0 -25 -9.5 -41t-28.5 -36q-18 -18 -25 -29q-6 -11 -19 -9l-49 9q-8 2 -10.5 7z" />
    <glyph glyph-name="uni1ECA" unicode="&#x1eca;" horiz-adv-x="240" 
d="M30 4q-4 4 -4 11v670q0 7 4 11t11 4h158q7 0 11 -4t4 -11v-670q0 -7 -4 -11t-11 -4h-158q-7 0 -11 4zM55.5 -248q-25.5 26 -25.5 65q0 40 25 65.5t65 25.5t65.5 -25.5t25.5 -65.5q0 -39 -26 -65t-65 -26t-64.5 26z" />
    <glyph glyph-name="uni1ECB" unicode="&#x1ecb;" horiz-adv-x="226" 
d="M44.5 581.5q-26.5 26.5 -26.5 67.5q0 42 26.5 68t67.5 26t67.5 -26t26.5 -68q0 -40 -26.5 -67t-67.5 -27t-67.5 26.5zM24 4q-4 4 -4 11v490q0 7 4 11t11 4h158q7 0 11 -4t4 -11v-490q0 -7 -4 -11t-11 -4h-158q-7 0 -11 4zM48.5 -248q-25.5 26 -25.5 65q0 40 25 65.5
t65 25.5t65.5 -25.5t25.5 -65.5q0 -39 -26 -65t-65 -26t-64.5 26z" />
    <glyph glyph-name="uni1ECC" unicode="&#x1ecc;" horiz-adv-x="484" 
d="M80.5 50q-60.5 58 -60.5 156v288q0 98 60.5 156t161.5 58t161.5 -58t60.5 -156v-288q0 -98 -60.5 -156t-161.5 -58t-161.5 58zM267 165q9 12 9 33v304q0 21 -9 33t-25 12t-25 -12t-9 -33v-304q0 -21 9 -33t25 -12t25 12zM177.5 -248q-25.5 26 -25.5 65q0 40 25 65.5
t65 25.5t65.5 -25.5t25.5 -65.5q0 -39 -26 -65t-65 -26t-64.5 26z" />
    <glyph glyph-name="uni1ECD" unicode="&#x1ecd;" horiz-adv-x="461" 
d="M73.5 38.5q-55.5 46.5 -55.5 131.5v180q0 81 56.5 129.5t156.5 48.5t156 -48.5t56 -129.5v-180q0 -85 -55 -131.5t-157 -46.5t-157.5 46.5zM248.5 162q6.5 9 6.5 23v150q0 14 -6.5 23t-17.5 9t-18 -9t-7 -23v-150q0 -14 7 -23t18 -9t17.5 9zM166.5 -248
q-25.5 26 -25.5 65q0 40 25 65.5t65 25.5t65.5 -25.5t25.5 -65.5q0 -39 -26 -65t-65 -26t-64.5 26z" />
    <glyph glyph-name="uni1ECE" unicode="&#x1ece;" horiz-adv-x="484" 
d="M80.5 50q-60.5 58 -60.5 156v288q0 98 60.5 156t161.5 58t161.5 -58t60.5 -156v-288q0 -98 -60.5 -156t-161.5 -58t-161.5 58zM267 165q9 12 9 33v304q0 21 -9 33t-25 12t-25 -12t-9 -33v-304q0 -21 9 -33t25 -12t25 12zM215.5 747q-2.5 5 0.5 12q11 27 30 49
q9 12 12.5 19t3.5 19q0 7 -5.5 11.5t-13.5 4.5q-10 0 -18 -5t-21 -20q-6 -6 -12 -6t-10 3l-43 32q-7 7 -7 12q0 3 4 9q23 33 49 47t63 14q51 0 80 -27t29 -75q0 -25 -9.5 -41t-28.5 -36q-18 -18 -25 -29q-6 -11 -19 -9l-49 9q-8 2 -10.5 7z" />
    <glyph glyph-name="uni1ECF" unicode="&#x1ecf;" horiz-adv-x="461" 
d="M73.5 38.5q-55.5 46.5 -55.5 131.5v180q0 81 56.5 129.5t156.5 48.5t156 -48.5t56 -129.5v-180q0 -85 -55 -131.5t-157 -46.5t-157.5 46.5zM248.5 162q6.5 9 6.5 23v150q0 14 -6.5 23t-17.5 9t-18 -9t-7 -23v-150q0 -14 7 -23t18 -9t17.5 9zM204.5 567q-2.5 5 0.5 12
q11 27 30 49q9 12 12.5 19t3.5 19q0 7 -5.5 11.5t-13.5 4.5q-10 0 -18 -5t-21 -20q-6 -6 -12 -6t-10 3l-43 32q-7 7 -7 12q0 3 4 9q23 33 49 47t63 14q51 0 80 -27t29 -75q0 -25 -9.5 -41t-28.5 -36q-18 -18 -25 -29q-6 -11 -19 -9l-49 9q-8 2 -10.5 7z" />
    <glyph glyph-name="uni1ED0" unicode="&#x1ed0;" horiz-adv-x="484" 
d="M80.5 50q-60.5 58 -60.5 156v288q0 98 60.5 156t161.5 58t161.5 -58t60.5 -156v-288q0 -98 -60.5 -156t-161.5 -58t-161.5 58zM267 165q9 12 9 33v304q0 21 -9 33t-25 12t-25 -12t-9 -33v-304q0 -21 9 -33t25 -12t25 12zM72 760q0 5 3 9l60 101q6 10 18 10h171
q12 0 18 -10l63 -101q3 -4 3 -9q0 -4 -3.5 -6.5t-9.5 -2.5h-114q-12 0 -17 11l-20 43q-2 3 -4.5 3t-3.5 -3l-20 -43q-5 -11 -17 -11h-114q-13 0 -13 9zM394 852q0 5 3 9l55 93q6 10 18 10h122q6 0 9.5 -2.5t3.5 -6.5q0 -5 -4 -9l-77 -94q-7 -9 -18 -9h-99q-13 0 -13 9z" />
    <glyph glyph-name="uni1ED1" unicode="&#x1ed1;" horiz-adv-x="461" 
d="M73.5 38.5q-55.5 46.5 -55.5 131.5v180q0 81 56.5 129.5t156.5 48.5t156 -48.5t56 -129.5v-180q0 -85 -55 -131.5t-157 -46.5t-157.5 46.5zM248.5 162q6.5 9 6.5 23v150q0 14 -6.5 23t-17.5 9t-18 -9t-7 -23v-150q0 -14 7 -23t18 -9t17.5 9zM61 580q0 5 3 9l60 101
q6 10 18 10h171q12 0 18 -10l63 -101q3 -4 3 -9q0 -4 -3.5 -6.5t-9.5 -2.5h-114q-12 0 -17 11l-20 43q-2 3 -4.5 3t-3.5 -3l-20 -43q-5 -11 -17 -11h-114q-13 0 -13 9zM383 672q0 5 3 9l55 93q6 10 18 10h122q6 0 9.5 -2.5t3.5 -6.5q0 -5 -4 -9l-77 -94q-7 -9 -18 -9h-99
q-13 0 -13 9z" />
    <glyph glyph-name="uni1ED2" unicode="&#x1ed2;" horiz-adv-x="484" 
d="M80.5 50q-60.5 58 -60.5 156v288q0 98 60.5 156t161.5 58t161.5 -58t60.5 -156v-288q0 -98 -60.5 -156t-161.5 -58t-161.5 58zM267 165q9 12 9 33v304q0 21 -9 33t-25 12t-25 -12t-9 -33v-304q0 -21 9 -33t25 -12t25 12zM72 760q0 5 3 9l60 101q6 10 18 10h171
q12 0 18 -10l63 -101q3 -4 3 -9q0 -4 -3.5 -6.5t-9.5 -2.5h-114q-12 0 -17 11l-20 43q-2 3 -4.5 3t-3.5 -3l-20 -43q-5 -11 -17 -11h-114q-13 0 -13 9zM482 887q0 -9 -13 -9h-99q-11 0 -18 9l-77 94q-4 4 -4 9q0 4 3.5 6.5t9.5 2.5h122q12 0 18 -10l55 -93q3 -4 3 -9z" />
    <glyph glyph-name="uni1ED3" unicode="&#x1ed3;" horiz-adv-x="461" 
d="M73.5 38.5q-55.5 46.5 -55.5 131.5v180q0 81 56.5 129.5t156.5 48.5t156 -48.5t56 -129.5v-180q0 -85 -55 -131.5t-157 -46.5t-157.5 46.5zM248.5 162q6.5 9 6.5 23v150q0 14 -6.5 23t-17.5 9t-18 -9t-7 -23v-150q0 -14 7 -23t18 -9t17.5 9zM61 580q0 5 3 9l60 101
q6 10 18 10h171q12 0 18 -10l63 -101q3 -4 3 -9q0 -4 -3.5 -6.5t-9.5 -2.5h-114q-12 0 -17 11l-20 43q-2 3 -4.5 3t-3.5 -3l-20 -43q-5 -11 -17 -11h-114q-13 0 -13 9zM471 707q0 -9 -13 -9h-99q-11 0 -18 9l-77 94q-4 4 -4 9q0 4 3.5 6.5t9.5 2.5h122q12 0 18 -10l55 -93
q3 -4 3 -9z" />
    <glyph glyph-name="uni1ED4" unicode="&#x1ed4;" horiz-adv-x="484" 
d="M80.5 50q-60.5 58 -60.5 156v288q0 98 60.5 156t161.5 58t161.5 -58t60.5 -156v-288q0 -98 -60.5 -156t-161.5 -58t-161.5 58zM267 165q9 12 9 33v304q0 21 -9 33t-25 12t-25 -12t-9 -33v-304q0 -21 9 -33t25 -12t25 12zM388.5 867q-2.5 5 0.5 12q9 23 27 43q8 9 11.5 16
t3.5 18q0 7 -5.5 11t-12.5 4q-8 0 -15 -4.5t-19 -17.5q-6 -7 -13 -7q-5 0 -9 4l-37 28q-7 7 -7 12q0 3 4 9q21 29 44 41.5t57 12.5q47 0 73 -24.5t26 -68.5q0 -22 -9 -37t-26 -32q-14 -14 -22 -26q-7 -10 -19 -9l-42 8q-8 2 -10.5 7zM72 760q0 5 3 9l60 101q6 10 18 10h171
q12 0 18 -10l63 -101q3 -4 3 -9q0 -4 -3.5 -6.5t-9.5 -2.5h-114q-12 0 -17 11l-20 43q-2 3 -4.5 3t-3.5 -3l-20 -43q-5 -11 -17 -11h-114q-13 0 -13 9z" />
    <glyph glyph-name="uni1ED5" unicode="&#x1ed5;" horiz-adv-x="461" 
d="M73.5 38.5q-55.5 46.5 -55.5 131.5v180q0 81 56.5 129.5t156.5 48.5t156 -48.5t56 -129.5v-180q0 -85 -55 -131.5t-157 -46.5t-157.5 46.5zM248.5 162q6.5 9 6.5 23v150q0 14 -6.5 23t-17.5 9t-18 -9t-7 -23v-150q0 -14 7 -23t18 -9t17.5 9zM377.5 687q-2.5 5 0.5 12
q9 23 27 43q8 9 11.5 16t3.5 18q0 7 -5.5 11t-12.5 4q-8 0 -15 -4.5t-19 -17.5q-6 -7 -13 -7q-5 0 -9 4l-37 28q-7 7 -7 12q0 3 4 9q21 29 44 41.5t57 12.5q47 0 73 -24.5t26 -68.5q0 -22 -9 -37t-26 -32q-14 -14 -22 -26q-7 -10 -19 -9l-42 8q-8 2 -10.5 7zM61 580q0 5 3 9
l60 101q6 10 18 10h171q12 0 18 -10l63 -101q3 -4 3 -9q0 -4 -3.5 -6.5t-9.5 -2.5h-114q-12 0 -17 11l-20 43q-2 3 -4.5 3t-3.5 -3l-20 -43q-5 -11 -17 -11h-114q-13 0 -13 9z" />
    <glyph glyph-name="uni1ED6" unicode="&#x1ed6;" horiz-adv-x="484" 
d="M80.5 50q-60.5 58 -60.5 156v288q0 98 60.5 156t161.5 58t161.5 -58t60.5 -156v-288q0 -98 -60.5 -156t-161.5 -58t-161.5 58zM267 165q9 12 9 33v304q0 21 -9 33t-25 12t-25 -12t-9 -33v-304q0 -21 9 -33t25 -12t25 12zM72 760q0 5 3 9l60 101q6 10 18 10h171
q12 0 18 -10l63 -101q3 -4 3 -9q0 -4 -3.5 -6.5t-9.5 -2.5h-114q-12 0 -17 11l-20 43q-2 3 -4.5 3t-3.5 -3l-20 -43q-5 -11 -17 -11h-114q-13 0 -13 9zM232 934q-9 4 -20 10.5t-20 6.5q-17 0 -29 -18q-6 -8 -13 -8q-4 0 -8 3l-55 40q-10 7 -7 19q13 40 38.5 59.5t57.5 19.5
q33 0 67 -22q3 -2 10 -7t14 -7.5t15 -2.5q19 0 31 15q6 8 12 8q4 0 8 -3l53 -37q6 -4 6 -13q0 -8 -5 -16q-18 -33 -44.5 -47.5t-55.5 -14.5q-24 0 -55 15z" />
    <glyph glyph-name="uni1ED7" unicode="&#x1ed7;" horiz-adv-x="461" 
d="M73.5 38.5q-55.5 46.5 -55.5 131.5v180q0 81 56.5 129.5t156.5 48.5t156 -48.5t56 -129.5v-180q0 -85 -55 -131.5t-157 -46.5t-157.5 46.5zM248.5 162q6.5 9 6.5 23v150q0 14 -6.5 23t-17.5 9t-18 -9t-7 -23v-150q0 -14 7 -23t18 -9t17.5 9zM61 580q0 5 3 9l60 101
q6 10 18 10h171q12 0 18 -10l63 -101q3 -4 3 -9q0 -4 -3.5 -6.5t-9.5 -2.5h-114q-12 0 -17 11l-20 43q-2 3 -4.5 3t-3.5 -3l-20 -43q-5 -11 -17 -11h-114q-13 0 -13 9zM221 754q-9 4 -20 10.5t-20 6.5q-17 0 -29 -18q-6 -8 -13 -8q-4 0 -8 3l-55 40q-10 7 -7 19
q13 40 38.5 59.5t57.5 19.5q33 0 67 -22q3 -2 10 -7t14 -7.5t15 -2.5q19 0 31 15q6 8 12 8q4 0 8 -3l53 -37q6 -4 6 -13q0 -8 -5 -16q-18 -33 -44.5 -47.5t-55.5 -14.5q-24 0 -55 15z" />
    <glyph glyph-name="uni1ED8" unicode="&#x1ed8;" horiz-adv-x="484" 
d="M80.5 50q-60.5 58 -60.5 156v288q0 98 60.5 156t161.5 58t161.5 -58t60.5 -156v-288q0 -98 -60.5 -156t-161.5 -58t-161.5 58zM267 165q9 12 9 33v304q0 21 -9 33t-25 12t-25 -12t-9 -33v-304q0 -21 9 -33t25 -12t25 12zM177.5 -248q-25.5 26 -25.5 65q0 40 25 65.5
t65 25.5t65.5 -25.5t25.5 -65.5q0 -39 -26 -65t-65 -26t-64.5 26zM72 760q0 5 3 9l60 101q6 10 18 10h171q12 0 18 -10l63 -101q3 -4 3 -9q0 -4 -3.5 -6.5t-9.5 -2.5h-114q-12 0 -17 11l-20 43q-2 3 -4.5 3t-3.5 -3l-20 -43q-5 -11 -17 -11h-114q-13 0 -13 9z" />
    <glyph glyph-name="uni1ED9" unicode="&#x1ed9;" horiz-adv-x="461" 
d="M73.5 38.5q-55.5 46.5 -55.5 131.5v180q0 81 56.5 129.5t156.5 48.5t156 -48.5t56 -129.5v-180q0 -85 -55 -131.5t-157 -46.5t-157.5 46.5zM248.5 162q6.5 9 6.5 23v150q0 14 -6.5 23t-17.5 9t-18 -9t-7 -23v-150q0 -14 7 -23t18 -9t17.5 9zM166.5 -248
q-25.5 26 -25.5 65q0 40 25 65.5t65 25.5t65.5 -25.5t25.5 -65.5q0 -39 -26 -65t-65 -26t-64.5 26zM61 580q0 5 3 9l60 101q6 10 18 10h171q12 0 18 -10l63 -101q3 -4 3 -9q0 -4 -3.5 -6.5t-9.5 -2.5h-114q-12 0 -17 11l-20 43q-2 3 -4.5 3t-3.5 -3l-20 -43q-5 -11 -17 -11
h-114q-13 0 -13 9z" />
    <glyph glyph-name="uni1EDA" unicode="&#x1eda;" horiz-adv-x="484" 
d="M408 646q56 -58 56 -152v-288q0 -98 -60.5 -156t-161.5 -58t-161.5 58t-60.5 156v288q0 98 60.5 156t161.5 58q29 0 64 -7q3 -1 8 -1q43 5 49 72q0 16 15 16h65q7 0 11 -6t3 -18q-6 -73 -49 -110q-5 -5 0 -8zM276 502q0 21 -9 33t-25 12t-25 -12t-9 -33v-304q0 -21 9 -33
t25 -12t25 12t9 33v304zM164 768q0 5 3 9l55 93q6 10 18 10h122q6 0 9.5 -2.5t3.5 -6.5q0 -5 -4 -9l-77 -94q-7 -9 -18 -9h-99q-13 0 -13 9z" />
    <glyph glyph-name="uni1EDB" unicode="&#x1edb;" horiz-adv-x="461" 
d="M450 592q-4 -79 -49 -117q-4 -4 -1 -8q43 -48 43 -117v-180q0 -85 -55 -131.5t-157 -46.5t-157.5 46.5t-55.5 131.5v180q0 81 56.5 129.5t156.5 48.5q33 0 68 -7q3 -1 8 -1q18 2 31.5 18t16.5 54q0 16 15 16h65q15 0 15 -16zM248.5 358q-6.5 9 -17.5 9t-18 -9t-7 -23
v-150q0 -14 7 -23t18 -9t17.5 9t6.5 23v150q0 14 -6.5 23zM153 588q0 5 3 9l55 93q6 10 18 10h122q6 0 9.5 -2.5t3.5 -6.5q0 -5 -4 -9l-77 -94q-7 -9 -18 -9h-99q-13 0 -13 9z" />
    <glyph glyph-name="uni1EDC" unicode="&#x1edc;" horiz-adv-x="484" 
d="M408 646q56 -58 56 -152v-288q0 -98 -60.5 -156t-161.5 -58t-161.5 58t-60.5 156v288q0 98 60.5 156t161.5 58q29 0 64 -7q3 -1 8 -1q43 5 49 72q0 16 15 16h65q7 0 11 -6t3 -18q-6 -73 -49 -110q-5 -5 0 -8zM276 502q0 21 -9 33t-25 12t-25 -12t-9 -33v-304q0 -21 9 -33
t25 -12t25 12t9 33v304zM301 768q0 -9 -13 -9h-99q-11 0 -18 9l-77 94q-4 4 -4 9q0 4 3.5 6.5t9.5 2.5h122q12 0 18 -10l55 -93q3 -4 3 -9z" />
    <glyph glyph-name="uni1EDD" unicode="&#x1edd;" horiz-adv-x="461" 
d="M450 592q-4 -79 -49 -117q-4 -4 -1 -8q43 -48 43 -117v-180q0 -85 -55 -131.5t-157 -46.5t-157.5 46.5t-55.5 131.5v180q0 81 56.5 129.5t156.5 48.5q33 0 68 -7q3 -1 8 -1q18 2 31.5 18t16.5 54q0 16 15 16h65q15 0 15 -16zM248.5 358q-6.5 9 -17.5 9t-18 -9t-7 -23
v-150q0 -14 7 -23t18 -9t17.5 9t6.5 23v150q0 14 -6.5 23zM290 588q0 -9 -13 -9h-99q-11 0 -18 9l-77 94q-4 4 -4 9q0 4 3.5 6.5t9.5 2.5h122q12 0 18 -10l55 -93q3 -4 3 -9z" />
    <glyph glyph-name="uni1EDE" unicode="&#x1ede;" horiz-adv-x="484" 
d="M408 646q56 -58 56 -152v-288q0 -98 -60.5 -156t-161.5 -58t-161.5 58t-60.5 156v288q0 98 60.5 156t161.5 58q29 0 64 -7q3 -1 8 -1q43 5 49 72q0 16 15 16h65q7 0 11 -6t3 -18q-6 -73 -49 -110q-5 -5 0 -8zM276 502q0 21 -9 33t-25 12t-25 -12t-9 -33v-304q0 -21 9 -33
t25 -12t25 12t9 33v304zM215.5 747q-2.5 5 0.5 12q11 27 30 49q9 12 12.5 19t3.5 19q0 7 -5.5 11.5t-13.5 4.5q-10 0 -18 -5t-21 -20q-6 -6 -12 -6t-10 3l-43 32q-7 7 -7 12q0 3 4 9q23 33 49 47t63 14q51 0 80 -27t29 -75q0 -25 -9.5 -41t-28.5 -36q-18 -18 -25 -29
q-6 -11 -19 -9l-49 9q-8 2 -10.5 7z" />
    </font>
</defs>
</svg>
